0
SECTION
2
HEADER
9
$ACADVER
1
AC1015
9
$ACADMAINTVER
70
20
9
$DWGCODEPAGE
3
ANSI_1252
9
$INSBASE
10
0.0
20
0.0
30
0.0
9
$EXTMIN
10
-150.000000000000
20
-105.000000000000
30
0.0
9
$EXTMAX
10
150.000000000000
20
105.000000000000
30
0.0
9
$LIMMIN
10
0.0
20
0.0
9
$LIMMAX
10
12.0
20
9.0
9
$ORTHOMODE
70
0
9
$REGENMODE
70
1
9
$FILLMODE
70
1
9
$QTEXTMODE
70
0
9
$MIRRTEXT
70
1
9
$LTSCALE
40
1.0
9
$ATTMODE
70
1
9
$TEXTSIZE
40
0.2
9
$TRACEWID
40
0.05
9
$TEXTSTYLE
7
Standard
9
$CLAYER
8
0
9
$CELTYPE
6
ByLayer
9
$CECOLOR
62
256
9
$CELTSCALE
40
1.0
9
$DISPSILH
70
0
9
$DIMSCALE
40
1.0
9
$DIMASZ
40
2.5
9
$DIMEXO
40
0.625
9
$DIMDLI
40
0.38
9
$DIMRND
40
0.0
9
$DIMDLE
40
0.0
9
$DIMEXE
40
1.25
9
$DIMTP
40
0.0
9
$DIMTM
40
0.000000001
9
$DIMTXT
40
2.5
9
$DIMCEN
40
0.09
9
$DIMTSZ
40
0.0
9
$DIMTOL
70
1
9
$DIMLIM
70
0
9
$DIMTIH
70
0
9
$DIMTOH
70
0
9
$DIMSE1
70
0
9
$DIMSE2
70
0
9
$DIMTAD
70
1
9
$DIMZIN
70
0
9
$DIMBLK
1
VDDIM_DEFAULT
9
$DIMASO
70
1
9
$DIMSHO
70
1
9
$DIMPOST
1

9
$DIMAPOST
1

9
$DIMALT
70
0
9
$DIMALTD
70
2
9
$DIMALTF
40
25.4
9
$DIMLFAC
40
1.00000000000000
9
$DIMTOFL
70
0
9
$DIMTVP
40
0.0
9
$DIMTIX
70
0
9
$DIMSOXD
70
0
9
$DIMSAH
70
0
9
$DIMBLK1
1

9
$DIMBLK2
1

9
$DIMSTYLE
2
BEM-ISBE
9
$DIMCLRD
70
0
9
$DIMCLRE
70
0
9
$DIMCLRT
70
0
9
$DIMTFAC
40
0.5
9
$DIMGAP
40
0.625
9
$DIMJUST
70
0
9
$DIMSD1
70
0
9
$DIMSD2
70
0
9
$DIMTOLJ
70
1
9
$DIMTZIN
70
0
9
$DIMALTZ
70
0
9
$DIMALTTZ
70
0
9
$DIMUPT
70
0
9
$DIMDEC
70
3
9
$DIMTDEC
70
3
9
$DIMALTU
70
2
9
$DIMALTTD
70
2
9
$DIMTXSTY
7
Standard
9
$DIMAUNIT
70
0
9
$DIMADEC
70
3
9
$DIMALTRND
40
0.0
9
$DIMAZIN
70
0
9
$DIMDSEP
70
46
9
$DIMATFIT
70
3
9
$DIMFRAC
70
0
9
$DIMLDRBLK
1

9
$DIMLUNIT
70
2
9
$DIMLWD
70
-2
9
$DIMLWE
70
-2
9
$DIMTMOVE
70
0
9
$LUNITS
70
2
9
$LUPREC
70
4
9
$SKETCHINC
40
0.1
9
$FILLETRAD
40
0.5
9
$AUNITS
70
0
9
$AUPREC
70
0
9
$MENU
1
.
9
$ELEVATION
40
0.0
9
$PELEVATION
40
0.0
9
$THICKNESS
40
0.0
9
$LIMCHECK
70
0
9
$CHAMFERA
40
0.5
9
$CHAMFERB
40
0.5
9
$CHAMFERC
40
1.0
9
$CHAMFERD
40
0.0
9
$SKPOLY
70
0
9
$TDCREATE
40
0.0
9
$TDUCREATE
40
0.0
9
$TDUPDATE
40
0.0
9
$TDUUPDATE
40
0.0
9
$TDINDWG
40
0.0
9
$TDUSRTIMER
40
0.0
9
$USRTIMER
70
1
9
$ANGBASE
50
0.0
9
$ANGDIR
70
0
9
$PDMODE
70
0
9
$PDSIZE
40
0.0
9
$PLINEWID
40
0.0
9
$SPLFRAME
70
0
9
$SPLINETYPE
70
6
9
$SPLINESEGS
70
8
9
$HANDSEED
5
10AB
9
$SURFTAB1
70
6
9
$SURFTAB2
70
6
9
$SURFTYPE
70
6
9
$SURFU
70
6
9
$SURFV
70
6
9
$UCSBASE
2

9
$UCSNAME
2

9
$UCSORG
10
0.0
20
0.0
30
0.0
9
$UCSXDIR
10
1.0
20
0.0
30
0.0
9
$UCSYDIR
10
0.0
20
1.0
30
0.0
9
$UCSORTHOREF
2

9
$UCSORTHOVIEW
70
0
9
$UCSORGTOP
10
0.0
20
0.0
30
0.0
9
$UCSORGBOTTOM
10
0.0
20
0.0
30
0.0
9
$UCSORGLEFT
10
0.0
20
0.0
30
0.0
9
$UCSORGRIGHT
10
0.0
20
0.0
30
0.0
9
$UCSORGFRONT
10
0.0
20
0.0
30
0.0
9
$UCSORGBACK
10
0.0
20
0.0
30
0.0
9
$PUCSBASE
2

9
$PUCSNAME
2

9
$PUCSORG
10
0.0
20
0.0
30
0.0
9
$PUCSXDIR
10
1.0
20
0.0
30
0.0
9
$PUCSYDIR
10
0.0
20
1.0
30
0.0
9
$PUCSORTHOREF
2

9
$PUCSORTHOVIEW
70
0
9
$PUCSORGTOP
10
0.0
20
0.0
30
0.0
9
$PUCSORGBOTTOM
10
0.0
20
0.0
30
0.0
9
$PUCSORGLEFT
10
0.0
20
0.0
30
0.0
9
$PUCSORGRIGHT
10
0.0
20
0.0
30
0.0
9
$PUCSORGFRONT
10
0.0
20
0.0
30
0.0
9
$PUCSORGBACK
10
0.0
20
0.0
30
0.0
9
$USERI1
70
0
9
$USERI2
70
0
9
$USERI3
70
0
9
$USERI4
70
0
9
$USERI5
70
0
9
$USERR1
40
0.0
9
$USERR2
40
0.0
9
$USERR3
40
0.0
9
$USERR4
40
0.0
9
$USERR5
40
0.0
9
$WORLDVIEW
70
1
9
$SHADEDGE
70
3
9
$SHADEDIF
70
70
9
$TILEMODE
70
1
9
$MAXACTVP
70
64
9
$PINSBASE
10
0.0
20
0.0
30
0.0
9
$PLIMCHECK
70
0
9
$PEXTMIN
10
1.000000000000000E+20
20
1.000000000000000E+20
30
1.000000000000000E+20
9
$PEXTMAX
10
-1.000000000000000E+20
20
-1.000000000000000E+20
30
-1.000000000000000E+20
9
$PLIMMIN
10
0.0
20
0.0
9
$PLIMMAX
10
12.0
20
9.0
9
$UNITMODE
70
0
9
$VISRETAIN
70
1
9
$PLINEGEN
70
0
9
$PSLTSCALE
70
1
9
$TREEDEPTH
70
3020
9
$CMLSTYLE
2
Standard
9
$CMLJUST
70
0
9
$CMLSCALE
40
1.0
9
$PROXYGRAPHICS
70
1
9
$MEASUREMENT
70
0
9
$CELWEIGHT
370
-1
9
$ENDCAPS
280
0
9
$JOINSTYLE
280
0
9
$LWDISPLAY
290
0
9
$INSUNITS
70
4
9
$HYPERLINKBASE
1

9
$STYLESHEET
1

9
$XEDIT
290
1
9
$CEPSNTYPE
380
0
9
$PSTYLEMODE
290
0
9
$FINGERPRINTGUID
2
{FAEB1C30-E019-11D5-929B-00C0DF256EC4}
9
$VERSIONGUID
2
{04C5C4E4-4947-4D90-8812-D401569E61F7}
9
$EXTNAMES
290
1
9
$PSVPSCALE
40
0.0
9
$OLESTARTUP
290
0
0
ENDSEC
0
SECTION
2
CLASSES
0
CLASS
1
ACDBDICTIONARYWDFLT
2
AcDbDictionaryWithDefault
3
ObjectDBX Classes
90
0
280
0
281
0
0
CLASS
1
ACDBPLACEHOLDER
2
AcDbPlaceHolder
3
ObjectDBX Classes
90
0
280
0
281
0
0
CLASS
1
LAYOUT
2
AcDbLayout
3
ObjectDBX Classes
90
0
280
0
281
0
0
CLASS
1
MATERIAL
2
AcDbMaterial
3
ObjectDBX Classes
90
1153
280
0
281
0
0
CLASS
1
VISUALSTYLE
2
AcDbVisualStyle
3
ObjectDBX Classes
90
4095
280
0
281
0
0
CLASS
1
TABLESTYLE
2
AcDbTableStyle
3
ObjectDBX Classes
90
4095
280
0
281
0
0
CLASS
1
SCALE
2
AcDbScale
3
ObjectDBX Classes
90
1153
280
0
281
0
0
CLASS
1
MLEADERSTYLE
2
AcDbMLeaderStyle
3
ACDB_MLEADERSTYLE_CLASS
90
4095
280
0
281
0
0
CLASS
1
DICTIONARYVAR
2
AcDbDictionaryVar
3
ObjectDBX Classes
90
0
280
0
281
0
0
CLASS
1
CELLSTYLEMAP
2
AcDbCellStyleMap
3
ObjectDBX Classes
90
1152
280
0
281
0
0
ENDSEC
0
SECTION
2
TABLES
0
TABLE
2
VPORT
5
24A
330
0
100
AcDbSymbolTable
70
1
0
VPORT
5
26B
330
24A
100
AcDbSymbolTableRecord
100
AcDbViewportTableRecord
2
*Active
70
0
10
0.0
20
0.0
11
1.0
21
1.0
12
0.000000000000000
22
0.000000000000000
13
0.0
23
0.0
14
10.0
24
10.0
15
10.0
25
10.0
16
0.0
26
0.0
36
1.0
17
0.0
27
0.0
37
0.0
40
210.000000000000
41
1.42857142857143
42
1.0
43
0.0
44
0.0
50
0.0
51
0.0000000000007958
71
0
72
100
73
1
74
3
75
0
76
0
77
0
78
1
281
0
65
1
110
0.0
120
0.0
130
0.0
111
1.0
121
0.0
131
0.0
112
0.0
122
1.0
132
0.0
79
0
146
0.0
0
ENDTAB
0
TABLE
2
LTYPE
5
247
330
0
100
AcDbSymbolTable
70
25
0
LTYPE
5
256
330
247
100
AcDbSymbolTableRecord
100
AcDbLinetypeTableRecord
2
ByBlock
70
0
3

72
65
73
0
40
0.0
0
LTYPE
5
257
330
247
100
AcDbSymbolTableRecord
100
AcDbLinetypeTableRecord
2
ByLayer
70
0
3

72
65
73
0
40
0.0
0
LTYPE
5
258
330
247
100
AcDbSymbolTableRecord
100
AcDbLinetypeTableRecord
2
Continuous
70
0
3
Solid line
72
65
73
0
40
0.0
0
LTYPE
5
273
330
247
100
AcDbSymbolTableRecord
100
AcDbLinetypeTableRecord
2
CENTER
70
0
3
Center ____ _ ____ _ ____ _ ____ _ ____ _ ____
72
65
73
4
40
2.0
49
1.25
74
0
49
-0.25
74
0
49
0.25
74
0
49
-0.25
74
0
0
LTYPE
5
274
330
247
100
AcDbSymbolTableRecord
100
AcDbLinetypeTableRecord
2
DASHDOT
70
0
3
Dashdot __ . __ . __ . __ . __ . __ . __ . __
72
65
73
4
40
1.0
49
0.5
74
0
49
-0.25
74
0
49
0.0
74
0
49
-0.25
74
0
0
LTYPE
5
275
330
247
100
AcDbSymbolTableRecord
100
AcDbLinetypeTableRecord
2
DASHED
70
0
3
Dashed __ __ __ __ __ __ __ __ __ __ __ __ __ _
72
65
73
2
40
0.75
49
0.5
74
0
49
-0.25
74
0
0
LTYPE
5
276
330
247
100
AcDbSymbolTableRecord
100
AcDbLinetypeTableRecord
2
HIDDEN
70
0
3
Hidden __ __ __ __ __ __ __ __ __ __ __ __ __ __
72
65
73
2
40
0.375
49
0.25
74
0
49
-0.125
74
0
0
LTYPE
5
277
330
247
100
AcDbSymbolTableRecord
100
AcDbLinetypeTableRecord
2
HIDDEN2
70
0
3
Hidden2 _ _ _ _ _ _ _ _ _ _ _ _ _ _ _ _ _
72
65
73
2
40
0.1875
49
0.125
74
0
49
-0.0625
74
0
0
LTYPE
5
278
330
247
100
AcDbSymbolTableRecord
100
AcDbLinetypeTableRecord
2
BORDER
70
0
3
Border __ __ . __ __ . __ __ . __ __ . __ __ .
72
65
73
6
40
1.75
49
0.5
74
0
49
-0.25
74
0
49
0.5
74
0
49
-0.25
74
0
49
0.0
74
0
49
-0.25
74
0
0
LTYPE
5
279
330
247
100
AcDbSymbolTableRecord
100
AcDbLinetypeTableRecord
2
BORDER2
70
0
3
Border2 __.__.__.__.__.__.__.__.__.__.__.
72
65
73
6
40
0.875
49
0.25
74
0
49
-0.125
74
0
49
0.25
74
0
49
-0.125
74
0
49
0.0
74
0
49
-0.125
74
0
0
LTYPE
5
27A
330
247
100
AcDbSymbolTableRecord
100
AcDbLinetypeTableRecord
2
BORDERX2
70
0
3
Borderx2  ____  ____  .  ____  ____  .  ___
72
65
73
6
40
3.5
49
1.0
74
0
49
-0.5
74
0
49
1.0
74
0
49
-0.5
74
0
49
0.0
74
0
49
-0.5
74
0
0
LTYPE
5
27B
330
247
100
AcDbSymbolTableRecord
100
AcDbLinetypeTableRecord
2
CENTER2
70
0
3
Center2  ___ _ ___ _ ___ _ ___ _ ___ _ ___
72
65
73
4
40
1.125
49
0.75
74
0
49
-0.125
74
0
49
0.125
74
0
49
-0.125
74
0
0
LTYPE
5
27C
330
247
100
AcDbSymbolTableRecord
100
AcDbLinetypeTableRecord
2
CENTERX2
70
0
3
Centerx2  ________  __  ________  __  _____
72
65
73
4
40
4.0
49
2.5
74
0
49
-0.5
74
0
49
0.5
74
0
49
-0.5
74
0
0
LTYPE
5
27D
330
247
100
AcDbSymbolTableRecord
100
AcDbLinetypeTableRecord
2
DASHDOT2
70
0
3
Dashdot2  _._._._._._._._._._._._._._._.
72
65
73
4
40
0.5
49
0.25
74
0
49
-0.125
74
0
49
0.0
74
0
49
-0.125
74
0
0
LTYPE
5
27E
330
247
100
AcDbSymbolTableRecord
100
AcDbLinetypeTableRecord
2
DASHDOTX2
70
0
3
Dashdotx2 ____  .  ____  .  ____  .  ___
72
65
73
4
40
2.0
49
1.0
74
0
49
-0.5
74
0
49
0.0
74
0
49
-0.5
74
0
0
LTYPE
5
27F
330
247
100
AcDbSymbolTableRecord
100
AcDbLinetypeTableRecord
2
DASHED2
70
0
3
Dashed2 _ _ _ _ _ _ _ _ _ _ _ _ _ _ _ _ _
72
65
73
2
40
0.375
49
0.25
74
0
49
-0.125
74
0
0
LTYPE
5
280
330
247
100
AcDbSymbolTableRecord
100
AcDbLinetypeTableRecord
2
DASHEDX2
70
0
3
Dashedx2 ____  ____  ____  ____  ____  ___
72
65
73
2
40
1.5
49
1.0
74
0
49
-0.5
74
0
0
LTYPE
5
281
330
247
100
AcDbSymbolTableRecord
100
AcDbLinetypeTableRecord
2
DIVIDE
70
0
3
Divide ____ . . ____ . . ____ . . ____ . . ____
72
65
73
6
40
1.25
49
0.5
74
0
49
-0.25
74
0
49
0.0
74
0
49
-0.25
74
0
49
0.0
74
0
49
-0.25
74
0
0
LTYPE
5
282
330
247
100
AcDbSymbolTableRecord
100
AcDbLinetypeTableRecord
2
DIVIDE2
70
0
3
Divide2 __..__..__..__..__..__..__..__.._
72
65
73
6
40
0.625
49
0.25
74
0
49
-0.125
74
0
49
0.0
74
0
49
-0.125
74
0
49
0.0
74
0
49
-0.125
74
0
0
LTYPE
5
283
330
247
100
AcDbSymbolTableRecord
100
AcDbLinetypeTableRecord
2
DIVIDEX2
70
0
3
Dividex2 ________  .  .  ________  .  .  _
72
65
73
6
40
2.5
49
1.0
74
0
49
-0.5
74
0
49
0.0
74
0
49
-0.5
74
0
49
0.0
74
0
49
-0.5
74
0
0
LTYPE
5
284
330
247
100
AcDbSymbolTableRecord
100
AcDbLinetypeTableRecord
2
DOT
70
0
3
Dot . . . . . . . . . . . . . . . . . . . . . . . .
72
65
73
2
40
0.25
49
0.0
74
0
49
-0.25
74
0
0
LTYPE
5
285
330
247
100
AcDbSymbolTableRecord
100
AcDbLinetypeTableRecord
2
DOT2
70
0
3
Dot2 ........................................
72
65
73
2
40
0.125
49
0.0
74
0
49
-0.125
74
0
0
LTYPE
5
286
330
247
100
AcDbSymbolTableRecord
100
AcDbLinetypeTableRecord
2
DOTX2
70
0
3
Dotx2 .  .  .  .  .  .  .  .  .  .  .  .  .  .
72
65
73
2
40
0.5
49
0.0
74
0
49
-0.5
74
0
0
LTYPE
5
287
330
247
100
AcDbSymbolTableRecord
100
AcDbLinetypeTableRecord
2
HIDDENX2
70
0
3
Hiddenx2 ____ ____ ____ ____ ____ ____ ____
72
65
73
2
40
0.75
49
0.5
74
0
49
-0.25
74
0
0
LTYPE
5
288
330
247
100
AcDbSymbolTableRecord
100
AcDbLinetypeTableRecord
2
PHANTOM
70
0
3
Phantom ______  __  __  ______  __  __  ______
72
65
73
6
40
2.5
49
1.25
74
0
49
-0.25
74
0
49
0.25
74
0
49
-0.25
74
0
49
0.25
74
0
49
-0.25
74
0
0
LTYPE
5
289
330
247
100
AcDbSymbolTableRecord
100
AcDbLinetypeTableRecord
2
PHANTOM2
70
0
3
Phantom2 ___ _ _ ___ _ _ ___ _ _ ___ _ _
72
65
73
6
40
1.25
49
0.625
74
0
49
-0.125
74
0
49
0.125
74
0
49
-0.125
74
0
49
0.125
74
0
49
-0.125
74
0
0
LTYPE
5
28A
330
247
100
AcDbSymbolTableRecord
100
AcDbLinetypeTableRecord
2
PHANTOMX2
70
0
3
Phantomx2 ____________    ____    ____   _
72
65
73
6
40
5.0
49
2.5
74
0
49
-0.5
74
0
49
0.5
74
0
49
-0.5
74
0
49
0.5
74
0
49
-0.5
74
0
0
ENDTAB
0
TABLE
2
LAYER
5
244
330
0
100
AcDbSymbolTable
70
6
0
LAYER
5
252
330
244
100
AcDbSymbolTableRecord
100
AcDbLayerTableRecord
2
0
70
0
62
7
6
Continuous
370
0
390
251
0
LAYER
5
23F
330
244
100
AcDbSymbolTableRecord
100
AcDbLayerTableRecord
2
Bemassung
70
0
 62
   7
6
Continuous
370
0
390
251
0
LAYER
5
240
330
244
100
AcDbSymbolTableRecord
100
AcDbLayerTableRecord
2
Rahmen
70
0
 62
   7
6
Continuous
370
0
390
251
0
LAYER
5
241
330
244
100
AcDbSymbolTableRecord
100
AcDbLayerTableRecord
2
Geo
70
0
 62
   7
6
Continuous
370
0
390
251
0
LAYER
5
33A
330
244
100
AcDbSymbolTableRecord
100
AcDbLayerTableRecord
2
Defpoints
70
0
62
7
6
Continuous
290
0
370
-3
390
251
0
LAYER
5
57E
330
244
100
AcDbSymbolTableRecord
100
AcDbLayerTableRecord
2
Text
70
0
 62
   7
6
Continuous
370
0
390
251
1001
AcAecLayerStandard
1000

1000

0
ENDTAB
0
TABLE
2
STYLE
5
245
330
0
100
AcDbSymbolTable
70
2
0
STYLE
5
253
330
245
100
AcDbSymbolTableRecord
100
AcDbTextStyleTableRecord
2
Standard
70
0
40
0.0
41
1.0
50
0.0
71
0
42
0.2
3
Arial
4

1001
ACAD
1000
Arial
1071
0
0
STYLE
5
132
330
245
100
AcDbSymbolTableRecord
100
AcDbTextStyleTableRecord
2
Beschriftung
70
0
40
0.0
41
1.0
50
0.0
71
0
42
0.2
3
Arial
4

1001
ACAD
1000
Arial
1071
0
1001
AcadAnnotative
1000
AnnotativeData
1070
1
1070
1
0
ENDTAB
0
TABLE
2
VIEW
5
248
330
0
100
AcDbSymbolTable
70
0
0
ENDTAB
0
TABLE
2
UCS
5
249
330
0
100
AcDbSymbolTable
70
0
0
ENDTAB
0
TABLE
2
APPID
5
24B
330
0
100
AcDbSymbolTable
70
13
0
APPID
5
254
330
24B
100
AcDbSymbolTableRecord
100
AcDbRegAppTableRecord
2
ACAD
70
0
0
APPID
5
26C
330
24B
100
AcDbSymbolTableRecord
100
AcDbRegAppTableRecord
2
VD_INVISIBLE_NOT_FOR_READ
70
0
0
APPID
5
26D
330
24B
100
AcDbSymbolTableRecord
100
AcDbRegAppTableRecord
2
VD_TEMPHATCH
70
0
0
APPID
5
26E
330
24B
100
AcDbSymbolTableRecord
100
AcDbRegAppTableRecord
2
VDEXTRAPARAM
70
0
0
APPID
5
26F
330
24B
100
AcDbSymbolTableRecord
100
AcDbRegAppTableRecord
2
PE_URL
70
0
0
APPID
5
270
330
24B
100
AcDbSymbolTableRecord
100
AcDbRegAppTableRecord
2
VD_UNKNOWN
70
0
0
APPID
5
28F
330
24B
100
AcDbSymbolTableRecord
100
AcDbRegAppTableRecord
2
AcadAnnotative
70
0
0
APPID
5
290
330
24B
100
AcDbSymbolTableRecord
100
AcDbRegAppTableRecord
2
ACAD_DSTYLE_DIMJAG
70
0
0
APPID
5
291
330
24B
100
AcDbSymbolTableRecord
100
AcDbRegAppTableRecord
2
ACAD_DSTYLE_DIMTALN
70
0
0
APPID
5
293
330
24B
100
AcDbSymbolTableRecord
100
AcDbRegAppTableRecord
2
ACAD_PSEXT
70
0
0
APPID
5
42A
330
24B
100
AcDbSymbolTableRecord
100
AcDbRegAppTableRecord
2
ACAD_MLEADERVER
70
0
0
APPID
5
532
330
24B
100
AcDbSymbolTableRecord
100
AcDbRegAppTableRecord
2
ACAD_EXEMPT_FROM_CAD_STANDARDS
70
0
0
APPID
5
57F
330
24B
100
AcDbSymbolTableRecord
100
AcDbRegAppTableRecord
2
AcAecLayerStandard
70
0
0
ENDTAB
0
TABLE
2
DIMSTYLE
5
24C
330
0
100
AcDbSymbolTable
70
3
100
AcDbDimStyleTable
71
2
340
27
340
269
0
DIMSTYLE
105
269
330
24C
100
AcDbSymbolTableRecord
100
AcDbDimStyleTableRecord
2
Standard
70
0
172
1
174
1
288
1
340
253
342
23C
0
DIMSTYLE
105
137
330
24C
100
AcDbSymbolTableRecord
100
AcDbDimStyleTableRecord
2
Beschriftung
70
0
41
2.5
42
0.625
44
1.25
73
0
74
0
77
1
140
2.5
147
0.625
172
1
174
1
271
2
288
1
340
253
342
23C
1001
AcadAnnotative
1000
AnnotativeData
1070
1
1070
1
1001
ACAD_DSTYLE_DIMJAG
1070
388
1040
1.5
1001
ACAD_DSTYLE_DIMTALN
1070
392
1070
0
0
DIMSTYLE
105
27
102
{ACAD_REACTORS
330
F10003
330
F10012
330
F10017
330
F10008
330
F1000D
102
}
330
24C
100
AcDbSymbolTableRecord
100
AcDbDimStyleTableRecord
2
BEM-ISBE
70
0
41
2.5
42
0.625
44
1.25
48
0.000000001
71
1
73
0
74
0
77
1
140
2.5
144
1.00000000000000
146
0.5
147
0.625
171
 3
172
 1
179
 3
271
 3
272
 3
274
 3
340
253
342
23C
1001
ACAD_DSTYLE_DIMJAG
1070
388
1040
1.5
1001
ACAD_DSTYLE_DIMTALN
1070
392
1070
1
0
ENDTAB
0
TABLE
2
BLOCK_RECORD
5
243
330
0
100
AcDbSymbolTable
70
5
0
BLOCK_RECORD
5
261
330
243
100
AcDbSymbolTableRecord
100
AcDbBlockTableRecord
2
*Model_Space
340
FD0
0
BLOCK_RECORD
5
25D
330
243
100
AcDbSymbolTableRecord
100
AcDbBlockTableRecord
2
*Paper_Space
340
FD1
0
BLOCK_RECORD
5
265
330
243
100
AcDbSymbolTableRecord
100
AcDbBlockTableRecord
2
*Paper_Space0
340
0
0
BLOCK_RECORD
5
23C
330
243
100
AcDbSymbolTableRecord
100
AcDbBlockTableRecord
2
VDDIM_DEFAULT
340
0
102
{BLKREFS
102
}
0
BLOCK_RECORD
5
23E
330
243
100
AcDbSymbolTableRecord
100
AcDbBlockTableRecord
2
VDDIM_NONE
340
0
0
BLOCK_RECORD
5
F10002
330
243
100
AcDbSymbolTableRecord
100
AcDbBlockTableRecord
2
*D3
340
0
0
BLOCK_RECORD
5
F10011
330
243
100
AcDbSymbolTableRecord
100
AcDbBlockTableRecord
2
*D6
340
0
0
BLOCK_RECORD
5
F10016
330
243
100
AcDbSymbolTableRecord
100
AcDbBlockTableRecord
2
*D7
340
0
0
BLOCK_RECORD
5
F10007
330
243
100
AcDbSymbolTableRecord
100
AcDbBlockTableRecord
2
*D4
340
0
0
BLOCK_RECORD
5
F1000C
330
243
100
AcDbSymbolTableRecord
100
AcDbBlockTableRecord
2
*D5
340
0
0
ENDTAB
0
ENDSEC
0
SECTION
2
BLOCKS
0
BLOCK
5
262
330
261
100
AcDbEntity
8
0
100
AcDbBlockBegin
2
*Model_Space
70
0
10
0.0
20
0.0
30
0.0
3
*Model_Space
1

0
ENDBLK
5
263
330
261
100
AcDbEntity
8
0
100
AcDbBlockEnd
0
BLOCK
5
25E
330
25D
100
AcDbEntity
67
1
8
0
100
AcDbBlockBegin
2
*Paper_Space
70
0
10
0.0
20
0.0
30
0.0
3
*Paper_Space
1

0
ENDBLK
5
25F
330
25D
100
AcDbEntity
67
1
8
0
100
AcDbBlockEnd
0
BLOCK
5
266
330
265
100
AcDbEntity
8
0
100
AcDbBlockBegin
2
*Paper_Space0
70
0
10
0.0
20
0.0
30
0.0
3
*Paper_Space0
1

0
VIEWPORT
5
296
102
{ACAD_XDICTIONARY
360
58E
102
}
330
265
100
AcDbEntity
8
0
60
1
100
AcDbViewport
10
0.0
20
0.0
30
0.0
40
10.0
41
10.0
69
0
12
0.0
22
0.0
13
0.0
23
0.0
14
1.0
24
1.0
15
0.0
25
0.0
16
0.0
26
0.0
36
1.0
17
0.0
27
0.0
37
0.0
42
0.0
43
0.0
44
0.0
45
10.0
50
0.0
51
0.0000000000007958
72
100
90
163872
1

281
0
71
0
74
0
110
0.0
120
0.0
130
0.0
111
1.0
121
0.0
131
0.0
112
0.0
122
1.0
132
0.0
79
0
146
0.0
1001
VD_INVISIBLE_NOT_FOR_READ
1000
VD_INVISIBLE_NOT_FOR_READ
0
VIEWPORT
5
297
102
{ACAD_XDICTIONARY
360
590
102
}
330
265
100
AcDbEntity
8
0
60
1
100
AcDbViewport
10
0.0
20
0.0
30
0.0
40
10.0
41
10.0
69
0
12
0.0
22
0.0
13
0.0
23
0.0
14
1.0
24
1.0
15
0.0
25
0.0
16
0.0
26
0.0
36
1.0
17
0.0
27
0.0
37
0.0
42
0.0
43
0.0
44
0.0
45
10.0
50
0.0
51
0.0000000000007958
72
100
90
163872
1

281
0
71
0
74
0
110
0.0
120
0.0
130
0.0
111
1.0
121
0.0
131
0.0
112
0.0
122
1.0
132
0.0
79
0
146
0.0
1001
VD_INVISIBLE_NOT_FOR_READ
1000
VD_INVISIBLE_NOT_FOR_READ
0
ENDBLK
5
267
330
265
100
AcDbEntity
8
0
100
AcDbBlockEnd
0
BLOCK
5
28B
330
23C
100
AcDbEntity
8
0
100
AcDbBlockBegin
2
VDDIM_DEFAULT
70
0
10
0.0
20
0.0
30
0.0
3
VDDIM_DEFAULT
1

0
LWPOLYLINE
5
23D
330
23C
100
AcDbEntity
8
0
6
Continuous
62
0
100
AcDbPolyline
90
4
70
0
43
0.0
10
0.0
20
0.0
10
-1.0
20
-0.1665
10
-1.0
20
0.1665
10
0.0
20
0.0
1001
VDEXTRAPARAM
1071
1
1071
0
1071
0
1040
1.0
1000

1000

1040
0.0
1040
0.0
0
HATCH
5
292
330
23C
100
AcDbEntity
8
0
6
Continuous
62
0
100
AcDbHatch
10
0.0
20
0.0
30
0.0
210
0.0
220
0.0
230
1.0
2
SOLID
70
1
71
0
91
1
92
2
72
0
73
1
93
3
10
0.0
20
0.0
10
-1.0
20
-0.1665
10
-1.0
20
0.1665
97
0
75
0
76
1
98
1
10
0.0
20
0.0
1001
VDEXTRAPARAM
1071
1
1071
0
1071
0
1040
1.0
1000

1000

1040
0.0
1040
0.0
1001
VD_TEMPHATCH
1000
VD_TEMPHATCH
0
ENDBLK
5
28C
330
23C
100
AcDbEntity
8
0
100
AcDbBlockEnd
0
BLOCK
5
28D
330
23E
100
AcDbEntity
8
0
100
AcDbBlockBegin
2
VDDIM_NONE
70
0
10
0.0
20
0.0
30
0.0
3
VDDIM_NONE
1

0
ENDBLK
5
28E
330
23E
100
AcDbEntity
8
0
100
AcDbBlockEnd
  0
BLOCK
  5
F1001B
330
F10002
100
AcDbEntity
  8
0
100
AcDbBlockBegin
  2
*D3
 70
     1
 10
0.0
 20
0.0
 30
0.0
  3
*D3
  1

  0
LINE
  5
F1001C
330
F10002
100
AcDbEntity
  8
Bemassung
 62
     0
370
    -2
100
AcDbLine
10
-34.6665221162185
20
-12.4501300954033
30
0.000000000000000
11
-34.6665221162185
21
25.5498699045967
31
0.000000000000000
  0
LINE
  5
F1001D
330
F10002
100
AcDbEntity
  8
Bemassung
 62
     0
370
    -2
100
AcDbLine
10
-34.5965221162185
20
8.54986990459670
30
0.000000000000000
11
-34.5965221162185
21
17.5498699045967
31
0.000000000000000
  0
LINE
  5
F1001E
330
F10002
100
AcDbEntity
  8
Bemassung
 62
     0
370
    -2
100
AcDbLine
10
-53.7294015611448
20
15.5498699045967
30
0.000000000000000
11
-34.5965221162185
21
15.5498699045967
31
0.000000000000000
  0
INSERT
  5
F1001F
330
F10002
100
AcDbEntity
  8
Bemassung
 62
     0
370
    -2
100
AcDbBlockReference
  2
VDDIM_DEFAULT
10
-34.6665221162185
20
15.5498699045967
30
0.000000000000000
 41
2.50000000000000
 42
2.50000000000000
 43
2.50000000000000
  0
INSERT
  5
F10020
330
F10002
100
AcDbEntity
  8
Bemassung
 62
     0
370
    -2
100
AcDbBlockReference
  2
VDDIM_DEFAULT
10
-34.5965221162185
20
15.5498699045967
30
0.000000000000000
 41
2.50000000000000
 42
2.50000000000000
 43
2.50000000000000
 50
180.000000000000
  0
MTEXT
  5
F10021
330
F10002
100
AcDbEntity
  8
Bemassung
 62
     0
100
AcDbMText
10
-37.8837814397224
20
16.2165365712634
30
0.000000000000000
 40
2.50000000000000
 41
0.0
 71
     8
 72
     1
  1
0.07 x 45°
 11
1.00000000000000
 21
0.000000000000000
 31
0.0
 73
     1
 44
1.0
1001
ACAD
1000
MTEXTBEGIN
1070
73
1070
1
1070
44
1040
1.0
1070
74
1070
0
1000
MTEXTEND
  0
POINT
  5
F10022
330
F10002
100
AcDbEntity
  8
Bemassung
 62
     0
100
AcDbPoint
10
-34.6665221162185
20
-12.4501300954033
30
0.000000000000000
  0
POINT
  5
F10023
330
F10002
100
AcDbEntity
  8
Bemassung
 62
     0
100
AcDbPoint
10
-34.5965221162185
20
8.54986990459670
30
0.000000000000000
  0
ENDBLK
  5
F10024
330
F10002
100
AcDbEntity
  8
0
100
AcDbBlockEnd
  0
BLOCK
  5
F10025
330
F10011
100
AcDbEntity
  8
0
100
AcDbBlockBegin
  2
*D6
 70
     1
 10
0.0
 20
0.0
 30
0.0
  3
*D6
  1

  0
LINE
  5
F10026
330
F10011
100
AcDbEntity
  8
Bemassung
 62
     0
370
    -2
100
AcDbLine
10
-18.6665221162185
20
-3.45013009540330
30
0.000000000000000
11
-18.6665221162185
21
-12.4501300954033
31
0.000000000000000
  0
LINE
  5
F10027
330
F10011
100
AcDbEntity
  8
Bemassung
 62
     0
370
    -2
100
AcDbLine
10
-34.6665221162185
20
-12.4501300954033
30
0.000000000000000
11
-34.6665221162185
21
25.5498699045967
31
0.000000000000000
  0
LINE
  5
F10028
330
F10011
100
AcDbEntity
  8
Bemassung
 62
     0
370
    -2
100
AcDbLine
10
-18.6665221162185
20
-10.4501300954033
30
0.000000000000000
11
-34.6665221162185
21
-10.4501300954033
31
0.000000000000000
  0
INSERT
  5
F10029
330
F10011
100
AcDbEntity
  8
Bemassung
 62
     0
370
    -2
100
AcDbBlockReference
  2
VDDIM_DEFAULT
10
-18.6665221162185
20
-10.4501300954033
30
0.000000000000000
 41
2.50000000000000
 42
2.50000000000000
 43
2.50000000000000
  0
INSERT
  5
F1002A
330
F10011
100
AcDbEntity
  8
Bemassung
 62
     0
370
    -2
100
AcDbBlockReference
  2
VDDIM_DEFAULT
10
-34.6665221162185
20
-10.4501300954033
30
0.000000000000000
 41
2.50000000000000
 42
2.50000000000000
 43
2.50000000000000
 50
180.000000000000
  0
MTEXT
  5
F1002B
330
F10011
100
AcDbEntity
  8
Bemassung
 62
     0
100
AcDbMText
10
-26.6665221162185
20
-9.78346342873663
30
0.000000000000000
 40
2.50000000000000
 41
0.0
 71
     8
 72
     1
  1
16
 11
1.00000000000000
 21
0.000000000000000
 31
0.0
 73
     1
 44
1.0
1001
ACAD
1000
MTEXTBEGIN
1070
73
1070
1
1070
44
1040
1.0
1070
74
1070
0
1000
MTEXTEND
  0
POINT
  5
F1002C
330
F10011
100
AcDbEntity
  8
Bemassung
 62
     0
100
AcDbPoint
10
-18.6665221162185
20
-3.45013009540330
30
0.000000000000000
  0
POINT
  5
F1002D
330
F10011
100
AcDbEntity
  8
Bemassung
 62
     0
100
AcDbPoint
10
-34.6665221162185
20
-12.4501300954033
30
0.000000000000000
  0
ENDBLK
  5
F1002E
330
F10011
100
AcDbEntity
  8
0
100
AcDbBlockEnd
  0
BLOCK
  5
F1002F
330
F10016
100
AcDbEntity
  8
0
100
AcDbBlockBegin
  2
*D7
 70
     1
 10
0.0
 20
0.0
 30
0.0
  3
*D7
  1

  0
LINE
  5
F10030
330
F10016
100
AcDbEntity
  8
Bemassung
 62
     0
370
    -2
100
AcDbLine
10
38.3334778837815
20
7.84986990459670
30
0.000000000000000
11
38.3334778837815
21
25.5498699045967
31
0.000000000000000
  0
LINE
  5
F10031
330
F10016
100
AcDbEntity
  8
Bemassung
 62
     0
370
    -2
100
AcDbLine
10
-34.6665221162185
20
-12.4501300954033
30
0.000000000000000
11
-34.6665221162185
21
25.5498699045967
31
0.000000000000000
  0
LINE
  5
F10032
330
F10016
100
AcDbEntity
  8
Bemassung
 62
     0
370
    -2
100
AcDbLine
10
38.3334778837815
20
23.5498699045967
30
0.000000000000000
11
-34.6665221162185
21
23.5498699045967
31
0.000000000000000
  0
INSERT
  5
F10033
330
F10016
100
AcDbEntity
  8
Bemassung
 62
     0
370
    -2
100
AcDbBlockReference
  2
VDDIM_DEFAULT
10
38.3334778837815
20
23.5498699045967
30
0.000000000000000
 41
2.50000000000000
 42
2.50000000000000
 43
2.50000000000000
  0
INSERT
  5
F10034
330
F10016
100
AcDbEntity
  8
Bemassung
 62
     0
370
    -2
100
AcDbBlockReference
  2
VDDIM_DEFAULT
10
-34.6665221162185
20
23.5498699045967
30
0.000000000000000
 41
2.50000000000000
 42
2.50000000000000
 43
2.50000000000000
 50
180.000000000000
  0
MTEXT
  5
F10035
330
F10016
100
AcDbEntity
  8
Bemassung
 62
     0
100
AcDbMText
10
1.83347788378146
20
24.2165365712634
30
0.000000000000000
 40
2.50000000000000
 41
0.0
 71
     8
 72
     1
  1
73
 11
1.00000000000000
 21
0.000000000000000
 31
0.0
 73
     1
 44
1.0
1001
ACAD
1000
MTEXTBEGIN
1070
73
1070
1
1070
44
1040
1.0
1070
74
1070
0
1000
MTEXTEND
  0
POINT
  5
F10036
330
F10016
100
AcDbEntity
  8
Bemassung
 62
     0
100
AcDbPoint
10
38.3334778837815
20
7.84986990459670
30
0.000000000000000
  0
POINT
  5
F10037
330
F10016
100
AcDbEntity
  8
Bemassung
 62
     0
100
AcDbPoint
10
-34.6665221162185
20
-12.4501300954033
30
0.000000000000000
  0
ENDBLK
  5
F10038
330
F10016
100
AcDbEntity
  8
0
100
AcDbBlockEnd
  0
BLOCK
  5
F10039
330
F10007
100
AcDbEntity
  8
0
100
AcDbBlockBegin
  2
*D4
 70
     1
 10
0.0
 20
0.0
 30
0.0
  3
*D4
  1

  0
LINE
  5
F1003A
330
F10007
100
AcDbEntity
  8
Bemassung
 62
     0
370
    -2
100
AcDbLine
10
-34.5965221162185
20
-3.45013009540330
30
0.000000000000000
11
-46.6665221162185
21
-3.45013009540330
31
0.000000000000000
  0
LINE
  5
F1003B
330
F10007
100
AcDbEntity
  8
Bemassung
 62
     0
370
    -2
100
AcDbLine
10
-34.5965221162185
20
8.54986990459670
30
0.000000000000000
11
-46.6665221162185
21
8.54986990459670
31
0.000000000000000
  0
LINE
  5
F1003C
330
F10007
100
AcDbEntity
  8
Bemassung
 62
     0
370
    -2
100
AcDbLine
10
-44.6665221162185
20
-3.45013009540330
30
0.000000000000000
11
-44.6665221162185
21
8.54986990459670
31
0.000000000000000
  0
INSERT
  5
F1003D
330
F10007
100
AcDbEntity
  8
Bemassung
 62
     0
370
    -2
100
AcDbBlockReference
  2
VDDIM_DEFAULT
10
-44.6665221162185
20
-3.45013009540330
30
0.000000000000000
 41
2.50000000000000
 42
2.50000000000000
 43
2.50000000000000
 50
90.0000000000000
  0
INSERT
  5
F1003E
330
F10007
100
AcDbEntity
  8
Bemassung
 62
     0
370
    -2
100
AcDbBlockReference
  2
VDDIM_DEFAULT
10
-44.6665221162185
20
8.54986990459670
30
0.000000000000000
 41
2.50000000000000
 42
2.50000000000000
 43
2.50000000000000
 50
270.000000000000
  0
MTEXT
  5
F1003F
330
F10007
100
AcDbEntity
  8
Bemassung
 62
     0
100
AcDbMText
10
-45.3331887828852
20
2.54986990459670
30
0.000000000000000
 40
2.50000000000000
 41
0.0
 71
     8
 72
     1
  1
Ø12
 11
6.12323399573677e-17
 21
1.00000000000000
 31
0.0
 73
     1
 44
1.0
1001
ACAD
1000
MTEXTBEGIN
1070
73
1070
1
1070
44
1040
1.0
1070
74
1070
0
1000
MTEXTEND
  0
POINT
  5
F10040
330
F10007
100
AcDbEntity
  8
Bemassung
 62
     0
100
AcDbPoint
10
-34.5965221162185
20
-3.45013009540330
30
0.000000000000000
  0
POINT
  5
F10041
330
F10007
100
AcDbEntity
  8
Bemassung
 62
     0
100
AcDbPoint
10
-34.5965221162185
20
8.54986990459670
30
0.000000000000000
  0
ENDBLK
  5
F10042
330
F10007
100
AcDbEntity
  8
0
100
AcDbBlockEnd
  0
BLOCK
  5
F10043
330
F1000C
100
AcDbEntity
  8
0
100
AcDbBlockBegin
  2
*D5
 70
     1
 10
0.0
 20
0.0
 30
0.0
  3
*D5
  1

  0
LINE
  5
F10044
330
F1000C
100
AcDbEntity
  8
Bemassung
 62
     0
370
    -2
100
AcDbLine
10
37.6334778837815
20
-3.45013009540330
30
0.000000000000000
11
50.3334778837815
21
-3.45013009540330
31
0.000000000000000
  0
LINE
  5
F10045
330
F1000C
100
AcDbEntity
  8
Bemassung
 62
     0
370
    -2
100
AcDbLine
10
37.6334778837815
20
8.54986990459670
30
0.000000000000000
11
50.3334778837815
21
8.54986990459670
31
0.000000000000000
  0
LINE
  5
F10046
330
F1000C
100
AcDbEntity
  8
Bemassung
 62
     0
370
    -2
100
AcDbLine
10
48.3334778837815
20
-3.45013009540330
30
0.000000000000000
11
48.3334778837815
21
8.54986990459670
31
0.000000000000000
  0
INSERT
  5
F10047
330
F1000C
100
AcDbEntity
  8
Bemassung
 62
     0
370
    -2
100
AcDbBlockReference
  2
VDDIM_DEFAULT
10
48.3334778837815
20
-3.45013009540330
30
0.000000000000000
 41
2.50000000000000
 42
2.50000000000000
 43
2.50000000000000
 50
90.0000000000000
  0
INSERT
  5
F10048
330
F1000C
100
AcDbEntity
  8
Bemassung
 62
     0
370
    -2
100
AcDbBlockReference
  2
VDDIM_DEFAULT
10
48.3334778837815
20
8.54986990459670
30
0.000000000000000
 41
2.50000000000000
 42
2.50000000000000
 43
2.50000000000000
 50
270.000000000000
  0
MTEXT
  5
F10049
330
F1000C
100
AcDbEntity
  8
Bemassung
 62
     0
100
AcDbMText
10
47.6668112171148
20
2.54986990459670
30
0.000000000000000
 40
2.50000000000000
 41
0.0
 71
     8
 72
     1
  1
Ø12h6
 11
6.12323399573677e-17
 21
1.00000000000000
 31
0.0
 73
     1
 44
1.0
  0
POINT
  5
F1004A
330
F1000C
100
AcDbEntity
  8
Bemassung
 62
     0
100
AcDbPoint
10
37.6334778837815
20
-3.45013009540330
30
0.000000000000000
  0
POINT
  5
F1004B
330
F1000C
100
AcDbEntity
  8
Bemassung
 62
     0
100
AcDbPoint
10
37.6334778837815
20
8.54986990459670
30
0.000000000000000
  0
ENDBLK
  5
F1004C
330
F1000C
100
AcDbEntity
  8
0
100
AcDbBlockEnd
0
ENDSEC
0
SECTION
2
ENTITIES
  0
DIMENSION
  5
F10003
330
261
100
AcDbEntity
  8
Bemassung
100
AcDbDimension
  2
*D3
10
-34.5965221162185
20
15.5498699045967
30
0.000000000000000
11
-37.8837814397224
21
16.2165365712634
31
0.000000000000000
 70
32
 1
0.07 x 45°
 71
     8
  3
BEM-ISBE
100
AcDbAlignedDimension
13
-34.6665221162185
23
-12.4501300954033
33
0.000000000000000
14
-34.5965221162185
24
8.54986990459670
34
0.000000000000000
100
AcDbRotatedDimension
1001
ACAD
1000
DSTYLE
1002
{
1070
284
1070
8
1070
78
1070
8
1070
144
1040
1.00000000000000
1070
147
1040
0.625
1070
 72
1070
 0
1070
 71
1070
 0
1002
}
  0
DIMENSION
  5
F10012
330
261
100
AcDbEntity
  8
Bemassung
100
AcDbDimension
  2
*D6
10
-34.6665221162185
20
-10.4501300954033
30
0.000000000000000
11
-26.6665221162185
21
-9.78346342873663
31
0.000000000000000
 70
32
 1
16
 71
     8
  3
BEM-ISBE
100
AcDbAlignedDimension
13
-18.6665221162185
23
-3.45013009540330
33
0.000000000000000
14
-34.6665221162185
24
-12.4501300954033
34
0.000000000000000
100
AcDbRotatedDimension
1001
ACAD
1000
DSTYLE
1002
{
1070
284
1070
8
1070
78
1070
8
1070
144
1040
1.00000000000000
1070
147
1040
0.625
1070
 72
1070
 0
1070
 71
1070
 0
1002
}
  0
DIMENSION
  5
F10017
330
261
100
AcDbEntity
  8
Bemassung
100
AcDbDimension
  2
*D7
10
-34.6665221162185
20
23.5498699045967
30
0.000000000000000
11
1.83347788378146
21
24.2165365712634
31
0.000000000000000
 70
32
 1
73
 71
     8
  3
BEM-ISBE
100
AcDbAlignedDimension
13
38.3334778837815
23
7.84986990459670
33
0.000000000000000
14
-34.6665221162185
24
-12.4501300954033
34
0.000000000000000
100
AcDbRotatedDimension
1001
ACAD
1000
DSTYLE
1002
{
1070
284
1070
8
1070
78
1070
8
1070
144
1040
1.00000000000000
1070
147
1040
0.625
1070
 72
1070
 0
1070
 71
1070
 0
1002
}
  0
DIMENSION
  5
F10008
330
261
100
AcDbEntity
  8
Bemassung
100
AcDbDimension
  2
*D4
10
-44.6665221162185
20
8.54986990459670
30
0.000000000000000
11
-45.3331887828852
21
2.54986990459670
31
0.000000000000000
 70
32
 1
Ø12
 71
     8
  3
BEM-ISBE
100
AcDbAlignedDimension
13
-34.5965221162185
23
-3.45013009540330
33
0.000000000000000
14
-34.5965221162185
24
8.54986990459670
34
0.000000000000000
50
90.0000000000000
100
AcDbRotatedDimension
1001
ACAD
1000
DSTYLE
1002
{
1070
284
1070
8
1070
78
1070
8
1070
144
1040
1.00000000000000
1070
147
1040
0.625
1070
 72
1070
 0
1070
 71
1070
 0
1002
}
  0
DIMENSION
  5
F1000D
330
261
100
AcDbEntity
  8
Bemassung
100
AcDbDimension
  2
*D5
10
48.3334778837815
20
8.54986990459670
30
0.000000000000000
11
47.6668112171148
21
2.54986990459670
31
0.000000000000000
 70
32
 1
Ø12h6
 71
     8
  3
BEM-ISBE
100
AcDbAlignedDimension
13
37.6334778837815
23
-3.45013009540330
33
0.000000000000000
14
37.6334778837815
24
8.54986990459670
34
0.000000000000000
50
90.0000000000000
100
AcDbRotatedDimension
1001
ACAD
1000
DSTYLE
1002
{
1070
284
1070
8
1070
78
1070
8
1070
144
1040
1.00000000000000
1070
147
1040
0.625
1070
 72
1070
 0
1070
 71
1070
 0
1002
}
  0
LINE
  5
F1004D
330
F1004E
100
AcDbEntity
8
Geo
100
AcDbLine
10
-34.6665221162185
20
2.54986990459670
30
0.000000000000000
11
-34.6665221162185
21
8.47986990459670
31
0.000000000000000
  0
LINE
  5
F1004F
330
F10050
100
AcDbEntity
8
Geo
100
AcDbLine
10
-34.6665221162185
20
8.47986990459670
30
0.000000000000000
11
-34.5965221162185
21
8.54986990459670
31
0.000000000000000
  0
LINE
  5
F10051
330
F10052
100
AcDbEntity
8
Geo
100
AcDbLine
10
-34.5965221162185
20
8.54986990459670
30
0.000000000000000
11
-18.6665221162185
21
8.54986990459670
31
0.000000000000000
  0
LINE
  5
F10053
330
F10054
100
AcDbEntity
8
Geo
100
AcDbLine
10
-18.6665221162185
20
8.54986990459670
30
0.000000000000000
11
16.6334778837815
21
8.54986990459670
31
0.000000000000000
  0
LINE
  5
F10055
330
F10056
100
AcDbEntity
8
Geo
100
AcDbLine
10
16.6334778837815
20
8.54986990459670
30
0.000000000000000
11
18.2334778837815
21
6.94986990459670
31
0.000000000000000
  0
LINE
  5
F10057
330
F10058
100
AcDbEntity
8
Geo
100
AcDbLine
10
18.2334778837815
20
6.94986990459670
30
0.000000000000000
11
22.4334778837815
21
6.94986990459670
31
0.000000000000000
  0
LINE
  5
F10059
330
F1005A
100
AcDbEntity
8
Geo
100
AcDbLine
10
22.4334778837815
20
6.94986990459670
30
0.000000000000000
11
24.0334778837815
21
8.54986990459670
31
0.000000000000000
  0
LINE
  5
F1005B
330
F1005C
100
AcDbEntity
8
Geo
100
AcDbLine
10
24.0334778837815
20
8.54986990459670
30
0.000000000000000
11
37.6334778837815
21
8.54986990459670
31
0.000000000000000
  0
LINE
  5
F1005D
330
F1005E
100
AcDbEntity
8
Geo
100
AcDbLine
10
37.6334778837815
20
8.54986990459670
30
0.000000000000000
11
38.3334778837815
21
7.84986990459670
31
0.000000000000000
  0
LINE
  5
F1005F
330
F10060
100
AcDbEntity
8
Geo
100
AcDbLine
10
-34.6665221162185
20
8.47986174219389
30
0.000000000000000
11
-34.5665221162185
21
8.54903659055332
31
0.000000000000000
  0
LINE
  5
F10061
330
F10062
100
AcDbEntity
8
Geo
100
AcDbLine
10
-34.5665221162185
20
8.54903659055332
30
0.000000000000000
11
-34.5665221162185
21
8.54903659055332
31
0.000000000000000
  0
LINE
  5
F10063
330
F10064
100
AcDbEntity
8
Geo
100
AcDbLine
10
-34.5665221162185
20
8.54903659055332
30
0.000000000000000
11
-34.4665221162185
21
8.54653687989392
31
0.000000000000000
  0
LINE
  5
F10065
330
F10066
100
AcDbEntity
8
Geo
100
AcDbLine
10
-34.4665221162185
20
8.54653687989392
30
0.000000000000000
11
-34.3665221162185
21
8.54237146696650
31
0.000000000000000
  0
LINE
  5
F10067
330
F10068
100
AcDbEntity
8
Geo
100
AcDbLine
10
-34.3665221162185
20
8.54237146696650
30
0.000000000000000
11
-34.2665221162185
21
8.53654150880344
31
0.000000000000000
  0
LINE
  5
F10069
330
F1006A
100
AcDbEntity
8
Geo
100
AcDbLine
10
-34.2665221162185
20
8.53654150880344
30
0.000000000000000
11
-34.1665221162185
21
8.52904862480006
31
0.000000000000000
  0
LINE
  5
F1006B
330
F1006C
100
AcDbEntity
8
Geo
100
AcDbLine
10
-34.1665221162185
20
8.52904862480006
30
0.000000000000000
11
-34.0665221162185
21
8.51989489626486
31
0.000000000000000
  0
LINE
  5
F1006D
330
F1006E
100
AcDbEntity
8
Geo
100
AcDbLine
10
-34.0665221162185
20
8.51989489626486
30
0.000000000000000
11
-33.9665221162185
21
8.50908286584134
31
0.000000000000000
  0
LINE
  5
F1006F
330
F10070
100
AcDbEntity
8
Geo
100
AcDbLine
10
-33.9665221162185
20
8.50908286584134
30
0.000000000000000
11
-33.8665221162185
21
8.49661553680178
31
0.000000000000000
  0
LINE
  5
F10071
330
F10072
100
AcDbEntity
8
Geo
100
AcDbLine
10
-33.8665221162185
20
8.49661553680178
30
0.000000000000000
11
-33.7665221162185
21
8.48249637221296
31
0.000000000000000
  0
LINE
  5
F10073
330
F10074
100
AcDbEntity
8
Geo
100
AcDbLine
10
-33.7665221162185
20
8.48249637221296
30
0.000000000000000
11
-33.6665221162185
21
8.46672929397425
31
0.000000000000000
  0
LINE
  5
F10075
330
F10076
100
AcDbEntity
8
Geo
100
AcDbLine
10
-33.6665221162185
20
8.46672929397425
30
0.000000000000000
11
-33.5665221162185
21
8.44931868172824
31
0.000000000000000
  0
LINE
  5
F10077
330
F10078
100
AcDbEntity
8
Geo
100
AcDbLine
10
-33.5665221162185
20
8.44931868172824
30
0.000000000000000
11
-33.4665221162185
21
8.43026937164415
31
0.000000000000000
  0
LINE
  5
F10079
330
F1007A
100
AcDbEntity
8
Geo
100
AcDbLine
10
-33.4665221162185
20
8.43026937164415
30
0.000000000000000
11
-33.3665221162185
21
8.40958665507452
31
0.000000000000000
  0
LINE
  5
F1007B
330
F1007C
100
AcDbEntity
8
Geo
100
AcDbLine
10
-33.3665221162185
20
8.40958665507452
30
0.000000000000000
11
-33.2665221162185
21
8.38727627708541
31
0.000000000000000
  0
LINE
  5
F1007D
330
F1007E
100
AcDbEntity
8
Geo
100
AcDbLine
10
-33.2665221162185
20
8.38727627708541
30
0.000000000000000
11
-33.1665221162185
21
8.36334443486057
31
0.000000000000000
  0
LINE
  5
F1007F
330
F10080
100
AcDbEntity
8
Geo
100
AcDbLine
10
-33.1665221162185
20
8.36334443486057
30
0.000000000000000
11
-33.0665221162185
21
8.33779777598009
31
0.000000000000000
  0
LINE
  5
F10081
330
F10082
100
AcDbEntity
8
Geo
100
AcDbLine
10
-33.0665221162185
20
8.33779777598009
30
0.000000000000000
11
-32.9665221162185
21
8.31064339657382
31
0.000000000000000
  0
LINE
  5
F10083
330
F10084
100
AcDbEntity
8
Geo
100
AcDbLine
10
-32.9665221162185
20
8.31064339657382
30
0.000000000000000
11
-32.8665221162185
21
8.28188883935034
31
0.000000000000000
  0
LINE
  5
F10085
330
F10086
100
AcDbEntity
8
Geo
100
AcDbLine
10
-32.8665221162185
20
8.28188883935034
30
0.000000000000000
11
-32.7665221162185
21
8.25154209150176
31
0.000000000000000
  0
LINE
  5
F10087
330
F10088
100
AcDbEntity
8
Geo
100
AcDbLine
10
-32.7665221162185
20
8.25154209150176
30
0.000000000000000
11
-32.6665221162185
21
8.21961158248513
31
0.000000000000000
  0
LINE
  5
F10089
330
F1008A
100
AcDbEntity
8
Geo
100
AcDbLine
10
-32.6665221162185
20
8.21961158248513
30
0.000000000000000
11
-32.5665221162185
21
8.18610618168098
31
0.000000000000000
  0
LINE
  5
F1008B
330
F1008C
100
AcDbEntity
8
Geo
100
AcDbLine
10
-32.5665221162185
20
8.18610618168098
30
0.000000000000000
11
-32.4665221162185
21
8.15103519592964
31
0.000000000000000
  0
LINE
  5
F1008D
330
F1008E
100
AcDbEntity
8
Geo
100
AcDbLine
10
-32.4665221162185
20
8.15103519592964
30
0.000000000000000
11
-32.3665221162185
21
8.11440836694610
31
0.000000000000000
  0
LINE
  5
F1008F
330
F10090
100
AcDbEntity
8
Geo
100
AcDbLine
10
-32.3665221162185
20
8.11440836694610
30
0.000000000000000
11
-32.2665221162185
21
8.07623586861401
31
0.000000000000000
  0
LINE
  5
F10091
330
F10092
100
AcDbEntity
8
Geo
100
AcDbLine
10
-32.2665221162185
20
8.07623586861401
30
0.000000000000000
11
-32.1665221162185
21
8.03652830415968
31
0.000000000000000
  0
LINE
  5
F10093
330
F10094
100
AcDbEntity
8
Geo
100
AcDbLine
10
-32.1665221162185
20
8.03652830415968
30
0.000000000000000
11
-32.0665221162185
21
7.99529670320681
31
0.000000000000000
  0
LINE
  5
F10095
330
F10096
100
AcDbEntity
8
Geo
100
AcDbLine
10
-32.0665221162185
20
7.99529670320681
30
0.000000000000000
11
-31.9665221162185
21
7.95255251871277
31
0.000000000000000
  0
LINE
  5
F10097
330
F10098
100
AcDbEntity
8
Geo
100
AcDbLine
10
-31.9665221162185
20
7.95255251871277
30
0.000000000000000
11
-31.8665221162185
21
7.90830762378728
31
0.000000000000000
  0
LINE
  5
F10099
330
F1009A
100
AcDbEntity
8
Geo
100
AcDbLine
10
-31.8665221162185
20
7.90830762378728
30
0.000000000000000
11
-31.7665221162185
21
7.86257430839445
31
0.000000000000000
  0
LINE
  5
F1009B
330
F1009C
100
AcDbEntity
8
Geo
100
AcDbLine
10
-31.7665221162185
20
7.86257430839445
30
0.000000000000000
11
-31.6665221162185
21
7.81536527593894
31
0.000000000000000
  0
LINE
  5
F1009D
330
F1009E
100
AcDbEntity
8
Geo
100
AcDbLine
10
-31.6665221162185
20
7.81536527593894
30
0.000000000000000
11
-31.5665221162185
21
7.76669363973732
31
0.000000000000000
  0
LINE
  5
F1009F
330
F100A0
100
AcDbEntity
8
Geo
100
AcDbLine
10
-31.5665221162185
20
7.76669363973732
30
0.000000000000000
11
-31.4665221162185
21
7.71657291937557
31
0.000000000000000
  0
LINE
  5
F100A1
330
F100A2
100
AcDbEntity
8
Geo
100
AcDbLine
10
-31.4665221162185
20
7.71657291937557
30
0.000000000000000
11
-31.3665221162185
21
7.66501703695374
31
0.000000000000000
  0
LINE
  5
F100A3
330
F100A4
100
AcDbEntity
8
Geo
100
AcDbLine
10
-31.3665221162185
20
7.66501703695374
30
0.000000000000000
11
-31.2665221162185
21
7.61204031321878
31
0.000000000000000
  0
LINE
  5
F100A5
330
F100A6
100
AcDbEntity
8
Geo
100
AcDbLine
10
-31.2665221162185
20
7.61204031321878
30
0.000000000000000
11
-31.1665221162185
21
7.55765746358665
31
0.000000000000000
  0
LINE
  5
F100A7
330
F100A8
100
AcDbEntity
8
Geo
100
AcDbLine
10
-31.1665221162185
20
7.55765746358665
30
0.000000000000000
11
-31.0665221162185
21
7.50188359405477
31
0.000000000000000
  0
LINE
  5
F100A9
330
F100AA
100
AcDbEntity
8
Geo
100
AcDbLine
10
-31.0665221162185
20
7.50188359405477
30
0.000000000000000
11
-30.9665221162185
21
7.44473419700607
31
0.000000000000000
  0
LINE
  5
F100AB
330
F100AC
100
AcDbEntity
8
Geo
100
AcDbLine
10
-30.9665221162185
20
7.44473419700607
30
0.000000000000000
11
-30.8665221162185
21
7.38622514690559
31
0.000000000000000
  0
LINE
  5
F100AD
330
F100AE
100
AcDbEntity
8
Geo
100
AcDbLine
10
-30.8665221162185
20
7.38622514690559
30
0.000000000000000
11
-30.7665221162185
21
7.32637269589104
31
0.000000000000000
  0
LINE
  5
F100AF
330
F100B0
100
AcDbEntity
8
Geo
100
AcDbLine
10
-30.7665221162185
20
7.32637269589104
30
0.000000000000000
11
-30.6665221162185
21
7.26519346925839
31
0.000000000000000
  0
LINE
  5
F100B1
330
F100B2
100
AcDbEntity
8
Geo
100
AcDbLine
10
-30.6665221162185
20
7.26519346925839
30
0.000000000000000
11
-30.5665221162185
21
7.20270446084389
31
0.000000000000000
  0
LINE
  5
F100B3
330
F100B4
100
AcDbEntity
8
Geo
100
AcDbLine
10
-30.5665221162185
20
7.20270446084389
30
0.000000000000000
11
-30.4665221162185
21
7.13892302830363
31
0.000000000000000
  0
LINE
  5
F100B5
330
F100B6
100
AcDbEntity
8
Geo
100
AcDbLine
10
-30.4665221162185
20
7.13892302830363
30
0.000000000000000
11
-30.3665221162185
21
7.07386688829209
31
0.000000000000000
  0
LINE
  5
F100B7
330
F100B8
100
AcDbEntity
8
Geo
100
AcDbLine
10
-30.3665221162185
20
7.07386688829209
30
0.000000000000000
11
-30.2665221162185
21
7.00755411154097
31
0.000000000000000
  0
LINE
  5
F100B9
330
F100BA
100
AcDbEntity
8
Geo
100
AcDbLine
10
-30.2665221162185
20
7.00755411154097
30
0.000000000000000
11
-30.1665221162185
21
6.94000311783963
31
0.000000000000000
  0
LINE
  5
F100BB
330
F100BC
100
AcDbEntity
8
Geo
100
AcDbLine
10
-30.1665221162185
20
6.94000311783963
30
0.000000000000000
11
-30.0665221162185
21
6.87123267091864
31
0.000000000000000
  0
LINE
  5
F100BD
330
F100BE
100
AcDbEntity
8
Geo
100
AcDbLine
10
-30.0665221162185
20
6.87123267091864
30
0.000000000000000
11
-29.9665221162185
21
6.80126187323774
31
0.000000000000000
  0
LINE
  5
F100BF
330
F100C0
100
AcDbEntity
8
Geo
100
AcDbLine
10
-29.9665221162185
20
6.80126187323774
30
0.000000000000000
11
-29.8665221162185
21
6.73011016067970
31
0.000000000000000
  0
LINE
  5
F100C1
330
F100C2
100
AcDbEntity
8
Geo
100
AcDbLine
10
-29.8665221162185
20
6.73011016067970
30
0.000000000000000
11
-29.7665221162185
21
6.65779729715161
31
0.000000000000000
  0
LINE
  5
F100C3
330
F100C4
100
AcDbEntity
8
Geo
100
AcDbLine
10
-29.7665221162185
20
6.65779729715161
30
0.000000000000000
11
-29.6665221162185
21
6.58434336909504
31
0.000000000000000
  0
LINE
  5
F100C5
330
F100C6
100
AcDbEntity
8
Geo
100
AcDbLine
10
-29.6665221162185
20
6.58434336909504
30
0.000000000000000
11
-29.5665221162185
21
6.50976877990660
31
0.000000000000000
  0
LINE
  5
F100C7
330
F100C8
100
AcDbEntity
8
Geo
100
AcDbLine
10
-29.5665221162185
20
6.50976877990660
30
0.000000000000000
11
-29.4665221162185
21
6.43409424427042
31
0.000000000000000
  0
LINE
  5
F100C9
330
F100CA
100
AcDbEntity
8
Geo
100
AcDbLine
10
-29.4665221162185
20
6.43409424427042
30
0.000000000000000
11
-29.3665221162185
21
6.35734078240427
31
0.000000000000000
  0
LINE
  5
F100CB
330
F100CC
100
AcDbEntity
8
Geo
100
AcDbLine
10
-29.3665221162185
20
6.35734078240427
30
0.000000000000000
11
-29.2665221162185
21
6.27952971422069
31
0.000000000000000
  0
LINE
  5
F100CD
330
F100CE
100
AcDbEntity
8
Geo
100
AcDbLine
10
-29.2665221162185
20
6.27952971422069
30
0.000000000000000
11
-29.1665221162185
21
6.20068265340498
31
0.000000000000000
  0
LINE
  5
F100CF
330
F100D0
100
AcDbEntity
8
Geo
100
AcDbLine
10
-29.1665221162185
20
6.20068265340498
30
0.000000000000000
11
-29.0665221162186
21
6.12082150141147
31
0.000000000000000
  0
LINE
  5
F100D1
330
F100D2
100
AcDbEntity
8
Geo
100
AcDbLine
10
-29.0665221162186
20
6.12082150141147
30
0.000000000000000
11
-28.9665221162185
21
6.03996844138001
31
0.000000000000000
  0
LINE
  5
F100D3
330
F100D4
100
AcDbEntity
8
Geo
100
AcDbLine
10
-28.9665221162185
20
6.03996844138001
30
0.000000000000000
11
-28.8665221162185
21
5.95814593197404
31
0.000000000000000
  0
LINE
  5
F100D5
330
F100D6
100
AcDbEntity
8
Geo
100
AcDbLine
10
-28.8665221162185
20
5.95814593197404
30
0.000000000000000
11
-28.7665221162185
21
5.87537670114228
31
0.000000000000000
  0
LINE
  5
F100D7
330
F100D8
100
AcDbEntity
8
Geo
100
AcDbLine
10
-28.7665221162185
20
5.87537670114228
30
0.000000000000000
11
-28.6665221162186
21
5.79168373980555
31
0.000000000000000
  0
LINE
  5
F100D9
330
F100DA
100
AcDbEntity
8
Geo
100
AcDbLine
10
-28.6665221162186
20
5.79168373980555
30
0.000000000000000
11
-28.5665221162186
21
5.70709029547050
31
0.000000000000000
  0
LINE
  5
F100DB
330
F100DC
100
AcDbEntity
8
Geo
100
AcDbLine
10
-28.5665221162186
20
5.70709029547050
30
0.000000000000000
11
-28.4665221162185
21
5.62161986577219
31
0.000000000000000
  0
LINE
  5
F100DD
330
F100DE
100
AcDbEntity
8
Geo
100
AcDbLine
10
-28.4665221162185
20
5.62161986577219
30
0.000000000000000
11
-28.3665221162186
21
5.53529619194707
31
0.000000000000000
  0
LINE
  5
F100DF
330
F100E0
100
AcDbEntity
8
Geo
100
AcDbLine
10
-28.3665221162186
20
5.53529619194707
30
0.000000000000000
11
-28.2665221162186
21
5.44814325223837
31
0.000000000000000
  0
LINE
  5
F100E1
330
F100E2
100
AcDbEntity
8
Geo
100
AcDbLine
10
-28.2665221162186
20
5.44814325223837
30
0.000000000000000
11
-28.1665221162186
21
5.36018525523561
31
0.000000000000000
  0
LINE
  5
F100E3
330
F100E4
100
AcDbEntity
8
Geo
100
AcDbLine
10
-28.1665221162186
20
5.36018525523561
30
0.000000000000000
11
-28.0665221162186
21
5.27144663315017
31
0.000000000000000
  0
LINE
  5
F100E5
330
F100E6
100
AcDbEntity
8
Geo
100
AcDbLine
10
-28.0665221162186
20
5.27144663315017
30
0.000000000000000
11
-27.9665221162186
21
5.18195203502872
31
0.000000000000000
  0
LINE
  5
F100E7
330
F100E8
100
AcDbEntity
8
Geo
100
AcDbLine
10
-27.9665221162186
20
5.18195203502872
30
0.000000000000000
11
-27.8665221162186
21
5.09172631990638
31
0.000000000000000
  0
LINE
  5
F100E9
330
F100EA
100
AcDbEntity
8
Geo
100
AcDbLine
10
-27.8665221162186
20
5.09172631990638
30
0.000000000000000
11
-27.7665221162186
21
5.00079454990165
31
0.000000000000000
  0
LINE
  5
F100EB
330
F100EC
100
AcDbEntity
8
Geo
100
AcDbLine
10
-27.7665221162186
20
5.00079454990165
30
0.000000000000000
11
-27.6665221162186
21
4.90918198325486
31
0.000000000000000
  0
LINE
  5
F100ED
330
F100EE
100
AcDbEntity
8
Geo
100
AcDbLine
10
-27.6665221162186
20
4.90918198325486
30
0.000000000000000
11
-27.5665221162186
21
4.81691406731210
31
0.000000000000000
  0
LINE
  5
F100EF
330
F100F0
100
AcDbEntity
8
Geo
100
AcDbLine
10
-27.5665221162186
20
4.81691406731210
30
0.000000000000000
11
-27.4665221162186
21
4.72401643145675
31
0.000000000000000
  0
LINE
  5
F100F1
330
F100F2
100
AcDbEntity
8
Geo
100
AcDbLine
10
-27.4665221162186
20
4.72401643145675
30
0.000000000000000
11
-27.3665221162186
21
4.63051487999033
31
0.000000000000000
  0
LINE
  5
F100F3
330
F100F4
100
AcDbEntity
8
Geo
100
AcDbLine
10
-27.3665221162186
20
4.63051487999033
30
0.000000000000000
11
-27.2665221162186
21
4.53643538496481
31
0.000000000000000
  0
LINE
  5
F100F5
330
F100F6
100
AcDbEntity
8
Geo
100
AcDbLine
10
-27.2665221162186
20
4.53643538496481
30
0.000000000000000
11
-27.1665221162186
21
4.44180407896832
31
0.000000000000000
  0
LINE
  5
F100F7
330
F100F8
100
AcDbEntity
8
Geo
100
AcDbLine
10
-27.1665221162186
20
4.44180407896832
30
0.000000000000000
11
-27.0665221162186
21
4.34664724786628
31
0.000000000000000
  0
LINE
  5
F100F9
330
F100FA
100
AcDbEntity
8
Geo
100
AcDbLine
10
-27.0665221162186
20
4.34664724786628
30
0.000000000000000
11
-26.9665221162186
21
4.25099132349991
31
0.000000000000000
  0
LINE
  5
F100FB
330
F100FC
100
AcDbEntity
8
Geo
100
AcDbLine
10
-26.9665221162186
20
4.25099132349991
30
0.000000000000000
11
-26.8665221162186
21
4.15486287634424
31
0.000000000000000
  0
LINE
  5
F100FD
330
F100FE
100
AcDbEntity
8
Geo
100
AcDbLine
10
-26.8665221162186
20
4.15486287634424
30
0.000000000000000
11
-26.7665221162186
21
4.05828860812761
31
0.000000000000000
  0
LINE
  5
F100FF
330
F10100
100
AcDbEntity
8
Geo
100
AcDbLine
10
-26.7665221162186
20
4.05828860812761
30
0.000000000000000
11
-26.6665221162186
21
3.96129534441465
31
0.000000000000000
  0
LINE
  5
F10101
330
F10102
100
AcDbEntity
8
Geo
100
AcDbLine
10
-26.6665221162186
20
3.96129534441465
30
0.000000000000000
11
-26.5665221162186
21
3.86391002715497
31
0.000000000000000
  0
LINE
  5
F10103
330
F10104
100
AcDbEntity
8
Geo
100
AcDbLine
10
-26.5665221162186
20
3.86391002715497
30
0.000000000000000
11
-26.4665221162186
21
3.76615970719938
31
0.000000000000000
  0
LINE
  5
F10105
330
F10106
100
AcDbEntity
8
Geo
100
AcDbLine
10
-26.4665221162186
20
3.76615970719938
30
0.000000000000000
11
-26.3665221162186
21
3.66807153678601
31
0.000000000000000
  0
LINE
  5
F10107
330
F10108
100
AcDbEntity
8
Geo
100
AcDbLine
10
-26.3665221162186
20
3.66807153678601
30
0.000000000000000
11
-26.2665221162186
21
3.56967276199816
31
0.000000000000000
  0
LINE
  5
F10109
330
F1010A
100
AcDbEntity
8
Geo
100
AcDbLine
10
-26.2665221162186
20
3.56967276199816
30
0.000000000000000
11
-26.1665221162186
21
3.47099071519613
31
0.000000000000000
  0
LINE
  5
F1010B
330
F1010C
100
AcDbEntity
8
Geo
100
AcDbLine
10
-26.1665221162186
20
3.47099071519613
30
0.000000000000000
11
-26.0665221162186
21
3.37205280742505
31
0.000000000000000
  0
LINE
  5
F1010D
330
F1010E
100
AcDbEntity
8
Geo
100
AcDbLine
10
-26.0665221162186
20
3.37205280742505
30
0.000000000000000
11
-25.9665221162186
21
3.27288652080092
31
0.000000000000000
  0
LINE
  5
F1010F
330
F10110
100
AcDbEntity
8
Geo
100
AcDbLine
10
-25.9665221162186
20
3.27288652080092
30
0.000000000000000
11
-25.8665221162186
21
3.17351940087682
31
0.000000000000000
  0
LINE
  5
F10111
330
F10112
100
AcDbEntity
8
Geo
100
AcDbLine
10
-25.8665221162186
20
3.17351940087682
30
0.000000000000000
11
-25.7665221162186
21
3.07397904899160
31
0.000000000000000
  0
LINE
  5
F10113
330
F10114
100
AcDbEntity
8
Geo
100
AcDbLine
10
-25.7665221162186
20
3.07397904899160
30
0.000000000000000
11
-25.6665221162186
21
2.97429311460294
31
0.000000000000000
  0
LINE
  5
F10115
330
F10116
100
AcDbEntity
8
Geo
100
AcDbLine
10
-25.6665221162186
20
2.97429311460294
30
0.000000000000000
11
-25.5665221162186
21
2.87448928760720
31
0.000000000000000
  0
LINE
  5
F10117
330
F10118
100
AcDbEntity
8
Geo
100
AcDbLine
10
-25.5665221162186
20
2.87448928760720
30
0.000000000000000
11
-25.4665221162186
21
2.77459529064792
31
0.000000000000000
  0
LINE
  5
F10119
330
F1011A
100
AcDbEntity
8
Geo
100
AcDbLine
10
-25.4665221162186
20
2.77459529064792
30
0.000000000000000
11
-25.3665221162186
21
2.67463887141527
31
0.000000000000000
  0
LINE
  5
F1011B
330
F1011C
100
AcDbEntity
8
Geo
100
AcDbLine
10
-25.3665221162186
20
2.67463887141527
30
0.000000000000000
11
-25.2665221162186
21
2.57464779493855
31
0.000000000000000
  0
LINE
  5
F1011D
330
F1011E
100
AcDbEntity
8
Geo
100
AcDbLine
10
-25.2665221162186
20
2.57464779493855
30
0.000000000000000
11
-25.1665221162186
21
2.47464983587384
31
0.000000000000000
  0
LINE
  5
F1011F
330
F10120
100
AcDbEntity
8
Geo
100
AcDbLine
10
-25.1665221162186
20
2.47464983587384
30
0.000000000000000
11
-25.0665221162186
21
2.37467277078899
31
0.000000000000000
  0
LINE
  5
F10121
330
F10122
100
AcDbEntity
8
Geo
100
AcDbLine
10
-25.0665221162186
20
2.37467277078899
30
0.000000000000000
11
-24.9665221162186
21
2.27474437044813
31
0.000000000000000
  0
LINE
  5
F10123
330
F10124
100
AcDbEntity
8
Geo
100
AcDbLine
10
-24.9665221162186
20
2.27474437044813
30
0.000000000000000
11
-24.8665221162186
21
2.17489239209770
31
0.000000000000000
  0
LINE
  5
F10125
330
F10126
100
AcDbEntity
8
Geo
100
AcDbLine
10
-24.8665221162186
20
2.17489239209770
30
0.000000000000000
11
-24.7665221162186
21
2.07514457175632
31
0.000000000000000
  0
LINE
  5
F10127
330
F10128
100
AcDbEntity
8
Geo
100
AcDbLine
10
-24.7665221162186
20
2.07514457175632
30
0.000000000000000
11
-24.6665221162186
21
1.97552861651047
31
0.000000000000000
  0
LINE
  5
F10129
330
F1012A
100
AcDbEntity
8
Geo
100
AcDbLine
10
-24.6665221162186
20
1.97552861651047
30
0.000000000000000
11
-24.5665221162186
21
1.87607219681831
31
0.000000000000000
  0
LINE
  5
F1012B
330
F1012C
100
AcDbEntity
8
Geo
100
AcDbLine
10
-24.5665221162186
20
1.87607219681831
30
0.000000000000000
11
-24.4665221162186
21
1.77680293882358
31
0.000000000000000
  0
LINE
  5
F1012D
330
F1012E
100
AcDbEntity
8
Geo
100
AcDbLine
10
-24.4665221162186
20
1.77680293882358
30
0.000000000000000
11
-24.3665221162186
21
1.67774841668186
31
0.000000000000000
  0
LINE
  5
F1012F
330
F10130
100
AcDbEntity
8
Geo
100
AcDbLine
10
-24.3665221162186
20
1.67774841668186
30
0.000000000000000
11
-24.2665221162186
21
1.57893614490129
31
0.000000000000000
  0
LINE
  5
F10131
330
F10132
100
AcDbEntity
8
Geo
100
AcDbLine
10
-24.2665221162186
20
1.57893614490129
30
0.000000000000000
11
-24.1665221162186
21
1.48039357069977
31
0.000000000000000
  0
LINE
  5
F10133
330
F10134
100
AcDbEntity
8
Geo
100
AcDbLine
10
-24.1665221162186
20
1.48039357069977
30
0.000000000000000
11
-24.0665221162186
21
1.38214806638095
31
0.000000000000000
  0
LINE
  5
F10135
330
F10136
100
AcDbEntity
8
Geo
100
AcDbLine
10
-24.0665221162186
20
1.38214806638095
30
0.000000000000000
11
-23.9665221162186
21
1.28422692173099
31
0.000000000000000
  0
LINE
  5
F10137
330
F10138
100
AcDbEntity
8
Geo
100
AcDbLine
10
-23.9665221162186
20
1.28422692173099
30
0.000000000000000
11
-23.8665221162186
21
1.18665733643820
31
0.000000000000000
  0
LINE
  5
F10139
330
F1013A
100
AcDbEntity
8
Geo
100
AcDbLine
10
-23.8665221162186
20
1.18665733643820
30
0.000000000000000
11
-23.7665221162186
21
1.08946641253781
31
0.000000000000000
  0
LINE
  5
F1013B
330
F1013C
100
AcDbEntity
8
Geo
100
AcDbLine
10
-23.7665221162186
20
1.08946641253781
30
0.000000000000000
11
-23.6665221162186
21
0.992681146883726
31
0.000000000000000
  0
LINE
  5
F1013D
330
F1013E
100
AcDbEntity
8
Geo
100
AcDbLine
10
-34.6665221162185
20
5.50634499461496
30
0.000000000000000
11
-34.5665221162185
21
5.46285471651774
31
0.000000000000000
  0
LINE
  5
F1013F
330
F10140
100
AcDbEntity
8
Geo
100
AcDbLine
10
-34.5665221162185
20
5.46285471651774
30
0.000000000000000
11
-34.5665221162185
21
5.46285471651774
31
0.000000000000000
  0
LINE
  5
F10141
330
F10142
100
AcDbEntity
8
Geo
100
AcDbLine
10
-34.5665221162185
20
5.46285471651774
30
0.000000000000000
11
-34.4665221162185
21
5.37503038472147
31
0.000000000000000
  0
LINE
  5
F10143
330
F10144
100
AcDbEntity
8
Geo
100
AcDbLine
10
-34.4665221162185
20
5.37503038472147
30
0.000000000000000
11
-34.3665221162185
21
5.28642130429089
31
0.000000000000000
  0
LINE
  5
F10145
330
F10146
100
AcDbEntity
8
Geo
100
AcDbLine
10
-34.3665221162185
20
5.28642130429089
30
0.000000000000000
11
-34.2665221162185
21
5.19705208828971
31
0.000000000000000
  0
LINE
  5
F10147
330
F10148
100
AcDbEntity
8
Geo
100
AcDbLine
10
-34.2665221162185
20
5.19705208828971
30
0.000000000000000
11
-34.1665221162185
21
5.10694756092550
31
0.000000000000000
  0
LINE
  5
F10149
330
F1014A
100
AcDbEntity
8
Geo
100
AcDbLine
10
-34.1665221162185
20
5.10694756092550
30
0.000000000000000
11
-34.0665221162185
21
5.01613275065427
31
0.000000000000000
  0
LINE
  5
F1014B
330
F1014C
100
AcDbEntity
8
Geo
100
AcDbLine
10
-34.0665221162185
20
5.01613275065427
30
0.000000000000000
11
-33.9665221162185
21
4.92463288322828
31
0.000000000000000
  0
LINE
  5
F1014D
330
F1014E
100
AcDbEntity
8
Geo
100
AcDbLine
10
-33.9665221162185
20
4.92463288322828
30
0.000000000000000
11
-33.8665221162185
21
4.83247337468901
31
0.000000000000000
  0
LINE
  5
F1014F
330
F10150
100
AcDbEntity
8
Geo
100
AcDbLine
10
-33.8665221162185
20
4.83247337468901
30
0.000000000000000
11
-33.7665221162185
21
4.73967982430737
31
0.000000000000000
  0
LINE
  5
F10151
330
F10152
100
AcDbEntity
8
Geo
100
AcDbLine
10
-33.7665221162185
20
4.73967982430737
30
0.000000000000000
11
-33.6665221162185
21
4.64627800747292
31
0.000000000000000
  0
LINE
  5
F10153
330
F10154
100
AcDbEntity
8
Geo
100
AcDbLine
10
-33.6665221162185
20
4.64627800747292
30
0.000000000000000
11
-33.5665221162185
21
4.55229386853420
31
0.000000000000000
  0
LINE
  5
F10155
330
F10156
100
AcDbEntity
8
Geo
100
AcDbLine
10
-33.5665221162185
20
4.55229386853420
30
0.000000000000000
11
-33.4665221162185
21
4.45775351359215
31
0.000000000000000
  0
LINE
  5
F10157
330
F10158
100
AcDbEntity
8
Geo
100
AcDbLine
10
-33.4665221162185
20
4.45775351359215
30
0.000000000000000
11
-33.3665221162185
21
4.36268320324860
31
0.000000000000000
  0
LINE
  5
F10159
330
F1015A
100
AcDbEntity
8
Geo
100
AcDbLine
10
-33.3665221162185
20
4.36268320324860
30
0.000000000000000
11
-33.2665221162185
21
4.26710934531178
31
0.000000000000000
  0
LINE
  5
F1015B
330
F1015C
100
AcDbEntity
8
Geo
100
AcDbLine
10
-33.2665221162185
20
4.26710934531178
30
0.000000000000000
11
-33.1665221162185
21
4.17105848746102
31
0.000000000000000
  0
LINE
  5
F1015D
330
F1015E
100
AcDbEntity
8
Geo
100
AcDbLine
10
-33.1665221162185
20
4.17105848746102
30
0.000000000000000
11
-33.0665221162185
21
4.07455730987257
31
0.000000000000000
  0
LINE
  5
F1015F
330
F10160
100
AcDbEntity
8
Geo
100
AcDbLine
10
-33.0665221162185
20
4.07455730987257
30
0.000000000000000
11
-32.9665221162185
21
3.97763261780859
31
0.000000000000000
  0
LINE
  5
F10161
330
F10162
100
AcDbEntity
8
Geo
100
AcDbLine
10
-32.9665221162185
20
3.97763261780859
30
0.000000000000000
11
-32.8665221162185
21
3.88031133417142
31
0.000000000000000
  0
LINE
  5
F10163
330
F10164
100
AcDbEntity
8
Geo
100
AcDbLine
10
-32.8665221162185
20
3.88031133417142
30
0.000000000000000
11
-32.7665221162185
21
3.78262049202520
31
0.000000000000000
  0
LINE
  5
F10165
330
F10166
100
AcDbEntity
8
Geo
100
AcDbLine
10
-32.7665221162185
20
3.78262049202520
30
0.000000000000000
11
-32.6665221162185
21
3.68458722708681
31
0.000000000000000
  0
LINE
  5
F10167
330
F10168
100
AcDbEntity
8
Geo
100
AcDbLine
10
-32.6665221162185
20
3.68458722708681
30
0.000000000000000
11
-32.5665221162185
21
3.58623877018839
31
0.000000000000000
  0
LINE
  5
F10169
330
F1016A
100
AcDbEntity
8
Geo
100
AcDbLine
10
-32.5665221162185
20
3.58623877018839
30
0.000000000000000
11
-32.4665221162185
21
3.48760243971336
31
0.000000000000000
  0
LINE
  5
F1016B
330
F1016C
100
AcDbEntity
8
Geo
100
AcDbLine
10
-32.4665221162185
20
3.48760243971336
30
0.000000000000000
11
-32.3665221162185
21
3.38870563400817
31
0.000000000000000
  0
LINE
  5
F1016D
330
F1016E
100
AcDbEntity
8
Geo
100
AcDbLine
10
-32.3665221162185
20
3.38870563400817
30
0.000000000000000
11
-32.2665221162185
21
3.28957582377185
31
0.000000000000000
  0
LINE
  5
F1016F
330
F10170
100
AcDbEntity
8
Geo
100
AcDbLine
10
-32.2665221162185
20
3.28957582377185
30
0.000000000000000
11
-32.1665221162185
21
3.19024054442538
31
0.000000000000000
  0
LINE
  5
F10171
330
F10172
100
AcDbEntity
8
Geo
100
AcDbLine
10
-32.1665221162185
20
3.19024054442538
30
0.000000000000000
11
-32.0665221162185
21
3.09072738846321
31
0.000000000000000
  0
LINE
  5
F10173
330
F10174
100
AcDbEntity
8
Geo
100
AcDbLine
10
-32.0665221162185
20
3.09072738846321
30
0.000000000000000
11
-31.9665221162185
21
2.99106399778877
31
0.000000000000000
  0
LINE
  5
F10175
330
F10176
100
AcDbEntity
8
Geo
100
AcDbLine
10
-31.9665221162185
20
2.99106399778877
30
0.000000000000000
11
-31.8665221162185
21
2.89127805603642
31
0.000000000000000
  0
LINE
  5
F10177
330
F10178
100
AcDbEntity
8
Geo
100
AcDbLine
10
-31.8665221162185
20
2.89127805603642
30
0.000000000000000
11
-31.7665221162185
21
2.79139728088171
31
0.000000000000000
  0
LINE
  5
F10179
330
F1017A
100
AcDbEntity
8
Geo
100
AcDbLine
10
-31.7665221162185
20
2.79139728088171
30
0.000000000000000
11
-31.6665221162185
21
2.69144941634215
31
0.000000000000000
  0
LINE
  5
F1017B
330
F1017C
100
AcDbEntity
8
Geo
100
AcDbLine
10
-31.6665221162185
20
2.69144941634215
30
0.000000000000000
11
-31.5665221162185
21
2.59146222507079
31
0.000000000000000
  0
LINE
  5
F1017D
330
F1017E
100
AcDbEntity
8
Geo
100
AcDbLine
10
-31.5665221162185
20
2.59146222507079
30
0.000000000000000
11
-31.4665221162185
21
2.49146348064452
31
0.000000000000000
  0
LINE
  5
F1017F
330
F10180
100
AcDbEntity
8
Geo
100
AcDbLine
10
-31.4665221162185
20
2.49146348064452
30
0.000000000000000
11
-31.3665221162185
21
2.39148095984934
31
0.000000000000000
  0
LINE
  5
F10181
330
F10182
100
AcDbEntity
8
Geo
100
AcDbLine
10
-31.3665221162185
20
2.39148095984934
30
0.000000000000000
11
-31.2665221162185
21
2.29154243496483
31
0.000000000000000
  0
LINE
  5
F10183
330
F10184
100
AcDbEntity
8
Geo
100
AcDbLine
10
-31.2665221162185
20
2.29154243496483
30
0.000000000000000
11
-31.1665221162185
21
2.19167566604973
31
0.000000000000000
  0
LINE
  5
F10185
330
F10186
100
AcDbEntity
8
Geo
100
AcDbLine
10
-31.1665221162185
20
2.19167566604973
30
0.000000000000000
11
-31.0665221162185
21
2.09190839323105
31
0.000000000000000
  0
LINE
  5
F10187
330
F10188
100
AcDbEntity
8
Geo
100
AcDbLine
10
-31.0665221162185
20
2.09190839323105
30
0.000000000000000
11
-30.9665221162185
21
1.99226832899861
31
0.000000000000000
  0
LINE
  5
F10189
330
F1018A
100
AcDbEntity
8
Geo
100
AcDbLine
10
-30.9665221162185
20
1.99226832899861
30
0.000000000000000
11
-30.8665221162185
21
1.89278315050736
31
0.000000000000000
  0
LINE
  5
F1018B
330
F1018C
100
AcDbEntity
8
Geo
100
AcDbLine
10
-30.8665221162185
20
1.89278315050736
30
0.000000000000000
11
-30.7665221162185
21
1.79348049188941
31
0.000000000000000
  0
LINE
  5
F1018D
330
F1018E
100
AcDbEntity
8
Geo
100
AcDbLine
10
-30.7665221162185
20
1.79348049188941
30
0.000000000000000
11
-30.6665221162185
21
1.69438793657809
31
0.000000000000000
  0
LINE
  5
F1018F
330
F10190
100
AcDbEntity
8
Geo
100
AcDbLine
10
-30.6665221162185
20
1.69438793657809
30
0.000000000000000
11
-30.5665221162185
21
1.59553300964605
31
0.000000000000000
  0
LINE
  5
F10191
330
F10192
100
AcDbEntity
8
Geo
100
AcDbLine
10
-30.5665221162185
20
1.59553300964605
30
0.000000000000000
11
-30.4665221162185
21
1.49694317015956
31
0.000000000000000
  0
LINE
  5
F10193
330
F10194
100
AcDbEntity
8
Geo
100
AcDbLine
10
-30.4665221162185
20
1.49694317015956
30
0.000000000000000
11
-30.3665221162185
21
1.39864580355123
31
0.000000000000000
  0
LINE
  5
F10195
330
F10196
100
AcDbEntity
8
Geo
100
AcDbLine
10
-30.3665221162185
20
1.39864580355123
30
0.000000000000000
11
-30.2665221162185
21
1.30066821401306
31
0.000000000000000
  0
LINE
  5
F10197
330
F10198
100
AcDbEntity
8
Geo
100
AcDbLine
10
-30.2665221162185
20
1.30066821401306
30
0.000000000000000
11
-30.1665221162185
21
1.20303761691216
31
0.000000000000000
  0
LINE
  5
F10199
330
F1019A
100
AcDbEntity
8
Geo
100
AcDbLine
10
-30.1665221162185
20
1.20303761691216
30
0.000000000000000
11
-30.0665221162185
21
1.10578113123106
31
0.000000000000000
  0
LINE
  5
F1019B
330
F1019C
100
AcDbEntity
8
Geo
100
AcDbLine
10
-30.0665221162185
20
1.10578113123106
30
0.000000000000000
11
-29.9665221162185
21
1.00892577203488
31
0.000000000000000
  0
LINE
  5
F1019D
330
F1019E
100
AcDbEntity
8
Geo
100
AcDbLine
10
-29.9665221162185
20
1.00892577203488
30
0.000000000000000
11
-29.8665221162185
21
0.912498442967273
31
0.000000000000000
  0
LINE
  5
F1019F
330
F101A0
100
AcDbEntity
8
Geo
100
AcDbLine
10
-29.8665221162185
20
0.912498442967273
30
0.000000000000000
11
-29.7665221162185
21
0.816525928777409
31
0.000000000000000
  0
LINE
  5
F101A1
330
F101A2
100
AcDbEntity
8
Geo
100
AcDbLine
10
-29.7665221162185
20
0.816525928777409
30
0.000000000000000
11
-29.6665221162185
21
0.721034887879902
31
0.000000000000000
  0
LINE
  5
F101A3
330
F101A4
100
AcDbEntity
8
Geo
100
AcDbLine
10
-29.6665221162185
20
0.721034887879902
30
0.000000000000000
11
-29.5665221162185
21
0.626051844949886
31
0.000000000000000
  0
LINE
  5
F101A5
330
F101A6
100
AcDbEntity
8
Geo
100
AcDbLine
10
-29.5665221162185
20
0.626051844949886
30
0.000000000000000
11
-29.4665221162185
21
0.531603183555213
31
0.000000000000000
  0
LINE
  5
F101A7
330
F101A8
100
AcDbEntity
8
Geo
100
AcDbLine
10
-29.4665221162185
20
0.531603183555213
30
0.000000000000000
11
-29.3665221162185
21
0.437715138827855
31
0.000000000000000
  0
LINE
  5
F101A9
330
F101AA
100
AcDbEntity
8
Geo
100
AcDbLine
10
-29.3665221162185
20
0.437715138827855
30
0.000000000000000
11
-29.2665221162185
21
0.344413790176540
31
0.000000000000000
  0
LINE
  5
F101AB
330
F101AC
100
AcDbEntity
8
Geo
100
AcDbLine
10
-29.2665221162185
20
0.344413790176540
30
0.000000000000000
11
-29.1665221162185
21
0.251725054042632
31
0.000000000000000
  0
LINE
  5
F101AD
330
F101AE
100
AcDbEntity
8
Geo
100
AcDbLine
10
-29.1665221162185
20
0.251725054042632
30
0.000000000000000
11
-29.0665221162186
21
0.159674676701292
31
0.000000000000000
  0
LINE
  5
F101AF
330
F101B0
100
AcDbEntity
8
Geo
100
AcDbLine
10
-29.0665221162186
20
0.159674676701292
30
0.000000000000000
11
-28.9665221162185
21
0.0682882271099023
31
0.000000000000000
  0
LINE
  5
F101B1
330
F101B2
100
AcDbEntity
8
Geo
100
AcDbLine
10
-28.9665221162185
20
0.0682882271099023
30
0.000000000000000
11
-28.8665221162185
21
-0.0224089101942662
31
0.000000000000000
  0
LINE
  5
F101B3
330
F101B4
100
AcDbEntity
8
Geo
100
AcDbLine
10
-28.8665221162185
20
-0.0224089101942662
30
0.000000000000000
11
-28.7665221162185
21
-0.112391542145142
31
0.000000000000000
  0
LINE
  5
F101B5
330
F101B6
100
AcDbEntity
8
Geo
100
AcDbLine
10
-28.7665221162185
20
-0.112391542145142
30
0.000000000000000
11
-28.6665221162186
21
-0.201634674145772
31
0.000000000000000
  0
LINE
  5
F101B7
330
F101B8
100
AcDbEntity
8
Geo
100
AcDbLine
10
-28.6665221162186
20
-0.201634674145772
30
0.000000000000000
11
-28.5665221162186
21
-0.290113517011097
31
0.000000000000000
  0
LINE
  5
F101B9
330
F101BA
100
AcDbEntity
8
Geo
100
AcDbLine
10
-28.5665221162186
20
-0.290113517011097
30
0.000000000000000
11
-28.4665221162185
21
-0.377803493853683
31
0.000000000000000
  0
LINE
  5
F101BB
330
F101BC
100
AcDbEntity
8
Geo
100
AcDbLine
10
-28.4665221162185
20
-0.377803493853683
30
0.000000000000000
11
-28.3665221162186
21
-0.464680246910474
31
0.000000000000000
  0
LINE
  5
F101BD
330
F101BE
100
AcDbEntity
8
Geo
100
AcDbLine
10
-28.3665221162186
20
-0.464680246910474
30
0.000000000000000
11
-28.2665221162186
21
-0.550719644308683
31
0.000000000000000
  0
LINE
  5
F101BF
330
F101C0
100
AcDbEntity
8
Geo
100
AcDbLine
10
-28.2665221162186
20
-0.550719644308683
30
0.000000000000000
11
-28.1665221162186
21
-0.635897786768929
31
0.000000000000000
  0
LINE
  5
F101C1
330
F101C2
100
AcDbEntity
8
Geo
100
AcDbLine
10
-28.1665221162186
20
-0.635897786768929
30
0.000000000000000
11
-28.0665221162186
21
-0.720191014243779
31
0.000000000000000
  0
LINE
  5
F101C3
330
F101C4
100
AcDbEntity
8
Geo
100
AcDbLine
10
-28.0665221162186
20
-0.720191014243779
30
0.000000000000000
11
-27.9665221162186
21
-0.803575912489826
31
0.000000000000000
  0
LINE
  5
F101C5
330
F101C6
100
AcDbEntity
8
Geo
100
AcDbLine
10
-27.9665221162186
20
-0.803575912489826
30
0.000000000000000
11
-27.8665221162186
21
-0.886029319571501
31
0.000000000000000
  0
LINE
  5
F101C7
330
F101C8
100
AcDbEntity
8
Geo
100
AcDbLine
10
-27.8665221162186
20
-0.886029319571501
30
0.000000000000000
11
-27.7665221162186
21
-0.967528332294787
31
0.000000000000000
  0
LINE
  5
F101C9
330
F101CA
100
AcDbEntity
8
Geo
100
AcDbLine
10
-27.7665221162186
20
-0.967528332294787
30
0.000000000000000
11
-27.6665221162186
21
-1.04805031256908
31
0.000000000000000
  0
LINE
  5
F101CB
330
F101CC
100
AcDbEntity
8
Geo
100
AcDbLine
10
-27.6665221162186
20
-1.04805031256908
30
0.000000000000000
11
-27.5665221162186
21
-1.12757289369538
31
0.000000000000000
  0
LINE
  5
F101CD
330
F101CE
100
AcDbEntity
8
Geo
100
AcDbLine
10
-27.5665221162186
20
-1.12757289369538
30
0.000000000000000
11
-27.4665221162186
21
-1.20607398657916
31
0.000000000000000
  0
LINE
  5
F101CF
330
F101D0
100
AcDbEntity
8
Geo
100
AcDbLine
10
-27.4665221162186
20
-1.20607398657916
30
0.000000000000000
11
-27.3665221162186
21
-1.28353178586604
31
0.000000000000000
  0
LINE
  5
F101D1
330
F101D2
100
AcDbEntity
8
Geo
100
AcDbLine
10
-27.3665221162186
20
-1.28353178586604
30
0.000000000000000
11
-27.2665221162186
21
-1.35992477599871
31
0.000000000000000
  0
LINE
  5
F101D3
330
F101D4
100
AcDbEntity
8
Geo
100
AcDbLine
10
-27.2665221162186
20
-1.35992477599871
30
0.000000000000000
11
-27.1665221162186
21
-1.43523173719335
31
0.000000000000000
  0
LINE
  5
F101D5
330
F101D6
100
AcDbEntity
8
Geo
100
AcDbLine
10
-27.1665221162186
20
-1.43523173719335
30
0.000000000000000
11
-27.0665221162186
21
-1.50943175133385
31
0.000000000000000
  0
LINE
  5
F101D7
330
F101D8
100
AcDbEntity
8
Geo
100
AcDbLine
10
-27.0665221162186
20
-1.50943175133385
30
0.000000000000000
11
-26.9665221162186
21
-1.58250420778227
31
0.000000000000000
  0
LINE
  5
F101D9
330
F101DA
100
AcDbEntity
8
Geo
100
AcDbLine
10
-26.9665221162186
20
-1.58250420778227
30
0.000000000000000
11
-26.8665221162186
21
-1.65442880910389
31
0.000000000000000
  0
LINE
  5
F101DB
330
F101DC
100
AcDbEntity
8
Geo
100
AcDbLine
10
-26.8665221162186
20
-1.65442880910389
30
0.000000000000000
11
-26.7665221162186
21
-1.72518557670527
31
0.000000000000000
  0
LINE
  5
F101DD
330
F101DE
100
AcDbEntity
8
Geo
100
AcDbLine
10
-26.7665221162186
20
-1.72518557670527
30
0.000000000000000
11
-26.6665221162186
21
-1.79475485638371
31
0.000000000000000
  0
LINE
  5
F101DF
330
F101E0
100
AcDbEntity
8
Geo
100
AcDbLine
10
-26.6665221162186
20
-1.79475485638371
30
0.000000000000000
11
-26.5665221162186
21
-1.86311732378662
31
0.000000000000000
  0
LINE
  5
F101E1
330
F101E2
100
AcDbEntity
8
Geo
100
AcDbLine
10
-26.5665221162186
20
-1.86311732378662
30
0.000000000000000
11
-26.4665221162186
21
-1.93025398977929
31
0.000000000000000
  0
LINE
  5
F101E3
330
F101E4
100
AcDbEntity
8
Geo
100
AcDbLine
10
-26.4665221162186
20
-1.93025398977929
30
0.000000000000000
11
-26.3665221162186
21
-1.99614620571953
31
0.000000000000000
  0
LINE
  5
F101E5
330
F101E6
100
AcDbEntity
8
Geo
100
AcDbLine
10
-26.3665221162186
20
-1.99614620571953
30
0.000000000000000
11
-26.2665221162186
21
-2.06077566863771
31
0.000000000000000
  0
LINE
  5
F101E7
330
F101E8
100
AcDbEntity
8
Geo
100
AcDbLine
10
-26.2665221162186
20
-2.06077566863771
30
0.000000000000000
11
-26.1665221162186
21
-2.12412442632079
31
0.000000000000000
  0
LINE
  5
F101E9
330
F101EA
100
AcDbEntity
8
Geo
100
AcDbLine
10
-26.1665221162186
20
-2.12412442632079
30
0.000000000000000
11
-26.0665221162186
21
-2.18617488229899
31
0.000000000000000
  0
LINE
  5
F101EB
330
F101EC
100
AcDbEntity
8
Geo
100
AcDbLine
10
-26.0665221162186
20
-2.18617488229899
30
0.000000000000000
11
-25.9665221162186
21
-2.24690980073351
31
0.000000000000000
  0
LINE
  5
F101ED
330
F101EE
100
AcDbEntity
8
Geo
100
AcDbLine
10
-25.9665221162186
20
-2.24690980073351
30
0.000000000000000
11
-25.8665221162186
21
-2.30631231120420
31
0.000000000000000
  0
LINE
  5
F101EF
330
F101F0
100
AcDbEntity
8
Geo
100
AcDbLine
10
-25.8665221162186
20
-2.30631231120420
30
0.000000000000000
11
-25.7665221162186
21
-2.36436591339566
31
0.000000000000000
  0
LINE
  5
F101F1
330
F101F2
100
AcDbEntity
8
Geo
100
AcDbLine
10
-25.7665221162186
20
-2.36436591339566
30
0.000000000000000
11
-25.6665221162186
21
-2.42105448168056
31
0.000000000000000
  0
LINE
  5
F101F3
330
F101F4
100
AcDbEntity
8
Geo
100
AcDbLine
10
-25.6665221162186
20
-2.42105448168056
30
0.000000000000000
11
-25.5665221162186
21
-2.47636226959890
31
0.000000000000000
  0
LINE
  5
F101F5
330
F101F6
100
AcDbEntity
8
Geo
100
AcDbLine
10
-25.5665221162186
20
-2.47636226959890
30
0.000000000000000
11
-25.4665221162186
21
-2.53027391423188
31
0.000000000000000
  0
LINE
  5
F101F7
330
F101F8
100
AcDbEntity
8
Geo
100
AcDbLine
10
-25.4665221162186
20
-2.53027391423188
30
0.000000000000000
11
-25.3665221162186
21
-2.58277444046930
31
0.000000000000000
  0
LINE
  5
F101F9
330
F101FA
100
AcDbEntity
8
Geo
100
AcDbLine
10
-25.3665221162186
20
-2.58277444046930
30
0.000000000000000
11
-25.2665221162186
21
-2.63384926516924
31
0.000000000000000
  0
LINE
  5
F101FB
330
F101FC
100
AcDbEntity
8
Geo
100
AcDbLine
10
-25.2665221162186
20
-2.63384926516924
30
0.000000000000000
11
-25.1665221162186
21
-2.68348420120879
31
0.000000000000000
  0
LINE
  5
F101FD
330
F101FE
100
AcDbEntity
8
Geo
100
AcDbLine
10
-25.1665221162186
20
-2.68348420120879
30
0.000000000000000
11
-25.0665221162186
21
-2.73166546142487
31
0.000000000000000
  0
LINE
  5
F101FF
330
F10200
100
AcDbEntity
8
Geo
100
AcDbLine
10
-25.0665221162186
20
-2.73166546142487
30
0.000000000000000
11
-24.9665221162186
21
-2.77837966244391
31
0.000000000000000
  0
LINE
  5
F10201
330
F10202
100
AcDbEntity
8
Geo
100
AcDbLine
10
-24.9665221162186
20
-2.77837966244391
30
0.000000000000000
11
-24.8665221162186
21
-2.82361382839931
31
0.000000000000000
  0
LINE
  5
F10203
330
F10204
100
AcDbEntity
8
Geo
100
AcDbLine
10
-24.8665221162186
20
-2.82361382839931
30
0.000000000000000
11
-24.7665221162186
21
-2.86735539453584
31
0.000000000000000
  0
LINE
  5
F10205
330
F10206
100
AcDbEntity
8
Geo
100
AcDbLine
10
-24.7665221162186
20
-2.86735539453584
30
0.000000000000000
11
-24.6665221162186
21
-2.90959221069971
31
0.000000000000000
  0
LINE
  5
F10207
330
F10208
100
AcDbEntity
8
Geo
100
AcDbLine
10
-24.6665221162186
20
-2.90959221069971
30
0.000000000000000
11
-24.5665221162186
21
-2.95031254471358
31
0.000000000000000
  0
LINE
  5
F10209
330
F1020A
100
AcDbEntity
8
Geo
100
AcDbLine
10
-24.5665221162186
20
-2.95031254471358
30
0.000000000000000
11
-24.4665221162186
21
-2.98950508563538
31
0.000000000000000
  0
LINE
  5
F1020B
330
F1020C
100
AcDbEntity
8
Geo
100
AcDbLine
10
-24.4665221162186
20
-2.98950508563538
30
0.000000000000000
11
-24.3665221162186
21
-3.02715894690018
31
0.000000000000000
  0
LINE
  5
F1020D
330
F1020E
100
AcDbEntity
8
Geo
100
AcDbLine
10
-24.3665221162186
20
-3.02715894690018
30
0.000000000000000
11
-24.2665221162186
21
-3.06326366934422
31
0.000000000000000
  0
LINE
  5
F1020F
330
F10210
100
AcDbEntity
8
Geo
100
AcDbLine
10
-24.2665221162186
20
-3.06326366934422
30
0.000000000000000
11
-24.1665221162186
21
-3.09780922411006
31
0.000000000000000
  0
LINE
  5
F10211
330
F10212
100
AcDbEntity
8
Geo
100
AcDbLine
10
-24.1665221162186
20
-3.09780922411006
30
0.000000000000000
11
-24.0665221162186
21
-3.13078601543239
31
0.000000000000000
  0
LINE
  5
F10213
330
F10214
100
AcDbEntity
8
Geo
100
AcDbLine
10
-24.0665221162186
20
-3.13078601543239
30
0.000000000000000
11
-23.9665221162186
21
-3.16218488330346
31
0.000000000000000
  0
LINE
  5
F10215
330
F10216
100
AcDbEntity
8
Geo
100
AcDbLine
10
-23.9665221162186
20
-3.16218488330346
30
0.000000000000000
11
-23.8665221162186
21
-3.19199710601740
31
0.000000000000000
  0
LINE
  5
F10217
330
F10218
100
AcDbEntity
8
Geo
100
AcDbLine
10
-23.8665221162186
20
-3.19199710601740
30
0.000000000000000
11
-23.7665221162186
21
-3.22021440259294
31
0.000000000000000
  0
LINE
  5
F10219
330
F1021A
100
AcDbEntity
8
Geo
100
AcDbLine
10
-23.7665221162186
20
-3.22021440259294
30
0.000000000000000
11
-23.6665221162186
21
-3.24682893507357
31
0.000000000000000
  0
LINE
  5
F1021B
330
F1021C
100
AcDbEntity
8
Geo
100
AcDbLine
10
-34.6665221162185
20
-0.423646842982230
30
0.000000000000000
11
-34.5665221162185
21
-0.536311969438885
31
0.000000000000000
  0
LINE
  5
F1021D
330
F1021E
100
AcDbEntity
8
Geo
100
AcDbLine
10
-34.5665221162185
20
-0.536311969438885
30
0.000000000000000
11
-34.5665221162185
21
-0.536311969438885
31
0.000000000000000
  0
LINE
  5
F1021F
330
F10220
100
AcDbEntity
8
Geo
100
AcDbLine
10
-34.5665221162185
20
-0.536311969438885
30
0.000000000000000
11
-34.4665221162185
21
-0.621636590575756
31
0.000000000000000
  0
LINE
  5
F10221
330
F10222
100
AcDbEntity
8
Geo
100
AcDbLine
10
-34.4665221162185
20
-0.621636590575756
30
0.000000000000000
11
-34.3665221162185
21
-0.706080258078918
31
0.000000000000000
  0
LINE
  5
F10223
330
F10224
100
AcDbEntity
8
Geo
100
AcDbLine
10
-34.3665221162185
20
-0.706080258078918
30
0.000000000000000
11
-34.2665221162185
21
-0.789619515917037
31
0.000000000000000
  0
LINE
  5
F10225
330
F10226
100
AcDbEntity
8
Geo
100
AcDbLine
10
-34.2665221162185
20
-0.789619515917037
30
0.000000000000000
11
-34.1665221162185
21
-0.872231159277868
31
0.000000000000000
  0
LINE
  5
F10227
330
F10228
100
AcDbEntity
8
Geo
100
AcDbLine
10
-34.1665221162185
20
-0.872231159277868
30
0.000000000000000
11
-34.0665221162185
21
-0.953892241013892
31
0.000000000000000
  0
LINE
  5
F10229
330
F1022A
100
AcDbEntity
8
Geo
100
AcDbLine
10
-34.0665221162185
20
-0.953892241013892
30
0.000000000000000
11
-33.9665221162185
21
-1.03458007801637
31
0.000000000000000
  0
LINE
  5
F1022B
330
F1022C
100
AcDbEntity
8
Geo
100
AcDbLine
10
-33.9665221162185
20
-1.03458007801637
30
0.000000000000000
11
-33.8665221162185
21
-1.11427225751608
31
0.000000000000000
  0
LINE
  5
F1022D
330
F1022E
100
AcDbEntity
8
Geo
100
AcDbLine
10
-33.8665221162185
20
-1.11427225751608
30
0.000000000000000
11
-33.7665221162185
21
-1.19294664330889
31
0.000000000000000
  0
LINE
  5
F1022F
330
F10230
100
AcDbEntity
8
Geo
100
AcDbLine
10
-33.7665221162185
20
-1.19294664330889
30
0.000000000000000
11
-33.6665221162185
21
-1.27058138190464
31
0.000000000000000
  0
LINE
  5
F10231
330
F10232
100
AcDbEntity
8
Geo
100
AcDbLine
10
-33.6665221162185
20
-1.27058138190464
30
0.000000000000000
11
-33.5665221162185
21
-1.34715490859735
31
0.000000000000000
  0
LINE
  5
F10233
330
F10234
100
AcDbEntity
8
Geo
100
AcDbLine
10
-33.5665221162185
20
-1.34715490859735
30
0.000000000000000
11
-33.4665221162185
21
-1.42264595345530
31
0.000000000000000
  0
LINE
  5
F10235
330
F10236
100
AcDbEntity
8
Geo
100
AcDbLine
10
-33.4665221162185
20
-1.42264595345530
30
0.000000000000000
11
-33.3665221162185
21
-1.49703354722922
31
0.000000000000000
  0
LINE
  5
F10237
330
F10238
100
AcDbEntity
8
Geo
100
AcDbLine
10
-33.3665221162185
20
-1.49703354722922
30
0.000000000000000
11
-33.2665221162185
21
-1.57029702717693
31
0.000000000000000
  0
LINE
  5
F10239
330
F1023A
100
AcDbEntity
8
Geo
100
AcDbLine
10
-33.2665221162185
20
-1.57029702717693
30
0.000000000000000
11
-33.1665221162185
21
-1.64241604280285
31
0.000000000000000
  0
LINE
  5
F1023B
330
F1023C
100
AcDbEntity
8
Geo
100
AcDbLine
10
-33.1665221162185
20
-1.64241604280285
30
0.000000000000000
11
-33.0665221162185
21
-1.71337056151082
31
0.000000000000000
  0
LINE
  5
F1023D
330
F1023E
100
AcDbEntity
8
Geo
100
AcDbLine
10
-33.0665221162185
20
-1.71337056151082
30
0.000000000000000
11
-32.9665221162185
21
-1.78314087416853
31
0.000000000000000
  0
LINE
  5
F1023F
330
F10240
100
AcDbEntity
8
Geo
100
AcDbLine
10
-32.9665221162185
20
-1.78314087416853
30
0.000000000000000
11
-32.8665221162185
21
-1.85170760058222
31
0.000000000000000
  0
LINE
  5
F10241
330
F10242
100
AcDbEntity
8
Geo
100
AcDbLine
10
-32.8665221162185
20
-1.85170760058222
30
0.000000000000000
11
-32.7665221162185
21
-1.91905169487986
31
0.000000000000000
  0
LINE
  5
F10243
330
F10244
100
AcDbEntity
8
Geo
100
AcDbLine
10
-32.7665221162185
20
-1.91905169487986
30
0.000000000000000
11
-32.6665221162185
21
-1.98515445080162
31
0.000000000000000
  0
LINE
  5
F10245
330
F10246
100
AcDbEntity
8
Geo
100
AcDbLine
10
-32.6665221162185
20
-1.98515445080162
30
0.000000000000000
11
-32.5665221162185
21
-2.04999750689589
31
0.000000000000000
  0
LINE
  5
F10247
330
F10248
100
AcDbEntity
8
Geo
100
AcDbLine
10
-32.5665221162185
20
-2.04999750689589
30
0.000000000000000
11
-32.4665221162185
21
-2.11356285161958
31
0.000000000000000
  0
LINE
  5
F10249
330
F1024A
100
AcDbEntity
8
Geo
100
AcDbLine
10
-32.4665221162185
20
-2.11356285161958
30
0.000000000000000
11
-32.3665221162185
21
-2.17583282834123
31
0.000000000000000
  0
LINE
  5
F1024B
330
F1024C
100
AcDbEntity
8
Geo
100
AcDbLine
10
-32.3665221162185
20
-2.17583282834123
30
0.000000000000000
11
-32.2665221162185
21
-2.23679014024546
31
0.000000000000000
  0
LINE
  5
F1024D
330
F1024E
100
AcDbEntity
8
Geo
100
AcDbLine
10
-32.2665221162185
20
-2.23679014024546
30
0.000000000000000
11
-32.1665221162185
21
-2.29641785513760
31
0.000000000000000
  0
LINE
  5
F1024F
330
F10250
100
AcDbEntity
8
Geo
100
AcDbLine
10
-32.1665221162185
20
-2.29641785513760
30
0.000000000000000
11
-32.0665221162185
21
-2.35469941014690
31
0.000000000000000
  0
LINE
  5
F10251
330
F10252
100
AcDbEntity
8
Geo
100
AcDbLine
10
-32.0665221162185
20
-2.35469941014690
30
0.000000000000000
11
-31.9665221162185
21
-2.41161861632730
31
0.000000000000000
  0
LINE
  5
F10253
330
F10254
100
AcDbEntity
8
Geo
100
AcDbLine
10
-31.9665221162185
20
-2.41161861632730
30
0.000000000000000
11
-31.8665221162185
21
-2.46715966315415
31
0.000000000000000
  0
LINE
  5
F10255
330
F10256
100
AcDbEntity
8
Geo
100
AcDbLine
10
-31.8665221162185
20
-2.46715966315415
30
0.000000000000000
11
-31.7665221162185
21
-2.52130712291604
31
0.000000000000000
  0
LINE
  5
F10257
330
F10258
100
AcDbEntity
8
Geo
100
AcDbLine
10
-31.7665221162185
20
-2.52130712291604
30
0.000000000000000
11
-31.6665221162185
21
-2.57404595500009
31
0.000000000000000
  0
LINE
  5
F10259
330
F1025A
100
AcDbEntity
8
Geo
100
AcDbLine
10
-31.6665221162185
20
-2.57404595500009
30
0.000000000000000
11
-31.5665221162185
21
-2.62536151006982
31
0.000000000000000
  0
LINE
  5
F1025B
330
F1025C
100
AcDbEntity
8
Geo
100
AcDbLine
10
-31.5665221162185
20
-2.62536151006982
30
0.000000000000000
11
-31.4665221162185
21
-2.67523953413434
31
0.000000000000000
  0
LINE
  5
F1025D
330
F1025E
100
AcDbEntity
8
Geo
100
AcDbLine
10
-31.4665221162185
20
-2.67523953413434
30
0.000000000000000
11
-31.3665221162185
21
-2.72366617250769
31
0.000000000000000
  0
LINE
  5
F1025F
330
F10260
100
AcDbEntity
8
Geo
100
AcDbLine
10
-31.3665221162185
20
-2.72366617250769
30
0.000000000000000
11
-31.2665221162185
21
-2.77062797365724
31
0.000000000000000
  0
LINE
  5
F10261
330
F10262
100
AcDbEntity
8
Geo
100
AcDbLine
10
-31.2665221162185
20
-2.77062797365724
30
0.000000000000000
11
-31.1665221162185
21
-2.81611189294021
31
0.000000000000000
  0
LINE
  5
F10263
330
F10264
100
AcDbEntity
8
Geo
100
AcDbLine
10
-31.1665221162185
20
-2.81611189294021
30
0.000000000000000
11
-31.0665221162185
21
-2.86010529622702
31
0.000000000000000
  0
LINE
  5
F10265
330
F10266
100
AcDbEntity
8
Geo
100
AcDbLine
10
-31.0665221162185
20
-2.86010529622702
30
0.000000000000000
11
-30.9665221162185
21
-2.90259596341076
31
0.000000000000000
  0
LINE
  5
F10267
330
F10268
100
AcDbEntity
8
Geo
100
AcDbLine
10
-30.9665221162185
20
-2.90259596341076
30
0.000000000000000
11
-30.8665221162185
21
-2.94357209180153
31
0.000000000000000
  0
LINE
  5
F10269
330
F1026A
100
AcDbEntity
8
Geo
100
AcDbLine
10
-30.8665221162185
20
-2.94357209180153
30
0.000000000000000
11
-30.7665221162185
21
-2.98302229940492
31
0.000000000000000
  0
LINE
  5
F1026B
330
F1026C
100
AcDbEntity
8
Geo
100
AcDbLine
10
-30.7665221162185
20
-2.98302229940492
30
0.000000000000000
11
-30.6665221162185
21
-3.02093562808359
31
0.000000000000000
  0
LINE
  5
F1026D
330
F1026E
100
AcDbEntity
8
Geo
100
AcDbLine
10
-30.6665221162185
20
-3.02093562808359
30
0.000000000000000
11
-30.5665221162185
21
-3.05730154660114
31
0.000000000000000
  0
LINE
  5
F1026F
330
F10270
100
AcDbEntity
8
Geo
100
AcDbLine
10
-30.5665221162185
20
-3.05730154660114
30
0.000000000000000
11
-30.4665221162185
21
-3.09210995354736
31
0.000000000000000
  0
LINE
  5
F10271
330
F10272
100
AcDbEntity
8
Geo
100
AcDbLine
10
-30.4665221162185
20
-3.09210995354736
30
0.000000000000000
11
-30.3665221162185
21
-3.12535118014415
31
0.000000000000000
  0
LINE
  5
F10273
330
F10274
100
AcDbEntity
8
Geo
100
AcDbLine
10
-30.3665221162185
20
-3.12535118014415
30
0.000000000000000
11
-30.2665221162185
21
-3.15701599293119
31
0.000000000000000
  0
LINE
  5
F10275
330
F10276
100
AcDbEntity
8
Geo
100
AcDbLine
10
-30.2665221162185
20
-3.15701599293119
30
0.000000000000000
11
-30.1665221162185
21
-3.18709559633076
31
0.000000000000000
  0
LINE
  5
F10277
330
F10278
100
AcDbEntity
8
Geo
100
AcDbLine
10
-30.1665221162185
20
-3.18709559633076
30
0.000000000000000
11
-30.0665221162185
21
-3.21558163509087
31
0.000000000000000
  0
LINE
  5
F10279
330
F1027A
100
AcDbEntity
8
Geo
100
AcDbLine
10
-30.0665221162185
20
-3.21558163509087
30
0.000000000000000
11
-29.9665221162185
21
-3.24246619660615
31
0.000000000000000
  0
LINE
  5
F1027B
330
F1027C
100
AcDbEntity
8
Geo
100
AcDbLine
10
-29.9665221162185
20
-3.24246619660615
30
0.000000000000000
11
-29.8665221162185
21
-3.26774181311571
31
0.000000000000000
  0
LINE
  5
F1027D
330
F1027E
100
AcDbEntity
8
Geo
100
AcDbLine
10
-29.8665221162185
20
-3.26774181311571
30
0.000000000000000
11
-29.7665221162185
21
-3.29140146377749
31
0.000000000000000
  0
LINE
  5
F1027F
330
F10280
100
AcDbEntity
8
Geo
100
AcDbLine
10
-29.7665221162185
20
-3.29140146377749
30
0.000000000000000
11
-29.6665221162185
21
-3.31343857661843
31
0.000000000000000
  0
LINE
  5
F10281
330
F10282
100
AcDbEntity
8
Geo
100
AcDbLine
10
-29.6665221162185
20
-3.31343857661843
30
0.000000000000000
11
-29.5665221162185
21
-3.33384703036000
31
0.000000000000000
  0
LINE
  5
F10283
330
F10284
100
AcDbEntity
8
Geo
100
AcDbLine
10
-29.5665221162185
20
-3.33384703036000
30
0.000000000000000
11
-29.4665221162185
21
-3.35262115611849
31
0.000000000000000
  0
LINE
  5
F10285
330
F10286
100
AcDbEntity
8
Geo
100
AcDbLine
10
-29.4665221162185
20
-3.35262115611849
30
0.000000000000000
11
-29.3665221162185
21
-3.36975573897970
31
0.000000000000000
  0
LINE
  5
F10287
330
F10288
100
AcDbEntity
8
Geo
100
AcDbLine
10
-29.3665221162185
20
-3.36975573897970
30
0.000000000000000
11
-29.2665221162185
21
-3.38524601944744
31
0.000000000000000
  0
LINE
  5
F10289
330
F1028A
100
AcDbEntity
8
Geo
100
AcDbLine
10
-29.2665221162185
20
-3.38524601944744
30
0.000000000000000
11
-29.1665221162185
21
-3.39908769476563
31
0.000000000000000
  0
LINE
  5
F1028B
330
F1028C
100
AcDbEntity
8
Geo
100
AcDbLine
10
-29.1665221162185
20
-3.39908769476563
30
0.000000000000000
11
-29.0665221162186
21
-3.41127692011347
31
0.000000000000000
  0
LINE
  5
F1028D
330
F1028E
100
AcDbEntity
8
Geo
100
AcDbLine
10
-29.0665221162186
20
-3.41127692011347
30
0.000000000000000
11
-28.9665221162185
21
-3.42181030967339
31
0.000000000000000
  0
LINE
  5
F1028F
330
F10290
100
AcDbEntity
8
Geo
100
AcDbLine
10
-28.9665221162185
20
-3.42181030967339
30
0.000000000000000
11
-28.8665221162185
21
-3.43068493757159
31
0.000000000000000
  0
LINE
  5
F10291
330
F10292
100
AcDbEntity
8
Geo
100
AcDbLine
10
-28.8665221162185
20
-3.43068493757159
30
0.000000000000000
11
-28.7665221162185
21
-3.43789833869071
31
0.000000000000000
  0
LINE
  5
F10293
330
F10294
100
AcDbEntity
8
Geo
100
AcDbLine
10
-28.7665221162185
20
-3.43789833869071
30
0.000000000000000
11
-28.6665221162186
21
-3.44344850935460
31
0.000000000000000
  0
LINE
  5
F10295
330
F10296
100
AcDbEntity
8
Geo
100
AcDbLine
10
-28.6665221162186
20
-3.44344850935460
30
0.000000000000000
11
-28.5665221162186
21
-3.44733390788488
31
0.000000000000000
  0
LINE
  5
F10297
330
F10298
100
AcDbEntity
8
Geo
100
AcDbLine
10
-28.5665221162186
20
-3.44733390788488
30
0.000000000000000
11
-28.4665221162185
21
-3.44955345502915
31
0.000000000000000
  0
LINE
  5
F10299
330
F1029A
100
AcDbEntity
8
Geo
100
AcDbLine
10
-28.4665221162185
20
-3.44955345502915
30
0.000000000000000
11
-28.3833372388376
21
-3.45013009540330
31
0.000000000000000
  0
LINE
  5
F1029B
330
F1029C
100
AcDbEntity
8
Geo
100
AcDbLine
10
-28.3833372388375
20
8.54986990459670
30
0.000000000000000
11
-28.3665221162186
21
8.54984634345424
31
0.000000000000000
  0
LINE
  5
F1029D
330
F1029E
100
AcDbEntity
8
Geo
100
AcDbLine
10
-28.3665221162186
20
8.54984634345424
30
0.000000000000000
11
-28.2665221162186
21
8.54873280114374
31
0.000000000000000
  0
LINE
  5
F1029F
330
F102A0
100
AcDbEntity
8
Geo
100
AcDbLine
10
-28.2665221162186
20
8.54873280114374
30
0.000000000000000
11
-28.1665221162186
21
8.54595294660123
31
0.000000000000000
  0
LINE
  5
F102A1
330
F102A2
100
AcDbEntity
8
Geo
100
AcDbLine
10
-28.1665221162186
20
8.54595294660123
30
0.000000000000000
11
-28.0665221162186
21
8.54150755199064
31
0.000000000000000
  0
LINE
  5
F102A3
330
F102A4
100
AcDbEntity
8
Geo
100
AcDbLine
10
-28.0665221162186
20
8.54150755199064
30
0.000000000000000
11
-27.9665221162186
21
8.53539785211523
31
0.000000000000000
  0
LINE
  5
F102A5
330
F102A6
100
AcDbEntity
8
Geo
100
AcDbLine
10
-27.9665221162186
20
8.53539785211523
30
0.000000000000000
11
-27.8665221162186
21
8.52762554407457
31
0.000000000000000
  0
LINE
  5
F102A7
330
F102A8
100
AcDbEntity
8
Geo
100
AcDbLine
10
-27.8665221162186
20
8.52762554407457
30
0.000000000000000
11
-27.7665221162186
21
8.51819278679313
31
0.000000000000000
  0
LINE
  5
F102A9
330
F102AA
100
AcDbEntity
8
Geo
100
AcDbLine
10
-27.7665221162186
20
8.51819278679313
30
0.000000000000000
11
-27.6665221162186
21
8.50710220042063
31
0.000000000000000
  0
LINE
  5
F102AB
330
F102AC
100
AcDbEntity
8
Geo
100
AcDbLine
10
-27.6665221162186
20
8.50710220042063
30
0.000000000000000
11
-27.5665221162186
21
8.49435686560417
31
0.000000000000000
  0
LINE
  5
F102AD
330
F102AE
100
AcDbEntity
8
Geo
100
AcDbLine
10
-27.5665221162186
20
8.49435686560417
30
0.000000000000000
11
-27.4665221162186
21
8.47996032263260
31
0.000000000000000
  0
LINE
  5
F102AF
330
F102B0
100
AcDbEntity
8
Geo
100
AcDbLine
10
-27.4665221162186
20
8.47996032263260
30
0.000000000000000
11
-27.3665221162186
21
8.46391657045306
31
0.000000000000000
  0
LINE
  5
F102B1
330
F102B2
100
AcDbEntity
8
Geo
100
AcDbLine
10
-27.3665221162186
20
8.46391657045306
30
0.000000000000000
11
-27.2665221162186
21
8.44623006556022
31
0.000000000000000
  0
LINE
  5
F102B3
330
F102B4
100
AcDbEntity
8
Geo
100
AcDbLine
10
-27.2665221162186
20
8.44623006556022
30
0.000000000000000
11
-27.1665221162186
21
8.42690572075837
31
0.000000000000000
  0
LINE
  5
F102B5
330
F102B6
100
AcDbEntity
8
Geo
100
AcDbLine
10
-27.1665221162186
20
8.42690572075837
30
0.000000000000000
11
-27.0665221162186
21
8.40594890379682
31
0.000000000000000
  0
LINE
  5
F102B7
330
F102B8
100
AcDbEntity
8
Geo
100
AcDbLine
10
-27.0665221162186
20
8.40594890379682
30
0.000000000000000
11
-26.9665221162186
21
8.38336543587886
31
0.000000000000000
  0
LINE
  5
F102B9
330
F102BA
100
AcDbEntity
8
Geo
100
AcDbLine
10
-26.9665221162186
20
8.38336543587886
30
0.000000000000000
11
-26.8665221162186
21
8.35916159004482
31
0.000000000000000
  0
LINE
  5
F102BB
330
F102BC
100
AcDbEntity
8
Geo
100
AcDbLine
10
-26.8665221162186
20
8.35916159004482
30
0.000000000000000
11
-26.7665221162186
21
8.33334408942957
31
0.000000000000000
  0
LINE
  5
F102BD
330
F102BE
100
AcDbEntity
8
Geo
100
AcDbLine
10
-26.7665221162186
20
8.33334408942957
30
0.000000000000000
11
-26.6665221162186
21
8.30592010539505
31
0.000000000000000
  0
LINE
  5
F102BF
330
F102C0
100
AcDbEntity
8
Geo
100
AcDbLine
10
-26.6665221162186
20
8.30592010539505
30
0.000000000000000
11
-26.5665221162186
21
8.27689725553827
31
0.000000000000000
  0
LINE
  5
F102C1
330
F102C2
100
AcDbEntity
8
Geo
100
AcDbLine
10
-26.5665221162186
20
8.27689725553827
30
0.000000000000000
11
-26.4665221162186
21
8.24628360157536
31
0.000000000000000
  0
LINE
  5
F102C3
330
F102C4
100
AcDbEntity
8
Geo
100
AcDbLine
10
-26.4665221162186
20
8.24628360157536
30
0.000000000000000
11
-26.3665221162186
21
8.21408764710224
31
0.000000000000000
  0
LINE
  5
F102C5
330
F102C6
100
AcDbEntity
8
Geo
100
AcDbLine
10
-26.3665221162186
20
8.21408764710224
30
0.000000000000000
11
-26.2665221162186
21
8.18031833523256
31
0.000000000000000
  0
LINE
  5
F102C7
330
F102C8
100
AcDbEntity
8
Geo
100
AcDbLine
10
-26.2665221162186
20
8.18031833523256
30
0.000000000000000
11
-26.1665221162186
21
8.14498504611361
31
0.000000000000000
  0
LINE
  5
F102C9
330
F102CA
100
AcDbEntity
8
Geo
100
AcDbLine
10
-26.1665221162186
20
8.14498504611361
30
0.000000000000000
11
-26.0665221162186
21
8.10809759432073
31
0.000000000000000
  0
LINE
  5
F102CB
330
F102CC
100
AcDbEntity
8
Geo
100
AcDbLine
10
-26.0665221162186
20
8.10809759432073
30
0.000000000000000
11
-25.9665221162186
21
8.06966622613112
31
0.000000000000000
  0
LINE
  5
F102CD
330
F102CE
100
AcDbEntity
8
Geo
100
AcDbLine
10
-25.9665221162186
20
8.06966622613112
30
0.000000000000000
11
-25.8665221162186
21
8.02970161667771
31
0.000000000000000
  0
LINE
  5
F102CF
330
F102D0
100
AcDbEntity
8
Geo
100
AcDbLine
10
-25.8665221162186
20
8.02970161667771
30
0.000000000000000
11
-25.7665221162186
21
7.98821486698394
31
0.000000000000000
  0
LINE
  5
F102D1
330
F102D2
100
AcDbEntity
8
Geo
100
AcDbLine
10
-25.7665221162186
20
7.98821486698394
30
0.000000000000000
11
-25.6665221162186
21
7.94521750088019
31
0.000000000000000
  0
LINE
  5
F102D3
330
F102D4
100
AcDbEntity
8
Geo
100
AcDbLine
10
-25.6665221162186
20
7.94521750088019
30
0.000000000000000
11
-25.5665221162186
21
7.90072146180279
31
0.000000000000000
  0
LINE
  5
F102D5
330
F102D6
100
AcDbEntity
8
Geo
100
AcDbLine
10
-25.5665221162186
20
7.90072146180279
30
0.000000000000000
11
-25.4665221162186
21
7.85473910947649
31
0.000000000000000
  0
LINE
  5
F102D7
330
F102D8
100
AcDbEntity
8
Geo
100
AcDbLine
10
-25.4665221162186
20
7.85473910947649
30
0.000000000000000
11
-25.3665221162186
21
7.80728321648127
31
0.000000000000000
  0
LINE
  5
F102D9
330
F102DA
100
AcDbEntity
8
Geo
100
AcDbLine
10
-25.3665221162186
20
7.80728321648127
30
0.000000000000000
11
-25.2665221162186
21
7.75836696470448
31
0.000000000000000
  0
LINE
  5
F102DB
330
F102DC
100
AcDbEntity
8
Geo
100
AcDbLine
10
-25.2665221162186
20
7.75836696470448
30
0.000000000000000
11
-25.1665221162186
21
7.70800394167932
31
0.000000000000000
  0
LINE
  5
F102DD
330
F102DE
100
AcDbEntity
8
Geo
100
AcDbLine
10
-25.1665221162186
20
7.70800394167932
30
0.000000000000000
11
-25.0665221162186
21
7.65620813681056
31
0.000000000000000
  0
LINE
  5
F102DF
330
F102E0
100
AcDbEntity
8
Geo
100
AcDbLine
10
-25.0665221162186
20
7.65620813681056
30
0.000000000000000
11
-24.9665221162186
21
7.60299393748873
31
0.000000000000000
  0
LINE
  5
F102E1
330
F102E2
100
AcDbEntity
8
Geo
100
AcDbLine
10
-24.9665221162186
20
7.60299393748873
30
0.000000000000000
11
-24.8665221162186
21
7.54837612509371
31
0.000000000000000
  0
LINE
  5
F102E3
330
F102E4
100
AcDbEntity
8
Geo
100
AcDbLine
10
-24.8665221162186
20
7.54837612509371
30
0.000000000000000
11
-24.7665221162186
21
7.49236987088886
31
0.000000000000000
  0
LINE
  5
F102E5
330
F102E6
100
AcDbEntity
8
Geo
100
AcDbLine
10
-24.7665221162186
20
7.49236987088886
30
0.000000000000000
11
-24.6665221162186
21
7.43499073180688
31
0.000000000000000
  0
LINE
  5
F102E7
330
F102E8
100
AcDbEntity
8
Geo
100
AcDbLine
10
-24.6665221162186
20
7.43499073180688
30
0.000000000000000
11
-24.5665221162186
21
7.37625464612858
31
0.000000000000000
  0
LINE
  5
F102E9
330
F102EA
100
AcDbEntity
8
Geo
100
AcDbLine
10
-24.5665221162186
20
7.37625464612858
30
0.000000000000000
11
-24.4665221162186
21
7.31617792905565
31
0.000000000000000
  0
LINE
  5
F102EB
330
F102EC
100
AcDbEntity
8
Geo
100
AcDbLine
10
-24.4665221162186
20
7.31617792905565
30
0.000000000000000
11
-24.3665221162186
21
7.25477726817874
31
0.000000000000000
  0
LINE
  5
F102ED
330
F102EE
100
AcDbEntity
8
Geo
100
AcDbLine
10
-24.3665221162186
20
7.25477726817874
30
0.000000000000000
11
-24.2665221162186
21
7.19206971884220
31
0.000000000000000
  0
LINE
  5
F102EF
330
F102F0
100
AcDbEntity
8
Geo
100
AcDbLine
10
-24.2665221162186
20
7.19206971884220
30
0.000000000000000
11
-24.1665221162186
21
7.12807269940652
31
0.000000000000000
  0
LINE
  5
F102F1
330
F102F2
100
AcDbEntity
8
Geo
100
AcDbLine
10
-24.1665221162186
20
7.12807269940652
30
0.000000000000000
11
-24.0665221162186
21
7.06280398641004
31
0.000000000000000
  0
LINE
  5
F102F3
330
F102F4
100
AcDbEntity
8
Geo
100
AcDbLine
10
-24.0665221162186
20
7.06280398641004
30
0.000000000000000
11
-23.9665221162186
21
6.99628170963114
31
0.000000000000000
  0
LINE
  5
F102F5
330
F102F6
100
AcDbEntity
8
Geo
100
AcDbLine
10
-23.9665221162186
20
6.99628170963114
30
0.000000000000000
11
-23.8665221162186
21
6.92852434705230
31
0.000000000000000
  0
LINE
  5
F102F7
330
F102F8
100
AcDbEntity
8
Geo
100
AcDbLine
10
-23.8665221162186
20
6.92852434705230
30
0.000000000000000
11
-23.7665221162186
21
6.85955071972745
31
0.000000000000000
  0
LINE
  5
F102F9
330
F102FA
100
AcDbEntity
8
Geo
100
AcDbLine
10
-23.7665221162186
20
6.85955071972745
30
0.000000000000000
11
-23.6665221162186
21
6.78937998655400
31
0.000000000000000
  0
LINE
  5
F102FB
330
F102FC
100
AcDbEntity
8
Geo
100
AcDbLine
10
-30.2682924788516
20
8.54986990459670
30
0.000000000000000
11
-30.2665221162185
21
8.54986964343763
31
0.000000000000000
  0
LINE
  5
F102FD
330
F102FE
100
AcDbEntity
8
Geo
100
AcDbLine
10
-30.2665221162185
20
8.54986964343763
30
0.000000000000000
11
-30.1665221162185
21
8.54900682604731
31
0.000000000000000
  0
LINE
  5
F102FF
330
F10300
100
AcDbEntity
8
Geo
100
AcDbLine
10
-30.1665221162185
20
8.54900682604731
30
0.000000000000000
11
-30.0665221162185
21
8.54647762030871
31
0.000000000000000
  0
LINE
  5
F10301
330
F10302
100
AcDbEntity
8
Geo
100
AcDbLine
10
-30.0665221162185
20
8.54647762030871
30
0.000000000000000
11
-29.9665221162185
21
8.54228272876271
31
0.000000000000000
  0
LINE
  5
F10303
330
F10304
100
AcDbEntity
8
Geo
100
AcDbLine
10
-29.9665221162185
20
8.54228272876271
30
0.000000000000000
11
-29.8665221162185
21
8.53642331662999
31
0.000000000000000
  0
LINE
  5
F10305
330
F10306
100
AcDbEntity
8
Geo
100
AcDbLine
10
-29.8665221162185
20
8.53642331662999
30
0.000000000000000
11
-29.7665221162185
21
8.52890101148735
31
0.000000000000000
  0
LINE
  5
F10307
330
F10308
100
AcDbEntity
8
Geo
100
AcDbLine
10
-29.7665221162185
20
8.52890101148735
30
0.000000000000000
11
-29.6665221162185
21
8.51971790281564
31
0.000000000000000
  0
LINE
  5
F10309
330
F1030A
100
AcDbEntity
8
Geo
100
AcDbLine
10
-29.6665221162185
20
8.51971790281564
30
0.000000000000000
11
-29.5665221162185
21
8.50887654141932
31
0.000000000000000
  0
LINE
  5
F1030B
330
F1030C
100
AcDbEntity
8
Geo
100
AcDbLine
10
-29.5665221162185
20
8.50887654141932
30
0.000000000000000
11
-29.4665221162185
21
8.49637993871797
31
0.000000000000000
  0
LINE
  5
F1030D
330
F1030E
100
AcDbEntity
8
Geo
100
AcDbLine
10
-29.4665221162185
20
8.49637993871797
30
0.000000000000000
11
-29.3665221162185
21
8.48223156590976
31
0.000000000000000
  0
LINE
  5
F1030F
330
F10310
100
AcDbEntity
8
Geo
100
AcDbLine
10
-29.3665221162185
20
8.48223156590976
30
0.000000000000000
11
-29.2665221162185
21
8.46643535300726
31
0.000000000000000
  0
LINE
  5
F10311
330
F10312
100
AcDbEntity
8
Geo
100
AcDbLine
10
-29.2665221162185
20
8.46643535300726
30
0.000000000000000
11
-29.1665221162185
21
8.44899568774584
31
0.000000000000000
  0
LINE
  5
F10313
330
F10314
100
AcDbEntity
8
Geo
100
AcDbLine
10
-29.1665221162185
20
8.44899568774584
30
0.000000000000000
11
-29.0665221162186
21
8.42991741436482
31
0.000000000000000
  0
LINE
  5
F10315
330
F10316
100
AcDbEntity
8
Geo
100
AcDbLine
10
-29.0665221162186
20
8.42991741436482
30
0.000000000000000
11
-28.9665221162185
21
8.40920583226190
31
0.000000000000000
  0
LINE
  5
F10317
330
F10318
100
AcDbEntity
8
Geo
100
AcDbLine
10
-28.9665221162185
20
8.40920583226190
30
0.000000000000000
11
-28.8665221162185
21
8.38686669452117
31
0.000000000000000
  0
LINE
  5
F10319
330
F1031A
100
AcDbEntity
8
Geo
100
AcDbLine
10
-28.8665221162185
20
8.38686669452117
30
0.000000000000000
11
-28.7665221162185
21
8.36290620631501
31
0.000000000000000
  0
LINE
  5
F1031B
330
F1031C
100
AcDbEntity
8
Geo
100
AcDbLine
10
-28.7665221162185
20
8.36290620631501
30
0.000000000000000
11
-28.6665221162186
21
8.33733102318054
31
0.000000000000000
  0
LINE
  5
F1031D
330
F1031E
100
AcDbEntity
8
Geo
100
AcDbLine
10
-28.6665221162186
20
8.33733102318054
30
0.000000000000000
11
-28.5665221162186
21
8.31014824917084
31
0.000000000000000
  0
LINE
  5
F1031F
330
F10320
100
AcDbEntity
8
Geo
100
AcDbLine
10
-28.5665221162186
20
8.31014824917084
30
0.000000000000000
11
-28.4665221162185
21
8.28136543488169
31
0.000000000000000
  0
LINE
  5
F10321
330
F10322
100
AcDbEntity
8
Geo
100
AcDbLine
10
-28.4665221162185
20
8.28136543488169
30
0.000000000000000
11
-28.3665221162186
21
8.25099057535420
31
0.000000000000000
  0
LINE
  5
F10323
330
F10324
100
AcDbEntity
8
Geo
100
AcDbLine
10
-28.3665221162186
20
8.25099057535420
30
0.000000000000000
11
-28.2665221162186
21
8.21903210785405
31
0.000000000000000
  0
LINE
  5
F10325
330
F10326
100
AcDbEntity
8
Geo
100
AcDbLine
10
-28.2665221162186
20
8.21903210785405
30
0.000000000000000
11
-28.1665221162186
21
8.18549890952782
31
0.000000000000000
  0
LINE
  5
F10327
330
F10328
100
AcDbEntity
8
Geo
100
AcDbLine
10
-28.1665221162186
20
8.18549890952782
30
0.000000000000000
11
-28.0665221162186
21
8.15040029493722
31
0.000000000000000
  0
LINE
  5
F10329
330
F1032A
100
AcDbEntity
8
Geo
100
AcDbLine
10
-28.0665221162186
20
8.15040029493722
30
0.000000000000000
11
-27.9665221162186
21
8.11374601347172
31
0.000000000000000
  0
LINE
  5
F1032B
330
F1032C
100
AcDbEntity
8
Geo
100
AcDbLine
10
-27.9665221162186
20
8.11374601347172
30
0.000000000000000
11
-27.8665221162186
21
8.07554624664048
31
0.000000000000000
  0
LINE
  5
F1032D
330
F1032E
100
AcDbEntity
8
Geo
100
AcDbLine
10
-27.8665221162186
20
8.07554624664048
30
0.000000000000000
11
-27.7665221162186
21
8.03581160524423
31
0.000000000000000
  0
LINE
  5
F1032F
330
F10330
100
AcDbEntity
8
Geo
100
AcDbLine
10
-27.7665221162186
20
8.03581160524423
30
0.000000000000000
11
-27.6665221162186
21
7.99455312642786
31
0.000000000000000
  0
LINE
  5
F10331
330
F10332
100
AcDbEntity
8
Geo
100
AcDbLine
10
-27.6665221162186
20
7.99455312642786
30
0.000000000000000
11
-27.5665221162186
21
7.95178227061464
31
0.000000000000000
  0
LINE
  5
F10333
330
F10334
100
AcDbEntity
8
Geo
100
AcDbLine
10
-27.5665221162186
20
7.95178227061464
30
0.000000000000000
11
-27.4665221162186
21
7.90751091832283
31
0.000000000000000
  0
LINE
  5
F10335
330
F10336
100
AcDbEntity
8
Geo
100
AcDbLine
10
-27.4665221162186
20
7.90751091832283
30
0.000000000000000
11
-27.3665221162186
21
7.86175136686563
31
0.000000000000000
  0
LINE
  5
F10337
330
F10338
100
AcDbEntity
8
Geo
100
AcDbLine
10
-27.3665221162186
20
7.86175136686563
30
0.000000000000000
11
-27.2665221162186
21
7.81451632693533
31
0.000000000000000
  0
LINE
  5
F10339
330
F1033A
100
AcDbEntity
8
Geo
100
AcDbLine
10
-27.2665221162186
20
7.81451632693533
30
0.000000000000000
11
-27.1665221162186
21
7.76581891907262
31
0.000000000000000
  0
LINE
  5
F1033B
330
F1033C
100
AcDbEntity
8
Geo
100
AcDbLine
10
-27.1665221162186
20
7.76581891907262
30
0.000000000000000
11
-27.0665221162186
21
7.71567267002212
31
0.000000000000000
  0
LINE
  5
F1033D
330
F1033E
100
AcDbEntity
8
Geo
100
AcDbLine
10
-27.0665221162186
20
7.71567267002212
30
0.000000000000000
11
-26.9665221162186
21
7.66409150897503
31
0.000000000000000
  0
LINE
  5
F1033F
330
F10340
100
AcDbEntity
8
Geo
100
AcDbLine
10
-26.9665221162186
20
7.66409150897503
30
0.000000000000000
11
-26.8665221162186
21
7.61108976369995
31
0.000000000000000
  0
LINE
  5
F10341
330
F10342
100
AcDbEntity
8
Geo
100
AcDbLine
10
-26.8665221162186
20
7.61108976369995
30
0.000000000000000
11
-26.7665221162186
21
7.55668215656312
31
0.000000000000000
  0
LINE
  5
F10343
330
F10344
100
AcDbEntity
8
Geo
100
AcDbLine
10
-26.7665221162186
20
7.55668215656312
30
0.000000000000000
11
-26.6665221162186
21
7.50088380043890
31
0.000000000000000
  0
LINE
  5
F10345
330
F10346
100
AcDbEntity
8
Geo
100
AcDbLine
10
-26.6665221162186
20
7.50088380043890
30
0.000000000000000
11
-26.5665221162186
21
7.44371019451188
31
0.000000000000000
  0
LINE
  5
F10347
330
F10348
100
AcDbEntity
8
Geo
100
AcDbLine
10
-26.5665221162186
20
7.44371019451188
30
0.000000000000000
11
-26.4665221162186
21
7.38517721997162
31
0.000000000000000
  0
LINE
  5
F10349
330
F1034A
100
AcDbEntity
8
Geo
100
AcDbLine
10
-26.4665221162186
20
7.38517721997162
30
0.000000000000000
11
-26.3665221162186
21
7.32530113560136
31
0.000000000000000
  0
LINE
  5
F1034B
330
F1034C
100
AcDbEntity
8
Geo
100
AcDbLine
10
-26.3665221162186
20
7.32530113560136
30
0.000000000000000
11
-26.2665221162186
21
7.26409857326176
31
0.000000000000000
  0
LINE
  5
F1034D
330
F1034E
100
AcDbEntity
8
Geo
100
AcDbLine
10
-26.2665221162186
20
7.26409857326176
30
0.000000000000000
11
-26.1665221162186
21
7.20158653327105
31
0.000000000000000
  0
LINE
  5
F1034F
330
F10350
100
AcDbEntity
8
Geo
100
AcDbLine
10
-26.1665221162186
20
7.20158653327105
30
0.000000000000000
11
-26.0665221162186
21
7.13778237968282
31
0.000000000000000
  0
LINE
  5
F10351
330
F10352
100
AcDbEntity
8
Geo
100
AcDbLine
10
-26.0665221162186
20
7.13778237968282
30
0.000000000000000
11
-25.9665221162186
21
7.07270383546282
31
0.000000000000000
  0
LINE
  5
F10353
330
F10354
100
AcDbEntity
8
Geo
100
AcDbLine
10
-25.9665221162186
20
7.07270383546282
30
0.000000000000000
11
-25.8665221162186
21
7.00636897756598
31
0.000000000000000
  0
LINE
  5
F10355
330
F10356
100
AcDbEntity
8
Geo
100
AcDbLine
10
-25.8665221162186
20
7.00636897756598
30
0.000000000000000
11
-25.7665221162186
21
6.93879623191520
31
0.000000000000000
  0
LINE
  5
F10357
330
F10358
100
AcDbEntity
8
Geo
100
AcDbLine
10
-25.7665221162186
20
6.93879623191520
30
0.000000000000000
11
-25.6665221162186
21
6.87000436828309
31
0.000000000000000
  0
LINE
  5
F10359
330
F1035A
100
AcDbEntity
8
Geo
100
AcDbLine
10
-25.6665221162186
20
6.87000436828309
30
0.000000000000000
11
-25.5665221162186
21
6.80001249507835
31
0.000000000000000
  0
LINE
  5
F1035B
330
F1035C
100
AcDbEntity
8
Geo
100
AcDbLine
10
-25.5665221162186
20
6.80001249507835
30
0.000000000000000
11
-25.4665221162186
21
6.72884005403792
31
0.000000000000000
  0
LINE
  5
F1035D
330
F1035E
100
AcDbEntity
8
Geo
100
AcDbLine
10
-25.4665221162186
20
6.72884005403792
30
0.000000000000000
11
-25.3665221162186
21
6.65650681482668
31
0.000000000000000
  0
LINE
  5
F1035F
330
F10360
100
AcDbEntity
8
Geo
100
AcDbLine
10
-25.3665221162186
20
6.65650681482668
30
0.000000000000000
11
-25.2665221162186
21
6.58303286954598
31
0.000000000000000
  0
LINE
  5
F10361
330
F10362
100
AcDbEntity
8
Geo
100
AcDbLine
10
-25.2665221162186
20
6.58303286954598
30
0.000000000000000
11
-25.1665221162186
21
6.50843862715262
31
0.000000000000000
  0
LINE
  5
F10363
330
F10364
100
AcDbEntity
8
Geo
100
AcDbLine
10
-25.1665221162186
20
6.50843862715262
30
0.000000000000000
11
-25.0665221162186
21
6.43274480778985
31
0.000000000000000
  0
LINE
  5
F10365
330
F10366
100
AcDbEntity
8
Geo
100
AcDbLine
10
-25.0665221162186
20
6.43274480778985
30
0.000000000000000
11
-24.9665221162186
21
6.35597243703191
31
0.000000000000000
  0
LINE
  5
F10367
330
F10368
100
AcDbEntity
8
Geo
100
AcDbLine
10
-24.9665221162186
20
6.35597243703191
30
0.000000000000000
11
-24.8665221162186
21
6.27814284004367
31
0.000000000000000
  0
LINE
  5
F10369
330
F1036A
100
AcDbEntity
8
Geo
100
AcDbLine
10
-24.8665221162186
20
6.27814284004367
30
0.000000000000000
11
-24.7665221162186
21
6.19927763565720
31
0.000000000000000
  0
LINE
  5
F1036B
330
F1036C
100
AcDbEntity
8
Geo
100
AcDbLine
10
-24.7665221162186
20
6.19927763565720
30
0.000000000000000
11
-24.6665221162186
21
6.11939873036662
31
0.000000000000000
  0
LINE
  5
F1036D
330
F1036E
100
AcDbEntity
8
Geo
100
AcDbLine
10
-24.6665221162186
20
6.11939873036662
30
0.000000000000000
11
-24.5665221162186
21
6.03852831224311
31
0.000000000000000
  0
LINE
  5
F1036F
330
F10370
100
AcDbEntity
8
Geo
100
AcDbLine
10
-24.5665221162186
20
6.03852831224311
30
0.000000000000000
11
-24.4665221162186
21
5.95668884477171
31
0.000000000000000
  0
LINE
  5
F10371
330
F10372
100
AcDbEntity
8
Geo
100
AcDbLine
10
-24.4665221162186
20
5.95668884477171
30
0.000000000000000
11
-24.3665221162186
21
5.87390306061159
31
0.000000000000000
  0
LINE
  5
F10373
330
F10374
100
AcDbEntity
8
Geo
100
AcDbLine
10
-24.3665221162186
20
5.87390306061159
30
0.000000000000000
11
-24.2665221162186
21
5.79019395528162
31
0.000000000000000
  0
LINE
  5
F10375
330
F10376
100
AcDbEntity
8
Geo
100
AcDbLine
10
-24.2665221162186
20
5.79019395528162
30
0.000000000000000
11
-24.1665221162186
21
5.70558478077278
31
0.000000000000000
  0
LINE
  5
F10377
330
F10378
100
AcDbEntity
8
Geo
100
AcDbLine
10
-24.1665221162186
20
5.70558478077278
30
0.000000000000000
11
-24.0665221162186
21
5.62009903908953
31
0.000000000000000
  0
LINE
  5
F10379
330
F1037A
100
AcDbEntity
8
Geo
100
AcDbLine
10
-24.0665221162186
20
5.62009903908953
30
0.000000000000000
11
-23.9665221162186
21
5.53376047572155
31
0.000000000000000
  0
LINE
  5
F1037B
330
F1037C
100
AcDbEntity
8
Geo
100
AcDbLine
10
-23.9665221162186
20
5.53376047572155
30
0.000000000000000
11
-23.8665221162186
21
5.44659307304795
31
0.000000000000000
  0
LINE
  5
F1037D
330
F1037E
100
AcDbEntity
8
Geo
100
AcDbLine
10
-23.8665221162186
20
5.44659307304795
30
0.000000000000000
11
-23.7665221162186
21
5.35862104367566
31
0.000000000000000
  0
LINE
  5
F1037F
330
F10380
100
AcDbEntity
8
Geo
100
AcDbLine
10
-23.7665221162186
20
5.35862104367566
30
0.000000000000000
11
-23.6665221162186
21
5.26986882371384
31
0.000000000000000
  0
LINE
  5
F10381
330
F10382
100
AcDbEntity
8
Geo
100
AcDbLine
10
-34.6665221162185
20
8.17898822884088
30
0.000000000000000
11
-34.5665221162185
21
8.22451620479340
31
0.000000000000000
  0
LINE
  5
F10383
330
F10384
100
AcDbEntity
8
Geo
100
AcDbLine
10
-34.5665221162185
20
8.22451620479340
30
0.000000000000000
11
-34.5665221162185
21
8.22451620479340
31
0.000000000000000
  0
LINE
  5
F10385
330
F10386
100
AcDbEntity
8
Geo
100
AcDbLine
10
-34.5665221162185
20
8.22451620479340
30
0.000000000000000
11
-34.4665221162185
21
8.19124715306812
31
0.000000000000000
  0
LINE
  5
F10387
330
F10388
100
AcDbEntity
8
Geo
100
AcDbLine
10
-34.4665221162185
20
8.19124715306812
30
0.000000000000000
11
-34.3665221162185
21
8.15641108838109
31
0.000000000000000
  0
LINE
  5
F10389
330
F1038A
100
AcDbEntity
8
Geo
100
AcDbLine
10
-34.3665221162185
20
8.15641108838109
30
0.000000000000000
11
-34.2665221162185
21
8.12001768719298
31
0.000000000000000
  0
LINE
  5
F1038B
330
F1038C
100
AcDbEntity
8
Geo
100
AcDbLine
10
-34.2665221162185
20
8.12001768719298
30
0.000000000000000
11
-34.1665221162185
21
8.08207705854786
31
0.000000000000000
  0
LINE
  5
F1038D
330
F1038E
100
AcDbEntity
8
Geo
100
AcDbLine
10
-34.1665221162185
20
8.08207705854786
30
0.000000000000000
11
-34.0665221162185
21
8.04259974126531
31
0.000000000000000
  0
LINE
  5
F1038F
330
F10390
100
AcDbEntity
8
Geo
100
AcDbLine
10
-34.0665221162185
20
8.04259974126531
30
0.000000000000000
11
-33.9665221162185
21
8.00159670101294
31
0.000000000000000
  0
LINE
  5
F10391
330
F10392
100
AcDbEntity
8
Geo
100
AcDbLine
10
-33.9665221162185
20
8.00159670101294
30
0.000000000000000
11
-33.8665221162185
21
7.95907932726052
31
0.000000000000000
  0
LINE
  5
F10393
330
F10394
100
AcDbEntity
8
Geo
100
AcDbLine
10
-33.8665221162185
20
7.95907932726052
30
0.000000000000000
11
-33.7665221162185
21
7.91505943011625
31
0.000000000000000
  0
LINE
  5
F10395
330
F10396
100
AcDbEntity
8
Geo
100
AcDbLine
10
-33.7665221162185
20
7.91505943011625
30
0.000000000000000
11
-33.6665221162185
21
7.86954923704630
31
0.000000000000000
  0
LINE
  5
F10397
330
F10398
100
AcDbEntity
8
Geo
100
AcDbLine
10
-33.6665221162185
20
7.86954923704630
30
0.000000000000000
11
-33.5665221162185
21
7.82256138947833
31
0.000000000000000
  0
LINE
  5
F10399
330
F1039A
100
AcDbEntity
8
Geo
100
AcDbLine
10
-33.5665221162185
20
7.82256138947833
30
0.000000000000000
11
-33.4665221162185
21
7.77410893929009
31
0.000000000000000
  0
LINE
  5
F1039B
330
F1039C
100
AcDbEntity
8
Geo
100
AcDbLine
10
-33.4665221162185
20
7.77410893929009
30
0.000000000000000
11
-33.3665221162185
21
7.72420534518397
31
0.000000000000000
  0
LINE
  5
F1039D
330
F1039E
100
AcDbEntity
8
Geo
100
AcDbLine
10
-33.3665221162185
20
7.72420534518397
30
0.000000000000000
11
-33.2665221162185
21
7.67286446894858
31
0.000000000000000
  0
LINE
  5
F1039F
330
F103A0
100
AcDbEntity
8
Geo
100
AcDbLine
10
-33.2665221162185
20
7.67286446894858
30
0.000000000000000
11
-33.1665221162185
21
7.62010057160829
31
0.000000000000000
  0
LINE
  5
F103A1
330
F103A2
100
AcDbEntity
8
Geo
100
AcDbLine
10
-33.1665221162185
20
7.62010057160829
30
0.000000000000000
11
-33.0665221162185
21
7.56592830946198
31
0.000000000000000
  0
LINE
  5
F103A3
330
F103A4
100
AcDbEntity
8
Geo
100
AcDbLine
10
-33.0665221162185
20
7.56592830946198
30
0.000000000000000
11
-32.9665221162185
21
7.51036273001194
31
0.000000000000000
  0
LINE
  5
F103A5
330
F103A6
100
AcDbEntity
8
Geo
100
AcDbLine
10
-32.9665221162185
20
7.51036273001194
30
0.000000000000000
11
-32.8665221162185
21
7.45341926778404
31
0.000000000000000
  0
LINE
  5
F103A7
330
F103A8
100
AcDbEntity
8
Geo
100
AcDbLine
10
-32.8665221162185
20
7.45341926778404
30
0.000000000000000
11
-32.7665221162185
21
7.39511374004055
31
0.000000000000000
  0
LINE
  5
F103A9
330
F103AA
100
AcDbEntity
8
Geo
100
AcDbLine
10
-32.7665221162185
20
7.39511374004055
30
0.000000000000000
11
-32.6665221162185
21
7.33546234238648
31
0.000000000000000
  0
LINE
  5
F103AB
330
F103AC
100
AcDbEntity
8
Geo
100
AcDbLine
10
-32.6665221162185
20
7.33546234238648
30
0.000000000000000
11
-32.5665221162185
21
7.27448164427097
31
0.000000000000000
  0
LINE
  5
F103AD
330
F103AE
100
AcDbEntity
8
Geo
100
AcDbLine
10
-32.5665221162185
20
7.27448164427097
30
0.000000000000000
11
-32.4665221162185
21
7.21218858438472
31
0.000000000000000
  0
LINE
  5
F103AF
330
F103B0
100
AcDbEntity
8
Geo
100
AcDbLine
10
-32.4665221162185
20
7.21218858438472
30
0.000000000000000
11
-32.3665221162185
21
7.14860046595492
31
0.000000000000000
  0
LINE
  5
F103B1
330
F103B2
100
AcDbEntity
8
Geo
100
AcDbLine
10
-32.3665221162185
20
7.14860046595492
30
0.000000000000000
11
-32.2665221162185
21
7.08373495193894
31
0.000000000000000
  0
LINE
  5
F103B3
330
F103B4
100
AcDbEntity
8
Geo
100
AcDbLine
10
-32.2665221162185
20
7.08373495193894
30
0.000000000000000
11
-32.1665221162185
21
7.01761006011804
31
0.000000000000000
  0
LINE
  5
F103B5
330
F103B6
100
AcDbEntity
8
Geo
100
AcDbLine
10
-32.1665221162185
20
7.01761006011804
30
0.000000000000000
11
-32.0665221162185
21
6.95024415809254
31
0.000000000000000
  0
LINE
  5
F103B7
330
F103B8
100
AcDbEntity
8
Geo
100
AcDbLine
10
-32.0665221162185
20
6.95024415809254
30
0.000000000000000
11
-31.9665221162185
21
6.88165595817983
31
0.000000000000000
  0
LINE
  5
F103B9
330
F103BA
100
AcDbEntity
8
Geo
100
AcDbLine
10
-31.9665221162185
20
6.88165595817983
30
0.000000000000000
11
-31.8665221162185
21
6.81186451221666
31
0.000000000000000
  0
LINE
  5
F103BB
330
F103BC
100
AcDbEntity
8
Geo
100
AcDbLine
10
-31.8665221162185
20
6.81186451221666
30
0.000000000000000
11
-31.7665221162185
21
6.74088920626703
31
0.000000000000000
  0
LINE
  5
F103BD
330
F103BE
100
AcDbEntity
8
Geo
100
AcDbLine
10
-31.7665221162185
20
6.74088920626703
30
0.000000000000000
11
-31.6665221162185
21
6.66874975523733
31
0.000000000000000
  0
LINE
  5
F103BF
330
F103C0
100
AcDbEntity
8
Geo
100
AcDbLine
10
-31.6665221162185
20
6.66874975523733
30
0.000000000000000
11
-31.5665221162185
21
6.59546619740011
31
0.000000000000000
  0
LINE
  5
F103C1
330
F103C2
100
AcDbEntity
8
Geo
100
AcDbLine
10
-31.5665221162185
20
6.59546619740011
30
0.000000000000000
11
-31.4665221162185
21
6.52105888882800
31
0.000000000000000
  0
LINE
  5
F103C3
330
F103C4
100
AcDbEntity
8
Geo
100
AcDbLine
10
-31.4665221162185
20
6.52105888882800
30
0.000000000000000
11
-31.3665221162185
21
6.44554849773938
31
0.000000000000000
  0
LINE
  5
F103C5
330
F103C6
100
AcDbEntity
8
Geo
100
AcDbLine
10
-31.3665221162185
20
6.44554849773938
30
0.000000000000000
11
-31.2665221162185
21
6.36895599875737
31
0.000000000000000
  0
LINE
  5
F103C7
330
F103C8
100
AcDbEntity
8
Geo
100
AcDbLine
10
-31.2665221162185
20
6.36895599875737
30
0.000000000000000
11
-31.1665221162185
21
6.29130266708363
31
0.000000000000000
  0
LINE
  5
F103C9
330
F103CA
100
AcDbEntity
8
Geo
100
AcDbLine
10
-31.1665221162185
20
6.29130266708363
30
0.000000000000000
11
-31.0665221162185
21
6.21261007258877
31
0.000000000000000
  0
LINE
  5
F103CB
330
F103CC
100
AcDbEntity
8
Geo
100
AcDbLine
10
-31.0665221162185
20
6.21261007258877
30
0.000000000000000
11
-30.9665221162185
21
6.13290007382082
31
0.000000000000000
  0
LINE
  5
F103CD
330
F103CE
100
AcDbEntity
8
Geo
100
AcDbLine
10
-30.9665221162185
20
6.13290007382082
30
0.000000000000000
11
-30.8665221162185
21
6.05219481193357
31
0.000000000000000
  0
LINE
  5
F103CF
330
F103D0
100
AcDbEntity
8
Geo
100
AcDbLine
10
-30.8665221162185
20
6.05219481193357
30
0.000000000000000
11
-30.7665221162185
21
5.97051670453638
31
0.000000000000000
  0
LINE
  5
F103D1
330
F103D2
100
AcDbEntity
8
Geo
100
AcDbLine
10
-30.7665221162185
20
5.97051670453638
30
0.000000000000000
11
-30.6665221162185
21
5.88788843946725
31
0.000000000000000
  0
LINE
  5
F103D3
330
F103D4
100
AcDbEntity
8
Geo
100
AcDbLine
10
-30.6665221162185
20
5.88788843946725
30
0.000000000000000
11
-30.5665221162185
21
5.80433296849071
31
0.000000000000000
  0
LINE
  5
F103D5
330
F103D6
100
AcDbEntity
8
Geo
100
AcDbLine
10
-30.5665221162185
20
5.80433296849071
30
0.000000000000000
11
-30.4665221162185
21
5.71987350092257
31
0.000000000000000
  0
LINE
  5
F103D7
330
F103D8
100
AcDbEntity
8
Geo
100
AcDbLine
10
-30.4665221162185
20
5.71987350092257
30
0.000000000000000
11
-30.3665221162185
21
5.63453349718295
31
0.000000000000000
  0
LINE
  5
F103D9
330
F103DA
100
AcDbEntity
8
Geo
100
AcDbLine
10
-30.3665221162185
20
5.63453349718295
30
0.000000000000000
11
-30.2665221162185
21
5.54833666227972
31
0.000000000000000
  0
LINE
  5
F103DB
330
F103DC
100
AcDbEntity
8
Geo
100
AcDbLine
10
-30.2665221162185
20
5.54833666227972
30
0.000000000000000
11
-30.1665221162185
21
5.46130693922389
31
0.000000000000000
  0
LINE
  5
F103DD
330
F103DE
100
AcDbEntity
8
Geo
100
AcDbLine
10
-30.1665221162185
20
5.46130693922389
30
0.000000000000000
11
-30.0665221162185
21
5.37346850237893
31
0.000000000000000
  0
LINE
  5
F103DF
330
F103E0
100
AcDbEntity
8
Geo
100
AcDbLine
10
-30.0665221162185
20
5.37346850237893
30
0.000000000000000
11
-29.9665221162185
21
5.28484575074583
31
0.000000000000000
  0
LINE
  5
F103E1
330
F103E2
100
AcDbEntity
8
Geo
100
AcDbLine
10
-29.9665221162185
20
5.28484575074583
30
0.000000000000000
11
-29.8665221162185
21
5.19546330118575
31
0.000000000000000
  0
LINE
  5
F103E3
330
F103E4
100
AcDbEntity
8
Geo
100
AcDbLine
10
-29.8665221162185
20
5.19546330118575
30
0.000000000000000
11
-29.7665221162185
21
5.10534598158218
31
0.000000000000000
  0
LINE
  5
F103E5
330
F103E6
100
AcDbEntity
8
Geo
100
AcDbLine
10
-29.7665221162185
20
5.10534598158218
30
0.000000000000000
11
-29.6665221162185
21
5.01451882394444
31
0.000000000000000
  0
LINE
  5
F103E7
330
F103E8
100
AcDbEntity
8
Geo
100
AcDbLine
10
-29.6665221162185
20
5.01451882394444
30
0.000000000000000
11
-29.5665221162185
21
4.92300705745454
31
0.000000000000000
  0
LINE
  5
F103E9
330
F103EA
100
AcDbEntity
8
Geo
100
AcDbLine
10
-29.5665221162185
20
4.92300705745454
30
0.000000000000000
11
-29.4665221162185
21
4.83083610145918
31
0.000000000000000
  0
LINE
  5
F103EB
330
F103EC
100
AcDbEntity
8
Geo
100
AcDbLine
10
-29.4665221162185
20
4.83083610145918
30
0.000000000000000
11
-29.3665221162185
21
4.73803155840904
31
0.000000000000000
  0
LINE
  5
F103ED
330
F103EE
100
AcDbEntity
8
Geo
100
AcDbLine
10
-29.3665221162185
20
4.73803155840904
30
0.000000000000000
11
-29.2665221162185
21
4.64461920674712
31
0.000000000000000
  0
LINE
  5
F103EF
330
F103F0
100
AcDbEntity
8
Geo
100
AcDbLine
10
-29.2665221162185
20
4.64461920674712
30
0.000000000000000
11
-29.1665221162185
21
4.55062499374825
31
0.000000000000000
  0
LINE
  5
F103F1
330
F103F2
100
AcDbEntity
8
Geo
100
AcDbLine
10
-29.1665221162185
20
4.55062499374825
30
0.000000000000000
11
-29.0665221162186
21
4.45607502831166
31
0.000000000000000
  0
LINE
  5
F103F3
330
F103F4
100
AcDbEntity
8
Geo
100
AcDbLine
10
-29.0665221162186
20
4.45607502831166
30
0.000000000000000
11
-28.9665221162185
21
4.36099557370867
31
0.000000000000000
  0
LINE
  5
F103F5
330
F103F6
100
AcDbEntity
8
Geo
100
AcDbLine
10
-28.9665221162185
20
4.36099557370867
30
0.000000000000000
11
-28.8665221162185
21
4.26541304028755
31
0.000000000000000
  0
LINE
  5
F103F7
330
F103F8
100
AcDbEntity
8
Geo
100
AcDbLine
10
-28.8665221162185
20
4.26541304028755
30
0.000000000000000
11
-28.7665221162185
21
4.16935397813743
31
0.000000000000000
  0
LINE
  5
F103F9
330
F103FA
100
AcDbEntity
8
Geo
100
AcDbLine
10
-28.7665221162185
20
4.16935397813743
30
0.000000000000000
11
-28.6665221162186
21
4.07284506971346
31
0.000000000000000
  0
LINE
  5
F103FB
330
F103FC
100
AcDbEntity
8
Geo
100
AcDbLine
10
-28.6665221162186
20
4.07284506971346
30
0.000000000000000
11
-28.5665221162186
21
3.97591312242522
31
0.000000000000000
  0
LINE
  5
F103FD
330
F103FE
100
AcDbEntity
8
Geo
100
AcDbLine
10
-28.5665221162186
20
3.97591312242522
30
0.000000000000000
11
-28.4665221162185
21
3.87858506119035
31
0.000000000000000
  0
LINE
  5
F103FF
330
F10400
100
AcDbEntity
8
Geo
100
AcDbLine
10
-28.4665221162185
20
3.87858506119035
30
0.000000000000000
11
-28.3665221162186
21
3.78088792095559
31
0.000000000000000
  0
LINE
  5
F10401
330
F10402
100
AcDbEntity
8
Geo
100
AcDbLine
10
-28.3665221162186
20
3.78088792095559
30
0.000000000000000
11
-28.2665221162186
21
3.68284883918727
31
0.000000000000000
  0
LINE
  5
F10403
330
F10404
100
AcDbEntity
8
Geo
100
AcDbLine
10
-28.2665221162186
20
3.68284883918727
30
0.000000000000000
11
-28.1665221162186
21
3.58449504833326
31
0.000000000000000
  0
LINE
  5
F10405
330
F10406
100
AcDbEntity
8
Geo
100
AcDbLine
10
-28.1665221162186
20
3.58449504833326
30
0.000000000000000
11
-28.0665221162186
21
3.48585386825862
31
0.000000000000000
  0
LINE
  5
F10407
330
F10408
100
AcDbEntity
8
Geo
100
AcDbLine
10
-28.0665221162186
20
3.48585386825862
30
0.000000000000000
11
-27.9665221162186
21
3.38695269865687
31
0.000000000000000
  0
LINE
  5
F10409
330
F1040A
100
AcDbEntity
8
Geo
100
AcDbLine
10
-27.9665221162186
20
3.38695269865687
30
0.000000000000000
11
-27.8665221162186
21
3.28781901143919
31
0.000000000000000
  0
LINE
  5
F1040B
330
F1040C
100
AcDbEntity
8
Geo
100
AcDbLine
10
-27.8665221162186
20
3.28781901143919
30
0.000000000000000
11
-27.7665221162186
21
3.18848034310351
31
0.000000000000000
  0
LINE
  5
F1040D
330
F1040E
100
AcDbEntity
8
Geo
100
AcDbLine
10
-27.7665221162186
20
3.18848034310351
30
0.000000000000000
11
-27.6665221162186
21
3.08896428708560
31
0.000000000000000
  0
LINE
  5
F1040F
330
F10410
100
AcDbEntity
8
Geo
100
AcDbLine
10
-27.6665221162186
20
3.08896428708560
30
0.000000000000000
11
-27.5665221162186
21
2.98929848609448
31
0.000000000000000
  0
LINE
  5
F10411
330
F10412
100
AcDbEntity
8
Geo
100
AcDbLine
10
-27.5665221162186
20
2.98929848609448
30
0.000000000000000
11
-27.4665221162186
21
2.88951062443402
31
0.000000000000000
  0
LINE
  5
F10413
330
F10414
100
AcDbEntity
8
Geo
100
AcDbLine
10
-27.4665221162186
20
2.88951062443402
30
0.000000000000000
11
-27.3665221162186
21
2.78962842031304
31
0.000000000000000
  0
LINE
  5
F10415
330
F10416
100
AcDbEntity
8
Geo
100
AcDbLine
10
-27.3665221162186
20
2.78962842031304
30
0.000000000000000
11
-27.2665221162186
21
2.68967961814601
31
0.000000000000000
  0
LINE
  5
F10417
330
F10418
100
AcDbEntity
8
Geo
100
AcDbLine
10
-27.2665221162186
20
2.68967961814601
30
0.000000000000000
11
-27.1665221162186
21
2.58969198084641
31
0.000000000000000
  0
LINE
  5
F10419
330
F1041A
100
AcDbEntity
8
Geo
100
AcDbLine
10
-27.1665221162186
20
2.58969198084641
30
0.000000000000000
11
-27.0665221162186
21
2.48969328211502
31
0.000000000000000
  0
LINE
  5
F1041B
330
F1041C
100
AcDbEntity
8
Geo
100
AcDbLine
10
-27.0665221162186
20
2.48969328211502
30
0.000000000000000
11
-26.9665221162186
21
2.38971129872516
31
0.000000000000000
  0
LINE
  5
F1041D
330
F1041E
100
AcDbEntity
8
Geo
100
AcDbLine
10
-26.9665221162186
20
2.38971129872516
30
0.000000000000000
11
-26.8665221162186
21
2.28977380280711
31
0.000000000000000
  0
LINE
  5
F1041F
330
F10420
100
AcDbEntity
8
Geo
100
AcDbLine
10
-26.8665221162186
20
2.28977380280711
30
0.000000000000000
11
-26.7665221162186
21
2.18990855413381
31
0.000000000000000
  0
LINE
  5
F10421
330
F10422
100
AcDbEntity
8
Geo
100
AcDbLine
10
-26.7665221162186
20
2.18990855413381
30
0.000000000000000
11
-26.6665221162186
21
2.09014329240999
31
0.000000000000000
  0
LINE
  5
F10423
330
F10424
100
AcDbEntity
8
Geo
100
AcDbLine
10
-26.6665221162186
20
2.09014329240999
30
0.000000000000000
11
-26.5665221162186
21
1.99050572956685
31
0.000000000000000
  0
LINE
  5
F10425
330
F10426
100
AcDbEntity
8
Geo
100
AcDbLine
10
-26.5665221162186
20
1.99050572956685
30
0.000000000000000
11
-26.4665221162186
21
1.89102354206452
31
0.000000000000000
  0
LINE
  5
F10427
330
F10428
100
AcDbEntity
8
Geo
100
AcDbLine
10
-26.4665221162186
20
1.89102354206452
30
0.000000000000000
11
-26.3665221162186
21
1.79172436320430
31
0.000000000000000
  0
LINE
  5
F10429
330
F1042A
100
AcDbEntity
8
Geo
100
AcDbLine
10
-26.3665221162186
20
1.79172436320430
30
0.000000000000000
11
-26.2665221162186
21
1.69263577545294
31
0.000000000000000
  0
LINE
  5
F1042B
330
F1042C
100
AcDbEntity
8
Geo
100
AcDbLine
10
-26.2665221162186
20
1.69263577545294
30
0.000000000000000
11
-26.1665221162186
21
1.59378530278101
31
0.000000000000000
  0
LINE
  5
F1042D
330
F1042E
100
AcDbEntity
8
Geo
100
AcDbLine
10
-26.1665221162186
20
1.59378530278101
30
0.000000000000000
11
-26.0665221162186
21
1.49520040301753
31
0.000000000000000
  0
LINE
  5
F1042F
330
F10430
100
AcDbEntity
8
Geo
100
AcDbLine
10
-26.0665221162186
20
1.49520040301753
30
0.000000000000000
11
-25.9665221162186
21
1.39690846022298
31
0.000000000000000
  0
LINE
  5
F10431
330
F10432
100
AcDbEntity
8
Geo
100
AcDbLine
10
-25.9665221162186
20
1.39690846022298
30
0.000000000000000
11
-25.8665221162186
21
1.29893677708279
31
0.000000000000000
  0
LINE
  5
F10433
330
F10434
100
AcDbEntity
8
Geo
100
AcDbLine
10
-25.8665221162186
20
1.29893677708279
30
0.000000000000000
11
-25.7665221162186
21
1.20131256732344
31
0.000000000000000
  0
LINE
  5
F10435
330
F10436
100
AcDbEntity
8
Geo
100
AcDbLine
10
-25.7665221162186
20
1.20131256732344
30
0.000000000000000
11
-25.6665221162186
21
1.10406294815324
31
0.000000000000000
  0
LINE
  5
F10437
330
F10438
100
AcDbEntity
8
Geo
100
AcDbLine
10
-25.6665221162186
20
1.10406294815324
30
0.000000000000000
11
-25.5665221162186
21
1.00721493272999
31
0.000000000000000
  0
LINE
  5
F10439
330
F1043A
100
AcDbEntity
8
Geo
100
AcDbLine
10
-25.5665221162186
20
1.00721493272999
30
0.000000000000000
11
-25.4665221162186
21
0.910795422657454
31
0.000000000000000
  0
LINE
  5
F1043B
330
F1043C
100
AcDbEntity
8
Geo
100
AcDbLine
10
-25.4665221162186
20
0.910795422657454
30
0.000000000000000
11
-25.3665221162186
21
0.814831200512907
31
0.000000000000000
  0
LINE
  5
F1043D
330
F1043E
100
AcDbEntity
8
Geo
100
AcDbLine
10
-25.3665221162186
20
0.814831200512907
30
0.000000000000000
11
-25.2665221162186
21
0.719348922407671
31
0.000000000000000
  0
LINE
  5
F1043F
330
F10440
100
AcDbEntity
8
Geo
100
AcDbLine
10
-25.2665221162186
20
0.719348922407671
30
0.000000000000000
11
-25.1665221162186
21
0.624375110582827
31
0.000000000000000
  0
LINE
  5
F10441
330
F10442
100
AcDbEntity
8
Geo
100
AcDbLine
10
-25.1665221162186
20
0.624375110582827
30
0.000000000000000
11
-25.0665221162186
21
0.529936146042091
31
0.000000000000000
  0
LINE
  5
F10443
330
F10444
100
AcDbEntity
8
Geo
100
AcDbLine
10
-25.0665221162186
20
0.529936146042091
30
0.000000000000000
11
-24.9665221162186
21
0.436058261223927
31
0.000000000000000
  0
LINE
  5
F10445
330
F10446
100
AcDbEntity
8
Geo
100
AcDbLine
10
-24.9665221162186
20
0.436058261223927
30
0.000000000000000
11
-24.8665221162186
21
0.342767532714930
31
0.000000000000000
  0
LINE
  5
F10447
330
F10448
100
AcDbEntity
8
Geo
100
AcDbLine
10
-24.8665221162186
20
0.342767532714930
30
0.000000000000000
11
-24.7665221162186
21
0.250089874006496
31
0.000000000000000
  0
LINE
  5
F10449
330
F1044A
100
AcDbEntity
8
Geo
100
AcDbLine
10
-24.7665221162186
20
0.250089874006496
30
0.000000000000000
11
-24.6665221162186
21
0.158051028296792
31
0.000000000000000
  0
LINE
  5
F1044B
330
F1044C
100
AcDbEntity
8
Geo
100
AcDbLine
10
-24.6665221162186
20
0.158051028296792
30
0.000000000000000
11
-24.5665221162186
21
0.0666765613400431
31
0.000000000000000
  0
LINE
  5
F1044D
330
F1044E
100
AcDbEntity
8
Geo
100
AcDbLine
10
-24.5665221162186
20
0.0666765613400431
30
0.000000000000000
11
-24.4665221162186
21
-0.0240081456549115
31
0.000000000000000
  0
LINE
  5
F1044F
330
F10450
100
AcDbEntity
8
Geo
100
AcDbLine
10
-24.4665221162186
20
-0.0240081456549115
30
0.000000000000000
11
-24.3665221162186
21
-0.113977903074784
31
0.000000000000000
  0
LINE
  5
F10451
330
F10452
100
AcDbEntity
8
Geo
100
AcDbLine
10
-24.3665221162186
20
-0.113977903074784
30
0.000000000000000
11
-24.2665221162186
21
-0.203207719898796
31
0.000000000000000
  0
LINE
  5
F10453
330
F10454
100
AcDbEntity
8
Geo
100
AcDbLine
10
-24.2665221162186
20
-0.203207719898796
30
0.000000000000000
11
-24.1665221162186
21
-0.291672810640463
31
0.000000000000000
  0
LINE
  5
F10455
330
F10456
100
AcDbEntity
8
Geo
100
AcDbLine
10
-24.1665221162186
20
-0.291672810640463
30
0.000000000000000
11
-24.0665221162186
21
-0.379348602232301
31
0.000000000000000
  0
LINE
  5
F10457
330
F10458
100
AcDbEntity
8
Geo
100
AcDbLine
10
-24.0665221162186
20
-0.379348602232301
30
0.000000000000000
11
-23.9665221162186
21
-0.466210740851507
31
0.000000000000000
  0
LINE
  5
F10459
330
F1045A
100
AcDbEntity
8
Geo
100
AcDbLine
10
-23.9665221162186
20
-0.466210740851507
30
0.000000000000000
11
-23.8665221162186
21
-0.552235098684764
31
0.000000000000000
  0
LINE
  5
F1045B
330
F1045C
100
AcDbEntity
8
Geo
100
AcDbLine
10
-23.8665221162186
20
-0.552235098684764
30
0.000000000000000
11
-23.7665221162186
21
-0.637397780630256
31
0.000000000000000
  0
LINE
  5
F1045D
330
F1045E
100
AcDbEntity
8
Geo
100
AcDbLine
10
-23.7665221162186
20
-0.637397780630256
30
0.000000000000000
11
-23.6665221162186
21
-0.721675130935032
31
0.000000000000000
  0
LINE
  5
F1045F
330
F10460
100
AcDbEntity
8
Geo
100
AcDbLine
10
-34.6665221162185
20
3.74936090445943
30
0.000000000000000
11
-34.5665221162185
21
3.69935656209633
31
0.000000000000000
  0
LINE
  5
F10461
330
F10462
100
AcDbEntity
8
Geo
100
AcDbLine
10
-34.5665221162185
20
3.69935656209633
30
0.000000000000000
11
-34.5665221162185
21
3.69935656209633
31
0.000000000000000
  0
LINE
  5
F10463
330
F10464
100
AcDbEntity
8
Geo
100
AcDbLine
10
-34.5665221162185
20
3.69935656209633
30
0.000000000000000
11
-34.4665221162185
21
3.60105378023130
31
0.000000000000000
  0
LINE
  5
F10465
330
F10466
100
AcDbEntity
8
Geo
100
AcDbLine
10
-34.4665221162185
20
3.60105378023130
30
0.000000000000000
11
-34.3665221162185
21
3.50245900960435
31
0.000000000000000
  0
LINE
  5
F10467
330
F10468
100
AcDbEntity
8
Geo
100
AcDbLine
10
-34.3665221162185
20
3.50245900960435
30
0.000000000000000
11
-34.2665221162185
21
3.40359963701781
31
0.000000000000000
  0
LINE
  5
F10469
330
F1046A
100
AcDbEntity
8
Geo
100
AcDbLine
10
-34.2665221162185
20
3.40359963701781
30
0.000000000000000
11
-34.1665221162185
21
3.30450312277283
31
0.000000000000000
  0
LINE
  5
F1046B
330
F1046C
100
AcDbEntity
8
Geo
100
AcDbLine
10
-34.1665221162185
20
3.30450312277283
30
0.000000000000000
11
-34.0665221162185
21
3.20519699304176
31
0.000000000000000
  0
LINE
  5
F1046D
330
F1046E
100
AcDbEntity
8
Geo
100
AcDbLine
10
-34.0665221162185
20
3.20519699304176
30
0.000000000000000
11
-33.9665221162185
21
3.10570883222208
31
0.000000000000000
  0
LINE
  5
F1046F
330
F10470
100
AcDbEntity
8
Geo
100
AcDbLine
10
-33.9665221162185
20
3.10570883222208
30
0.000000000000000
11
-33.8665221162185
21
3.00606627527432
31
0.000000000000000
  0
LINE
  5
F10471
330
F10472
100
AcDbEntity
8
Geo
100
AcDbLine
10
-33.8665221162185
20
3.00606627527432
30
0.000000000000000
11
-33.7665221162185
21
2.90629700004581
31
0.000000000000000
  0
LINE
  5
F10473
330
F10474
100
AcDbEntity
8
Geo
100
AcDbLine
10
-33.7665221162185
20
2.90629700004581
30
0.000000000000000
11
-33.6665221162185
21
2.80642871958261
31
0.000000000000000
  0
LINE
  5
F10475
330
F10476
100
AcDbEntity
8
Geo
100
AcDbLine
10
-33.6665221162185
20
2.80642871958261
30
0.000000000000000
11
-33.5665221162185
21
2.70648917443158
31
0.000000000000000
  0
LINE
  5
F10477
330
F10478
100
AcDbEntity
8
Geo
100
AcDbLine
10
-33.5665221162185
20
2.70648917443158
30
0.000000000000000
11
-33.4665221162185
21
2.60650612493488
31
0.000000000000000
  0
LINE
  5
F10479
330
F1047A
100
AcDbEntity
8
Geo
100
AcDbLine
10
-33.4665221162185
20
2.60650612493488
30
0.000000000000000
11
-33.3665221162185
21
2.50650734351892
31
0.000000000000000
  0
LINE
  5
F1047B
330
F1047C
100
AcDbEntity
8
Geo
100
AcDbLine
10
-33.3665221162185
20
2.50650734351892
30
0.000000000000000
11
-33.2665221162185
21
2.40652060698000
31
0.000000000000000
  0
LINE
  5
F1047D
330
F1047E
100
AcDbEntity
8
Geo
100
AcDbLine
10
-33.2665221162185
20
2.40652060698000
30
0.000000000000000
11
-33.1665221162185
21
2.30657368876868
31
0.000000000000000
  0
LINE
  5
F1047F
330
F10480
100
AcDbEntity
8
Geo
100
AcDbLine
10
-33.1665221162185
20
2.30657368876868
30
0.000000000000000
11
-33.0665221162185
21
2.20669435127514
31
0.000000000000000
  0
LINE
  5
F10481
330
F10482
100
AcDbEntity
8
Geo
100
AcDbLine
10
-33.0665221162185
20
2.20669435127514
30
0.000000000000000
11
-32.9665221162185
21
2.10691033811759
31
0.000000000000000
  0
LINE
  5
F10483
330
F10484
100
AcDbEntity
8
Geo
100
AcDbLine
10
-32.9665221162185
20
2.10691033811759
30
0.000000000000000
11
-32.8665221162185
21
2.00724936643583
31
0.000000000000000
  0
LINE
  5
F10485
330
F10486
100
AcDbEntity
8
Geo
100
AcDbLine
10
-32.8665221162185
20
2.00724936643583
30
0.000000000000000
11
-32.7665221162185
21
1.90773911919230
31
0.000000000000000
  0
LINE
  5
F10487
330
F10488
100
AcDbEntity
8
Geo
100
AcDbLine
10
-32.7665221162185
20
1.90773911919230
30
0.000000000000000
11
-32.6665221162185
21
1.80840723748249
31
0.000000000000000
  0
LINE
  5
F10489
330
F1048A
100
AcDbEntity
8
Geo
100
AcDbLine
10
-32.6665221162185
20
1.80840723748249
30
0.000000000000000
11
-32.5665221162185
21
1.70928131285707
31
0.000000000000000
  0
LINE
  5
F1048B
330
F1048C
100
AcDbEntity
8
Geo
100
AcDbLine
10
-32.5665221162185
20
1.70928131285707
30
0.000000000000000
11
-32.4665221162185
21
1.61038887965771
31
0.000000000000000
  0
LINE
  5
F1048D
330
F1048E
100
AcDbEntity
8
Geo
100
AcDbLine
10
-32.4665221162185
20
1.61038887965771
30
0.000000000000000
11
-32.3665221162185
21
1.51175740736888
31
0.000000000000000
  0
LINE
  5
F1048F
330
F10490
100
AcDbEntity
8
Geo
100
AcDbLine
10
-32.3665221162185
20
1.51175740736888
30
0.000000000000000
11
-32.2665221162185
21
1.41341429298758
31
0.000000000000000
  0
LINE
  5
F10491
330
F10492
100
AcDbEntity
8
Geo
100
AcDbLine
10
-32.2665221162185
20
1.41341429298758
30
0.000000000000000
11
-32.1665221162185
21
1.31538685341321
31
0.000000000000000
  0
LINE
  5
F10493
330
F10494
100
AcDbEntity
8
Geo
100
AcDbLine
10
-32.1665221162185
20
1.31538685341321
30
0.000000000000000
11
-32.0665221162185
21
1.21770231785981
31
0.000000000000000
  0
LINE
  5
F10495
330
F10496
100
AcDbEntity
8
Geo
100
AcDbLine
10
-32.0665221162185
20
1.21770231785981
30
0.000000000000000
11
-31.9665221162185
21
1.12038782029247
31
0.000000000000000
  0
LINE
  5
F10497
330
F10498
100
AcDbEntity
8
Geo
100
AcDbLine
10
-31.9665221162185
20
1.12038782029247
30
0.000000000000000
11
-31.8665221162185
21
1.02347039189033
31
0.000000000000000
  0
LINE
  5
F10499
330
F1049A
100
AcDbEntity
8
Geo
100
AcDbLine
10
-31.8665221162185
20
1.02347039189033
30
0.000000000000000
11
-31.7665221162185
21
0.926976953538115
31
0.000000000000000
  0
LINE
  5
F1049B
330
F1049C
100
AcDbEntity
8
Geo
100
AcDbLine
10
-31.7665221162185
20
0.926976953538115
30
0.000000000000000
11
-31.6665221162185
21
0.830934308348243
31
0.000000000000000
  0
LINE
  5
F1049D
330
F1049E
100
AcDbEntity
8
Geo
100
AcDbLine
10
-31.6665221162185
20
0.830934308348243
30
0.000000000000000
11
-31.5665221162185
21
0.735369134215715
31
0.000000000000000
  0
LINE
  5
F1049F
330
F104A0
100
AcDbEntity
8
Geo
100
AcDbLine
10
-31.5665221162185
20
0.735369134215715
30
0.000000000000000
11
-31.4665221162185
21
0.640307976407753
31
0.000000000000000
  0
LINE
  5
F104A1
330
F104A2
100
AcDbEntity
8
Geo
100
AcDbLine
10
-31.4665221162185
20
0.640307976407753
30
0.000000000000000
11
-31.3665221162185
21
0.545777240190285
31
0.000000000000000
  0
LINE
  5
F104A3
330
F104A4
100
AcDbEntity
8
Geo
100
AcDbLine
10
-31.3665221162185
20
0.545777240190285
30
0.000000000000000
11
-31.2665221162185
21
0.451803183493317
31
0.000000000000000
  0
LINE
  5
F104A5
330
F104A6
100
AcDbEntity
8
Geo
100
AcDbLine
10
-31.2665221162185
20
0.451803183493317
30
0.000000000000000
11
-31.1665221162185
21
0.358411909617236
31
0.000000000000000
  0
LINE
  5
F104A7
330
F104A8
100
AcDbEntity
8
Geo
100
AcDbLine
10
-31.1665221162185
20
0.358411909617236
30
0.000000000000000
11
-31.0665221162185
21
0.265629359982059
31
0.000000000000000
  0
LINE
  5
F104A9
330
F104AA
100
AcDbEntity
8
Geo
100
AcDbLine
10
-31.0665221162185
20
0.265629359982059
30
0.000000000000000
11
-30.9665221162185
21
0.173481306921651
31
0.000000000000000
  0
LINE
  5
F104AB
330
F104AC
100
AcDbEntity
8
Geo
100
AcDbLine
10
-30.9665221162185
20
0.173481306921651
30
0.000000000000000
11
-30.8665221162185
21
0.0819933465249059
31
0.000000000000000
  0
LINE
  5
F104AD
330
F104AE
100
AcDbEntity
8
Geo
100
AcDbLine
10
-30.8665221162185
20
0.0819933465249059
30
0.000000000000000
11
-30.7665221162185
21
-0.00880910847410865
31
0.000000000000000
  0
LINE
  5
F104AF
330
F104B0
100
AcDbEntity
8
Geo
100
AcDbLine
10
-30.7665221162185
20
-0.00880910847410865
30
0.000000000000000
11
-30.6665221162185
21
-0.0989008357550847
31
0.000000000000000
  0
LINE
  5
F104B1
330
F104B2
100
AcDbEntity
8
Geo
100
AcDbLine
10
-30.6665221162185
20
-0.0989008357550847
30
0.000000000000000
11
-30.5665221162185
21
-0.188256810417510
31
0.000000000000000
  0
LINE
  5
F104B3
330
F104B4
100
AcDbEntity
8
Geo
100
AcDbLine
10
-30.5665221162185
20
-0.188256810417510
30
0.000000000000000
11
-30.4665221162185
21
-0.276852211931868
31
0.000000000000000
  0
LINE
  5
F104B5
330
F104B6
100
AcDbEntity
8
Geo
100
AcDbLine
10
-30.4665221162185
20
-0.276852211931868
30
0.000000000000000
11
-30.3665221162185
21
-0.364662431034074
31
0.000000000000000
  0
LINE
  5
F104B7
330
F104B8
100
AcDbEntity
8
Geo
100
AcDbLine
10
-30.3665221162185
20
-0.364662431034074
30
0.000000000000000
11
-30.2665221162185
21
-0.451663076561216
31
0.000000000000000
  0
LINE
  5
F104B9
330
F104BA
100
AcDbEntity
8
Geo
100
AcDbLine
10
-30.2665221162185
20
-0.451663076561216
30
0.000000000000000
11
-30.1665221162185
21
-0.537829982226727
31
0.000000000000000
  0
LINE
  5
F104BB
330
F104BC
100
AcDbEntity
8
Geo
100
AcDbLine
10
-30.1665221162185
20
-0.537829982226727
30
0.000000000000000
11
-30.0665221162185
21
-0.623139213333085
31
0.000000000000000
  0
LINE
  5
F104BD
330
F104BE
100
AcDbEntity
8
Geo
100
AcDbLine
10
-30.0665221162185
20
-0.623139213333085
30
0.000000000000000
11
-29.9665221162185
21
-0.707567073420186
31
0.000000000000000
  0
LINE
  5
F104BF
330
F104C0
100
AcDbEntity
8
Geo
100
AcDbLine
10
-29.9665221162185
20
-0.707567073420186
30
0.000000000000000
11
-29.8665221162185
21
-0.791090110847542
31
0.000000000000000
  0
LINE
  5
F104C1
330
F104C2
100
AcDbEntity
8
Geo
100
AcDbLine
10
-29.8665221162185
20
-0.791090110847542
30
0.000000000000000
11
-29.7665221162185
21
-0.873685125308476
31
0.000000000000000
  0
LINE
  5
F104C3
330
F104C4
100
AcDbEntity
8
Geo
100
AcDbLine
10
-29.7665221162185
20
-0.873685125308476
30
0.000000000000000
11
-29.6665221162185
21
-0.955329174274497
31
0.000000000000000
  0
LINE
  5
F104C5
330
F104C6
100
AcDbEntity
8
Geo
100
AcDbLine
10
-29.6665221162185
20
-0.955329174274497
30
0.000000000000000
11
-29.5665221162185
21
-1.03599957936809
31
0.000000000000000
  0
LINE
  5
F104C7
330
F104C8
100
AcDbEntity
8
Geo
100
AcDbLine
10
-29.5665221162185
20
-1.03599957936809
30
0.000000000000000
11
-29.4665221162185
21
-1.11567393266210
31
0.000000000000000
  0
LINE
  5
F104C9
330
F104CA
100
AcDbEntity
8
Geo
100
AcDbLine
10
-29.4665221162185
20
-1.11567393266210
30
0.000000000000000
11
-29.3665221162185
21
-1.19433010290402
31
0.000000000000000
  0
LINE
  5
F104CB
330
F104CC
100
AcDbEntity
8
Geo
100
AcDbLine
10
-29.3665221162185
20
-1.19433010290402
30
0.000000000000000
11
-29.2665221162185
21
-1.27194624166345
31
0.000000000000000
  0
LINE
  5
F104CD
330
F104CE
100
AcDbEntity
8
Geo
100
AcDbLine
10
-29.2665221162185
20
-1.27194624166345
30
0.000000000000000
11
-29.1665221162185
21
-1.34850078940090
31
0.000000000000000
  0
LINE
  5
F104CF
330
F104D0
100
AcDbEntity
8
Geo
100
AcDbLine
10
-29.1665221162185
20
-1.34850078940090
30
0.000000000000000
11
-29.0665221162186
21
-1.42397248145647
31
0.000000000000000
  0
LINE
  5
F104D1
330
F104D2
100
AcDbEntity
8
Geo
100
AcDbLine
10
-29.0665221162186
20
-1.42397248145647
30
0.000000000000000
11
-28.9665221162185
21
-1.49834035395653
31
0.000000000000000
  0
LINE
  5
F104D3
330
F104D4
100
AcDbEntity
8
Geo
100
AcDbLine
10
-28.9665221162185
20
-1.49834035395653
30
0.000000000000000
11
-28.8665221162185
21
-1.57158374963692
31
0.000000000000000
  0
LINE
  5
F104D5
330
F104D6
100
AcDbEntity
8
Geo
100
AcDbLine
10
-28.8665221162185
20
-1.57158374963692
30
0.000000000000000
11
-28.7665221162185
21
-1.64368232358088
31
0.000000000000000
  0
LINE
  5
F104D7
330
F104D8
100
AcDbEntity
8
Geo
100
AcDbLine
10
-28.7665221162185
20
-1.64368232358088
30
0.000000000000000
11
-28.6665221162186
21
-1.71461604887038
31
0.000000000000000
  0
LINE
  5
F104D9
330
F104DA
100
AcDbEntity
8
Geo
100
AcDbLine
10
-28.6665221162186
20
-1.71461604887038
30
0.000000000000000
11
-28.5665221162186
21
-1.78436522214892
31
0.000000000000000
  0
LINE
  5
F104DB
330
F104DC
100
AcDbEntity
8
Geo
100
AcDbLine
10
-28.5665221162186
20
-1.78436522214892
30
0.000000000000000
11
-28.4665221162185
21
-1.85291046909464
31
0.000000000000000
  0
LINE
  5
F104DD
330
F104DE
100
AcDbEntity
8
Geo
100
AcDbLine
10
-28.4665221162185
20
-1.85291046909464
30
0.000000000000000
11
-28.3665221162186
21
-1.92023274980191
31
0.000000000000000
  0
LINE
  5
F104DF
330
F104E0
100
AcDbEntity
8
Geo
100
AcDbLine
10
-28.3665221162186
20
-1.92023274980191
30
0.000000000000000
11
-28.2665221162186
21
-1.98631336407008
31
0.000000000000000
  0
LINE
  5
F104E1
330
F104E2
100
AcDbEntity
8
Geo
100
AcDbLine
10
-28.2665221162186
20
-1.98631336407008
30
0.000000000000000
11
-28.1665221162186
21
-2.05113395659786
31
0.000000000000000
  0
LINE
  5
F104E3
330
F104E4
100
AcDbEntity
8
Geo
100
AcDbLine
10
-28.1665221162186
20
-2.05113395659786
30
0.000000000000000
11
-28.0665221162186
21
-2.11467652208190
31
0.000000000000000
  0
LINE
  5
F104E5
330
F104E6
100
AcDbEntity
8
Geo
100
AcDbLine
10
-28.0665221162186
20
-2.11467652208190
30
0.000000000000000
11
-27.9665221162186
21
-2.17692341021815
31
0.000000000000000
  0
LINE
  5
F104E7
330
F104E8
100
AcDbEntity
8
Geo
100
AcDbLine
10
-27.9665221162186
20
-2.17692341021815
30
0.000000000000000
11
-27.8665221162186
21
-2.23785733060459
31
0.000000000000000
  0
LINE
  5
F104E9
330
F104EA
100
AcDbEntity
8
Geo
100
AcDbLine
10
-27.8665221162186
20
-2.23785733060459
30
0.000000000000000
11
-27.7665221162186
21
-2.29746135754402
31
0.000000000000000
  0
LINE
  5
F104EB
330
F104EC
100
AcDbEntity
8
Geo
100
AcDbLine
10
-27.7665221162186
20
-2.29746135754402
30
0.000000000000000
11
-27.6665221162186
21
-2.35571893474556
31
0.000000000000000
  0
LINE
  5
F104ED
330
F104EE
100
AcDbEntity
8
Geo
100
AcDbLine
10
-27.6665221162186
20
-2.35571893474556
30
0.000000000000000
11
-27.5665221162186
21
-2.41261387992345
31
0.000000000000000
  0
LINE
  5
F104EF
330
F104F0
100
AcDbEntity
8
Geo
100
AcDbLine
10
-27.5665221162186
20
-2.41261387992345
30
0.000000000000000
11
-27.4665221162186
21
-2.46813038929211
31
0.000000000000000
  0
LINE
  5
F104F1
330
F104F2
100
AcDbEntity
8
Geo
100
AcDbLine
10
-27.4665221162186
20
-2.46813038929211
30
0.000000000000000
11
-27.3665221162186
21
-2.52225304195589
31
0.000000000000000
  0
LINE
  5
F104F3
330
F104F4
100
AcDbEntity
8
Geo
100
AcDbLine
10
-27.3665221162186
20
-2.52225304195589
30
0.000000000000000
11
-27.2665221162186
21
-2.57496680419261
31
0.000000000000000
  0
LINE
  5
F104F5
330
F104F6
100
AcDbEntity
8
Geo
100
AcDbLine
10
-27.2665221162186
20
-2.57496680419261
30
0.000000000000000
11
-27.1665221162186
21
-2.62625703362951
31
0.000000000000000
  0
LINE
  5
F104F7
330
F104F8
100
AcDbEntity
8
Geo
100
AcDbLine
10
-27.1665221162186
20
-2.62625703362951
30
0.000000000000000
11
-27.0665221162186
21
-2.67610948331040
31
0.000000000000000
  0
LINE
  5
F104F9
330
F104FA
100
AcDbEntity
8
Geo
100
AcDbLine
10
-27.0665221162186
20
-2.67610948331040
30
0.000000000000000
11
-26.9665221162186
21
-2.72451030565316
31
0.000000000000000
  0
LINE
  5
F104FB
330
F104FC
100
AcDbEntity
8
Geo
100
AcDbLine
10
-26.9665221162186
20
-2.72451030565316
30
0.000000000000000
11
-26.8665221162186
21
-2.77144605629614
31
0.000000000000000
  0
LINE
  5
F104FD
330
F104FE
100
AcDbEntity
8
Geo
100
AcDbLine
10
-26.8665221162186
20
-2.77144605629614
30
0.000000000000000
11
-26.7665221162186
21
-2.81690369783260
31
0.000000000000000
  0
LINE
  5
F104FF
330
F10500
100
AcDbEntity
8
Geo
100
AcDbLine
10
-26.7665221162186
20
-2.81690369783260
30
0.000000000000000
11
-26.6665221162186
21
-2.86087060343220
31
0.000000000000000
  0
LINE
  5
F10501
330
F10502
100
AcDbEntity
8
Geo
100
AcDbLine
10
-26.6665221162186
20
-2.86087060343220
30
0.000000000000000
11
-26.5665221162186
21
-2.90333456034832
31
0.000000000000000
  0
LINE
  5
F10503
330
F10504
100
AcDbEntity
8
Geo
100
AcDbLine
10
-26.5665221162186
20
-2.90333456034832
30
0.000000000000000
11
-26.4665221162186
21
-2.94428377331039
31
0.000000000000000
  0
LINE
  5
F10505
330
F10506
100
AcDbEntity
8
Geo
100
AcDbLine
10
-26.4665221162186
20
-2.94428377331039
30
0.000000000000000
11
-26.3665221162186
21
-2.98370686780036
31
0.000000000000000
  0
LINE
  5
F10507
330
F10508
100
AcDbEntity
8
Geo
100
AcDbLine
10
-26.3665221162186
20
-2.98370686780036
30
0.000000000000000
11
-26.2665221162186
21
-3.02159289321212
31
0.000000000000000
  0
LINE
  5
F10509
330
F1050A
100
AcDbEntity
8
Geo
100
AcDbLine
10
-26.2665221162186
20
-3.02159289321212
30
0.000000000000000
11
-26.1665221162186
21
-3.05793132589334
31
0.000000000000000
  0
LINE
  5
F1050B
330
F1050C
100
AcDbEntity
8
Geo
100
AcDbLine
10
-26.1665221162186
20
-3.05793132589334
30
0.000000000000000
11
-26.0665221162186
21
-3.09271207206859
31
0.000000000000000
  0
LINE
  5
F1050D
330
F1050E
100
AcDbEntity
8
Geo
100
AcDbLine
10
-26.0665221162186
20
-3.09271207206859
30
0.000000000000000
11
-25.9665221162186
21
-3.12592547064313
31
0.000000000000000
  0
LINE
  5
F1050F
330
F10510
100
AcDbEntity
8
Geo
100
AcDbLine
10
-25.9665221162186
20
-3.12592547064313
30
0.000000000000000
11
-25.8665221162186
21
-3.15756229588648
31
0.000000000000000
  0
LINE
  5
F10511
330
F10512
100
AcDbEntity
8
Geo
100
AcDbLine
10
-25.8665221162186
20
-3.15756229588648
30
0.000000000000000
11
-25.7665221162186
21
-3.18761375999505
31
0.000000000000000
  0
LINE
  5
F10513
330
F10514
100
AcDbEntity
8
Geo
100
AcDbLine
10
-25.7665221162186
20
-3.18761375999505
30
0.000000000000000
11
-25.6665221162186
21
-3.21607151553314
31
0.000000000000000
  0
LINE
  5
F10515
330
F10516
100
AcDbEntity
8
Geo
100
AcDbLine
10
-25.6665221162186
20
-3.21607151553314
30
0.000000000000000
11
-25.5665221162186
21
-3.24292765775165
31
0.000000000000000
  0
LINE
  5
F10517
330
F10518
100
AcDbEntity
8
Geo
100
AcDbLine
10
-25.5665221162186
20
-3.24292765775165
30
0.000000000000000
11
-25.4665221162186
21
-3.26817472678375
31
0.000000000000000
  0
LINE
  5
F10519
330
F1051A
100
AcDbEntity
8
Geo
100
AcDbLine
10
-25.4665221162186
20
-3.26817472678375
30
0.000000000000000
11
-25.3665221162186
21
-3.29180570971706
31
0.000000000000000
  0
LINE
  5
F1051B
330
F1051C
100
AcDbEntity
8
Geo
100
AcDbLine
10
-25.3665221162186
20
-3.29180570971706
30
0.000000000000000
11
-25.2665221162186
21
-3.31381404254160
31
0.000000000000000
  0
LINE
  5
F1051D
330
F1051E
100
AcDbEntity
8
Geo
100
AcDbLine
10
-25.2665221162186
20
-3.31381404254160
30
0.000000000000000
11
-25.1665221162186
21
-3.33419361197308
31
0.000000000000000
  0
LINE
  5
F1051F
330
F10520
100
AcDbEntity
8
Geo
100
AcDbLine
10
-25.1665221162186
20
-3.33419361197308
30
0.000000000000000
11
-25.0665221162186
21
-3.35293875715105
31
0.000000000000000
  0
LINE
  5
F10521
330
F10522
100
AcDbEntity
8
Geo
100
AcDbLine
10
-25.0665221162186
20
-3.35293875715105
30
0.000000000000000
11
-24.9665221162186
21
-3.37004427121126
31
0.000000000000000
  0
LINE
  5
F10523
330
F10524
100
AcDbEntity
8
Geo
100
AcDbLine
10
-24.9665221162186
20
-3.37004427121126
30
0.000000000000000
11
-24.8665221162186
21
-3.38550540273203
31
0.000000000000000
  0
LINE
  5
F10525
330
F10526
100
AcDbEntity
8
Geo
100
AcDbLine
10
-24.8665221162186
20
-3.38550540273203
30
0.000000000000000
11
-24.7665221162186
21
-3.39931785705399
31
0.000000000000000
  0
LINE
  5
F10527
330
F10528
100
AcDbEntity
8
Geo
100
AcDbLine
10
-24.7665221162186
20
-3.39931785705399
30
0.000000000000000
11
-24.6665221162186
21
-3.41147779747312
31
0.000000000000000
  0
LINE
  5
F10529
330
F1052A
100
AcDbEntity
8
Geo
100
AcDbLine
10
-24.6665221162186
20
-3.41147779747312
30
0.000000000000000
11
-24.5665221162186
21
-3.42198184630635
31
0.000000000000000
  0
LINE
  5
F1052B
330
F1052C
100
AcDbEntity
8
Geo
100
AcDbLine
10
-24.5665221162186
20
-3.42198184630635
30
0.000000000000000
11
-24.4665221162186
21
-3.43082708582990
31
0.000000000000000
  0
LINE
  5
F1052D
330
F1052E
100
AcDbEntity
8
Geo
100
AcDbLine
10
-24.4665221162186
20
-3.43082708582990
30
0.000000000000000
11
-24.3665221162186
21
-3.43801105908966
31
0.000000000000000
  0
LINE
  5
F1052F
330
F10530
100
AcDbEntity
8
Geo
100
AcDbLine
10
-24.3665221162186
20
-3.43801105908966
30
0.000000000000000
11
-24.2665221162186
21
-3.44353177058369
31
0.000000000000000
  0
LINE
  5
F10531
330
F10532
100
AcDbEntity
8
Geo
100
AcDbLine
10
-24.2665221162186
20
-3.44353177058369
30
0.000000000000000
11
-24.1665221162186
21
-3.44738768681653
31
0.000000000000000
  0
LINE
  5
F10533
330
F10534
100
AcDbEntity
8
Geo
100
AcDbLine
10
-24.1665221162186
20
-3.44738768681653
30
0.000000000000000
11
-24.0665221162186
21
-3.44957773672512
31
0.000000000000000
  0
LINE
  5
F10535
330
F10536
100
AcDbEntity
8
Geo
100
AcDbLine
10
-24.0665221162186
20
-3.44957773672512
30
0.000000000000000
11
-23.9851075341494
21
-3.45013009540330
31
0.000000000000000
  0
LINE
  5
F10537
330
F10538
100
AcDbEntity
8
Geo
100
AcDbLine
10
-34.6665221162185
20
-1.87975741978471
30
0.000000000000000
11
-34.5665221162185
21
-1.97528973810034
31
0.000000000000000
  0
LINE
  5
F10539
330
F1053A
100
AcDbEntity
8
Geo
100
AcDbLine
10
-34.5665221162185
20
-1.97528973810034
30
0.000000000000000
11
-34.5665221162185
21
-1.97528973810034
31
0.000000000000000
  0
LINE
  5
F1053B
330
F1053C
100
AcDbEntity
8
Geo
100
AcDbLine
10
-34.5665221162185
20
-1.97528973810034
30
0.000000000000000
11
-34.4665221162185
21
-2.04032346824008
31
0.000000000000000
  0
LINE
  5
F1053D
330
F1053E
100
AcDbEntity
8
Geo
100
AcDbLine
10
-34.4665221162185
20
-2.04032346824008
30
0.000000000000000
11
-34.3665221162185
21
-2.10408217418001
31
0.000000000000000
  0
LINE
  5
F1053F
330
F10540
100
AcDbEntity
8
Geo
100
AcDbLine
10
-34.3665221162185
20
-2.10408217418001
30
0.000000000000000
11
-34.2665221162185
21
-2.16654814557843
31
0.000000000000000
  0
LINE
  5
F10541
330
F10542
100
AcDbEntity
8
Geo
100
AcDbLine
10
-34.2665221162185
20
-2.16654814557843
30
0.000000000000000
11
-34.1665221162185
21
-2.22770403117829
31
0.000000000000000
  0
LINE
  5
F10543
330
F10544
100
AcDbEntity
8
Geo
100
AcDbLine
10
-34.1665221162185
20
-2.22770403117829
30
0.000000000000000
11
-34.0665221162185
21
-2.28753284362681
31
0.000000000000000
  0
LINE
  5
F10545
330
F10546
100
AcDbEntity
8
Geo
100
AcDbLine
10
-34.0665221162185
20
-2.28753284362681
30
0.000000000000000
11
-33.9665221162185
21
-2.34601796419412
31
0.000000000000000
  0
LINE
  5
F10547
330
F10548
100
AcDbEntity
8
Geo
100
AcDbLine
10
-33.9665221162185
20
-2.34601796419412
30
0.000000000000000
11
-33.8665221162185
21
-2.40314314738947
31
0.000000000000000
  0
LINE
  5
F10549
330
F1054A
100
AcDbEntity
8
Geo
100
AcDbLine
10
-33.8665221162185
20
-2.40314314738947
30
0.000000000000000
11
-33.7665221162185
21
-2.45889252547371
31
0.000000000000000
  0
LINE
  5
F1054B
330
F1054C
100
AcDbEntity
8
Geo
100
AcDbLine
10
-33.7665221162185
20
-2.45889252547371
30
0.000000000000000
11
-33.6665221162185
21
-2.51325061286695
31
0.000000000000000
  0
LINE
  5
F1054D
330
F1054E
100
AcDbEntity
8
Geo
100
AcDbLine
10
-33.6665221162185
20
-2.51325061286695
30
0.000000000000000
11
-33.5665221162185
21
-2.56620231045001
31
0.000000000000000
  0
LINE
  5
F1054F
330
F10550
100
AcDbEntity
8
Geo
100
AcDbLine
10
-33.5665221162185
20
-2.56620231045001
30
0.000000000000000
11
-33.4665221162185
21
-2.61773290975847
31
0.000000000000000
  0
LINE
  5
F10551
330
F10552
100
AcDbEntity
8
Geo
100
AcDbLine
10
-33.4665221162185
20
-2.61773290975847
30
0.000000000000000
11
-33.3665221162185
21
-2.66782809706832
31
0.000000000000000
  0
LINE
  5
F10553
330
F10554
100
AcDbEntity
8
Geo
100
AcDbLine
10
-33.3665221162185
20
-2.66782809706832
30
0.000000000000000
11
-33.2665221162185
21
-2.71647395737184
31
0.000000000000000
  0
LINE
  5
F10555
330
F10556
100
AcDbEntity
8
Geo
100
AcDbLine
10
-33.2665221162185
20
-2.71647395737184
30
0.000000000000000
11
-33.1665221162185
21
-2.76365697824287
31
0.000000000000000
  0
LINE
  5
F10557
330
F10558
100
AcDbEntity
8
Geo
100
AcDbLine
10
-33.1665221162185
20
-2.76365697824287
30
0.000000000000000
11
-33.0665221162185
21
-2.80936405359011
31
0.000000000000000
  0
LINE
  5
F10559
330
F1055A
100
AcDbEntity
8
Geo
100
AcDbLine
10
-33.0665221162185
20
-2.80936405359011
30
0.000000000000000
11
-32.9665221162185
21
-2.85358248729762
31
0.000000000000000
  0
LINE
  5
F1055B
330
F1055C
100
AcDbEntity
8
Geo
100
AcDbLine
10
-32.9665221162185
20
-2.85358248729762
30
0.000000000000000
11
-32.8665221162185
21
-2.89629999675148
31
0.000000000000000
  0
LINE
  5
F1055D
330
F1055E
100
AcDbEntity
8
Geo
100
AcDbLine
10
-32.8665221162185
20
-2.89629999675148
30
0.000000000000000
11
-32.7665221162185
21
-2.93750471625152
31
0.000000000000000
  0
LINE
  5
F1055F
330
F10560
100
AcDbEntity
8
Geo
100
AcDbLine
10
-32.7665221162185
20
-2.93750471625152
30
0.000000000000000
11
-32.6665221162185
21
-2.97718520030726
31
0.000000000000000
  0
LINE
  5
F10561
330
F10562
100
AcDbEntity
8
Geo
100
AcDbLine
10
-32.6665221162185
20
-2.97718520030726
30
0.000000000000000
11
-32.5665221162185
21
-3.01533042681718
31
0.000000000000000
  0
LINE
  5
F10563
330
F10564
100
AcDbEntity
8
Geo
100
AcDbLine
10
-32.5665221162185
20
-3.01533042681718
30
0.000000000000000
11
-32.4665221162185
21
-3.05192980013027
31
0.000000000000000
  0
LINE
  5
F10565
330
F10566
100
AcDbEntity
8
Geo
100
AcDbLine
10
-32.4665221162185
20
-3.05192980013027
30
0.000000000000000
11
-32.3665221162185
21
-3.08697315398931
31
0.000000000000000
  0
LINE
  5
F10567
330
F10568
100
AcDbEntity
8
Geo
100
AcDbLine
10
-32.3665221162185
20
-3.08697315398931
30
0.000000000000000
11
-32.2665221162185
21
-3.12045075435464
31
0.000000000000000
  0
LINE
  5
F10569
330
F1056A
100
AcDbEntity
8
Geo
100
AcDbLine
10
-32.2665221162185
20
-3.12045075435464
30
0.000000000000000
11
-32.1665221162185
21
-3.15235330210810
31
0.000000000000000
  0
LINE
  5
F1056B
330
F1056C
100
AcDbEntity
8
Geo
100
AcDbLine
10
-32.1665221162185
20
-3.15235330210810
30
0.000000000000000
11
-32.0665221162185
21
-3.18267193563600
31
0.000000000000000
  0
LINE
  5
F1056D
330
F1056E
100
AcDbEntity
8
Geo
100
AcDbLine
10
-32.0665221162185
20
-3.18267193563600
30
0.000000000000000
11
-31.9665221162185
21
-3.21139823329064
31
0.000000000000000
  0
LINE
  5
F1056F
330
F10570
100
AcDbEntity
8
Geo
100
AcDbLine
10
-31.9665221162185
20
-3.21139823329064
30
0.000000000000000
11
-31.8665221162185
21
-3.23852421572960
31
0.000000000000000
  0
LINE
  5
F10571
330
F10572
100
AcDbEntity
8
Geo
100
AcDbLine
10
-31.8665221162185
20
-3.23852421572960
30
0.000000000000000
11
-31.7665221162185
21
-3.26404234813219
31
0.000000000000000
  0
LINE
  5
F10573
330
F10574
100
AcDbEntity
8
Geo
100
AcDbLine
10
-31.7665221162185
20
-3.26404234813219
30
0.000000000000000
11
-31.6665221162185
21
-3.28794554229236
31
0.000000000000000
  0
LINE
  5
F10575
330
F10576
100
AcDbEntity
8
Geo
100
AcDbLine
10
-31.6665221162185
20
-3.28794554229236
30
0.000000000000000
11
-31.5665221162185
21
-3.31022715858767
31
0.000000000000000
  0
LINE
  5
F10577
330
F10578
100
AcDbEntity
8
Geo
100
AcDbLine
10
-31.5665221162185
20
-3.31022715858767
30
0.000000000000000
11
-31.4665221162185
21
-3.33088100782352
31
0.000000000000000
  0
LINE
  5
F10579
330
F1057A
100
AcDbEntity
8
Geo
100
AcDbLine
10
-31.4665221162185
20
-3.33088100782352
30
0.000000000000000
11
-31.3665221162185
21
-3.34990135295237
31
0.000000000000000
  0
LINE
  5
F1057B
330
F1057C
100
AcDbEntity
8
Geo
100
AcDbLine
10
-31.3665221162185
20
-3.34990135295237
30
0.000000000000000
11
-31.2665221162185
21
-3.36728291066733
31
0.000000000000000
  0
LINE
  5
F1057D
330
F1057E
100
AcDbEntity
8
Geo
100
AcDbLine
10
-31.2665221162185
20
-3.36728291066733
30
0.000000000000000
11
-31.1665221162185
21
-3.38302085286968
31
0.000000000000000
  0
LINE
  5
F1057F
330
F10580
100
AcDbEntity
8
Geo
100
AcDbLine
10
-31.1665221162185
20
-3.38302085286968
30
0.000000000000000
11
-31.0665221162185
21
-3.39711080800999
31
0.000000000000000
  0
LINE
  5
F10581
330
F10582
100
AcDbEntity
8
Geo
100
AcDbLine
10
-31.0665221162185
20
-3.39711080800999
30
0.000000000000000
11
-30.9665221162185
21
-3.40954886230245
31
0.000000000000000
  0
LINE
  5
F10583
330
F10584
100
AcDbEntity
8
Geo
100
AcDbLine
10
-30.9665221162185
20
-3.40954886230245
30
0.000000000000000
11
-30.8665221162185
21
-3.42033156081194
31
0.000000000000000
  0
LINE
  5
F10585
330
F10586
100
AcDbEntity
8
Geo
100
AcDbLine
10
-30.8665221162185
20
-3.42033156081194
30
0.000000000000000
11
-30.7665221162185
21
-3.42945590841377
31
0.000000000000000
  0
LINE
  5
F10587
330
F10588
100
AcDbEntity
8
Geo
100
AcDbLine
10
-30.7665221162185
20
-3.42945590841377
30
0.000000000000000
11
-30.6665221162185
21
-3.43691937062562
31
0.000000000000000
  0
LINE
  5
F10589
330
F1058A
100
AcDbEntity
8
Geo
100
AcDbLine
10
-30.6665221162185
20
-3.43691937062562
30
0.000000000000000
11
-30.5665221162185
21
-3.44271987431150
31
0.000000000000000
  0
LINE
  5
F1058B
330
F1058C
100
AcDbEntity
8
Geo
100
AcDbLine
10
-30.5665221162185
20
-3.44271987431150
30
0.000000000000000
11
-30.4665221162185
21
-3.44685580825772
31
0.000000000000000
  0
LINE
  5
F1058D
330
F1058E
100
AcDbEntity
8
Geo
100
AcDbLine
10
-30.4665221162185
20
-3.44685580825772
30
0.000000000000000
11
-30.3665221162185
21
-3.44932602362031
31
0.000000000000000
  0
LINE
  5
F1058F
330
F10590
100
AcDbEntity
8
Geo
100
AcDbLine
10
-30.3665221162185
20
-3.44932602362031
30
0.000000000000000
11
-30.2682924788515
21
-3.45013009540330
31
0.000000000000000
  0
LINE
  5
F10591
330
F10592
100
AcDbEntity
8
Geo
100
AcDbLine
10
-23.9851075341493
20
8.54986990459670
30
0.000000000000000
11
-23.9665221162186
21
8.54984112116975
31
0.000000000000000
  0
LINE
  5
F10593
330
F10594
100
AcDbEntity
8
Geo
100
AcDbLine
10
-23.9665221162186
20
8.54984112116975
30
0.000000000000000
11
-23.8665221162186
21
8.54869807632941
31
0.000000000000000
  0
LINE
  5
F10595
330
F10596
100
AcDbEntity
8
Geo
100
AcDbLine
10
-23.8665221162186
20
8.54869807632941
30
0.000000000000000
11
-23.7665221162186
21
8.54588872890261
31
0.000000000000000
  0
LINE
  5
F10597
330
F10598
100
AcDbEntity
8
Geo
100
AcDbLine
10
-23.7665221162186
20
8.54588872890261
30
0.000000000000000
11
-23.6665221162186
21
8.54141385924557
31
0.000000000000000
  0
LINE
  5
F10599
330
F1059A
100
AcDbEntity
8
Geo
100
AcDbLine
10
-23.6665221162186
20
0.992681146883726
30
0.000000000000000
11
-23.5665221162186
21
0.896328423649648
31
0.000000000000000
  0
LINE
  5
F1059B
330
F1059C
100
AcDbEntity
8
Geo
100
AcDbLine
10
-23.5665221162186
20
0.896328423649648
30
0.000000000000000
11
-23.4665221162186
21
0.800435006861370
31
0.000000000000000
  0
LINE
  5
F1059D
330
F1059E
100
AcDbEntity
8
Geo
100
AcDbLine
10
-23.4665221162186
20
0.800435006861370
30
0.000000000000000
11
-23.3665221162186
21
0.705027532962522
31
0.000000000000000
  0
LINE
  5
F1059F
330
F105A0
100
AcDbEntity
8
Geo
100
AcDbLine
10
-23.3665221162186
20
0.705027532962522
30
0.000000000000000
11
-23.2665221162186
21
0.610132503415817
31
0.000000000000000
  0
LINE
  5
F105A1
330
F105A2
100
AcDbEntity
8
Geo
100
AcDbLine
10
-23.2665221162186
20
0.610132503415817
30
0.000000000000000
11
-23.1665221162186
21
0.515776277342805
31
0.000000000000000
  0
LINE
  5
F105A3
330
F105A4
100
AcDbEntity
8
Geo
100
AcDbLine
10
-23.1665221162186
20
0.515776277342805
30
0.000000000000000
11
-23.0665221162186
21
0.421985064209362
31
0.000000000000000
  0
LINE
  5
F105A5
330
F105A6
100
AcDbEntity
8
Geo
100
AcDbLine
10
-23.0665221162186
20
0.421985064209362
30
0.000000000000000
11
-22.9665221162186
21
0.328784916579345
31
0.000000000000000
  0
LINE
  5
F105A7
330
F105A8
100
AcDbEntity
8
Geo
100
AcDbLine
10
-22.9665221162186
20
0.328784916579345
30
0.000000000000000
11
-22.8665221162186
21
0.236201722999142
31
0.000000000000000
  0
LINE
  5
F105A9
330
F105AA
100
AcDbEntity
8
Geo
100
AcDbLine
10
-22.8665221162186
20
0.236201722999142
30
0.000000000000000
11
-22.7665221162186
21
0.144261201165458
31
0.000000000000000
  0
LINE
  5
F105AB
330
F105AC
100
AcDbEntity
8
Geo
100
AcDbLine
10
-22.7665221162186
20
0.144261201165458
30
0.000000000000000
11
-22.6665221162186
21
0.0529888917025128
31
0.000000000000000
  0
LINE
  5
F105AD
330
F105AE
100
AcDbEntity
8
Geo
100
AcDbLine
10
-22.6665221162186
20
0.0529888917025128
30
0.000000000000000
11
-22.5665221162186
21
-0.0375898468192735
31
0.000000000000000
  0
LINE
  5
F105AF
330
F105B0
100
AcDbEntity
8
Geo
100
AcDbLine
10
-22.5665221162186
20
-0.0375898468192735
30
0.000000000000000
11
-22.4665221162186
21
-0.127449840492214
31
0.000000000000000
  0
LINE
  5
F105B1
330
F105B2
100
AcDbEntity
8
Geo
100
AcDbLine
10
-22.4665221162186
20
-0.127449840492214
30
0.000000000000000
11
-22.3665221162186
21
-0.216566098411021
31
0.000000000000000
  0
LINE
  5
F105B3
330
F105B4
100
AcDbEntity
8
Geo
100
AcDbLine
10
-22.3665221162186
20
-0.216566098411021
30
0.000000000000000
11
-22.2665221162186
21
-0.304913803726287
31
0.000000000000000
  0
LINE
  5
F105B5
330
F105B6
100
AcDbEntity
8
Geo
100
AcDbLine
10
-22.2665221162186
20
-0.304913803726287
30
0.000000000000000
11
-22.1665221162186
21
-0.392468292822967
31
0.000000000000000
  0
LINE
  5
F105B7
330
F105B8
100
AcDbEntity
8
Geo
100
AcDbLine
10
-22.1665221162186
20
-0.392468292822967
30
0.000000000000000
11
-22.0665221162186
21
-0.479205015904466
31
0.000000000000000
  0
LINE
  5
F105B9
330
F105BA
100
AcDbEntity
8
Geo
100
AcDbLine
10
-22.0665221162186
20
-0.479205015904466
30
0.000000000000000
11
-21.9665221162186
21
-0.565099469460951
31
0.000000000000000
  0
LINE
  5
F105BB
330
F105BC
100
AcDbEntity
8
Geo
100
AcDbLine
10
-21.9665221162186
20
-0.565099469460951
30
0.000000000000000
11
-21.8665221162186
21
-0.650127087513266
31
0.000000000000000
  0
LINE
  5
F105BD
330
F105BE
100
AcDbEntity
8
Geo
100
AcDbLine
10
-21.8665221162186
20
-0.650127087513266
30
0.000000000000000
11
-21.7665221162186
21
-0.734263074039751
31
0.000000000000000
  0
LINE
  5
F105BF
330
F105C0
100
AcDbEntity
8
Geo
100
AcDbLine
10
-21.7665221162186
20
-0.734263074039751
30
0.000000000000000
11
-21.6665221162186
21
-0.817482153510487
31
0.000000000000000
  0
LINE
  5
F105C1
330
F105C2
100
AcDbEntity
8
Geo
100
AcDbLine
10
-21.6665221162186
20
-0.817482153510487
30
0.000000000000000
11
-21.5665221162186
21
-0.899758209884321
31
0.000000000000000
  0
LINE
  5
F105C3
330
F105C4
100
AcDbEntity
8
Geo
100
AcDbLine
10
-21.5665221162186
20
-0.899758209884321
30
0.000000000000000
11
-21.4665221162186
21
-0.981063776703090
31
0.000000000000000
  0
LINE
  5
F105C5
330
F105C6
100
AcDbEntity
8
Geo
100
AcDbLine
10
-21.4665221162186
20
-0.981063776703090
30
0.000000000000000
11
-21.3665221162186
21
-1.06136933200634
31
0.000000000000000
  0
LINE
  5
F105C7
330
F105C8
100
AcDbEntity
8
Geo
100
AcDbLine
10
-21.3665221162186
20
-1.06136933200634
30
0.000000000000000
11
-21.2665221162186
21
-1.14064234168222
31
0.000000000000000
  0
LINE
  5
F105C9
330
F105CA
100
AcDbEntity
8
Geo
100
AcDbLine
10
-21.2665221162186
20
-1.14064234168222
30
0.000000000000000
11
-21.1665221162186
21
-1.21884598359091
31
0.000000000000000
  0
LINE
  5
F105CB
330
F105CC
100
AcDbEntity
8
Geo
100
AcDbLine
10
-21.1665221162186
20
-1.21884598359091
30
0.000000000000000
11
-21.0665221162186
21
-1.29593747239381
31
0.000000000000000
  0
LINE
  5
F105CD
330
F105CE
100
AcDbEntity
8
Geo
100
AcDbLine
10
-21.0665221162186
20
-1.29593747239381
30
0.000000000000000
11
-20.9665221162186
21
-1.37186589154030
31
0.000000000000000
  0
LINE
  5
F105CF
330
F105D0
100
AcDbEntity
8
Geo
100
AcDbLine
10
-20.9665221162186
20
-1.37186589154030
30
0.000000000000000
11
-20.8665221162186
21
-1.44656942429655
31
0.000000000000000
  0
LINE
  5
F105D1
330
F105D2
100
AcDbEntity
8
Geo
100
AcDbLine
10
-20.8665221162186
20
-1.44656942429655
30
0.000000000000000
11
-20.7665221162186
21
-1.51997185988673
31
0.000000000000000
  0
LINE
  5
F105D3
330
F105D4
100
AcDbEntity
8
Geo
100
AcDbLine
10
-20.7665221162186
20
-1.51997185988673
30
0.000000000000000
11
-20.6665221162186
21
-1.59197823327075
31
0.000000000000000
  0
LINE
  5
F105D5
330
F105D6
100
AcDbEntity
8
Geo
100
AcDbLine
10
-20.6665221162186
20
-1.59197823327075
30
0.000000000000000
11
-20.5665221162186
21
-1.66246943669614
31
0.000000000000000
  0
LINE
  5
F105D7
330
F105D8
100
AcDbEntity
8
Geo
100
AcDbLine
10
-20.5665221162186
20
-1.66246943669614
30
0.000000000000000
11
-20.4665221162186
21
-1.73129561572459
31
0.000000000000000
  0
LINE
  5
F105D9
330
F105DA
100
AcDbEntity
8
Geo
100
AcDbLine
10
-20.4665221162186
20
-1.73129561572459
30
0.000000000000000
11
-20.3665221162186
21
-1.79826812786173
31
0.000000000000000
  0
LINE
  5
F105DB
330
F105DC
100
AcDbEntity
8
Geo
100
AcDbLine
10
-20.3665221162186
20
-1.79826812786173
30
0.000000000000000
11
-20.2665221162186
21
-1.86314979105715
31
0.000000000000000
  0
LINE
  5
F105DD
330
F105DE
100
AcDbEntity
8
Geo
100
AcDbLine
10
-20.2665221162186
20
-1.86314979105715
30
0.000000000000000
11
-20.1665221162186
21
-1.92564307014388
31
0.000000000000000
  0
LINE
  5
F105DF
330
F105E0
100
AcDbEntity
8
Geo
100
AcDbLine
10
-20.1665221162186
20
-1.92564307014388
30
0.000000000000000
11
-20.0665221162186
21
-1.98537572211004
31
0.000000000000000
  0
LINE
  5
F105E1
330
F105E2
100
AcDbEntity
8
Geo
100
AcDbLine
10
-20.0665221162186
20
-1.98537572211004
30
0.000000000000000
11
-19.9665221162186
21
-2.04188321476605
31
0.000000000000000
  0
LINE
  5
F105E3
330
F105E4
100
AcDbEntity
8
Geo
100
AcDbLine
10
-19.9665221162186
20
-2.04188321476605
30
0.000000000000000
11
-19.8665221162186
21
-2.09458689962421
31
0.000000000000000
  0
LINE
  5
F105E5
330
F105E6
100
AcDbEntity
8
Geo
100
AcDbLine
10
-19.8665221162186
20
-2.09458689962421
30
0.000000000000000
11
-19.7665221162186
21
-2.14276638565172
31
0.000000000000000
  0
LINE
  5
F105E7
330
F105E8
100
AcDbEntity
8
Geo
100
AcDbLine
10
-19.7665221162186
20
-2.14276638565172
30
0.000000000000000
11
-19.6665221162186
21
-2.18552371821087
31
0.000000000000000
  0
LINE
  5
F105E9
330
F105EA
100
AcDbEntity
8
Geo
100
AcDbLine
10
-19.6665221162186
20
-2.18552371821087
30
0.000000000000000
11
-19.5665221162186
21
-2.22173566188538
31
0.000000000000000
  0
LINE
  5
F105EB
330
F105EC
100
AcDbEntity
8
Geo
100
AcDbLine
10
-19.5665221162186
20
-2.22173566188538
30
0.000000000000000
11
-19.4665221162186
21
-2.24998840062351
31
0.000000000000000
  0
LINE
  5
F105ED
330
F105EE
100
AcDbEntity
8
Geo
100
AcDbLine
10
-19.4665221162186
20
-2.24998840062351
30
0.000000000000000
11
-19.3665221162186
21
-2.26848601363838
31
0.000000000000000
  0
LINE
  5
F105EF
330
F105F0
100
AcDbEntity
8
Geo
100
AcDbLine
10
-19.3665221162186
20
-2.26848601363838
30
0.000000000000000
11
-19.2665221162186
21
-2.27491979442260
31
0.000000000000000
  0
LINE
  5
F105F1
330
F105F2
100
AcDbEntity
8
Geo
100
AcDbLine
10
-19.2665221162186
20
-2.27491979442260
30
0.000000000000000
11
-19.1665221162186
21
-2.26627943639985
31
0.000000000000000
  0
LINE
  5
F105F3
330
F105F4
100
AcDbEntity
8
Geo
100
AcDbLine
10
-19.1665221162186
20
-2.26627943639985
30
0.000000000000000
11
-19.0665221162186
21
-2.23857894166628
31
0.000000000000000
  0
LINE
  5
F105F5
330
F105F6
100
AcDbEntity
8
Geo
100
AcDbLine
10
-19.0665221162186
20
-2.23857894166628
30
0.000000000000000
11
-18.9665221162186
21
-2.18645975155038
31
0.000000000000000
  0
LINE
  5
F105F7
330
F105F8
100
AcDbEntity
8
Geo
100
AcDbLine
10
-18.9665221162186
20
-2.18645975155038
30
0.000000000000000
11
-18.8665221162186
21
-2.10262189131607
31
0.000000000000000
  0
LINE
  5
F105F9
330
F105FA
100
AcDbEntity
8
Geo
100
AcDbLine
10
-18.8665221162186
20
-2.10262189131607
30
0.000000000000000
11
-18.7665221162186
21
-1.97702396045330
31
0.000000000000000
  0
LINE
  5
F105FB
330
F105FC
100
AcDbEntity
8
Geo
100
AcDbLine
10
-18.7665221162186
20
-1.97702396045330
30
0.000000000000000
11
-18.6665221162185
21
-1.79579277582924
31
0.000000000000000
  0
LINE
  5
F105FD
330
F105FE
100
AcDbEntity
8
Geo
100
AcDbLine
10
-18.6665221162185
20
-1.79579277582924
30
0.000000000000000
11
-18.6665221162185
21
-1.73467555321348
31
0.000000000000000
  0
LINE
  5
F105FF
330
F10600
100
AcDbEntity
8
Geo
100
AcDbLine
10
-18.6665221162185
20
-1.73467555321348
30
0.000000000000000
11
-18.7665221162186
21
-1.44815300083309
31
0.000000000000000
  0
LINE
  5
F10601
330
F10602
100
AcDbEntity
8
Geo
100
AcDbLine
10
-18.7665221162186
20
-1.44815300083309
30
0.000000000000000
11
-18.8665221162186
21
-1.16680069783070
31
0.000000000000000
  0
LINE
  5
F10603
330
F10604
100
AcDbEntity
8
Geo
100
AcDbLine
10
-18.8665221162186
20
-1.16680069783070
30
0.000000000000000
11
-18.9665221162186
21
-0.893212330455136
31
0.000000000000000
  0
LINE
  5
F10605
330
F10606
100
AcDbEntity
8
Geo
100
AcDbLine
10
-18.9665221162186
20
-0.893212330455136
30
0.000000000000000
11
-19.0665221162186
21
-0.629157551219293
31
0.000000000000000
  0
LINE
  5
F10607
330
F10608
100
AcDbEntity
8
Geo
100
AcDbLine
10
-19.0665221162186
20
-0.629157551219293
30
0.000000000000000
11
-19.1665221162186
21
-0.375752661905013
31
0.000000000000000
  0
LINE
  5
F10609
330
F1060A
100
AcDbEntity
8
Geo
100
AcDbLine
10
-19.1665221162186
20
-0.375752661905013
30
0.000000000000000
11
-19.2665221162186
21
-0.133603632425342
31
0.000000000000000
  0
LINE
  5
F1060B
330
F1060C
100
AcDbEntity
8
Geo
100
AcDbLine
10
-19.2665221162186
20
-0.133603632425342
30
0.000000000000000
11
-19.3665221162186
21
0.0970757437217884
31
0.000000000000000
  0
LINE
  5
F1060D
330
F1060E
100
AcDbEntity
8
Geo
100
AcDbLine
10
-19.3665221162186
20
0.0970757437217884
30
0.000000000000000
11
-19.4665221162186
21
0.316367413878843
31
0.000000000000000
  0
LINE
  5
F1060F
330
F10610
100
AcDbEntity
8
Geo
100
AcDbLine
10
-19.4665221162186
20
0.316367413878843
30
0.000000000000000
11
-19.5665221162186
21
0.524571204272482
31
0.000000000000000
  0
LINE
  5
F10611
330
F10612
100
AcDbEntity
8
Geo
100
AcDbLine
10
-19.5665221162186
20
0.524571204272482
30
0.000000000000000
11
-19.6665221162186
21
0.722142579601371
31
0.000000000000000
  0
LINE
  5
F10613
330
F10614
100
AcDbEntity
8
Geo
100
AcDbLine
10
-19.6665221162186
20
0.722142579601371
30
0.000000000000000
11
-19.7665221162186
21
0.909643367367926
31
0.000000000000000
  0
LINE
  5
F10615
330
F10616
100
AcDbEntity
8
Geo
100
AcDbLine
10
-19.7665221162186
20
0.909643367367926
30
0.000000000000000
11
-19.8665221162186
21
1.08770312470718
31
0.000000000000000
  0
LINE
  5
F10617
330
F10618
100
AcDbEntity
8
Geo
100
AcDbLine
10
-19.8665221162186
20
1.08770312470718
30
0.000000000000000
11
-19.9665221162186
21
1.25698916128855
31
0.000000000000000
  0
LINE
  5
F10619
330
F1061A
100
AcDbEntity
8
Geo
100
AcDbLine
10
-19.9665221162186
20
1.25698916128855
30
0.000000000000000
11
-20.0665221162186
21
1.41818354715162
31
0.000000000000000
  0
LINE
  5
F1061B
330
F1061C
100
AcDbEntity
8
Geo
100
AcDbLine
10
-20.0665221162186
20
1.41818354715162
30
0.000000000000000
11
-20.1665221162186
21
1.57196571798483
31
0.000000000000000
  0
LINE
  5
F1061D
330
F1061E
100
AcDbEntity
8
Geo
100
AcDbLine
10
-20.1665221162186
20
1.57196571798483
30
0.000000000000000
11
-20.2665221162186
21
1.71899953809416
31
0.000000000000000
  0
LINE
  5
F1061F
330
F10620
100
AcDbEntity
8
Geo
100
AcDbLine
10
-20.2665221162186
20
1.71899953809416
30
0.000000000000000
11
-20.3665221162186
21
1.85992389302235
31
0.000000000000000
  0
LINE
  5
F10621
330
F10622
100
AcDbEntity
8
Geo
100
AcDbLine
10
-20.3665221162186
20
1.85992389302235
30
0.000000000000000
11
-20.4665221162186
21
1.99534606171088
31
0.000000000000000
  0
LINE
  5
F10623
330
F10624
100
AcDbEntity
8
Geo
100
AcDbLine
10
-20.4665221162186
20
1.99534606171088
30
0.000000000000000
11
-20.5665221162186
21
2.12583726567795
31
0.000000000000000
  0
LINE
  5
F10625
330
F10626
100
AcDbEntity
8
Geo
100
AcDbLine
10
-20.5665221162186
20
2.12583726567795
30
0.000000000000000
11
-20.6665221162186
21
2.25192991378944
31
0.000000000000000
  0
LINE
  5
F10627
330
F10628
100
AcDbEntity
8
Geo
100
AcDbLine
10
-20.6665221162186
20
2.25192991378944
30
0.000000000000000
11
-20.7665221162186
21
2.37411615970095
31
0.000000000000000
  0
LINE
  5
F10629
330
F1062A
100
AcDbEntity
8
Geo
100
AcDbLine
10
-20.7665221162186
20
2.37411615970095
30
0.000000000000000
11
-20.8665221162186
21
2.49284746856706
31
0.000000000000000
  0
LINE
  5
F1062B
330
F1062C
100
AcDbEntity
8
Geo
100
AcDbLine
10
-20.8665221162186
20
2.49284746856706
30
0.000000000000000
11
-20.9665221162186
21
2.60853495339545
31
0.000000000000000
  0
LINE
  5
F1062D
330
F1062E
100
AcDbEntity
8
Geo
100
AcDbLine
10
-20.9665221162186
20
2.60853495339545
30
0.000000000000000
11
-21.0665221162186
21
2.72155029229234
31
0.000000000000000
  0
LINE
  5
F1062F
330
F10630
100
AcDbEntity
8
Geo
100
AcDbLine
10
-21.0665221162186
20
2.72155029229234
30
0.000000000000000
11
-21.1665221162186
21
2.83222707821069
31
0.000000000000000
  0
LINE
  5
F10631
330
F10632
100
AcDbEntity
8
Geo
100
AcDbLine
10
-21.1665221162186
20
2.83222707821069
30
0.000000000000000
11
-21.2665221162186
21
2.94086248469318
31
0.000000000000000
  0
LINE
  5
F10633
330
F10634
100
AcDbEntity
8
Geo
100
AcDbLine
10
-21.2665221162186
20
2.94086248469318
30
0.000000000000000
11
-21.3665221162186
21
3.04771915617238
31
0.000000000000000
  0
LINE
  5
F10635
330
F10636
100
AcDbEntity
8
Geo
100
AcDbLine
10
-21.3665221162186
20
3.04771915617238
30
0.000000000000000
11
-21.4665221162186
21
3.15302725102494
31
0.000000000000000
  0
LINE
  5
F10637
330
F10638
100
AcDbEntity
8
Geo
100
AcDbLine
10
-21.4665221162186
20
3.15302725102494
30
0.000000000000000
11
-21.5665221162186
21
3.25698658089417
31
0.000000000000000
  0
LINE
  5
F10639
330
F1063A
100
AcDbEntity
8
Geo
100
AcDbLine
10
-21.5665221162186
20
3.25698658089417
30
0.000000000000000
11
-21.6665221162186
21
3.35976880170326
31
0.000000000000000
  0
LINE
  5
F1063B
330
F1063C
100
AcDbEntity
8
Geo
100
AcDbLine
10
-21.6665221162186
20
3.35976880170326
30
0.000000000000000
11
-21.7665221162186
21
3.46151962100957
31
0.000000000000000
  0
LINE
  5
F1063D
330
F1063E
100
AcDbEntity
8
Geo
100
AcDbLine
10
-21.7665221162186
20
3.46151962100957
30
0.000000000000000
11
-21.8665221162186
21
3.56236099348673
31
0.000000000000000
  0
LINE
  5
F1063F
330
F10640
100
AcDbEntity
8
Geo
100
AcDbLine
10
-21.8665221162186
20
3.56236099348673
30
0.000000000000000
11
-21.9665221162186
21
3.66239328183359
31
0.000000000000000
  0
LINE
  5
F10641
330
F10642
100
AcDbEntity
8
Geo
100
AcDbLine
10
-21.9665221162186
20
3.66239328183359
30
0.000000000000000
11
-22.0665221162186
21
3.76169736467365
31
0.000000000000000
  0
LINE
  5
F10643
330
F10644
100
AcDbEntity
8
Geo
100
AcDbLine
10
-22.0665221162186
20
3.76169736467365
30
0.000000000000000
11
-22.1665221162186
21
3.86033667632146
31
0.000000000000000
  0
LINE
  5
F10645
330
F10646
100
AcDbEntity
8
Geo
100
AcDbLine
10
-22.1665221162186
20
3.86033667632146
30
0.000000000000000
11
-22.2665221162186
21
3.95835916588924
31
0.000000000000000
  0
LINE
  5
F10647
330
F10648
100
AcDbEntity
8
Geo
100
AcDbLine
10
-22.2665221162186
20
3.95835916588924
30
0.000000000000000
11
-22.3665221162186
21
4.05579916527394
31
0.000000000000000
  0
LINE
  5
F10649
330
F1064A
100
AcDbEntity
8
Geo
100
AcDbLine
10
-22.3665221162186
20
4.05579916527394
30
0.000000000000000
11
-22.4665221162186
21
4.15267915724470
31
0.000000000000000
  0
LINE
  5
F1064B
330
F1064C
100
AcDbEntity
8
Geo
100
AcDbLine
10
-22.4665221162186
20
4.15267915724470
30
0.000000000000000
11
-22.5665221162186
21
4.24901143625644
31
0.000000000000000
  0
LINE
  5
F1064D
330
F1064E
100
AcDbEntity
8
Geo
100
AcDbLine
10
-22.5665221162186
20
4.24901143625644
30
0.000000000000000
11
-22.6665221162186
21
4.34479965583113
31
0.000000000000000
  0
LINE
  5
F1064F
330
F10650
100
AcDbEntity
8
Geo
100
AcDbLine
10
-22.6665221162186
20
4.34479965583113
30
0.000000000000000
11
-22.7665221162186
21
4.44004025743811
31
0.000000000000000
  0
LINE
  5
F10651
330
F10652
100
AcDbEntity
8
Geo
100
AcDbLine
10
-22.7665221162186
20
4.44004025743811
30
0.000000000000000
11
-22.8665221162186
21
4.53472377681453
31
0.000000000000000
  0
LINE
  5
F10653
330
F10654
100
AcDbEntity
8
Geo
100
AcDbLine
10
-22.8665221162186
20
4.53472377681453
30
0.000000000000000
11
-22.9665221162186
21
4.62883602462897
31
0.000000000000000
  0
LINE
  5
F10655
330
F10656
100
AcDbEntity
8
Geo
100
AcDbLine
10
-22.9665221162186
20
4.62883602462897
30
0.000000000000000
11
-23.0665221162186
21
4.72235913932759
31
0.000000000000000
  0
LINE
  5
F10657
330
F10658
100
AcDbEntity
8
Geo
100
AcDbLine
10
-23.0665221162186
20
4.72235913932759
30
0.000000000000000
11
-23.1665221162186
21
4.81527251092524
31
0.000000000000000
  0
LINE
  5
F10659
330
F1065A
100
AcDbEntity
8
Geo
100
AcDbLine
10
-23.1665221162186
20
4.81527251092524
30
0.000000000000000
11
-23.2665221162186
21
4.90755357542119
31
0.000000000000000
  0
LINE
  5
F1065B
330
F1065C
100
AcDbEntity
8
Geo
100
AcDbLine
10
-23.2665221162186
20
4.90755357542119
30
0.000000000000000
11
-23.3665221162186
21
4.99917848043325
31
0.000000000000000
  0
LINE
  5
F1065D
330
F1065E
100
AcDbEntity
8
Geo
100
AcDbLine
10
-23.3665221162186
20
4.99917848043325
30
0.000000000000000
11
-23.4665221162186
21
5.09012262355407
31
0.000000000000000
  0
LINE
  5
F1065F
330
F10660
100
AcDbEntity
8
Geo
100
AcDbLine
10
-23.4665221162186
20
5.09012262355407
30
0.000000000000000
11
-23.5665221162186
21
5.18036106583699
31
0.000000000000000
  0
LINE
  5
F10661
330
F10662
100
AcDbEntity
8
Geo
100
AcDbLine
10
-23.5665221162186
20
5.18036106583699
30
0.000000000000000
11
-23.6665221162186
21
5.26986882371384
31
0.000000000000000
  0
LINE
  5
F10663
330
F10664
100
AcDbEntity
8
Geo
100
AcDbLine
10
-23.6665221162186
20
-3.24682893507357
30
0.000000000000000
11
-23.5665221162186
21
-3.27183331070475
31
0.000000000000000
  0
LINE
  5
F10665
330
F10666
100
AcDbEntity
8
Geo
100
AcDbLine
10
-23.5665221162186
20
-3.27183331070475
30
0.000000000000000
11
-23.4665221162186
21
-3.29522058398733
31
0.000000000000000
  0
LINE
  5
F10667
330
F10668
100
AcDbEntity
8
Geo
100
AcDbLine
10
-23.4665221162186
20
-3.29522058398733
30
0.000000000000000
11
-23.3665221162186
21
-3.31698425860691
31
0.000000000000000
  0
LINE
  5
F10669
330
F1066A
100
AcDbEntity
8
Geo
100
AcDbLine
10
-23.3665221162186
20
-3.31698425860691
30
0.000000000000000
11
-23.2665221162186
21
-3.33711828923824
31
0.000000000000000
  0
LINE
  5
F1066B
330
F1066C
100
AcDbEntity
8
Geo
100
AcDbLine
10
-23.2665221162186
20
-3.33711828923824
30
0.000000000000000
11
-23.1665221162186
21
-3.35561708322424
31
0.000000000000000
  0
LINE
  5
F1066D
330
F1066E
100
AcDbEntity
8
Geo
100
AcDbLine
10
-23.1665221162186
20
-3.35561708322424
30
0.000000000000000
11
-23.0665221162186
21
-3.37247550212838
31
0.000000000000000
  0
LINE
  5
F1066F
330
F10670
100
AcDbEntity
8
Geo
100
AcDbLine
10
-23.0665221162186
20
-3.37247550212838
30
0.000000000000000
11
-22.9665221162186
21
-3.38768886315738
31
0.000000000000000
  0
LINE
  5
F10671
330
F10672
100
AcDbEntity
8
Geo
100
AcDbLine
10
-22.9665221162186
20
-3.38768886315738
30
0.000000000000000
11
-22.8665221162186
21
-3.40125294044887
31
0.000000000000000
  0
LINE
  5
F10673
330
F10674
100
AcDbEntity
8
Geo
100
AcDbLine
10
-22.8665221162186
20
-3.40125294044887
30
0.000000000000000
11
-22.7665221162186
21
-3.41316396621586
31
0.000000000000000
  0
LINE
  5
F10675
330
F10676
100
AcDbEntity
8
Geo
100
AcDbLine
10
-22.7665221162186
20
-3.41316396621586
30
0.000000000000000
11
-22.6665221162186
21
-3.42341863174367
31
0.000000000000000
  0
LINE
  5
F10677
330
F10678
100
AcDbEntity
8
Geo
100
AcDbLine
10
-22.6665221162186
20
-3.42341863174367
30
0.000000000000000
11
-22.5665221162186
21
-3.43201408825609
31
0.000000000000000
  0
LINE
  5
F10679
330
F1067A
100
AcDbEntity
8
Geo
100
AcDbLine
10
-22.5665221162186
20
-3.43201408825609
30
0.000000000000000
11
-22.4665221162186
21
-3.43894794772842
31
0.000000000000000
  0
LINE
  5
F1067B
330
F1067C
100
AcDbEntity
8
Geo
100
AcDbLine
10
-22.4665221162186
20
-3.43894794772842
30
0.000000000000000
11
-22.3665221162186
21
-3.44421828386178
31
0.000000000000000
  0
LINE
  5
F1067D
330
F1067E
100
AcDbEntity
8
Geo
100
AcDbLine
10
-22.3665221162186
20
-3.44421828386178
30
0.000000000000000
11
-22.2665221162186
21
-3.44782363370121
31
0.000000000000000
  0
LINE
  5
F1067F
330
F10680
100
AcDbEntity
8
Geo
100
AcDbLine
10
-22.2665221162186
20
-3.44782363370121
30
0.000000000000000
11
-22.1665221162186
21
-3.44976300085862
31
0.000000000000000
  0
LINE
  5
F10681
330
F10682
100
AcDbEntity
8
Geo
100
AcDbLine
10
-22.1665221162186
20
-3.44976300085862
30
0.000000000000000
11
-22.1001502210719
21
-3.45013009540330
31
0.000000000000000
  0
LINE
  5
F10683
330
F10684
100
AcDbEntity
8
Geo
100
AcDbLine
10
-19.1374646423553
20
-3.45013009540330
30
0.000000000000000
11
-19.1665221162186
21
-3.44952042555524
31
0.000000000000000
  0
LINE
  5
F10685
330
F10686
100
AcDbEntity
8
Geo
100
AcDbLine
10
-19.1665221162186
20
-3.44952042555524
30
0.000000000000000
11
-19.2665221162186
21
-3.43936375278652
31
0.000000000000000
  0
LINE
  5
F10687
330
F10688
100
AcDbEntity
8
Geo
100
AcDbLine
10
-19.2665221162186
20
-3.43936375278652
30
0.000000000000000
11
-19.3665221162186
21
-3.41866283430556
31
0.000000000000000
  0
LINE
  5
F10689
330
F1068A
100
AcDbEntity
8
Geo
100
AcDbLine
10
-19.3665221162186
20
-3.41866283430556
30
0.000000000000000
11
-19.4665221162186
21
-3.38959841394492
31
0.000000000000000
  0
LINE
  5
F1068B
330
F1068C
100
AcDbEntity
8
Geo
100
AcDbLine
10
-19.4665221162186
20
-3.38959841394492
30
0.000000000000000
11
-19.5665221162186
21
-3.35395761455995
31
0.000000000000000
  0
LINE
  5
F1068D
330
F1068E
100
AcDbEntity
8
Geo
100
AcDbLine
10
-19.5665221162186
20
-3.35395761455995
30
0.000000000000000
11
-19.6665221162186
21
-3.31319163423396
31
0.000000000000000
  0
LINE
  5
F1068F
330
F10690
100
AcDbEntity
8
Geo
100
AcDbLine
10
-19.6665221162186
20
-3.31319163423396
30
0.000000000000000
11
-19.7665221162186
21
-3.26846731657602
31
0.000000000000000
  0
LINE
  5
F10691
330
F10692
100
AcDbEntity
8
Geo
100
AcDbLine
10
-19.7665221162186
20
-3.26846731657602
30
0.000000000000000
11
-19.8665221162186
21
-3.22071259050133
31
0.000000000000000
  0
LINE
  5
F10693
330
F10694
100
AcDbEntity
8
Geo
100
AcDbLine
10
-19.8665221162186
20
-3.22071259050133
30
0.000000000000000
11
-19.9665221162186
21
-3.17065605341550
31
0.000000000000000
  0
LINE
  5
F10695
330
F10696
100
AcDbEntity
8
Geo
100
AcDbLine
10
-19.9665221162186
20
-3.17065605341550
30
0.000000000000000
11
-20.0665221162186
21
-3.11886113212150
31
0.000000000000000
  0
LINE
  5
F10697
330
F10698
100
AcDbEntity
8
Geo
100
AcDbLine
10
-20.0665221162186
20
-3.11886113212150
30
0.000000000000000
11
-20.1665221162186
21
-3.06575533523957
31
0.000000000000000
  0
LINE
  5
F10699
330
F1069A
100
AcDbEntity
8
Geo
100
AcDbLine
10
-20.1665221162186
20
-3.06575533523957
30
0.000000000000000
11
-20.2665221162186
21
-3.01165513655163
31
0.000000000000000
  0
LINE
  5
F1069B
330
F1069C
100
AcDbEntity
8
Geo
100
AcDbLine
10
-20.2665221162186
20
-3.01165513655163
30
0.000000000000000
11
-20.3665221162186
21
-2.95678701981960
31
0.000000000000000
  0
LINE
  5
F1069D
330
F1069E
100
AcDbEntity
8
Geo
100
AcDbLine
10
-20.3665221162186
20
-2.95678701981960
30
0.000000000000000
11
-20.4665221162186
21
-2.90130518588504
31
0.000000000000000
  0
LINE
  5
F1069F
330
F106A0
100
AcDbEntity
8
Geo
100
AcDbLine
10
-20.4665221162186
20
-2.90130518588504
30
0.000000000000000
11
-20.5665221162186
21
-2.84530638160581
31
0.000000000000000
  0
LINE
  5
F106A1
330
F106A2
100
AcDbEntity
8
Geo
100
AcDbLine
10
-20.5665221162186
20
-2.84530638160581
30
0.000000000000000
11
-20.6665221162186
21
-2.78884226372924
31
0.000000000000000
  0
LINE
  5
F106A3
330
F106A4
100
AcDbEntity
8
Geo
100
AcDbLine
10
-20.6665221162186
20
-2.78884226372924
30
0.000000000000000
11
-20.7665221162186
21
-2.73192966325841
31
0.000000000000000
  0
LINE
  5
F106A5
330
F106A6
100
AcDbEntity
8
Geo
100
AcDbLine
10
-20.7665221162186
20
-2.73192966325841
30
0.000000000000000
11
-20.8665221162186
21
-2.67455906982478
31
0.000000000000000
  0
LINE
  5
F106A7
330
F106A8
100
AcDbEntity
8
Geo
100
AcDbLine
10
-20.8665221162186
20
-2.67455906982478
30
0.000000000000000
11
-20.9665221162186
21
-2.61670161255792
31
0.000000000000000
  0
LINE
  5
F106A9
330
F106AA
100
AcDbEntity
8
Geo
100
AcDbLine
10
-20.9665221162186
20
-2.61670161255792
30
0.000000000000000
11
-21.0665221162186
21
-2.55831477474973
31
0.000000000000000
  0
LINE
  5
F106AB
330
F106AC
100
AcDbEntity
8
Geo
100
AcDbLine
10
-21.0665221162186
20
-2.55831477474973
30
0.000000000000000
11
-21.1665221162186
21
-2.49934704457250
31
0.000000000000000
  0
LINE
  5
F106AD
330
F106AE
100
AcDbEntity
8
Geo
100
AcDbLine
10
-21.1665221162186
20
-2.49934704457250
30
0.000000000000000
11
-21.2665221162186
21
-2.43974167325252
31
0.000000000000000
  0
LINE
  5
F106AF
330
F106B0
100
AcDbEntity
8
Geo
100
AcDbLine
10
-21.2665221162186
20
-2.43974167325252
30
0.000000000000000
11
-21.3665221162186
21
-2.37943968525589
31
0.000000000000000
  0
LINE
  5
F106B1
330
F106B2
100
AcDbEntity
8
Geo
100
AcDbLine
10
-21.3665221162186
20
-2.37943968525589
30
0.000000000000000
11
-21.4665221162186
21
-2.31838226193503
31
0.000000000000000
  0
LINE
  5
F106B3
330
F106B4
100
AcDbEntity
8
Geo
100
AcDbLine
10
-21.4665221162186
20
-2.31838226193503
30
0.000000000000000
11
-21.5665221162186
21
-2.25651260038218
31
0.000000000000000
  0
LINE
  5
F106B5
330
F106B6
100
AcDbEntity
8
Geo
100
AcDbLine
10
-21.5665221162186
20
-2.25651260038218
30
0.000000000000000
11
-21.6665221162186
21
-2.19377733258384
31
0.000000000000000
  0
LINE
  5
F106B7
330
F106B8
100
AcDbEntity
8
Geo
100
AcDbLine
10
-21.6665221162186
20
-2.19377733258384
30
0.000000000000000
11
-21.7665221162186
21
-2.13012757601694
31
0.000000000000000
  0
LINE
  5
F106B9
330
F106BA
100
AcDbEntity
8
Geo
100
AcDbLine
10
-21.7665221162186
20
-2.13012757601694
30
0.000000000000000
11
-21.8665221162186
21
-2.06551967523147
31
0.000000000000000
  0
LINE
  5
F106BB
330
F106BC
100
AcDbEntity
8
Geo
100
AcDbLine
10
-21.8665221162186
20
-2.06551967523147
30
0.000000000000000
11
-21.9665221162186
21
-1.99991568440834
31
0.000000000000000
  0
LINE
  5
F106BD
330
F106BE
100
AcDbEntity
8
Geo
100
AcDbLine
10
-21.9665221162186
20
-1.99991568440834
30
0.000000000000000
11
-22.0665221162186
21
-1.93328363307240
31
0.000000000000000
  0
LINE
  5
F106BF
330
F106C0
100
AcDbEntity
8
Geo
100
AcDbLine
10
-22.0665221162186
20
-1.93328363307240
30
0.000000000000000
11
-22.1665221162186
21
-1.86559761081227
31
0.000000000000000
  0
LINE
  5
F106C1
330
F106C2
100
AcDbEntity
8
Geo
100
AcDbLine
10
-22.1665221162186
20
-1.86559761081227
30
0.000000000000000
11
-22.2665221162186
21
-1.79683770177311
31
0.000000000000000
  0
LINE
  5
F106C3
330
F106C4
100
AcDbEntity
8
Geo
100
AcDbLine
10
-22.2665221162186
20
-1.79683770177311
30
0.000000000000000
11
-22.3665221162186
21
-1.72698979563301
31
0.000000000000000
  0
LINE
  5
F106C5
330
F106C6
100
AcDbEntity
8
Geo
100
AcDbLine
10
-22.3665221162186
20
-1.72698979563301
30
0.000000000000000
11
-22.4665221162186
21
-1.65604529856089
31
0.000000000000000
  0
LINE
  5
F106C7
330
F106C8
100
AcDbEntity
8
Geo
100
AcDbLine
10
-22.4665221162186
20
-1.65604529856089
30
0.000000000000000
11
-22.5665221162186
21
-1.58400076512194
31
0.000000000000000
  0
LINE
  5
F106C9
330
F106CA
100
AcDbEntity
8
Geo
100
AcDbLine
10
-22.5665221162186
20
-1.58400076512194
30
0.000000000000000
11
-22.6665221162186
21
-1.51085747010275
31
0.000000000000000
  0
LINE
  5
F106CB
330
F106CC
100
AcDbEntity
8
Geo
100
AcDbLine
10
-22.6665221162186
20
-1.51085747010275
30
0.000000000000000
11
-22.7665221162186
21
-1.43662093765346
31
0.000000000000000
  0
LINE
  5
F106CD
330
F106CE
100
AcDbEntity
8
Geo
100
AcDbLine
10
-22.7665221162186
20
-1.43662093765346
30
0.000000000000000
11
-22.8665221162186
21
-1.36130044388623
31
0.000000000000000
  0
LINE
  5
F106CF
330
F106D0
100
AcDbEntity
8
Geo
100
AcDbLine
10
-22.8665221162186
20
-1.36130044388623
30
0.000000000000000
11
-22.9665221162186
21
-1.28490850804316
31
0.000000000000000
  0
LINE
  5
F106D1
330
F106D2
100
AcDbEntity
8
Geo
100
AcDbLine
10
-22.9665221162186
20
-1.28490850804316
30
0.000000000000000
11
-23.0665221162186
21
-1.20746038648449
31
0.000000000000000
  0
LINE
  5
F106D3
330
F106D4
100
AcDbEntity
8
Geo
100
AcDbLine
10
-23.0665221162186
20
-1.20746038648449
30
0.000000000000000
11
-23.1665221162186
21
-1.12897358299282
31
0.000000000000000
  0
LINE
  5
F106D5
330
F106D6
100
AcDbEntity
8
Geo
100
AcDbLine
10
-23.1665221162186
20
-1.12897358299282
30
0.000000000000000
11
-23.2665221162186
21
-1.04946738819939
31
0.000000000000000
  0
LINE
  5
F106D7
330
F106D8
100
AcDbEntity
8
Geo
100
AcDbLine
10
-23.2665221162186
20
-1.04946738819939
30
0.000000000000000
11
-23.3665221162186
21
-0.968962460280650
31
0.000000000000000
  0
LINE
  5
F106D9
330
F106DA
100
AcDbEntity
8
Geo
100
AcDbLine
10
-23.3665221162186
20
-0.968962460280650
30
0.000000000000000
11
-23.4665221162186
21
-0.887480458423871
31
0.000000000000000
  0
LINE
  5
F106DB
330
F106DC
100
AcDbEntity
8
Geo
100
AcDbLine
10
-23.4665221162186
20
-0.887480458423871
30
0.000000000000000
11
-23.5665221162186
21
-0.805043739903604
31
0.000000000000000
  0
LINE
  5
F106DD
330
F106DE
100
AcDbEntity
8
Geo
100
AcDbLine
10
-23.5665221162186
20
-0.805043739903604
30
0.000000000000000
11
-23.6665221162186
21
-0.721675130935032
31
0.000000000000000
  0
LINE
  5
F106DF
330
F106E0
100
AcDbEntity
8
Geo
100
AcDbLine
10
-22.1001502210719
20
8.54986990459670
30
0.000000000000000
11
-22.0665221162186
21
8.54977567129584
31
0.000000000000000
  0
LINE
  5
F106E1
330
F106E2
100
AcDbEntity
8
Geo
100
AcDbLine
10
-22.0665221162186
20
8.54977567129584
30
0.000000000000000
11
-21.9665221162186
21
8.54838198953833
31
0.000000000000000
  0
LINE
  5
F106E3
330
F106E4
100
AcDbEntity
8
Geo
100
AcDbLine
10
-21.9665221162186
20
8.54838198953833
30
0.000000000000000
11
-21.8665221162186
21
8.54532223818262
31
0.000000000000000
  0
LINE
  5
F106E5
330
F106E6
100
AcDbEntity
8
Geo
100
AcDbLine
10
-21.8665221162186
20
8.54532223818262
30
0.000000000000000
11
-21.7665221162186
21
8.54059744462633
31
0.000000000000000
  0
LINE
  5
F106E7
330
F106E8
100
AcDbEntity
8
Geo
100
AcDbLine
10
-21.7665221162186
20
8.54059744462633
30
0.000000000000000
11
-21.6665221162186
21
8.53420926476225
31
0.000000000000000
  0
LINE
  5
F106E9
330
F106EA
100
AcDbEntity
8
Geo
100
AcDbLine
10
-21.6665221162186
20
8.53420926476225
30
0.000000000000000
11
-21.5665221162186
21
8.52616010593547
31
0.000000000000000
  0
LINE
  5
F106EB
330
F106EC
100
AcDbEntity
8
Geo
100
AcDbLine
10
-21.5665221162186
20
8.52616010593547
30
0.000000000000000
11
-21.4665221162186
21
8.51645332345495
31
0.000000000000000
  0
LINE
  5
F106ED
330
F106EE
100
AcDbEntity
8
Geo
100
AcDbLine
10
-21.4665221162186
20
8.51645332345495
30
0.000000000000000
11
-21.3665221162186
21
8.50509352593442
31
0.000000000000000
  0
LINE
  5
F106EF
330
F106F0
100
AcDbEntity
8
Geo
100
AcDbLine
10
-21.3665221162186
20
8.50509352593442
30
0.000000000000000
11
-21.2665221162186
21
8.49208703805210
31
0.000000000000000
  0
LINE
  5
F106F1
330
F106F2
100
AcDbEntity
8
Geo
100
AcDbLine
10
-21.2665221162186
20
8.49208703805210
30
0.000000000000000
11
-21.1665221162186
21
8.47744258644458
31
0.000000000000000
  0
LINE
  5
F106F3
330
F106F4
100
AcDbEntity
8
Geo
100
AcDbLine
10
-21.1665221162186
20
8.47744258644458
30
0.000000000000000
11
-21.0665221162186
21
8.46117229611978
31
0.000000000000000
  0
LINE
  5
F106F5
330
F106F6
100
AcDbEntity
8
Geo
100
AcDbLine
10
-21.0665221162186
20
8.46117229611978
30
0.000000000000000
11
-20.9665221162186
21
8.44329311174520
31
0.000000000000000
  0
LINE
  5
F106F7
330
F106F8
100
AcDbEntity
8
Geo
100
AcDbLine
10
-20.9665221162186
20
8.44329311174520
30
0.000000000000000
11
-20.8665221162186
21
8.42382879116038
31
0.000000000000000
  0
LINE
  5
F106F9
330
F106FA
100
AcDbEntity
8
Geo
100
AcDbLine
10
-20.8665221162186
20
8.42382879116038
30
0.000000000000000
11
-20.7665221162186
21
8.40281265804998
31
0.000000000000000
  0
LINE
  5
F106FB
330
F106FC
100
AcDbEntity
8
Geo
100
AcDbLine
10
-20.7665221162186
20
8.40281265804998
30
0.000000000000000
11
-20.6665221162186
21
8.38029134713411
31
0.000000000000000
  0
LINE
  5
F106FD
330
F106FE
100
AcDbEntity
8
Geo
100
AcDbLine
10
-20.6665221162186
20
8.38029134713411
30
0.000000000000000
11
-20.5665221162186
21
8.35632982809457
31
0.000000000000000
  0
LINE
  5
F106FF
330
F10700
100
AcDbEntity
8
Geo
100
AcDbLine
10
-20.5665221162186
20
8.35632982809457
30
0.000000000000000
11
-20.4665221162186
21
8.33101805226368
31
0.000000000000000
  0
LINE
  5
F10701
330
F10702
100
AcDbEntity
8
Geo
100
AcDbLine
10
-20.4665221162186
20
8.33101805226368
30
0.000000000000000
11
-20.3665221162186
21
8.30447962552632
31
0.000000000000000
  0
LINE
  5
F10703
330
F10704
100
AcDbEntity
8
Geo
100
AcDbLine
10
-20.3665221162186
20
8.30447962552632
30
0.000000000000000
11
-20.2665221162186
21
8.27688296564875
31
0.000000000000000
  0
LINE
  5
F10705
330
F10706
100
AcDbEntity
8
Geo
100
AcDbLine
10
-20.2665221162186
20
8.27688296564875
30
0.000000000000000
11
-20.1665221162186
21
8.24845544144294
31
0.000000000000000
  0
LINE
  5
F10707
330
F10708
100
AcDbEntity
8
Geo
100
AcDbLine
10
-20.1665221162186
20
8.24845544144294
30
0.000000000000000
11
-20.0665221162186
21
8.21950099675806
31
0.000000000000000
  0
LINE
  5
F10709
330
F1070A
100
AcDbEntity
8
Geo
100
AcDbLine
10
-20.0665221162186
20
8.21950099675806
30
0.000000000000000
11
-19.9665221162186
21
8.19042170533166
31
0.000000000000000
  0
LINE
  5
F1070B
330
F1070C
100
AcDbEntity
8
Geo
100
AcDbLine
10
-19.9665221162186
20
8.19042170533166
30
0.000000000000000
11
-19.8665221162186
21
8.16174353762410
31
0.000000000000000
  0
LINE
  5
F1070D
330
F1070E
100
AcDbEntity
8
Geo
100
AcDbLine
10
-19.8665221162186
20
8.16174353762410
30
0.000000000000000
11
-19.7665221162186
21
8.13414627761433
31
0.000000000000000
  0
LINE
  5
F1070F
330
F10710
100
AcDbEntity
8
Geo
100
AcDbLine
10
-19.7665221162186
20
8.13414627761433
30
0.000000000000000
11
-19.6665221162186
21
8.10849689822088
31
0.000000000000000
  0
LINE
  5
F10711
330
F10712
100
AcDbEntity
8
Geo
100
AcDbLine
10
-19.6665221162186
20
8.10849689822088
30
0.000000000000000
11
-19.5665221162186
21
8.08588462331731
31
0.000000000000000
  0
LINE
  5
F10713
330
F10714
100
AcDbEntity
8
Geo
100
AcDbLine
10
-19.5665221162186
20
8.08588462331731
30
0.000000000000000
11
-19.4665221162186
21
8.06765411916149
31
0.000000000000000
  0
LINE
  5
F10715
330
F10716
100
AcDbEntity
8
Geo
100
AcDbLine
10
-19.4665221162186
20
8.06765411916149
30
0.000000000000000
11
-19.3665221162186
21
8.05543037947465
31
0.000000000000000
  0
LINE
  5
F10717
330
F10718
100
AcDbEntity
8
Geo
100
AcDbLine
10
-19.3665221162186
20
8.05543037947465
30
0.000000000000000
11
-19.2665221162186
21
8.05112429610206
31
0.000000000000000
  0
LINE
  5
F10719
330
F1071A
100
AcDbEntity
8
Geo
100
AcDbLine
10
-19.2665221162186
20
8.05112429610206
30
0.000000000000000
11
-19.1665221162186
21
8.05690071287975
31
0.000000000000000
  0
LINE
  5
F1071B
330
F1071C
100
AcDbEntity
8
Geo
100
AcDbLine
10
-19.1665221162186
20
8.05690071287975
30
0.000000000000000
11
-19.0665221162186
21
8.07507951374266
31
0.000000000000000
  0
LINE
  5
F1071D
330
F1071E
100
AcDbEntity
8
Geo
100
AcDbLine
10
-19.0665221162186
20
8.07507951374266
30
0.000000000000000
11
-18.9665221162186
21
8.10792282494343
31
0.000000000000000
  0
LINE
  5
F1071F
330
F10720
100
AcDbEntity
8
Geo
100
AcDbLine
10
-18.9665221162186
20
8.10792282494343
30
0.000000000000000
11
-18.8665221162186
21
8.15723452438004
31
0.000000000000000
  0
LINE
  5
F10721
330
F10722
100
AcDbEntity
8
Geo
100
AcDbLine
10
-18.8665221162186
20
8.15723452438004
30
0.000000000000000
11
-18.7665221162186
21
8.22365757536612
31
0.000000000000000
  0
LINE
  5
F10723
330
F10724
100
AcDbEntity
8
Geo
100
AcDbLine
10
-18.7665221162186
20
8.22365757536612
30
0.000000000000000
11
-18.6665221162185
21
8.30549511286362
31
0.000000000000000
  0
LINE
  5
F10725
330
F10726
100
AcDbEntity
8
Geo
100
AcDbLine
10
-18.6665221162185
20
8.30549511286362
30
0.000000000000000
11
-18.6665221162185
21
8.32972461401696
31
0.000000000000000
  0
LINE
  5
F10727
330
F10728
100
AcDbEntity
8
Geo
100
AcDbLine
10
-18.6665221162185
20
8.32972461401696
30
0.000000000000000
11
-18.7665221162186
21
8.42339547339687
31
0.000000000000000
  0
LINE
  5
F10729
330
F1072A
100
AcDbEntity
8
Geo
100
AcDbLine
10
-18.7665221162186
20
8.42339547339687
30
0.000000000000000
11
-18.8665221162186
21
8.48739259115923
31
0.000000000000000
  0
LINE
  5
F1072B
330
F1072C
100
AcDbEntity
8
Geo
100
AcDbLine
10
-18.8665221162186
20
8.48739259115923
30
0.000000000000000
11
-18.9665221162186
21
8.52686499814009
31
0.000000000000000
  0
LINE
  5
F1072D
330
F1072E
100
AcDbEntity
8
Geo
100
AcDbLine
10
-18.9665221162186
20
8.52686499814009
30
0.000000000000000
11
-19.0665221162186
21
8.54623492638518
31
0.000000000000000
  0
LINE
  5
F1072F
330
F10730
100
AcDbEntity
8
Geo
100
AcDbLine
10
-19.0665221162186
20
8.54623492638518
30
0.000000000000000
11
-19.1374646423553
21
8.54986990459670
31
0.000000000000000
  0
LINE
  5
F10731
330
F10732
100
AcDbEntity
8
Geo
100
AcDbLine
10
-23.6665221162186
20
6.78937998655400
30
0.000000000000000
11
-23.5665221162186
21
6.71803163895109
31
0.000000000000000
  0
LINE
  5
F10733
330
F10734
100
AcDbEntity
8
Geo
100
AcDbLine
10
-23.5665221162186
20
6.71803163895109
30
0.000000000000000
11
-23.4665221162186
21
6.64552549544540
31
0.000000000000000
  0
LINE
  5
F10735
330
F10736
100
AcDbEntity
8
Geo
100
AcDbLine
10
-23.4665221162186
20
6.64552549544540
30
0.000000000000000
11
-23.3665221162186
21
6.57188169616613
31
0.000000000000000
  0
LINE
  5
F10737
330
F10738
100
AcDbEntity
8
Geo
100
AcDbLine
10
-23.3665221162186
20
6.57188169616613
30
0.000000000000000
11
-23.2665221162186
21
6.49712069725075
31
0.000000000000000
  0
LINE
  5
F10739
330
F1073A
100
AcDbEntity
8
Geo
100
AcDbLine
10
-23.2665221162186
20
6.49712069725075
30
0.000000000000000
11
-23.1665221162186
21
6.42126326516374
31
0.000000000000000
  0
LINE
  5
F1073B
330
F1073C
100
AcDbEntity
8
Geo
100
AcDbLine
10
-23.1665221162186
20
6.42126326516374
30
0.000000000000000
11
-23.0665221162186
21
6.34433047093444
31
0.000000000000000
  0
LINE
  5
F1073D
330
F1073E
100
AcDbEntity
8
Geo
100
AcDbLine
10
-23.0665221162186
20
6.34433047093444
30
0.000000000000000
11
-22.9665221162186
21
6.26634368433342
31
0.000000000000000
  0
LINE
  5
F1073F
330
F10740
100
AcDbEntity
8
Geo
100
AcDbLine
10
-22.9665221162186
20
6.26634368433342
30
0.000000000000000
11
-22.8665221162186
21
6.18732456804471
31
0.000000000000000
  0
LINE
  5
F10741
330
F10742
100
AcDbEntity
8
Geo
100
AcDbLine
10
-22.8665221162186
20
6.18732456804471
30
0.000000000000000
11
-22.7665221162186
21
6.10729507197802
31
0.000000000000000
  0
LINE
  5
F10743
330
F10744
100
AcDbEntity
8
Geo
100
AcDbLine
10
-22.7665221162186
20
6.10729507197802
30
0.000000000000000
11
-22.6665221162186
21
6.02627742804288
31
0.000000000000000
  0
LINE
  5
F10745
330
F10746
100
AcDbEntity
8
Geo
100
AcDbLine
10
-22.6665221162186
20
6.02627742804288
30
0.000000000000000
11
-22.5665221162186
21
5.94429414603351
31
0.000000000000000
  0
LINE
  5
F10747
330
F10748
100
AcDbEntity
8
Geo
100
AcDbLine
10
-22.5665221162186
20
5.94429414603351
30
0.000000000000000
11
-22.4665221162186
21
5.86136801183290
31
0.000000000000000
  0
LINE
  5
F10749
330
F1074A
100
AcDbEntity
8
Geo
100
AcDbLine
10
-22.4665221162186
20
5.86136801183290
30
0.000000000000000
11
-22.3665221162186
21
5.77752209004746
31
0.000000000000000
  0
LINE
  5
F1074B
330
F1074C
100
AcDbEntity
8
Geo
100
AcDbLine
10
-22.3665221162186
20
5.77752209004746
30
0.000000000000000
11
-22.2665221162186
21
5.69277973457163
31
0.000000000000000
  0
LINE
  5
F1074D
330
F1074E
100
AcDbEntity
8
Geo
100
AcDbLine
10
-22.2665221162186
20
5.69277973457163
30
0.000000000000000
11
-22.1665221162186
21
5.60716461263235
31
0.000000000000000
  0
LINE
  5
F1074F
330
F10750
100
AcDbEntity
8
Geo
100
AcDbLine
10
-22.1665221162186
20
5.60716461263235
30
0.000000000000000
11
-22.0665221162186
21
5.52070075079466
31
0.000000000000000
  0
LINE
  5
F10751
330
F10752
100
AcDbEntity
8
Geo
100
AcDbLine
10
-22.0665221162186
20
5.52070075079466
30
0.000000000000000
11
-21.9665221162186
21
5.43341261548067
31
0.000000000000000
  0
LINE
  5
F10753
330
F10754
100
AcDbEntity
8
Geo
100
AcDbLine
10
-21.9665221162186
20
5.43341261548067
30
0.000000000000000
11
-21.8665221162186
21
5.34532524607264
31
0.000000000000000
  0
LINE
  5
F10755
330
F10756
100
AcDbEntity
8
Geo
100
AcDbLine
10
-21.8665221162186
20
5.34532524607264
30
0.000000000000000
11
-21.7665221162186
21
5.25646446598987
31
0.000000000000000
  0
LINE
  5
F10757
330
F10758
100
AcDbEntity
8
Geo
100
AcDbLine
10
-21.7665221162186
20
5.25646446598987
30
0.000000000000000
11
-21.6665221162186
21
5.16685720665506
31
0.000000000000000
  0
LINE
  5
F10759
330
F1075A
100
AcDbEntity
8
Geo
100
AcDbLine
10
-21.6665221162186
20
5.16685720665506
30
0.000000000000000
11
-21.5665221162186
21
5.07653199145444
31
0.000000000000000
  0
LINE
  5
F1075B
330
F1075C
100
AcDbEntity
8
Geo
100
AcDbLine
10
-21.5665221162186
20
5.07653199145444
30
0.000000000000000
11
-21.4665221162186
21
4.98551964215515
31
0.000000000000000
  0
LINE
  5
F1075D
330
F1075E
100
AcDbEntity
8
Geo
100
AcDbLine
10
-21.4665221162186
20
4.98551964215515
30
0.000000000000000
11
-21.3665221162186
21
4.89385428933137
31
0.000000000000000
  0
LINE
  5
F1075F
330
F10760
100
AcDbEntity
8
Geo
100
AcDbLine
10
-21.3665221162186
20
4.89385428933137
30
0.000000000000000
11
-21.2665221162186
21
4.80157479177317
31
0.000000000000000
  0
LINE
  5
F10761
330
F10762
100
AcDbEntity
8
Geo
100
AcDbLine
10
-21.2665221162186
20
4.80157479177317
30
0.000000000000000
11
-21.1665221162186
21
4.70872669825695
31
0.000000000000000
  0
LINE
  5
F10763
330
F10764
100
AcDbEntity
8
Geo
100
AcDbLine
10
-21.1665221162186
20
4.70872669825695
30
0.000000000000000
11
-21.0665221162186
21
4.61536491912927
31
0.000000000000000
  0
LINE
  5
F10765
330
F10766
100
AcDbEntity
8
Geo
100
AcDbLine
10
-21.0665221162186
20
4.61536491912927
30
0.000000000000000
11
-20.9665221162186
21
4.52155731560819
31
0.000000000000000
  0
LINE
  5
F10767
330
F10768
100
AcDbEntity
8
Geo
100
AcDbLine
10
-20.9665221162186
20
4.52155731560819
30
0.000000000000000
11
-20.8665221162186
21
4.42738946226712
31
0.000000000000000
  0
LINE
  5
F10769
330
F1076A
100
AcDbEntity
8
Geo
100
AcDbLine
10
-20.8665221162186
20
4.42738946226712
30
0.000000000000000
11
-20.7665221162186
21
4.33297089356654
31
0.000000000000000
  0
LINE
  5
F1076B
330
F1076C
100
AcDbEntity
8
Geo
100
AcDbLine
10
-20.7665221162186
20
4.33297089356654
30
0.000000000000000
11
-20.6665221162186
21
4.23844320926665
31
0.000000000000000
  0
LINE
  5
F1076D
330
F1076E
100
AcDbEntity
8
Geo
100
AcDbLine
10
-20.6665221162186
20
4.23844320926665
30
0.000000000000000
11
-20.5665221162186
21
4.14399048680172
31
0.000000000000000
  0
LINE
  5
F1076F
330
F10770
100
AcDbEntity
8
Geo
100
AcDbLine
10
-20.5665221162186
20
4.14399048680172
30
0.000000000000000
11
-20.4665221162186
21
4.04985253194238
31
0.000000000000000
  0
LINE
  5
F10771
330
F10772
100
AcDbEntity
8
Geo
100
AcDbLine
10
-20.4665221162186
20
4.04985253194238
30
0.000000000000000
11
-20.3665221162186
21
3.95634159306788
31
0.000000000000000
  0
LINE
  5
F10773
330
F10774
100
AcDbEntity
8
Geo
100
AcDbLine
10
-20.3665221162186
20
3.95634159306788
30
0.000000000000000
11
-20.2665221162186
21
3.86386326999489
31
0.000000000000000
  0
LINE
  5
F10775
330
F10776
100
AcDbEntity
8
Geo
100
AcDbLine
10
-20.2665221162186
20
3.86386326999489
30
0.000000000000000
11
-20.1665221162186
21
3.77294246670234
31
0.000000000000000
  0
LINE
  5
F10777
330
F10778
100
AcDbEntity
8
Geo
100
AcDbLine
10
-20.1665221162186
20
3.77294246670234
30
0.000000000000000
11
-20.0665221162186
21
3.68425537005130
31
0.000000000000000
  0
LINE
  5
F10779
330
F1077A
100
AcDbEntity
8
Geo
100
AcDbLine
10
-20.0665221162186
20
3.68425537005130
30
0.000000000000000
11
-19.9665221162186
21
3.59866858596890
31
0.000000000000000
  0
LINE
  5
F1077B
330
F1077C
100
AcDbEntity
8
Geo
100
AcDbLine
10
-19.9665221162186
20
3.59866858596890
30
0.000000000000000
11
-19.8665221162186
21
3.51728673340318
31
0.000000000000000
  0
LINE
  5
F1077D
330
F1077E
100
AcDbEntity
8
Geo
100
AcDbLine
10
-19.8665221162186
20
3.51728673340318
30
0.000000000000000
11
-19.7665221162186
21
3.44150998736589
31
0.000000000000000
  0
LINE
  5
F1077F
330
F10780
100
AcDbEntity
8
Geo
100
AcDbLine
10
-19.7665221162186
20
3.44150998736589
30
0.000000000000000
11
-19.6665221162186
21
3.37310327541329
31
0.000000000000000
  0
LINE
  5
F10781
330
F10782
100
AcDbEntity
8
Geo
100
AcDbLine
10
-19.6665221162186
20
3.37310327541329
30
0.000000000000000
11
-19.5665221162186
21
3.31427905683522
31
0.000000000000000
  0
LINE
  5
F10783
330
F10784
100
AcDbEntity
8
Geo
100
AcDbLine
10
-19.5665221162186
20
3.31427905683522
30
0.000000000000000
11
-19.4665221162186
21
3.26779581394126
31
0.000000000000000
  0
LINE
  5
F10785
330
F10786
100
AcDbEntity
8
Geo
100
AcDbLine
10
-19.4665221162186
20
3.26779581394126
30
0.000000000000000
11
-19.3665221162186
21
3.23707446123956
31
0.000000000000000
  0
LINE
  5
F10787
330
F10788
100
AcDbEntity
8
Geo
100
AcDbLine
10
-19.3665221162186
20
3.23707446123956
30
0.000000000000000
11
-19.2665221162186
21
3.22633459708275
31
0.000000000000000
  0
LINE
  5
F10789
330
F1078A
100
AcDbEntity
8
Geo
100
AcDbLine
10
-19.2665221162186
20
3.22633459708275
30
0.000000000000000
11
-19.1665221162186
21
3.24075137188319
31
0.000000000000000
  0
LINE
  5
F1078B
330
F1078C
100
AcDbEntity
8
Geo
100
AcDbLine
10
-19.1665221162186
20
3.24075137188319
30
0.000000000000000
11
-19.0665221162186
21
3.28663066747967
31
0.000000000000000
  0
LINE
  5
F1078D
330
F1078E
100
AcDbEntity
8
Geo
100
AcDbLine
10
-19.0665221162186
20
3.28663066747967
30
0.000000000000000
11
-18.9665221162186
21
3.37159316879634
31
0.000000000000000
  0
LINE
  5
F1078F
330
F10790
100
AcDbEntity
8
Geo
100
AcDbLine
10
-18.9665221162186
20
3.37159316879634
30
0.000000000000000
11
-18.8665221162186
21
3.50474272846726
31
0.000000000000000
  0
LINE
  5
F10791
330
F10792
100
AcDbEntity
8
Geo
100
AcDbLine
10
-18.8665221162186
20
3.50474272846726
30
0.000000000000000
11
-18.7665221162186
21
3.69676371031611
31
0.000000000000000
  0
LINE
  5
F10793
330
F10794
100
AcDbEntity
8
Geo
100
AcDbLine
10
-18.7665221162186
20
3.69676371031611
30
0.000000000000000
11
-18.6665221162185
21
3.95983243243767
31
0.000000000000000
  0
LINE
  5
F10795
330
F10796
100
AcDbEntity
8
Geo
100
AcDbLine
10
-18.6665221162185
20
3.95983243243767
30
0.000000000000000
11
-18.6665221162185
21
4.04517915620677
31
0.000000000000000
  0
LINE
  5
F10797
330
F10798
100
AcDbEntity
8
Geo
100
AcDbLine
10
-18.6665221162185
20
4.04517915620677
30
0.000000000000000
11
-18.7665221162186
21
4.42537256796707
31
0.000000000000000
  0
LINE
  5
F10799
330
F1079A
100
AcDbEntity
8
Geo
100
AcDbLine
10
-18.7665221162186
20
4.42537256796707
30
0.000000000000000
11
-18.8665221162186
21
4.77072198873182
31
0.000000000000000
  0
LINE
  5
F1079B
330
F1079C
100
AcDbEntity
8
Geo
100
AcDbLine
10
-18.8665221162186
20
4.77072198873182
30
0.000000000000000
11
-18.9665221162186
21
5.08378276308824
31
0.000000000000000
  0
LINE
  5
F1079D
330
F1079E
100
AcDbEntity
8
Geo
100
AcDbLine
10
-18.9665221162186
20
5.08378276308824
30
0.000000000000000
11
-19.0665221162186
21
5.36720747056918
31
0.000000000000000
  0
LINE
  5
F1079F
330
F107A0
100
AcDbEntity
8
Geo
100
AcDbLine
10
-19.0665221162186
20
5.36720747056918
30
0.000000000000000
11
-19.1665221162186
21
5.62363766824692
31
0.000000000000000
  0
LINE
  5
F107A1
330
F107A2
100
AcDbEntity
8
Geo
100
AcDbLine
10
-19.1665221162186
20
5.62363766824692
30
0.000000000000000
11
-19.2665221162186
21
5.85563002495788
31
0.000000000000000
  0
LINE
  5
F107A3
330
F107A4
100
AcDbEntity
8
Geo
100
AcDbLine
10
-19.2665221162186
20
5.85563002495788
30
0.000000000000000
11
-19.3665221162186
21
6.06560848262405
31
0.000000000000000
  0
LINE
  5
F107A5
330
F107A6
100
AcDbEntity
8
Geo
100
AcDbLine
10
-19.3665221162186
20
6.06560848262405
30
0.000000000000000
11
-19.4665221162186
21
6.25583573242046
31
0.000000000000000
  0
LINE
  5
F107A7
330
F107A8
100
AcDbEntity
8
Geo
100
AcDbLine
10
-19.4665221162186
20
6.25583573242046
30
0.000000000000000
11
-19.5665221162186
21
6.42839872342913
31
0.000000000000000
  0
LINE
  5
F107A9
330
F107AA
100
AcDbEntity
8
Geo
100
AcDbLine
10
-19.5665221162186
20
6.42839872342913
30
0.000000000000000
11
-19.6665221162186
21
6.58520411843203
31
0.000000000000000
  0
LINE
  5
F107AB
330
F107AC
100
AcDbEntity
8
Geo
100
AcDbLine
10
-19.6665221162186
20
6.58520411843203
30
0.000000000000000
11
-19.7665221162186
21
6.72798058854065
31
0.000000000000000
  0
LINE
  5
F107AD
330
F107AE
100
AcDbEntity
8
Geo
100
AcDbLine
10
-19.7665221162186
20
6.72798058854065
30
0.000000000000000
11
-19.8665221162186
21
6.85828561980521
31
0.000000000000000
  0
LINE
  5
F107AF
330
F107B0
100
AcDbEntity
8
Geo
100
AcDbLine
10
-19.8665221162186
20
6.85828561980521
30
0.000000000000000
11
-19.9665221162186
21
6.97751511930074
31
0.000000000000000
  0
LINE
  5
F107B1
330
F107B2
100
AcDbEntity
8
Geo
100
AcDbLine
10
-19.9665221162186
20
6.97751511930074
30
0.000000000000000
11
-20.0665221162186
21
7.08691458386982
31
0.000000000000000
  0
LINE
  5
F107B3
330
F107B4
100
AcDbEntity
8
Geo
100
AcDbLine
10
-20.0665221162186
20
7.08691458386982
30
0.000000000000000
11
-20.1665221162186
21
7.18759095782110
31
0.000000000000000
  0
LINE
  5
F107B5
330
F107B6
100
AcDbEntity
8
Geo
100
AcDbLine
10
-20.1665221162186
20
7.18759095782110
30
0.000000000000000
11
-20.2665221162186
21
7.28052457924249
31
0.000000000000000
  0
LINE
  5
F107B7
330
F107B8
100
AcDbEntity
8
Geo
100
AcDbLine
10
-20.2665221162186
20
7.28052457924249
30
0.000000000000000
11
-20.3665221162186
21
7.36658081743864
31
0.000000000000000
  0
LINE
  5
F107B9
330
F107BA
100
AcDbEntity
8
Geo
100
AcDbLine
10
-20.3665221162186
20
7.36658081743864
30
0.000000000000000
11
-20.4665221162186
21
7.44652115219261
31
0.000000000000000
  0
LINE
  5
F107BB
330
F107BC
100
AcDbEntity
8
Geo
100
AcDbLine
10
-20.4665221162186
20
7.44652115219261
30
0.000000000000000
11
-20.5665221162186
21
7.52101355188046
31
0.000000000000000
  0
LINE
  5
F107BD
330
F107BE
100
AcDbEntity
8
Geo
100
AcDbLine
10
-20.5665221162186
20
7.52101355188046
30
0.000000000000000
11
-20.6665221162186
21
7.59064208211537
31
0.000000000000000
  0
LINE
  5
F107BF
330
F107C0
100
AcDbEntity
8
Geo
100
AcDbLine
10
-20.6665221162186
20
7.59064208211537
30
0.000000000000000
11
-20.7665221162186
21
7.65591572755606
31
0.000000000000000
  0
LINE
  5
F107C1
330
F107C2
100
AcDbEntity
8
Geo
100
AcDbLine
10
-20.7665221162186
20
7.65591572755606
30
0.000000000000000
11
-20.8665221162186
21
7.71727644298853
31
0.000000000000000
  0
LINE
  5
F107C3
330
F107C4
100
AcDbEntity
8
Geo
100
AcDbLine
10
-20.8665221162186
20
7.71727644298853
30
0.000000000000000
11
-20.9665221162186
21
7.77510647055006
31
0.000000000000000
  0
LINE
  5
F107C5
330
F107C6
100
AcDbEntity
8
Geo
100
AcDbLine
10
-20.9665221162186
20
7.77510647055006
30
0.000000000000000
11
-21.0665221162186
21
7.82973497163877
31
0.000000000000000
  0
LINE
  5
F107C7
330
F107C8
100
AcDbEntity
8
Geo
100
AcDbLine
10
-21.0665221162186
20
7.82973497163877
30
0.000000000000000
11
-21.1665221162186
21
7.88144402737988
31
0.000000000000000
  0
LINE
  5
F107C9
330
F107CA
100
AcDbEntity
8
Geo
100
AcDbLine
10
-21.1665221162186
20
7.88144402737988
30
0.000000000000000
11
-21.2665221162186
21
7.93047406254240
31
0.000000000000000
  0
LINE
  5
F107CB
330
F107CC
100
AcDbEntity
8
Geo
100
AcDbLine
10
-21.2665221162186
20
7.93047406254240
30
0.000000000000000
11
-21.3665221162186
21
7.97702874602496
31
0.000000000000000
  0
LINE
  5
F107CD
330
F107CE
100
AcDbEntity
8
Geo
100
AcDbLine
10
-21.3665221162186
20
7.97702874602496
30
0.000000000000000
11
-21.4665221162186
21
8.02127941755666
31
0.000000000000000
  0
LINE
  5
F107CF
330
F107D0
100
AcDbEntity
8
Geo
100
AcDbLine
10
-21.4665221162186
20
8.02127941755666
30
0.000000000000000
11
-21.5665221162186
21
8.06336908587305
31
0.000000000000000
  0
LINE
  5
F107D1
330
F107D2
100
AcDbEntity
8
Geo
100
AcDbLine
10
-21.5665221162186
20
8.06336908587305
30
0.000000000000000
11
-21.6665221162186
21
8.10341603888379
31
0.000000000000000
  0
LINE
  5
F107D3
330
F107D4
100
AcDbEntity
8
Geo
100
AcDbLine
10
-21.6665221162186
20
8.10341603888379
30
0.000000000000000
11
-21.7665221162186
21
8.14151710162321
31
0.000000000000000
  0
LINE
  5
F107D5
330
F107D6
100
AcDbEntity
8
Geo
100
AcDbLine
10
-21.7665221162186
20
8.14151710162321
30
0.000000000000000
11
-21.8665221162186
21
8.17775057331489
31
0.000000000000000
  0
LINE
  5
F107D7
330
F107D8
100
AcDbEntity
8
Geo
100
AcDbLine
10
-21.8665221162186
20
8.17775057331489
30
0.000000000000000
11
-21.9665221162186
21
8.21217887083862
31
0.000000000000000
  0
LINE
  5
F107D9
330
F107DA
100
AcDbEntity
8
Geo
100
AcDbLine
10
-21.9665221162186
20
8.21217887083862
30
0.000000000000000
11
-22.0665221162186
21
8.24485090234275
31
0.000000000000000
  0
LINE
  5
F107DB
330
F107DC
100
AcDbEntity
8
Geo
100
AcDbLine
10
-22.0665221162186
20
8.24485090234275
30
0.000000000000000
11
-22.1665221162186
21
8.27580419173042
31
0.000000000000000
  0
LINE
  5
F107DD
330
F107DE
100
AcDbEntity
8
Geo
100
AcDbLine
10
-22.1665221162186
20
8.27580419173042
30
0.000000000000000
11
-22.2665221162186
21
8.30506677225905
31
0.000000000000000
  0
LINE
  5
F107DF
330
F107E0
100
AcDbEntity
8
Geo
100
AcDbLine
10
-22.2665221162186
20
8.30506677225905
30
0.000000000000000
11
-22.3665221162186
21
8.33265886550364
31
0.000000000000000
  0
LINE
  5
F107E1
330
F107E2
100
AcDbEntity
8
Geo
100
AcDbLine
10
-22.3665221162186
20
8.33265886550364
30
0.000000000000000
11
-22.4665221162186
21
8.35859436040229
31
0.000000000000000
  0
LINE
  5
F107E3
330
F107E4
100
AcDbEntity
8
Geo
100
AcDbLine
10
-22.4665221162186
20
8.35859436040229
30
0.000000000000000
11
-22.5665221162186
21
8.38288210597508
31
0.000000000000000
  0
LINE
  5
F107E5
330
F107E6
100
AcDbEntity
8
Geo
100
AcDbLine
10
-22.5665221162186
20
8.38288210597508
30
0.000000000000000
11
-22.6665221162186
21
8.40552703053057
31
0.000000000000000
  0
LINE
  5
F107E7
330
F107E8
100
AcDbEntity
8
Geo
100
AcDbLine
10
-22.6665221162186
20
8.40552703053057
30
0.000000000000000
11
-22.7665221162186
21
8.42653109968827
31
0.000000000000000
  0
LINE
  5
F107E9
330
F107EA
100
AcDbEntity
8
Geo
100
AcDbLine
10
-22.7665221162186
20
8.42653109968827
30
0.000000000000000
11
-22.8665221162186
21
8.44589412529745
31
0.000000000000000
  0
LINE
  5
F107EB
330
F107EC
100
AcDbEntity
8
Geo
100
AcDbLine
10
-22.8665221162186
20
8.44589412529745
30
0.000000000000000
11
-22.9665221162186
21
8.46361443726882
31
0.000000000000000
  0
LINE
  5
F107ED
330
F107EE
100
AcDbEntity
8
Geo
100
AcDbLine
10
-22.9665221162186
20
8.46361443726882
30
0.000000000000000
11
-23.0665221162186
21
8.47968943040878
31
0.000000000000000
  0
LINE
  5
F107EF
330
F107F0
100
AcDbEntity
8
Geo
100
AcDbLine
10
-23.0665221162186
20
8.47968943040878
30
0.000000000000000
11
-23.1665221162186
21
8.49411599851476
31
0.000000000000000
  0
LINE
  5
F107F1
330
F107F2
100
AcDbEntity
8
Geo
100
AcDbLine
10
-23.1665221162186
20
8.49411599851476
30
0.000000000000000
11
-23.2665221162186
21
8.50689086821727
31
0.000000000000000
  0
LINE
  5
F107F3
330
F107F4
100
AcDbEntity
8
Geo
100
AcDbLine
10
-23.2665221162186
20
8.50689086821727
30
0.000000000000000
11
-23.3665221162186
21
8.51801084531059
31
0.000000000000000
  0
LINE
  5
F107F5
330
F107F6
100
AcDbEntity
8
Geo
100
AcDbLine
10
-23.3665221162186
20
8.51801084531059
30
0.000000000000000
11
-23.4665221162186
21
8.52747298657464
31
0.000000000000000
  0
LINE
  5
F107F7
330
F107F8
100
AcDbEntity
8
Geo
100
AcDbLine
10
-23.4665221162186
20
8.52747298657464
30
0.000000000000000
11
-23.5665221162186
21
8.53527471033729
31
0.000000000000000
  0
LINE
  5
F107F9
330
F107FA
100
AcDbEntity
8
Geo
100
AcDbLine
10
-23.5665221162186
20
8.53527471033729
30
0.000000000000000
11
-23.6665221162186
21
8.54141385924557
31
0.000000000000000
  0
LINE
  5
F107FB
330
F107FC
100
AcDbEntity
8
Geo
100
AcDbLine
10
-34.6665221162185
20
4.94218971206426
30
0.000000000000000
11
-34.5665221162185
21
4.89569740685913
31
0.000000000000000
  0
LINE
  5
F107FD
330
F107FE
100
AcDbEntity
8
Geo
100
AcDbLine
10
-34.5665221162185
20
4.89569740685913
30
0.000000000000000
11
-34.5665221162185
21
4.89569740685913
31
0.000000000000000
  0
LINE
  5
F107FF
330
F10800
100
AcDbEntity
8
Geo
100
AcDbLine
10
-34.5665221162185
20
4.89569740685913
30
0.000000000000000
11
-34.4665221162185
21
4.80468887792612
31
0.000000000000000
  0
LINE
  5
F10801
330
F10802
100
AcDbEntity
8
Geo
100
AcDbLine
10
-34.4665221162185
20
4.80468887792612
30
0.000000000000000
11
-34.3665221162185
21
4.71305402488784
31
0.000000000000000
  0
LINE
  5
F10803
330
F10804
100
AcDbEntity
8
Geo
100
AcDbLine
10
-34.3665221162185
20
4.71305402488784
30
0.000000000000000
11
-34.2665221162185
21
4.62081830128095
31
0.000000000000000
  0
LINE
  5
F10805
330
F10806
100
AcDbEntity
8
Geo
100
AcDbLine
10
-34.2665221162185
20
4.62081830128095
30
0.000000000000000
11
-34.1665221162185
21
4.52800732754669
31
0.000000000000000
  0
LINE
  5
F10807
330
F10808
100
AcDbEntity
8
Geo
100
AcDbLine
10
-34.1665221162185
20
4.52800732754669
30
0.000000000000000
11
-34.0665221162185
21
4.43464688391433
31
0.000000000000000
  0
LINE
  5
F10809
330
F1080A
100
AcDbEntity
8
Geo
100
AcDbLine
10
-34.0665221162185
20
4.43464688391433
30
0.000000000000000
11
-33.9665221162185
21
4.34076290324013
31
0.000000000000000
  0
LINE
  5
F1080B
330
F1080C
100
AcDbEntity
8
Geo
100
AcDbLine
10
-33.9665221162185
20
4.34076290324013
30
0.000000000000000
11
-33.8665221162185
21
4.24638146380394
31
0.000000000000000
  0
LINE
  5
F1080D
330
F1080E
100
AcDbEntity
8
Geo
100
AcDbLine
10
-33.8665221162185
20
4.24638146380394
30
0.000000000000000
11
-33.7665221162185
21
4.15152878206539
31
0.000000000000000
  0
LINE
  5
F1080F
330
F10810
100
AcDbEntity
8
Geo
100
AcDbLine
10
-33.7665221162185
20
4.15152878206539
30
0.000000000000000
11
-33.6665221162185
21
4.05623120538174
31
0.000000000000000
  0
LINE
  5
F10811
330
F10812
100
AcDbEntity
8
Geo
100
AcDbLine
10
-33.6665221162185
20
4.05623120538174
30
0.000000000000000
11
-33.5665221162185
21
3.96051520468931
31
0.000000000000000
  0
LINE
  5
F10813
330
F10814
100
AcDbEntity
8
Geo
100
AcDbLine
10
-33.5665221162185
20
3.96051520468931
30
0.000000000000000
11
-33.4665221162185
21
3.86440736715060
31
0.000000000000000
  0
LINE
  5
F10815
330
F10816
100
AcDbEntity
8
Geo
100
AcDbLine
10
-33.4665221162185
20
3.86440736715060
30
0.000000000000000
11
-33.3665221162185
21
3.76793438876919
31
0.000000000000000
  0
LINE
  5
F10817
330
F10818
100
AcDbEntity
8
Geo
100
AcDbLine
10
-33.3665221162185
20
3.76793438876919
30
0.000000000000000
11
-33.2665221162185
21
3.67112306697432
31
0.000000000000000
  0
LINE
  5
F10819
330
F1081A
100
AcDbEntity
8
Geo
100
AcDbLine
10
-33.2665221162185
20
3.67112306697432
30
0.000000000000000
11
-33.1665221162185
21
3.57400029317730
31
0.000000000000000
  0
LINE
  5
F1081B
330
F1081C
100
AcDbEntity
8
Geo
100
AcDbLine
10
-33.1665221162185
20
3.57400029317730
30
0.000000000000000
11
-33.0665221162185
21
3.47659304530193
31
0.000000000000000
  0
LINE
  5
F1081D
330
F1081E
100
AcDbEntity
8
Geo
100
AcDbLine
10
-33.0665221162185
20
3.47659304530193
30
0.000000000000000
11
-32.9665221162185
21
3.37892838029074
31
0.000000000000000
  0
LINE
  5
F1081F
330
F10820
100
AcDbEntity
8
Geo
100
AcDbLine
10
-32.9665221162185
20
3.37892838029074
30
0.000000000000000
11
-32.8665221162185
21
3.28103342658935
31
0.000000000000000
  0
LINE
  5
F10821
330
F10822
100
AcDbEntity
8
Geo
100
AcDbLine
10
-32.8665221162185
20
3.28103342658935
30
0.000000000000000
11
-32.7665221162185
21
3.18293537661099
31
0.000000000000000
  0
LINE
  5
F10823
330
F10824
100
AcDbEntity
8
Geo
100
AcDbLine
10
-32.7665221162185
20
3.18293537661099
30
0.000000000000000
11
-32.6665221162185
21
3.08466147918324
31
0.000000000000000
  0
LINE
  5
F10825
330
F10826
100
AcDbEntity
8
Geo
100
AcDbLine
10
-32.6665221162185
20
3.08466147918324
30
0.000000000000000
11
-32.5665221162185
21
2.98623903197902
31
0.000000000000000
  0
LINE
  5
F10827
330
F10828
100
AcDbEntity
8
Geo
100
AcDbLine
10
-32.5665221162185
20
2.98623903197902
30
0.000000000000000
11
-32.4665221162185
21
2.88769537393414
31
0.000000000000000
  0
LINE
  5
F10829
330
F1082A
100
AcDbEntity
8
Geo
100
AcDbLine
10
-32.4665221162185
20
2.88769537393414
30
0.000000000000000
11
-32.3665221162185
21
2.78905787765334
31
0.000000000000000
  0
LINE
  5
F1082B
330
F1082C
100
AcDbEntity
8
Geo
100
AcDbLine
10
-32.3665221162185
20
2.78905787765334
30
0.000000000000000
11
-32.2665221162185
21
2.69035394180687
31
0.000000000000000
  0
LINE
  5
F1082D
330
F1082E
100
AcDbEntity
8
Geo
100
AcDbLine
10
-32.2665221162185
20
2.69035394180687
30
0.000000000000000
11
-32.1665221162185
21
2.59161098352005
31
0.000000000000000
  0
LINE
  5
F1082F
330
F10830
100
AcDbEntity
8
Geo
100
AcDbLine
10
-32.1665221162185
20
2.59161098352005
30
0.000000000000000
11
-32.0665221162185
21
2.49285643075748
31
0.000000000000000
  0
LINE
  5
F10831
330
F10832
100
AcDbEntity
8
Geo
100
AcDbLine
10
-32.0665221162185
20
2.49285643075748
30
0.000000000000000
11
-31.9665221162185
21
2.39411771470438
31
0.000000000000000
  0
LINE
  5
F10833
330
F10834
100
AcDbEntity
8
Geo
100
AcDbLine
10
-31.9665221162185
20
2.39411771470438
30
0.000000000000000
11
-31.8665221162185
21
2.29542226214699
31
0.000000000000000
  0
LINE
  5
F10835
330
F10836
100
AcDbEntity
8
Geo
100
AcDbLine
10
-31.8665221162185
20
2.29542226214699
30
0.000000000000000
11
-31.7665221162185
21
2.19679748785418
31
0.000000000000000
  0
LINE
  5
F10837
330
F10838
100
AcDbEntity
8
Geo
100
AcDbLine
10
-31.7665221162185
20
2.19679748785418
30
0.000000000000000
11
-31.6665221162185
21
2.09827078696244
31
0.000000000000000
  0
LINE
  5
F10839
330
F1083A
100
AcDbEntity
8
Geo
100
AcDbLine
10
-31.6665221162185
20
2.09827078696244
30
0.000000000000000
11
-31.5665221162185
21
1.99986952736627
31
0.000000000000000
  0
LINE
  5
F1083B
330
F1083C
100
AcDbEntity
8
Geo
100
AcDbLine
10
-31.5665221162185
20
1.99986952736627
30
0.000000000000000
11
-31.4665221162185
21
1.90162104211618
31
0.000000000000000
  0
LINE
  5
F1083D
330
F1083E
100
AcDbEntity
8
Geo
100
AcDbLine
10
-31.4665221162185
20
1.90162104211618
30
0.000000000000000
11
-31.3665221162185
21
1.80355262182632
31
0.000000000000000
  0
LINE
  5
F1083F
330
F10840
100
AcDbEntity
8
Geo
100
AcDbLine
10
-31.3665221162185
20
1.80355262182632
30
0.000000000000000
11
-31.2665221162185
21
1.70569150709398
31
0.000000000000000
  0
LINE
  5
F10841
330
F10842
100
AcDbEntity
8
Geo
100
AcDbLine
10
-31.2665221162185
20
1.70569150709398
30
0.000000000000000
11
-31.1665221162185
21
1.60806488093289
31
0.000000000000000
  0
LINE
  5
F10843
330
F10844
100
AcDbEntity
8
Geo
100
AcDbLine
10
-31.1665221162185
20
1.60806488093289
30
0.000000000000000
11
-31.0665221162185
21
1.51069986122259
31
0.000000000000000
  0
LINE
  5
F10845
330
F10846
100
AcDbEntity
8
Geo
100
AcDbLine
10
-31.0665221162185
20
1.51069986122259
30
0.000000000000000
11
-30.9665221162185
21
1.41362349317583
31
0.000000000000000
  0
LINE
  5
F10847
330
F10848
100
AcDbEntity
8
Geo
100
AcDbLine
10
-30.9665221162185
20
1.41362349317583
30
0.000000000000000
11
-30.8665221162185
21
1.31686274182619
31
0.000000000000000
  0
LINE
  5
F10849
330
F1084A
100
AcDbEntity
8
Geo
100
AcDbLine
10
-30.8665221162185
20
1.31686274182619
30
0.000000000000000
11
-30.7665221162185
21
1.22044448453800
31
0.000000000000000
  0
LINE
  5
F1084B
330
F1084C
100
AcDbEntity
8
Geo
100
AcDbLine
10
-30.7665221162185
20
1.22044448453800
30
0.000000000000000
11
-30.6665221162185
21
1.12439550354054
31
0.000000000000000
  0
LINE
  5
F1084D
330
F1084E
100
AcDbEntity
8
Geo
100
AcDbLine
10
-30.6665221162185
20
1.12439550354054
30
0.000000000000000
11
-30.5665221162185
21
1.02874247848871
31
0.000000000000000
  0
LINE
  5
F1084F
330
F10850
100
AcDbEntity
8
Geo
100
AcDbLine
10
-30.5665221162185
20
1.02874247848871
30
0.000000000000000
11
-30.4665221162185
21
0.933511979052190
31
0.000000000000000
  0
LINE
  5
F10851
330
F10852
100
AcDbEntity
8
Geo
100
AcDbLine
10
-30.4665221162185
20
0.933511979052190
30
0.000000000000000
11
-30.3665221162185
21
0.838730457535175
31
0.000000000000000
  0
LINE
  5
F10853
330
F10854
100
AcDbEntity
8
Geo
100
AcDbLine
10
-30.3665221162185
20
0.838730457535175
30
0.000000000000000
11
-30.2665221162185
21
0.744424241528638
31
0.000000000000000
  0
LINE
  5
F10855
330
F10856
100
AcDbEntity
8
Geo
100
AcDbLine
10
-30.2665221162185
20
0.744424241528638
30
0.000000000000000
11
-30.1665221162185
21
0.650619526597303
31
0.000000000000000
  0
LINE
  5
F10857
330
F10858
100
AcDbEntity
8
Geo
100
AcDbLine
10
-30.1665221162185
20
0.650619526597303
30
0.000000000000000
11
-30.0665221162185
21
0.557342369003268
31
0.000000000000000
  0
LINE
  5
F10859
330
F1085A
100
AcDbEntity
8
Geo
100
AcDbLine
10
-30.0665221162185
20
0.557342369003268
30
0.000000000000000
11
-29.9665221162185
21
0.464618678468315
31
0.000000000000000
  0
LINE
  5
F1085B
330
F1085C
100
AcDbEntity
8
Geo
100
AcDbLine
10
-29.9665221162185
20
0.464618678468315
30
0.000000000000000
11
-29.8665221162185
21
0.372474210976937
31
0.000000000000000
  0
LINE
  5
F1085D
330
F1085E
100
AcDbEntity
8
Geo
100
AcDbLine
10
-29.8665221162185
20
0.372474210976937
30
0.000000000000000
11
-29.7665221162185
21
0.280934561622063
31
0.000000000000000
  0
LINE
  5
F1085F
330
F10860
100
AcDbEntity
8
Geo
100
AcDbLine
10
-29.7665221162185
20
0.280934561622063
30
0.000000000000000
11
-29.6665221162185
21
0.190025157495468
31
0.000000000000000
  0
LINE
  5
F10861
330
F10862
100
AcDbEntity
8
Geo
100
AcDbLine
10
-29.6665221162185
20
0.190025157495468
30
0.000000000000000
11
-29.5665221162185
21
0.0997712506248645
31
0.000000000000000
  0
LINE
  5
F10863
330
F10864
100
AcDbEntity
8
Geo
100
AcDbLine
10
-29.5665221162185
20
0.0997712506248645
30
0.000000000000000
11
-29.4665221162185
21
0.0101979109596102
31
0.000000000000000
  0
LINE
  5
F10865
330
F10866
100
AcDbEntity
8
Geo
100
AcDbLine
10
-29.4665221162185
20
0.0101979109596102
30
0.000000000000000
11
-29.3665221162185
21
-0.0786699805930140
31
0.000000000000000
  0
LINE
  5
F10867
330
F10868
100
AcDbEntity
8
Geo
100
AcDbLine
10
-29.3665221162185
20
-0.0786699805930140
30
0.000000000000000
11
-29.2665221162185
21
-0.166807739078990
31
0.000000000000000
  0
LINE
  5
F10869
330
F1086A
100
AcDbEntity
8
Geo
100
AcDbLine
10
-29.2665221162185
20
-0.166807739078990
30
0.000000000000000
11
-29.1665221162185
21
-0.254190882354356
31
0.000000000000000
  0
LINE
  5
F1086B
330
F1086C
100
AcDbEntity
8
Geo
100
AcDbLine
10
-29.1665221162185
20
-0.254190882354356
30
0.000000000000000
11
-29.0665221162186
21
-0.340795137885629
31
0.000000000000000
  0
LINE
  5
F1086D
330
F1086E
100
AcDbEntity
8
Geo
100
AcDbLine
10
-29.0665221162186
20
-0.340795137885629
30
0.000000000000000
11
-28.9665221162185
21
-0.426596449492023
31
0.000000000000000
  0
LINE
  5
F1086F
330
F10870
100
AcDbEntity
8
Geo
100
AcDbLine
10
-28.9665221162185
20
-0.426596449492023
30
0.000000000000000
11
-28.8665221162185
21
-0.511570984027571
31
0.000000000000000
  0
LINE
  5
F10871
330
F10872
100
AcDbEntity
8
Geo
100
AcDbLine
10
-28.8665221162185
20
-0.511570984027571
30
0.000000000000000
11
-28.7665221162185
21
-0.595695138001289
31
0.000000000000000
  0
LINE
  5
F10873
330
F10874
100
AcDbEntity
8
Geo
100
AcDbLine
10
-28.7665221162185
20
-0.595695138001289
30
0.000000000000000
11
-28.6665221162186
21
-0.678945544133544
31
0.000000000000000
  0
LINE
  5
F10875
330
F10876
100
AcDbEntity
8
Geo
100
AcDbLine
10
-28.6665221162186
20
-0.678945544133544
30
0.000000000000000
11
-28.5665221162186
21
-0.761299077846821
31
0.000000000000000
  0
LINE
  5
F10877
330
F10878
100
AcDbEntity
8
Geo
100
AcDbLine
10
-28.5665221162186
20
-0.761299077846821
30
0.000000000000000
11
-28.4665221162185
21
-0.842732863689063
31
0.000000000000000
  0
LINE
  5
F10879
330
F1087A
100
AcDbEntity
8
Geo
100
AcDbLine
10
-28.4665221162185
20
-0.842732863689063
30
0.000000000000000
11
-28.3665221162186
21
-0.923224281687821
31
0.000000000000000
  0
LINE
  5
F1087B
330
F1087C
100
AcDbEntity
8
Geo
100
AcDbLine
10
-28.3665221162186
20
-0.923224281687821
30
0.000000000000000
11
-28.2665221162186
21
-1.00275097363343
31
0.000000000000000
  0
LINE
  5
F1087D
330
F1087E
100
AcDbEntity
8
Geo
100
AcDbLine
10
-28.2665221162186
20
-1.00275097363343
30
0.000000000000000
11
-28.1665221162186
21
-1.08129084928949
31
0.000000000000000
  0
LINE
  5
F1087F
330
F10880
100
AcDbEntity
8
Geo
100
AcDbLine
10
-28.1665221162186
20
-1.08129084928949
30
0.000000000000000
11
-28.0665221162186
21
-1.15882209252887
31
0.000000000000000
  0
LINE
  5
F10881
330
F10882
100
AcDbEntity
8
Geo
100
AcDbLine
10
-28.0665221162186
20
-1.15882209252887
30
0.000000000000000
11
-27.9665221162186
21
-1.23532316739366
31
0.000000000000000
  0
LINE
  5
F10883
330
F10884
100
AcDbEntity
8
Geo
100
AcDbLine
10
-27.9665221162186
20
-1.23532316739366
30
0.000000000000000
11
-27.8665221162186
21
-1.31077282407716
31
0.000000000000000
  0
LINE
  5
F10885
330
F10886
100
AcDbEntity
8
Geo
100
AcDbLine
10
-27.8665221162186
20
-1.31077282407716
30
0.000000000000000
11
-27.7665221162186
21
-1.38515010482657
31
0.000000000000000
  0
LINE
  5
F10887
330
F10888
100
AcDbEntity
8
Geo
100
AcDbLine
10
-27.7665221162186
20
-1.38515010482657
30
0.000000000000000
11
-27.6665221162186
21
-1.45843434976435
31
0.000000000000000
  0
LINE
  5
F10889
330
F1088A
100
AcDbEntity
8
Geo
100
AcDbLine
10
-27.6665221162186
20
-1.45843434976435
30
0.000000000000000
11
-27.5665221162186
21
-1.53060520262702
31
0.000000000000000
  0
LINE
  5
F1088B
330
F1088C
100
AcDbEntity
8
Geo
100
AcDbLine
10
-27.5665221162186
20
-1.53060520262702
30
0.000000000000000
11
-27.4665221162186
21
-1.60164261641951
31
0.000000000000000
  0
LINE
  5
F1088D
330
F1088E
100
AcDbEntity
8
Geo
100
AcDbLine
10
-27.4665221162186
20
-1.60164261641951
30
0.000000000000000
11
-27.3665221162186
21
-1.67152685898364
31
0.000000000000000
  0
LINE
  5
F1088F
330
F10890
100
AcDbEntity
8
Geo
100
AcDbLine
10
-27.3665221162186
20
-1.67152685898364
30
0.000000000000000
11
-27.2665221162186
21
-1.74023851847917
31
0.000000000000000
  0
LINE
  5
F10891
330
F10892
100
AcDbEntity
8
Geo
100
AcDbLine
10
-27.2665221162186
20
-1.74023851847917
30
0.000000000000000
11
-27.1665221162186
21
-1.80775850877583
31
0.000000000000000
  0
LINE
  5
F10893
330
F10894
100
AcDbEntity
8
Geo
100
AcDbLine
10
-27.1665221162186
20
-1.80775850877583
30
0.000000000000000
11
-27.0665221162186
21
-1.87406807475492
31
0.000000000000000
  0
LINE
  5
F10895
330
F10896
100
AcDbEntity
8
Geo
100
AcDbLine
10
-27.0665221162186
20
-1.87406807475492
30
0.000000000000000
11
-26.9665221162186
21
-1.93914879751891
31
0.000000000000000
  0
LINE
  5
F10897
330
F10898
100
AcDbEntity
8
Geo
100
AcDbLine
10
-26.9665221162186
20
-1.93914879751891
30
0.000000000000000
11
-26.8665221162186
21
-2.00298259950773
31
0.000000000000000
  0
LINE
  5
F10899
330
F1089A
100
AcDbEntity
8
Geo
100
AcDbLine
10
-26.8665221162186
20
-2.00298259950773
30
0.000000000000000
11
-26.7665221162186
21
-2.06555174952018
31
0.000000000000000
  0
LINE
  5
F1089B
330
F1089C
100
AcDbEntity
8
Geo
100
AcDbLine
10
-26.7665221162186
20
-2.06555174952018
30
0.000000000000000
11
-26.6665221162186
21
-2.12683886763910
31
0.000000000000000
  0
LINE
  5
F1089D
330
F1089E
100
AcDbEntity
8
Geo
100
AcDbLine
10
-26.6665221162186
20
-2.12683886763910
30
0.000000000000000
11
-26.5665221162186
21
-2.18682693005912
31
0.000000000000000
  0
LINE
  5
F1089F
330
F108A0
100
AcDbEntity
8
Geo
100
AcDbLine
10
-26.5665221162186
20
-2.18682693005912
30
0.000000000000000
11
-26.4665221162186
21
-2.24549927381527
31
0.000000000000000
  0
LINE
  5
F108A1
330
F108A2
100
AcDbEntity
8
Geo
100
AcDbLine
10
-26.4665221162186
20
-2.24549927381527
30
0.000000000000000
11
-26.3665221162186
21
-2.30283960141156
31
0.000000000000000
  0
LINE
  5
F108A3
330
F108A4
100
AcDbEntity
8
Geo
100
AcDbLine
10
-26.3665221162186
20
-2.30283960141156
30
0.000000000000000
11
-26.2665221162186
21
-2.35883198534790
31
0.000000000000000
  0
LINE
  5
F108A5
330
F108A6
100
AcDbEntity
8
Geo
100
AcDbLine
10
-26.2665221162186
20
-2.35883198534790
30
0.000000000000000
11
-26.1665221162186
21
-2.41346087254433
31
0.000000000000000
  0
LINE
  5
F108A7
330
F108A8
100
AcDbEntity
8
Geo
100
AcDbLine
10
-26.1665221162186
20
-2.41346087254433
30
0.000000000000000
11
-26.0665221162186
21
-2.46671108866125
31
0.000000000000000
  0
LINE
  5
F108A9
330
F108AA
100
AcDbEntity
8
Geo
100
AcDbLine
10
-26.0665221162186
20
-2.46671108866125
30
0.000000000000000
11
-25.9665221162186
21
-2.51856784231433
31
0.000000000000000
  0
LINE
  5
F108AB
330
F108AC
100
AcDbEntity
8
Geo
100
AcDbLine
10
-25.9665221162186
20
-2.51856784231433
30
0.000000000000000
11
-25.8665221162186
21
-2.56901672918324
31
0.000000000000000
  0
LINE
  5
F108AD
330
F108AE
100
AcDbEntity
8
Geo
100
AcDbLine
10
-25.8665221162186
20
-2.56901672918324
30
0.000000000000000
11
-25.7665221162186
21
-2.61804373601267
31
0.000000000000000
  0
LINE
  5
F108AF
330
F108B0
100
AcDbEntity
8
Geo
100
AcDbLine
10
-25.7665221162186
20
-2.61804373601267
30
0.000000000000000
11
-25.6665221162186
21
-2.66563524450485
31
0.000000000000000
  0
LINE
  5
F108B1
330
F108B2
100
AcDbEntity
8
Geo
100
AcDbLine
10
-25.6665221162186
20
-2.66563524450485
30
0.000000000000000
11
-25.5665221162186
21
-2.71177803510232
31
0.000000000000000
  0
LINE
  5
F108B3
330
F108B4
100
AcDbEntity
8
Geo
100
AcDbLine
10
-25.5665221162186
20
-2.71177803510232
30
0.000000000000000
11
-25.4665221162186
21
-2.75645929065996
31
0.000000000000000
  0
LINE
  5
F108B5
330
F108B6
100
AcDbEntity
8
Geo
100
AcDbLine
10
-25.4665221162186
20
-2.75645929065996
30
0.000000000000000
11
-25.3665221162186
21
-2.79966660000518
31
0.000000000000000
  0
LINE
  5
F108B7
330
F108B8
100
AcDbEntity
8
Geo
100
AcDbLine
10
-25.3665221162186
20
-2.79966660000518
30
0.000000000000000
11
-25.2665221162186
21
-2.84138796138543
31
0.000000000000000
  0
LINE
  5
F108B9
330
F108BA
100
AcDbEntity
8
Geo
100
AcDbLine
10
-25.2665221162186
20
-2.84138796138543
30
0.000000000000000
11
-25.1665221162186
21
-2.88161178580193
31
0.000000000000000
  0
LINE
  5
F108BB
330
F108BC
100
AcDbEntity
8
Geo
100
AcDbLine
10
-25.1665221162186
20
-2.88161178580193
30
0.000000000000000
11
-25.0665221162186
21
-2.92032690022876
31
0.000000000000000
  0
LINE
  5
F108BD
330
F108BE
100
AcDbEntity
8
Geo
100
AcDbLine
10
-25.0665221162186
20
-2.92032690022876
30
0.000000000000000
11
-24.9665221162186
21
-2.95752255071641
31
0.000000000000000
  0
LINE
  5
F108BF
330
F108C0
100
AcDbEntity
8
Geo
100
AcDbLine
10
-24.9665221162186
20
-2.95752255071641
30
0.000000000000000
11
-24.8665221162186
21
-2.99318840537890
31
0.000000000000000
  0
LINE
  5
F108C1
330
F108C2
100
AcDbEntity
8
Geo
100
AcDbLine
10
-24.8665221162186
20
-2.99318840537890
30
0.000000000000000
11
-24.7665221162186
21
-3.02731455726371
31
0.000000000000000
  0
LINE
  5
F108C3
330
F108C4
100
AcDbEntity
8
Geo
100
AcDbLine
10
-24.7665221162186
20
-3.02731455726371
30
0.000000000000000
11
-24.6665221162186
21
-3.05989152710365
31
0.000000000000000
  0
LINE
  5
F108C5
330
F108C6
100
AcDbEntity
8
Geo
100
AcDbLine
10
-24.6665221162186
20
-3.05989152710365
30
0.000000000000000
11
-24.5665221162186
21
-3.09091026594988
31
0.000000000000000
  0
LINE
  5
F108C7
330
F108C8
100
AcDbEntity
8
Geo
100
AcDbLine
10
-24.5665221162186
20
-3.09091026594988
30
0.000000000000000
11
-24.4665221162186
21
-3.12036215768552
31
0.000000000000000
  0
LINE
  5
F108C9
330
F108CA
100
AcDbEntity
8
Geo
100
AcDbLine
10
-24.4665221162186
20
-3.12036215768552
30
0.000000000000000
11
-24.3665221162186
21
-3.14823902141891
31
0.000000000000000
  0
LINE
  5
F108CB
330
F108CC
100
AcDbEntity
8
Geo
100
AcDbLine
10
-24.3665221162186
20
-3.14823902141891
30
0.000000000000000
11
-24.2665221162186
21
-3.17453311375602
31
0.000000000000000
  0
LINE
  5
F108CD
330
F108CE
100
AcDbEntity
8
Geo
100
AcDbLine
10
-24.2665221162186
20
-3.17453311375602
30
0.000000000000000
11
-24.1665221162186
21
-3.19923713095140
31
0.000000000000000
  0
LINE
  5
F108CF
330
F108D0
100
AcDbEntity
8
Geo
100
AcDbLine
10
-24.1665221162186
20
-3.19923713095140
30
0.000000000000000
11
-24.0665221162186
21
-3.22234421093690
31
0.000000000000000
  0
LINE
  5
F108D1
330
F108D2
100
AcDbEntity
8
Geo
100
AcDbLine
10
-24.0665221162186
20
-3.22234421093690
30
0.000000000000000
11
-23.9665221162186
21
-3.24384793522775
31
0.000000000000000
  0
LINE
  5
F108D3
330
F108D4
100
AcDbEntity
8
Geo
100
AcDbLine
10
-23.9665221162186
20
-3.24384793522775
30
0.000000000000000
11
-23.8665221162186
21
-3.26374233070548
31
0.000000000000000
  0
LINE
  5
F108D5
330
F108D6
100
AcDbEntity
8
Geo
100
AcDbLine
10
-23.8665221162186
20
-3.26374233070548
30
0.000000000000000
11
-23.7665221162186
21
-3.28202187127705
31
0.000000000000000
  0
LINE
  5
F108D7
330
F108D8
100
AcDbEntity
8
Geo
100
AcDbLine
10
-23.7665221162186
20
-3.28202187127705
30
0.000000000000000
11
-23.6665221162186
21
-3.29868147940983
31
0.000000000000000
  0
LINE
  5
F108D9
330
F108DA
100
AcDbEntity
8
Geo
100
AcDbLine
10
-34.6665221162185
20
-0.882632971554273
30
0.000000000000000
11
-34.5665221162185
21
-0.989447221236896
31
0.000000000000000
  0
LINE
  5
F108DB
330
F108DC
100
AcDbEntity
8
Geo
100
AcDbLine
10
-34.5665221162185
20
-0.989447221236896
30
0.000000000000000
11
-34.5665221162185
21
-0.989447221236896
31
0.000000000000000
  0
LINE
  5
F108DD
330
F108DE
100
AcDbEntity
8
Geo
100
AcDbLine
10
-34.5665221162185
20
-0.989447221236896
30
0.000000000000000
11
-34.4665221162185
21
-1.06815456031077
31
0.000000000000000
  0
LINE
  5
F108DF
330
F108E0
100
AcDbEntity
8
Geo
100
AcDbLine
10
-34.4665221162185
20
-1.06815456031077
30
0.000000000000000
11
-34.3665221162185
21
-1.14585691585266
31
0.000000000000000
  0
LINE
  5
F108E1
330
F108E2
100
AcDbEntity
8
Geo
100
AcDbLine
10
-34.3665221162185
20
-1.14585691585266
30
0.000000000000000
11
-34.2665221162185
21
-1.22253270437455
31
0.000000000000000
  0
LINE
  5
F108E3
330
F108E4
100
AcDbEntity
8
Geo
100
AcDbLine
10
-34.2665221162185
20
-1.22253270437455
30
0.000000000000000
11
-34.1665221162185
21
-1.29816062753932
31
0.000000000000000
  0
LINE
  5
F108E5
330
F108E6
100
AcDbEntity
8
Geo
100
AcDbLine
10
-34.1665221162185
20
-1.29816062753932
30
0.000000000000000
11
-34.0665221162185
21
-1.37271967807682
31
0.000000000000000
  0
LINE
  5
F108E7
330
F108E8
100
AcDbEntity
8
Geo
100
AcDbLine
10
-34.0665221162185
20
-1.37271967807682
30
0.000000000000000
11
-33.9665221162185
21
-1.44618914561908
31
0.000000000000000
  0
LINE
  5
F108E9
330
F108EA
100
AcDbEntity
8
Geo
100
AcDbLine
10
-33.9665221162185
20
-1.44618914561908
30
0.000000000000000
11
-33.8665221162185
21
-1.51854862245310
31
0.000000000000000
  0
LINE
  5
F108EB
330
F108EC
100
AcDbEntity
8
Geo
100
AcDbLine
10
-33.8665221162185
20
-1.51854862245310
30
0.000000000000000
11
-33.7665221162185
21
-1.58977800918945
31
0.000000000000000
  0
LINE
  5
F108ED
330
F108EE
100
AcDbEntity
8
Geo
100
AcDbLine
10
-33.7665221162185
20
-1.58977800918945
30
0.000000000000000
11
-33.6665221162185
21
-1.65985752034540
31
0.000000000000000
  0
LINE
  5
F108EF
330
F108F0
100
AcDbEntity
8
Geo
100
AcDbLine
10
-33.6665221162185
20
-1.65985752034540
30
0.000000000000000
11
-33.5665221162185
21
-1.72876768984066
31
0.000000000000000
  0
LINE
  5
F108F1
330
F108F2
100
AcDbEntity
8
Geo
100
AcDbLine
10
-33.5665221162185
20
-1.72876768984066
30
0.000000000000000
11
-33.4665221162185
21
-1.79648937640458
31
0.000000000000000
  0
LINE
  5
F108F3
330
F108F4
100
AcDbEntity
8
Geo
100
AcDbLine
10
-33.4665221162185
20
-1.79648937640458
30
0.000000000000000
11
-33.3665221162185
21
-1.86300376889302
31
0.000000000000000
  0
LINE
  5
F108F5
330
F108F6
100
AcDbEntity
8
Geo
100
AcDbLine
10
-33.3665221162185
20
-1.86300376889302
30
0.000000000000000
11
-33.2665221162185
21
-1.92829239151351
31
0.000000000000000
  0
LINE
  5
F108F7
330
F108F8
100
AcDbEntity
8
Geo
100
AcDbLine
10
-33.2665221162185
20
-1.92829239151351
30
0.000000000000000
11
-33.1665221162185
21
-1.99233710895736
31
0.000000000000000
  0
LINE
  5
F108F9
330
F108FA
100
AcDbEntity
8
Geo
100
AcDbLine
10
-33.1665221162185
20
-1.99233710895736
30
0.000000000000000
11
-33.0665221162185
21
-2.05512013143709
31
0.000000000000000
  0
LINE
  5
F108FB
330
F108FC
100
AcDbEntity
8
Geo
100
AcDbLine
10
-33.0665221162185
20
-2.05512013143709
30
0.000000000000000
11
-32.9665221162185
21
-2.11662401962793
31
0.000000000000000
  0
LINE
  5
F108FD
330
F108FE
100
AcDbEntity
8
Geo
100
AcDbLine
10
-32.9665221162185
20
-2.11662401962793
30
0.000000000000000
11
-32.8665221162185
21
-2.17683168951194
31
0.000000000000000
  0
LINE
  5
F108FF
330
F10900
100
AcDbEntity
8
Geo
100
AcDbLine
10
-32.8665221162185
20
-2.17683168951194
30
0.000000000000000
11
-32.7665221162185
21
-2.23572641712354
31
0.000000000000000
  0
LINE
  5
F10901
330
F10902
100
AcDbEntity
8
Geo
100
AcDbLine
10
-32.7665221162185
20
-2.23572641712354
30
0.000000000000000
11
-32.6665221162185
21
-2.29329184319484
31
0.000000000000000
  0
LINE
  5
F10903
330
F10904
100
AcDbEntity
8
Geo
100
AcDbLine
10
-32.6665221162185
20
-2.29329184319484
30
0.000000000000000
11
-32.5665221162185
21
-2.34951197769986
31
0.000000000000000
  0
LINE
  5
F10905
330
F10906
100
AcDbEntity
8
Geo
100
AcDbLine
10
-32.5665221162185
20
-2.34951197769986
30
0.000000000000000
11
-32.4665221162185
21
-2.40437120429606
31
0.000000000000000
  0
LINE
  5
F10907
330
F10908
100
AcDbEntity
8
Geo
100
AcDbLine
10
-32.4665221162185
20
-2.40437120429606
30
0.000000000000000
11
-32.3665221162185
21
-2.45785428466215
31
0.000000000000000
  0
LINE
  5
F10909
330
F1090A
100
AcDbEntity
8
Geo
100
AcDbLine
10
-32.3665221162185
20
-2.45785428466215
30
0.000000000000000
11
-32.2665221162185
21
-2.50994636273079
31
0.000000000000000
  0
LINE
  5
F1090B
330
F1090C
100
AcDbEntity
8
Geo
100
AcDbLine
10
-32.2665221162185
20
-2.50994636273079
30
0.000000000000000
11
-32.1665221162185
21
-2.56063296881525
31
0.000000000000000
  0
LINE
  5
F1090D
330
F1090E
100
AcDbEntity
8
Geo
100
AcDbLine
10
-32.1665221162185
20
-2.56063296881525
30
0.000000000000000
11
-32.0665221162185
21
-2.60990002362865
31
0.000000000000000
  0
LINE
  5
F1090F
330
F10910
100
AcDbEntity
8
Geo
100
AcDbLine
10
-32.0665221162185
20
-2.60990002362865
30
0.000000000000000
11
-31.9665221162185
21
-2.65773384219477
31
0.000000000000000
  0
LINE
  5
F10911
330
F10912
100
AcDbEntity
8
Geo
100
AcDbLine
10
-31.9665221162185
20
-2.65773384219477
30
0.000000000000000
11
-31.8665221162185
21
-2.70412113764936
31
0.000000000000000
  0
LINE
  5
F10913
330
F10914
100
AcDbEntity
8
Geo
100
AcDbLine
10
-31.8665221162185
20
-2.70412113764936
30
0.000000000000000
11
-31.7665221162185
21
-2.74904902493083
31
0.000000000000000
  0
LINE
  5
F10915
330
F10916
100
AcDbEntity
8
Geo
100
AcDbLine
10
-31.7665221162185
20
-2.74904902493083
30
0.000000000000000
11
-31.6665221162185
21
-2.79250502435938
31
0.000000000000000
  0
LINE
  5
F10917
330
F10918
100
AcDbEntity
8
Geo
100
AcDbLine
10
-31.6665221162185
20
-2.79250502435938
30
0.000000000000000
11
-31.5665221162185
21
-2.83447706510349
31
0.000000000000000
  0
LINE
  5
F10919
330
F1091A
100
AcDbEntity
8
Geo
100
AcDbLine
10
-31.5665221162185
20
-2.83447706510349
30
0.000000000000000
11
-31.4665221162185
21
-2.87495348853282
31
0.000000000000000
  0
LINE
  5
F1091B
330
F1091C
100
AcDbEntity
8
Geo
100
AcDbLine
10
-31.4665221162185
20
-2.87495348853282
30
0.000000000000000
11
-31.3665221162185
21
-2.91392305145668
31
0.000000000000000
  0
LINE
  5
F1091D
330
F1091E
100
AcDbEntity
8
Geo
100
AcDbLine
10
-31.3665221162185
20
-2.91392305145668
30
0.000000000000000
11
-31.2665221162185
21
-2.95137492924706
31
0.000000000000000
  0
LINE
  5
F1091F
330
F10920
100
AcDbEntity
8
Geo
100
AcDbLine
10
-31.2665221162185
20
-2.95137492924706
30
0.000000000000000
11
-31.1665221162185
21
-2.98729871884539
31
0.000000000000000
  0
LINE
  5
F10921
330
F10922
100
AcDbEntity
8
Geo
100
AcDbLine
10
-31.1665221162185
20
-2.98729871884539
30
0.000000000000000
11
-31.0665221162185
21
-3.02168444165221
31
0.000000000000000
  0
LINE
  5
F10923
330
F10924
100
AcDbEntity
8
Geo
100
AcDbLine
10
-31.0665221162185
20
-3.02168444165221
30
0.000000000000000
11
-30.9665221162185
21
-3.05452254629895
31
0.000000000000000
  0
LINE
  5
F10925
330
F10926
100
AcDbEntity
8
Geo
100
AcDbLine
10
-30.9665221162185
20
-3.05452254629895
30
0.000000000000000
11
-30.8665221162185
21
-3.08580391130103
31
0.000000000000000
  0
LINE
  5
F10927
330
F10928
100
AcDbEntity
8
Geo
100
AcDbLine
10
-30.8665221162185
20
-3.08580391130103
30
0.000000000000000
11
-30.7665221162185
21
-3.11551984759153
31
0.000000000000000
  0
LINE
  5
F10929
330
F1092A
100
AcDbEntity
8
Geo
100
AcDbLine
10
-30.7665221162185
20
-3.11551984759153
30
0.000000000000000
11
-30.6665221162185
21
-3.14366210093477
31
0.000000000000000
  0
LINE
  5
F1092B
330
F1092C
100
AcDbEntity
8
Geo
100
AcDbLine
10
-30.6665221162185
20
-3.14366210093477
30
0.000000000000000
11
-30.5665221162185
21
-3.17022285421911
31
0.000000000000000
  0
LINE
  5
F1092D
330
F1092E
100
AcDbEntity
8
Geo
100
AcDbLine
10
-30.5665221162185
20
-3.17022285421911
30
0.000000000000000
11
-30.4665221162185
21
-3.19519472962832
31
0.000000000000000
  0
LINE
  5
F1092F
330
F10930
100
AcDbEntity
8
Geo
100
AcDbLine
10
-30.4665221162185
20
-3.19519472962832
30
0.000000000000000
11
-30.3665221162185
21
-3.21857079069091
31
0.000000000000000
  0
LINE
  5
F10931
330
F10932
100
AcDbEntity
8
Geo
100
AcDbLine
10
-30.3665221162185
20
-3.21857079069091
30
0.000000000000000
11
-30.2665221162185
21
-3.24034454420688
31
0.000000000000000
  0
LINE
  5
F10933
330
F10934
100
AcDbEntity
8
Geo
100
AcDbLine
10
-30.2665221162185
20
-3.24034454420688
30
0.000000000000000
11
-30.1665221162185
21
-3.26050994205138
31
0.000000000000000
  0
LINE
  5
F10935
330
F10936
100
AcDbEntity
8
Geo
100
AcDbLine
10
-30.1665221162185
20
-3.26050994205138
30
0.000000000000000
11
-30.0665221162185
21
-3.27906138285467
31
0.000000000000000
  0
LINE
  5
F10937
330
F10938
100
AcDbEntity
8
Geo
100
AcDbLine
10
-30.0665221162185
20
-3.27906138285467
30
0.000000000000000
11
-29.9665221162185
21
-3.29599371355803
31
0.000000000000000
  0
LINE
  5
F10939
330
F1093A
100
AcDbEntity
8
Geo
100
AcDbLine
10
-29.9665221162185
20
-3.29599371355803
30
0.000000000000000
11
-29.8665221162185
21
-3.31130223084514
31
0.000000000000000
  0
LINE
  5
F1093B
330
F1093C
100
AcDbEntity
8
Geo
100
AcDbLine
10
-29.8665221162185
20
-3.31130223084514
30
0.000000000000000
11
-29.7665221162185
21
-3.32498268244853
31
0.000000000000000
  0
LINE
  5
F1093D
330
F1093E
100
AcDbEntity
8
Geo
100
AcDbLine
10
-29.7665221162185
20
-3.32498268244853
30
0.000000000000000
11
-29.6665221162185
21
-3.33703126833071
31
0.000000000000000
  0
LINE
  5
F1093F
330
F10940
100
AcDbEntity
8
Geo
100
AcDbLine
10
-29.6665221162185
20
-3.33703126833071
30
0.000000000000000
11
-29.5665221162185
21
-3.34744464173974
31
0.000000000000000
  0
LINE
  5
F10941
330
F10942
100
AcDbEntity
8
Geo
100
AcDbLine
10
-29.5665221162185
20
-3.34744464173974
30
0.000000000000000
11
-29.4665221162185
21
-3.35621991013886
31
0.000000000000000
  0
LINE
  5
F10943
330
F10944
100
AcDbEntity
8
Geo
100
AcDbLine
10
-29.4665221162185
20
-3.35621991013886
30
0.000000000000000
11
-29.3665221162185
21
-3.36335463600994
31
0.000000000000000
  0
LINE
  5
F10945
330
F10946
100
AcDbEntity
8
Geo
100
AcDbLine
10
-29.3665221162185
20
-3.36335463600994
30
0.000000000000000
11
-29.2665221162185
21
-3.36884683753054
31
0.000000000000000
  0
LINE
  5
F10947
330
F10948
100
AcDbEntity
8
Geo
100
AcDbLine
10
-29.2665221162185
20
-3.36884683753054
30
0.000000000000000
11
-29.1665221162185
21
-3.37269498912447
31
0.000000000000000
  0
LINE
  5
F10949
330
F1094A
100
AcDbEntity
8
Geo
100
AcDbLine
10
-29.1665221162185
20
-3.37269498912447
30
0.000000000000000
11
-29.0665221162186
21
-3.37489802188546
31
0.000000000000000
  0
LINE
  5
F1094B
330
F1094C
100
AcDbEntity
8
Geo
100
AcDbLine
10
-29.0665221162186
20
-3.37489802188546
30
0.000000000000000
11
-28.9826625633872
21
-3.45013009540330
31
0.000000000000000
  0
LINE
  5
F1094D
330
F1094E
100
AcDbEntity
8
Geo
100
AcDbLine
10
-28.9826625633872
20
8.54986990459670
30
0.000000000000000
11
-28.9665221162185
21
8.47519513306753
31
0.000000000000000
  0
LINE
  5
F1094F
330
F10950
100
AcDbEntity
8
Geo
100
AcDbLine
10
-28.9665221162185
20
8.47519513306753
30
0.000000000000000
11
-28.8665221162185
21
8.47410654948136
31
0.000000000000000
  0
LINE
  5
F10951
330
F10952
100
AcDbEntity
8
Geo
100
AcDbLine
10
-28.8665221162185
20
8.47410654948136
30
0.000000000000000
11
-28.7665221162185
21
8.47137238269767
31
0.000000000000000
  0
LINE
  5
F10953
330
F10954
100
AcDbEntity
8
Geo
100
AcDbLine
10
-28.7665221162185
20
8.47137238269767
30
0.000000000000000
11
-28.6665221162186
21
8.46699339218966
31
0.000000000000000
  0
LINE
  5
F10955
330
F10956
100
AcDbEntity
8
Geo
100
AcDbLine
10
-28.6665221162186
20
8.46699339218966
30
0.000000000000000
11
-28.5665221162186
21
8.46097079431543
31
0.000000000000000
  0
LINE
  5
F10957
330
F10958
100
AcDbEntity
8
Geo
100
AcDbLine
10
-28.5665221162186
20
8.46097079431543
30
0.000000000000000
11
-28.4665221162185
21
8.45330626198009
31
0.000000000000000
  0
LINE
  5
F10959
330
F1095A
100
AcDbEntity
8
Geo
100
AcDbLine
10
-28.4665221162185
20
8.45330626198009
30
0.000000000000000
11
-28.3665221162186
21
8.44400192417114
31
0.000000000000000
  0
LINE
  5
F1095B
330
F1095C
100
AcDbEntity
8
Geo
100
AcDbLine
10
-28.3665221162186
20
8.44400192417114
30
0.000000000000000
11
-28.2665221162186
21
8.43306036536703
31
0.000000000000000
  0
LINE
  5
F1095D
330
F1095E
100
AcDbEntity
8
Geo
100
AcDbLine
10
-28.2665221162186
20
8.43306036536703
30
0.000000000000000
11
-28.1665221162186
21
8.42048462481928
31
0.000000000000000
  0
LINE
  5
F1095F
330
F10960
100
AcDbEntity
8
Geo
100
AcDbLine
10
-28.1665221162186
20
8.42048462481928
30
0.000000000000000
11
-28.0665221162186
21
8.40627819570831
31
0.000000000000000
  0
LINE
  5
F10961
330
F10962
100
AcDbEntity
8
Geo
100
AcDbLine
10
-28.0665221162186
20
8.40627819570831
30
0.000000000000000
11
-27.9665221162186
21
8.39044502417307
31
0.000000000000000
  0
LINE
  5
F10963
330
F10964
100
AcDbEntity
8
Geo
100
AcDbLine
10
-27.9665221162186
20
8.39044502417307
30
0.000000000000000
11
-27.8665221162186
21
8.37298950821496
31
0.000000000000000
  0
LINE
  5
F10965
330
F10966
100
AcDbEntity
8
Geo
100
AcDbLine
10
-27.8665221162186
20
8.37298950821496
30
0.000000000000000
11
-27.7665221162186
21
8.35391649647618
31
0.000000000000000
  0
LINE
  5
F10967
330
F10968
100
AcDbEntity
8
Geo
100
AcDbLine
10
-27.7665221162186
20
8.35391649647618
30
0.000000000000000
11
-27.6665221162186
21
8.33323128689290
31
0.000000000000000
  0
LINE
  5
F10969
330
F1096A
100
AcDbEntity
8
Geo
100
AcDbLine
10
-27.6665221162186
20
8.33323128689290
30
0.000000000000000
11
-27.5665221162186
21
8.31093962522366
31
0.000000000000000
  0
LINE
  5
F1096B
330
F1096C
100
AcDbEntity
8
Geo
100
AcDbLine
10
-27.5665221162186
20
8.31093962522366
30
0.000000000000000
11
-27.4665221162186
21
8.28704770345338
31
0.000000000000000
  0
LINE
  5
F1096D
330
F1096E
100
AcDbEntity
8
Geo
100
AcDbLine
10
-27.4665221162186
20
8.28704770345338
30
0.000000000000000
11
-27.3665221162186
21
8.26156215807336
31
0.000000000000000
  0
LINE
  5
F1096F
330
F10970
100
AcDbEntity
8
Geo
100
AcDbLine
10
-27.3665221162186
20
8.26156215807336
30
0.000000000000000
11
-27.2665221162186
21
8.23449006823790
31
0.000000000000000
  0
LINE
  5
F10971
330
F10972
100
AcDbEntity
8
Geo
100
AcDbLine
10
-27.2665221162186
20
8.23449006823790
30
0.000000000000000
11
-27.1665221162186
21
8.20583895379788
31
0.000000000000000
  0
LINE
  5
F10973
330
F10974
100
AcDbEntity
8
Geo
100
AcDbLine
10
-27.1665221162186
20
8.20583895379788
30
0.000000000000000
11
-27.0665221162186
21
8.17561677321196
31
0.000000000000000
  0
LINE
  5
F10975
330
F10976
100
AcDbEntity
8
Geo
100
AcDbLine
10
-27.0665221162186
20
8.17561677321196
30
0.000000000000000
11
-26.9665221162186
21
8.14383192133599
31
0.000000000000000
  0
LINE
  5
F10977
330
F10978
100
AcDbEntity
8
Geo
100
AcDbLine
10
-26.9665221162186
20
8.14383192133599
30
0.000000000000000
11
-26.8665221162186
21
8.11049322709111
31
0.000000000000000
  0
LINE
  5
F10979
330
F1097A
100
AcDbEntity
8
Geo
100
AcDbLine
10
-26.8665221162186
20
8.11049322709111
30
0.000000000000000
11
-26.7665221162186
21
8.07560995101136
31
0.000000000000000
  0
LINE
  5
F1097B
330
F1097C
100
AcDbEntity
8
Geo
100
AcDbLine
10
-26.7665221162186
20
8.07560995101136
30
0.000000000000000
11
-26.6665221162186
21
8.03919178267133
31
0.000000000000000
  0
LINE
  5
F1097D
330
F1097E
100
AcDbEntity
8
Geo
100
AcDbLine
10
-26.6665221162186
20
8.03919178267133
30
0.000000000000000
11
-26.5665221162186
21
8.00124883799475
31
0.000000000000000
  0
LINE
  5
F1097F
330
F10980
100
AcDbEntity
8
Geo
100
AcDbLine
10
-26.5665221162186
20
8.00124883799475
30
0.000000000000000
11
-26.4665221162186
21
7.96179165644450
31
0.000000000000000
  0
LINE
  5
F10981
330
F10982
100
AcDbEntity
8
Geo
100
AcDbLine
10
-26.4665221162186
20
7.96179165644450
30
0.000000000000000
11
-26.3665221162186
21
7.92083119809506
31
0.000000000000000
  0
LINE
  5
F10983
330
F10984
100
AcDbEntity
8
Geo
100
AcDbLine
10
-26.3665221162186
20
7.92083119809506
30
0.000000000000000
11
-26.2665221162186
21
7.87837884058817
31
0.000000000000000
  0
LINE
  5
F10985
330
F10986
100
AcDbEntity
8
Geo
100
AcDbLine
10
-26.2665221162186
20
7.87837884058817
30
0.000000000000000
11
-26.1665221162186
21
7.83444637597238
31
0.000000000000000
  0
LINE
  5
F10987
330
F10988
100
AcDbEntity
8
Geo
100
AcDbLine
10
-26.1665221162186
20
7.83444637597238
30
0.000000000000000
11
-26.0665221162186
21
7.78904600742761
31
0.000000000000000
  0
LINE
  5
F10989
330
F1098A
100
AcDbEntity
8
Geo
100
AcDbLine
10
-26.0665221162186
20
7.78904600742761
30
0.000000000000000
11
-25.9665221162186
21
7.74219034587542
31
0.000000000000000
  0
LINE
  5
F1098B
330
F1098C
100
AcDbEntity
8
Geo
100
AcDbLine
10
-25.9665221162186
20
7.74219034587542
30
0.000000000000000
11
-25.8665221162186
21
7.69389240647605
31
0.000000000000000
  0
LINE
  5
F1098D
330
F1098E
100
AcDbEntity
8
Geo
100
AcDbLine
10
-25.8665221162186
20
7.69389240647605
30
0.000000000000000
11
-25.7665221162186
21
7.64416560501325
31
0.000000000000000
  0
LINE
  5
F1098F
330
F10990
100
AcDbEntity
8
Geo
100
AcDbLine
10
-25.7665221162186
20
7.64416560501325
30
0.000000000000000
11
-25.6665221162186
21
7.59302375416768
31
0.000000000000000
  0
LINE
  5
F10991
330
F10992
100
AcDbEntity
8
Geo
100
AcDbLine
10
-25.6665221162186
20
7.59302375416768
30
0.000000000000000
11
-25.5665221162186
21
7.54048105968016
31
0.000000000000000
  0
LINE
  5
F10993
330
F10994
100
AcDbEntity
8
Geo
100
AcDbLine
10
-25.5665221162186
20
7.54048105968016
30
0.000000000000000
11
-25.4665221162186
21
7.48655211640577
31
0.000000000000000
  0
LINE
  5
F10995
330
F10996
100
AcDbEntity
8
Geo
100
AcDbLine
10
-25.4665221162186
20
7.48655211640577
30
0.000000000000000
11
-25.3665221162186
21
7.43125190425976
31
0.000000000000000
  0
LINE
  5
F10997
330
F10998
100
AcDbEntity
8
Geo
100
AcDbLine
10
-25.3665221162186
20
7.43125190425976
30
0.000000000000000
11
-25.2665221162186
21
7.37459578405660
31
0.000000000000000
  0
LINE
  5
F10999
330
F1099A
100
AcDbEntity
8
Geo
100
AcDbLine
10
-25.2665221162186
20
7.37459578405660
30
0.000000000000000
11
-25.1665221162186
21
7.31659949324316
31
0.000000000000000
  0
LINE
  5
F1099B
330
F1099C
100
AcDbEntity
8
Geo
100
AcDbLine
10
-25.1665221162186
20
7.31659949324316
30
0.000000000000000
11
-25.0665221162186
21
7.25727914152729
31
0.000000000000000
  0
LINE
  5
F1099D
330
F1099E
100
AcDbEntity
8
Geo
100
AcDbLine
10
-25.0665221162186
20
7.25727914152729
30
0.000000000000000
11
-24.9665221162186
21
7.19665120640306
31
0.000000000000000
  0
LINE
  5
F1099F
330
F109A0
100
AcDbEntity
8
Geo
100
AcDbLine
10
-24.9665221162186
20
7.19665120640306
30
0.000000000000000
11
-24.8665221162186
21
7.13473252857371
31
0.000000000000000
  0
LINE
  5
F109A1
330
F109A2
100
AcDbEntity
8
Geo
100
AcDbLine
10
-24.8665221162186
20
7.13473252857371
30
0.000000000000000
11
-24.7665221162186
21
7.07154030727384
31
0.000000000000000
  0
LINE
  5
F109A3
330
F109A4
100
AcDbEntity
8
Geo
100
AcDbLine
10
-24.7665221162186
20
7.07154030727384
30
0.000000000000000
11
-24.6665221162186
21
7.00709209549192
31
0.000000000000000
  0
LINE
  5
F109A5
330
F109A6
100
AcDbEntity
8
Geo
100
AcDbLine
10
-24.6665221162186
20
7.00709209549192
30
0.000000000000000
11
-24.5665221162186
21
6.94140579509462
31
0.000000000000000
  0
LINE
  5
F109A7
330
F109A8
100
AcDbEntity
8
Geo
100
AcDbLine
10
-24.5665221162186
20
6.94140579509462
30
0.000000000000000
11
-24.4665221162186
21
6.87449965185411
31
0.000000000000000
  0
LINE
  5
F109A9
330
F109AA
100
AcDbEntity
8
Geo
100
AcDbLine
10
-24.4665221162186
20
6.87449965185411
30
0.000000000000000
11
-24.3665221162186
21
6.80639225037999
31
0.000000000000000
  0
LINE
  5
F109AB
330
F109AC
100
AcDbEntity
8
Geo
100
AcDbLine
10
-24.3665221162186
20
6.80639225037999
30
0.000000000000000
11
-24.2665221162186
21
6.73710250895696
31
0.000000000000000
  0
LINE
  5
F109AD
330
F109AE
100
AcDbEntity
8
Geo
100
AcDbLine
10
-24.2665221162186
20
6.73710250895696
30
0.000000000000000
11
-24.1665221162186
21
6.66664967428988
31
0.000000000000000
  0
LINE
  5
F109AF
330
F109B0
100
AcDbEntity
8
Geo
100
AcDbLine
10
-24.1665221162186
20
6.66664967428988
30
0.000000000000000
11
-24.0665221162186
21
6.59505331615759
31
0.000000000000000
  0
LINE
  5
F109B1
330
F109B2
100
AcDbEntity
8
Geo
100
AcDbLine
10
-24.0665221162186
20
6.59505331615759
30
0.000000000000000
11
-23.9665221162186
21
6.52233332197699
31
0.000000000000000
  0
LINE
  5
F109B3
330
F109B4
100
AcDbEntity
8
Geo
100
AcDbLine
10
-23.9665221162186
20
6.52233332197699
30
0.000000000000000
11
-23.8665221162186
21
6.44850989127887
31
0.000000000000000
  0
LINE
  5
F109B5
330
F109B6
100
AcDbEntity
8
Geo
100
AcDbLine
10
-23.8665221162186
20
6.44850989127887
30
0.000000000000000
11
-23.7665221162186
21
6.37360353009708
31
0.000000000000000
  0
LINE
  5
F109B7
330
F109B8
100
AcDbEntity
8
Geo
100
AcDbLine
10
-23.7665221162186
20
6.37360353009708
30
0.000000000000000
11
-23.6665221162186
21
6.29763504527252
31
0.000000000000000
  0
LINE
  5
F109B9
330
F109BA
100
AcDbEntity
8
Geo
100
AcDbLine
10
-34.6665221162185
20
8.37469258821523
30
0.000000000000000
11
-34.5665221162185
21
8.43501453269273
31
0.000000000000000
  0
LINE
  5
F109BB
330
F109BC
100
AcDbEntity
8
Geo
100
AcDbLine
10
-34.5665221162185
20
8.43501453269273
30
0.000000000000000
11
-34.5665221162185
21
8.43501453269273
31
0.000000000000000
  0
LINE
  5
F109BD
330
F109BE
100
AcDbEntity
8
Geo
100
AcDbLine
10
-34.5665221162185
20
8.43501453269273
30
0.000000000000000
11
-34.4665221162185
21
8.42271334283358
31
0.000000000000000
  0
LINE
  5
F109BF
330
F109C0
100
AcDbEntity
8
Geo
100
AcDbLine
10
-34.4665221162185
20
8.42271334283358
30
0.000000000000000
11
-34.3665221162185
21
8.40878084533720
31
0.000000000000000
  0
LINE
  5
F109C1
330
F109C2
100
AcDbEntity
8
Geo
100
AcDbLine
10
-34.3665221162185
20
8.40878084533720
30
0.000000000000000
11
-34.2665221162185
21
8.39322091025220
31
0.000000000000000
  0
LINE
  5
F109C3
330
F109C4
100
AcDbEntity
8
Geo
100
AcDbLine
10
-34.2665221162185
20
8.39322091025220
30
0.000000000000000
11
-34.1665221162185
21
8.37603785968270
31
0.000000000000000
  0
LINE
  5
F109C5
330
F109C6
100
AcDbEntity
8
Geo
100
AcDbLine
10
-34.1665221162185
20
8.37603785968270
30
0.000000000000000
11
-34.0665221162185
21
8.35723646658784
31
0.000000000000000
  0
LINE
  5
F109C7
330
F109C8
100
AcDbEntity
8
Geo
100
AcDbLine
10
-34.0665221162185
20
8.35723646658784
30
0.000000000000000
11
-33.9665221162185
21
8.33682195345591
31
0.000000000000000
  0
LINE
  5
F109C9
330
F109CA
100
AcDbEntity
8
Geo
100
AcDbLine
10
-33.9665221162185
20
8.33682195345591
30
0.000000000000000
11
-33.8665221162185
21
8.31479999085373
31
0.000000000000000
  0
LINE
  5
F109CB
330
F109CC
100
AcDbEntity
8
Geo
100
AcDbLine
10
-33.8665221162185
20
8.31479999085373
30
0.000000000000000
11
-33.7665221162185
21
8.29117669585154
31
0.000000000000000
  0
LINE
  5
F109CD
330
F109CE
100
AcDbEntity
8
Geo
100
AcDbLine
10
-33.7665221162185
20
8.29117669585154
30
0.000000000000000
11
-33.6665221162185
21
8.26595863032384
31
0.000000000000000
  0
LINE
  5
F109CF
330
F109D0
100
AcDbEntity
8
Geo
100
AcDbLine
10
-33.6665221162185
20
8.26595863032384
30
0.000000000000000
11
-33.5665221162185
21
8.23915279912666
31
0.000000000000000
  0
LINE
  5
F109D1
330
F109D2
100
AcDbEntity
8
Geo
100
AcDbLine
10
-33.5665221162185
20
8.23915279912666
30
0.000000000000000
11
-33.4665221162185
21
8.21076664815188
31
0.000000000000000
  0
LINE
  5
F109D3
330
F109D4
100
AcDbEntity
8
Geo
100
AcDbLine
10
-33.4665221162185
20
8.21076664815188
30
0.000000000000000
11
-33.3665221162185
21
8.18080806225891
31
0.000000000000000
  0
LINE
  5
F109D5
330
F109D6
100
AcDbEntity
8
Geo
100
AcDbLine
10
-33.3665221162185
20
8.18080806225891
30
0.000000000000000
11
-33.2665221162185
21
8.14928536308453
31
0.000000000000000
  0
LINE
  5
F109D7
330
F109D8
100
AcDbEntity
8
Geo
100
AcDbLine
10
-33.2665221162185
20
8.14928536308453
30
0.000000000000000
11
-33.1665221162185
21
8.11620730673137
31
0.000000000000000
  0
LINE
  5
F109D9
330
F109DA
100
AcDbEntity
8
Geo
100
AcDbLine
10
-33.1665221162185
20
8.11620730673137
30
0.000000000000000
11
-33.0665221162185
21
8.08158308133573
31
0.000000000000000
  0
LINE
  5
F109DB
330
F109DC
100
AcDbEntity
8
Geo
100
AcDbLine
10
-33.0665221162185
20
8.08158308133573
30
0.000000000000000
11
-32.9665221162185
21
8.04542230451537
31
0.000000000000000
  0
LINE
  5
F109DD
330
F109DE
100
AcDbEntity
8
Geo
100
AcDbLine
10
-32.9665221162185
20
8.04542230451537
30
0.000000000000000
11
-32.8665221162185
21
8.00773502069800
31
0.000000000000000
  0
LINE
  5
F109DF
330
F109E0
100
AcDbEntity
8
Geo
100
AcDbLine
10
-32.8665221162185
20
8.00773502069800
30
0.000000000000000
11
-32.7665221162185
21
7.96853169833123
31
0.000000000000000
  0
LINE
  5
F109E1
330
F109E2
100
AcDbEntity
8
Geo
100
AcDbLine
10
-32.7665221162185
20
7.96853169833123
30
0.000000000000000
11
-32.6665221162185
21
7.92782322697478
31
0.000000000000000
  0
LINE
  5
F109E3
330
F109E4
100
AcDbEntity
8
Geo
100
AcDbLine
10
-32.6665221162185
20
7.92782322697478
30
0.000000000000000
11
-32.5665221162185
21
7.88562091427558
31
0.000000000000000
  0
LINE
  5
F109E5
330
F109E6
100
AcDbEntity
8
Geo
100
AcDbLine
10
-32.5665221162185
20
7.88562091427558
30
0.000000000000000
11
-32.4665221162185
21
7.84193648282691
31
0.000000000000000
  0
LINE
  5
F109E7
330
F109E8
100
AcDbEntity
8
Geo
100
AcDbLine
10
-32.4665221162185
20
7.84193648282691
30
0.000000000000000
11
-32.3665221162185
21
7.79678206691219
31
0.000000000000000
  0
LINE
  5
F109E9
330
F109EA
100
AcDbEntity
8
Geo
100
AcDbLine
10
-32.3665221162185
20
7.79678206691219
30
0.000000000000000
11
-32.2665221162185
21
7.75017020913437
31
0.000000000000000
  0
LINE
  5
F109EB
330
F109EC
100
AcDbEntity
8
Geo
100
AcDbLine
10
-32.2665221162185
20
7.75017020913437
30
0.000000000000000
11
-32.1665221162185
21
7.70211385693201
31
0.000000000000000
  0
LINE
  5
F109ED
330
F109EE
100
AcDbEntity
8
Geo
100
AcDbLine
10
-32.1665221162185
20
7.70211385693201
30
0.000000000000000
11
-32.0665221162185
21
7.65262635898284
31
0.000000000000000
  0
LINE
  5
F109EF
330
F109F0
100
AcDbEntity
8
Geo
100
AcDbLine
10
-32.0665221162185
20
7.65262635898284
30
0.000000000000000
11
-31.9665221162185
21
7.60172146149586
31
0.000000000000000
  0
LINE
  5
F109F1
330
F109F2
100
AcDbEntity
8
Geo
100
AcDbLine
10
-31.9665221162185
20
7.60172146149586
30
0.000000000000000
11
-31.8665221162185
21
7.54941330439305
31
0.000000000000000
  0
LINE
  5
F109F3
330
F109F4
100
AcDbEntity
8
Geo
100
AcDbLine
10
-31.8665221162185
20
7.54941330439305
30
0.000000000000000
11
-31.7665221162185
21
7.49571641738172
31
0.000000000000000
  0
LINE
  5
F109F5
330
F109F6
100
AcDbEntity
8
Geo
100
AcDbLine
10
-31.7665221162185
20
7.49571641738172
30
0.000000000000000
11
-31.6665221162185
21
7.44064571591853
31
0.000000000000000
  0
LINE
  5
F109F7
330
F109F8
100
AcDbEntity
8
Geo
100
AcDbLine
10
-31.6665221162185
20
7.44064571591853
30
0.000000000000000
11
-31.5665221162185
21
7.38421649706647
31
0.000000000000000
  0
LINE
  5
F109F9
330
F109FA
100
AcDbEntity
8
Geo
100
AcDbLine
10
-31.5665221162185
20
7.38421649706647
30
0.000000000000000
11
-31.4665221162185
21
7.32644443524570
31
0.000000000000000
  0
LINE
  5
F109FB
330
F109FC
100
AcDbEntity
8
Geo
100
AcDbLine
10
-31.4665221162185
20
7.32644443524570
30
0.000000000000000
11
-31.3665221162185
21
7.26734557787971
31
0.000000000000000
  0
LINE
  5
F109FD
330
F109FE
100
AcDbEntity
8
Geo
100
AcDbLine
10
-31.3665221162185
20
7.26734557787971
30
0.000000000000000
11
-31.2665221162185
21
7.20693634093775
31
0.000000000000000
  0
LINE
  5
F109FF
330
F10A00
100
AcDbEntity
8
Geo
100
AcDbLine
10
-31.2665221162185
20
7.20693634093775
30
0.000000000000000
11
-31.1665221162185
21
7.14523350437499
31
0.000000000000000
  0
LINE
  5
F10A01
330
F10A02
100
AcDbEntity
8
Geo
100
AcDbLine
10
-31.1665221162185
20
7.14523350437499
30
0.000000000000000
11
-31.0665221162185
21
7.08225420747151
31
0.000000000000000
  0
LINE
  5
F10A03
330
F10A04
100
AcDbEntity
8
Geo
100
AcDbLine
10
-31.0665221162185
20
7.08225420747151
30
0.000000000000000
11
-30.9665221162185
21
7.01801594407149
31
0.000000000000000
  0
LINE
  5
F10A05
330
F10A06
100
AcDbEntity
8
Geo
100
AcDbLine
10
-30.9665221162185
20
7.01801594407149
30
0.000000000000000
11
-30.8665221162185
21
6.95253655772394
31
0.000000000000000
  0
LINE
  5
F10A07
330
F10A08
100
AcDbEntity
8
Geo
100
AcDbLine
10
-30.8665221162185
20
6.95253655772394
30
0.000000000000000
11
-30.7665221162185
21
6.88583423672624
31
0.000000000000000
  0
LINE
  5
F10A09
330
F10A0A
100
AcDbEntity
8
Geo
100
AcDbLine
10
-30.7665221162185
20
6.88583423672624
30
0.000000000000000
11
-30.6665221162185
21
6.81792750907202
31
0.000000000000000
  0
LINE
  5
F10A0B
330
F10A0C
100
AcDbEntity
8
Geo
100
AcDbLine
10
-30.6665221162185
20
6.81792750907202
30
0.000000000000000
11
-30.5665221162185
21
6.74883523730453
31
0.000000000000000
  0
LINE
  5
F10A0D
330
F10A0E
100
AcDbEntity
8
Geo
100
AcDbLine
10
-30.5665221162185
20
6.74883523730453
30
0.000000000000000
11
-30.4665221162185
21
6.67857661327723
31
0.000000000000000
  0
LINE
  5
F10A0F
330
F10A10
100
AcDbEntity
8
Geo
100
AcDbLine
10
-30.4665221162185
20
6.67857661327723
30
0.000000000000000
11
-30.3665221162185
21
6.60717115282280
31
0.000000000000000
  0
LINE
  5
F10A11
330
F10A12
100
AcDbEntity
8
Geo
100
AcDbLine
10
-30.3665221162185
20
6.60717115282280
30
0.000000000000000
11
-30.2665221162185
21
6.53463869033223
31
0.000000000000000
  0
LINE
  5
F10A13
330
F10A14
100
AcDbEntity
8
Geo
100
AcDbLine
10
-30.2665221162185
20
6.53463869033223
30
0.000000000000000
11
-30.1665221162185
21
6.46099937324539
31
0.000000000000000
  0
LINE
  5
F10A15
330
F10A16
100
AcDbEntity
8
Geo
100
AcDbLine
10
-30.1665221162185
20
6.46099937324539
30
0.000000000000000
11
-30.0665221162185
21
6.38627365645465
31
0.000000000000000
  0
LINE
  5
F10A17
330
F10A18
100
AcDbEntity
8
Geo
100
AcDbLine
10
-30.0665221162185
20
6.38627365645465
30
0.000000000000000
11
-29.9665221162185
21
6.31048229662306
31
0.000000000000000
  0
LINE
  5
F10A19
330
F10A1A
100
AcDbEntity
8
Geo
100
AcDbLine
10
-29.9665221162185
20
6.31048229662306
30
0.000000000000000
11
-29.8665221162185
21
6.23364634641879
31
0.000000000000000
  0
LINE
  5
F10A1B
330
F10A1C
100
AcDbEntity
8
Geo
100
AcDbLine
10
-29.8665221162185
20
6.23364634641879
30
0.000000000000000
11
-29.7665221162185
21
6.15578714866731
31
0.000000000000000
  0
LINE
  5
F10A1D
330
F10A1E
100
AcDbEntity
8
Geo
100
AcDbLine
10
-29.7665221162185
20
6.15578714866731
30
0.000000000000000
11
-29.6665221162185
21
6.07692633042289
31
0.000000000000000
  0
LINE
  5
F10A1F
330
F10A20
100
AcDbEntity
8
Geo
100
AcDbLine
10
-29.6665221162185
20
6.07692633042289
30
0.000000000000000
11
-29.5665221162185
21
5.99708579696132
31
0.000000000000000
  0
LINE
  5
F10A21
330
F10A22
100
AcDbEntity
8
Geo
100
AcDbLine
10
-29.5665221162185
20
5.99708579696132
30
0.000000000000000
11
-29.4665221162185
21
5.91628772569519
31
0.000000000000000
  0
LINE
  5
F10A23
330
F10A24
100
AcDbEntity
8
Geo
100
AcDbLine
10
-29.4665221162185
20
5.91628772569519
30
0.000000000000000
11
-29.3665221162185
21
5.83455456001364
31
0.000000000000000
  0
LINE
  5
F10A25
330
F10A26
100
AcDbEntity
8
Geo
100
AcDbLine
10
-29.3665221162185
20
5.83455456001364
30
0.000000000000000
11
-29.2665221162185
21
5.75190900304827
31
0.000000000000000
  0
LINE
  5
F10A27
330
F10A28
100
AcDbEntity
8
Geo
100
AcDbLine
10
-29.2665221162185
20
5.75190900304827
30
0.000000000000000
11
-29.1665221162185
21
5.66837401136683
31
0.000000000000000
  0
LINE
  5
F10A29
330
F10A2A
100
AcDbEntity
8
Geo
100
AcDbLine
10
-29.1665221162185
20
5.66837401136683
30
0.000000000000000
11
-29.0665221162186
21
5.58397278859654
31
0.000000000000000
  0
LINE
  5
F10A2B
330
F10A2C
100
AcDbEntity
8
Geo
100
AcDbLine
10
-29.0665221162186
20
5.58397278859654
30
0.000000000000000
11
-28.9665221162185
21
5.49872877897882
31
0.000000000000000
  0
LINE
  5
F10A2D
330
F10A2E
100
AcDbEntity
8
Geo
100
AcDbLine
10
-28.9665221162185
20
5.49872877897882
30
0.000000000000000
11
-28.8665221162185
21
5.41266566085709
31
0.000000000000000
  0
LINE
  5
F10A2F
330
F10A30
100
AcDbEntity
8
Geo
100
AcDbLine
10
-28.8665221162185
20
5.41266566085709
30
0.000000000000000
11
-28.7665221162185
21
5.32580734009968
31
0.000000000000000
  0
LINE
  5
F10A31
330
F10A32
100
AcDbEntity
8
Geo
100
AcDbLine
10
-28.7665221162185
20
5.32580734009968
30
0.000000000000000
11
-28.6665221162186
21
5.23817794345942
31
0.000000000000000
  0
LINE
  5
F10A33
330
F10A34
100
AcDbEntity
8
Geo
100
AcDbLine
10
-28.6665221162186
20
5.23817794345942
30
0.000000000000000
11
-28.5665221162186
21
5.14980181187191
31
0.000000000000000
  0
LINE
  5
F10A35
330
F10A36
100
AcDbEntity
8
Geo
100
AcDbLine
10
-28.5665221162186
20
5.14980181187191
30
0.000000000000000
11
-28.4665221162185
21
5.06070349369434
31
0.000000000000000
  0
LINE
  5
F10A37
330
F10A38
100
AcDbEntity
8
Geo
100
AcDbLine
10
-28.4665221162185
20
5.06070349369434
30
0.000000000000000
11
-28.3665221162186
21
4.97090773788663
31
0.000000000000000
  0
LINE
  5
F10A39
330
F10A3A
100
AcDbEntity
8
Geo
100
AcDbLine
10
-28.3665221162186
20
4.97090773788663
30
0.000000000000000
11
-28.2665221162186
21
4.88043948713690
31
0.000000000000000
  0
LINE
  5
F10A3B
330
F10A3C
100
AcDbEntity
8
Geo
100
AcDbLine
10
-28.2665221162186
20
4.88043948713690
30
0.000000000000000
11
-28.1665221162186
21
4.78932387093310
31
0.000000000000000
  0
LINE
  5
F10A3D
330
F10A3E
100
AcDbEntity
8
Geo
100
AcDbLine
10
-28.1665221162186
20
4.78932387093310
30
0.000000000000000
11
-28.0665221162186
21
4.69758619858274
31
0.000000000000000
  0
LINE
  5
F10A3F
330
F10A40
100
AcDbEntity
8
Geo
100
AcDbLine
10
-28.0665221162186
20
4.69758619858274
30
0.000000000000000
11
-27.9665221162186
21
4.60525195218272
31
0.000000000000000
  0
LINE
  5
F10A41
330
F10A42
100
AcDbEntity
8
Geo
100
AcDbLine
10
-27.9665221162186
20
4.60525195218272
30
0.000000000000000
11
-27.8665221162186
21
4.51234677954111
31
0.000000000000000
  0
LINE
  5
F10A43
330
F10A44
100
AcDbEntity
8
Geo
100
AcDbLine
10
-27.8665221162186
20
4.51234677954111
30
0.000000000000000
11
-27.7665221162186
21
4.41889648705292
31
0.000000000000000
  0
LINE
  5
F10A45
330
F10A46
100
AcDbEntity
8
Geo
100
AcDbLine
10
-27.7665221162186
20
4.41889648705292
30
0.000000000000000
11
-27.6665221162186
21
4.32492703253185
31
0.000000000000000
  0
LINE
  5
F10A47
330
F10A48
100
AcDbEntity
8
Geo
100
AcDbLine
10
-27.6665221162186
20
4.32492703253185
30
0.000000000000000
11
-27.5665221162186
21
4.23046451799995
31
0.000000000000000
  0
LINE
  5
F10A49
330
F10A4A
100
AcDbEntity
8
Geo
100
AcDbLine
10
-27.5665221162186
20
4.23046451799995
30
0.000000000000000
11
-27.4665221162186
21
4.13553518243718
31
0.000000000000000
  0
LINE
  5
F10A4B
330
F10A4C
100
AcDbEntity
8
Geo
100
AcDbLine
10
-27.4665221162186
20
4.13553518243718
30
0.000000000000000
11
-27.3665221162186
21
4.04016539449303
31
0.000000000000000
  0
LINE
  5
F10A4D
330
F10A4E
100
AcDbEntity
8
Geo
100
AcDbLine
10
-27.3665221162186
20
4.04016539449303
30
0.000000000000000
11
-27.2665221162186
21
3.94438164516204
31
0.000000000000000
  0
LINE
  5
F10A4F
330
F10A50
100
AcDbEntity
8
Geo
100
AcDbLine
10
-27.2665221162186
20
3.94438164516204
30
0.000000000000000
11
-27.1665221162186
21
3.84821054042535
31
0.000000000000000
  0
LINE
  5
F10A51
330
F10A52
100
AcDbEntity
8
Geo
100
AcDbLine
10
-27.1665221162186
20
3.84821054042535
30
0.000000000000000
11
-27.0665221162186
21
3.75167879386035
31
0.000000000000000
  0
LINE
  5
F10A53
330
F10A54
100
AcDbEntity
8
Geo
100
AcDbLine
10
-27.0665221162186
20
3.75167879386035
30
0.000000000000000
11
-26.9665221162186
21
3.65481321922039
31
0.000000000000000
  0
LINE
  5
F10A55
330
F10A56
100
AcDbEntity
8
Geo
100
AcDbLine
10
-26.9665221162186
20
3.65481321922039
30
0.000000000000000
11
-26.8665221162186
21
3.55764072298668
31
0.000000000000000
  0
LINE
  5
F10A57
330
F10A58
100
AcDbEntity
8
Geo
100
AcDbLine
10
-26.8665221162186
20
3.55764072298668
30
0.000000000000000
11
-26.7665221162186
21
3.46018829689449
31
0.000000000000000
  0
LINE
  5
F10A59
330
F10A5A
100
AcDbEntity
8
Geo
100
AcDbLine
10
-26.7665221162186
20
3.46018829689449
30
0.000000000000000
11
-26.6665221162186
21
3.36248301043554
31
0.000000000000000
  0
LINE
  5
F10A5B
330
F10A5C
100
AcDbEntity
8
Geo
100
AcDbLine
10
-26.6665221162186
20
3.36248301043554
30
0.000000000000000
11
-26.5665221162186
21
3.26455200333894
31
0.000000000000000
  0
LINE
  5
F10A5D
330
F10A5E
100
AcDbEntity
8
Geo
100
AcDbLine
10
-26.5665221162186
20
3.26455200333894
30
0.000000000000000
11
-26.4665221162186
21
3.16642247803253
31
0.000000000000000
  0
LINE
  5
F10A5F
330
F10A60
100
AcDbEntity
8
Geo
100
AcDbLine
10
-26.4665221162186
20
3.16642247803253
30
0.000000000000000
11
-26.3665221162186
21
3.06812169208681
31
0.000000000000000
  0
LINE
  5
F10A61
330
F10A62
100
AcDbEntity
8
Geo
100
AcDbLine
10
-26.3665221162186
20
3.06812169208681
30
0.000000000000000
11
-26.2665221162186
21
2.96967695064358
31
0.000000000000000
  0
LINE
  5
F10A63
330
F10A64
100
AcDbEntity
8
Geo
100
AcDbLine
10
-26.2665221162186
20
2.96967695064358
30
0.000000000000000
11
-26.1665221162186
21
2.87111559883136
31
0.000000000000000
  0
LINE
  5
F10A65
330
F10A66
100
AcDbEntity
8
Geo
100
AcDbLine
10
-26.1665221162186
20
2.87111559883136
30
0.000000000000000
11
-26.0665221162186
21
2.77246501416967
31
0.000000000000000
  0
LINE
  5
F10A67
330
F10A68
100
AcDbEntity
8
Geo
100
AcDbLine
10
-26.0665221162186
20
2.77246501416967
30
0.000000000000000
11
-25.9665221162186
21
2.67375259896439
31
0.000000000000000
  0
LINE
  5
F10A69
330
F10A6A
100
AcDbEntity
8
Geo
100
AcDbLine
10
-25.9665221162186
20
2.67375259896439
30
0.000000000000000
11
-25.8665221162186
21
2.57500577269612
31
0.000000000000000
  0
LINE
  5
F10A6B
330
F10A6C
100
AcDbEntity
8
Geo
100
AcDbLine
10
-25.8665221162186
20
2.57500577269612
30
0.000000000000000
11
-25.7665221162186
21
2.47625196440389
31
0.000000000000000
  0
LINE
  5
F10A6D
330
F10A6E
100
AcDbEntity
8
Geo
100
AcDbLine
10
-25.7665221162186
20
2.47625196440389
30
0.000000000000000
11
-25.6665221162186
21
2.37751860506613
31
0.000000000000000
  0
LINE
  5
F10A6F
330
F10A70
100
AcDbEntity
8
Geo
100
AcDbLine
10
-25.6665221162186
20
2.37751860506613
30
0.000000000000000
11
-25.5665221162186
21
2.27883311998114
31
0.000000000000000
  0
LINE
  5
F10A71
330
F10A72
100
AcDbEntity
8
Geo
100
AcDbLine
10
-25.5665221162186
20
2.27883311998114
30
0.000000000000000
11
-25.4665221162186
21
2.18022292114911
31
0.000000000000000
  0
LINE
  5
F10A73
330
F10A74
100
AcDbEntity
8
Geo
100
AcDbLine
10
-25.4665221162186
20
2.18022292114911
30
0.000000000000000
11
-25.3665221162186
21
2.08171539965789
31
0.000000000000000
  0
LINE
  5
F10A75
330
F10A76
100
AcDbEntity
8
Geo
100
AcDbLine
10
-25.3665221162186
20
2.08171539965789
30
0.000000000000000
11
-25.2665221162186
21
1.98333791807447
31
0.000000000000000
  0
LINE
  5
F10A77
330
F10A78
100
AcDbEntity
8
Geo
100
AcDbLine
10
-25.2665221162186
20
1.98333791807447
30
0.000000000000000
11
-25.1665221162186
21
1.88511780284453
31
0.000000000000000
  0
LINE
  5
F10A79
330
F10A7A
100
AcDbEntity
8
Geo
100
AcDbLine
10
-25.1665221162186
20
1.88511780284453
30
0.000000000000000
11
-25.0665221162186
21
1.78708233670183
31
0.000000000000000
  0
LINE
  5
F10A7B
330
F10A7C
100
AcDbEntity
8
Geo
100
AcDbLine
10
-25.0665221162186
20
1.78708233670183
30
0.000000000000000
11
-24.9665221162186
21
1.68925875108996
31
0.000000000000000
  0
LINE
  5
F10A7D
330
F10A7E
100
AcDbEntity
8
Geo
100
AcDbLine
10
-24.9665221162186
20
1.68925875108996
30
0.000000000000000
11
-24.8665221162186
21
1.59167421859812
31
0.000000000000000
  0
LINE
  5
F10A7F
330
F10A80
100
AcDbEntity
8
Geo
100
AcDbLine
10
-24.8665221162186
20
1.59167421859812
30
0.000000000000000
11
-24.7665221162186
21
1.49435584541343
31
0.000000000000000
  0
LINE
  5
F10A81
330
F10A82
100
AcDbEntity
8
Geo
100
AcDbLine
10
-24.7665221162186
20
1.49435584541343
30
0.000000000000000
11
-24.6665221162186
21
1.39733066379158
31
0.000000000000000
  0
LINE
  5
F10A83
330
F10A84
100
AcDbEntity
8
Geo
100
AcDbLine
10
-24.6665221162186
20
1.39733066379158
30
0.000000000000000
11
-24.5665221162186
21
1.30062562454804
31
0.000000000000000
  0
LINE
  5
F10A85
330
F10A86
100
AcDbEntity
8
Geo
100
AcDbLine
10
-24.5665221162186
20
1.30062562454804
30
0.000000000000000
11
-24.4665221162186
21
1.20426758957189
31
0.000000000000000
  0
LINE
  5
F10A87
330
F10A88
100
AcDbEntity
8
Geo
100
AcDbLine
10
-24.4665221162186
20
1.20426758957189
30
0.000000000000000
11
-24.3665221162186
21
1.10828332436439
31
0.000000000000000
  0
LINE
  5
F10A89
330
F10A8A
100
AcDbEntity
8
Geo
100
AcDbLine
10
-24.3665221162186
20
1.10828332436439
30
0.000000000000000
11
-24.2665221162186
21
1.01269949060424
31
0.000000000000000
  0
LINE
  5
F10A8B
330
F10A8C
100
AcDbEntity
8
Geo
100
AcDbLine
10
-24.2665221162186
20
1.01269949060424
30
0.000000000000000
11
-24.1665221162186
21
0.917542638741775
31
0.000000000000000
  0
LINE
  5
F10A8D
330
F10A8E
100
AcDbEntity
8
Geo
100
AcDbLine
10
-24.1665221162186
20
0.917542638741775
30
0.000000000000000
11
-24.0665221162186
21
0.822839200623994
31
0.000000000000000
  0
LINE
  5
F10A8F
330
F10A90
100
AcDbEntity
8
Geo
100
AcDbLine
10
-24.0665221162186
20
0.822839200623994
30
0.000000000000000
11
-23.9665221162186
21
0.728615482152541
31
0.000000000000000
  0
LINE
  5
F10A91
330
F10A92
100
AcDbEntity
8
Geo
100
AcDbLine
10
-23.9665221162186
20
0.728615482152541
30
0.000000000000000
11
-23.8665221162186
21
0.634897655976689
31
0.000000000000000
  0
LINE
  5
F10A93
330
F10A94
100
AcDbEntity
8
Geo
100
AcDbLine
10
-23.8665221162186
20
0.634897655976689
30
0.000000000000000
11
-23.7665221162186
21
0.541711754223330
31
0.000000000000000
  0
LINE
  5
F10A95
330
F10A96
100
AcDbEntity
8
Geo
100
AcDbLine
10
-23.7665221162186
20
0.541711754223330
30
0.000000000000000
11
-23.6665221162186
21
0.449083661265987
31
0.000000000000000
  0
LINE
  5
F10A97
330
F10A98
100
AcDbEntity
8
Geo
100
AcDbLine
10
38.3334778837815
20
7.84986990459670
30
0.000000000000000
11
38.3334778837815
21
2.54986990459670
31
0.000000000000000
  0
LINE
  5
F10A99
330
F10A9A
100
AcDbEntity
8
Geo
100
AcDbLine
10
-34.6665221162185
20
2.54986990459670
30
0.000000000000000
11
-34.6665221162185
21
-3.38013009540330
31
0.000000000000000
  0
LINE
  5
F10A9B
330
F10A9C
100
AcDbEntity
8
Geo
100
AcDbLine
10
-34.6665221162185
20
-3.38013009540330
30
0.000000000000000
11
-34.5965221162185
21
-3.45013009540330
31
0.000000000000000
  0
LINE
  5
F10A9D
330
F10A9E
100
AcDbEntity
8
Geo
100
AcDbLine
10
-34.5965221162185
20
-3.45013009540330
30
0.000000000000000
11
-18.6665221162185
21
-3.45013009540330
31
0.000000000000000
  0
LINE
  5
F10A9F
330
F10AA0
100
AcDbEntity
8
Geo
100
AcDbLine
10
-18.6665221162185
20
-3.45013009540330
30
0.000000000000000
11
37.6334778837815
21
-3.45013009540330
31
0.000000000000000
  0
LINE
  5
F10AA1
330
F10AA2
100
AcDbEntity
8
Geo
100
AcDbLine
10
37.6334778837815
20
-3.45013009540330
30
0.000000000000000
11
38.3334778837815
21
-2.75013009540330
31
0.000000000000000
  0
LINE
  5
F10AA3
330
F10AA4
100
AcDbEntity
8
Geo
100
AcDbLine
10
-34.6665221162185
20
8.47986990459670
30
0.000000000000000
11
-34.6665221162185
21
-3.38013009540330
31
0.000000000000000
  0
LINE
  5
F10AA5
330
F10AA6
100
AcDbEntity
8
Geo
100
AcDbLine
10
-34.5965221162185
20
8.54986990459670
30
0.000000000000000
11
-34.5965221162185
21
-3.45013009540330
31
0.000000000000000
  0
LINE
  5
F10AA7
330
F10AA8
100
AcDbEntity
8
Geo
100
AcDbLine
10
-34.5965221162185
20
8.54986990459670
30
0.000000000000000
11
-34.5965221162185
21
-3.45013009540330
31
0.000000000000000
  0
LINE
  5
F10AA9
330
F10AAA
100
AcDbEntity
8
Geo
100
AcDbLine
10
-18.6665221162185
20
8.54986990459670
30
0.000000000000000
11
-18.6665221162185
21
-3.45013009540330
31
0.000000000000000
  0
LINE
  5
F10AAB
330
F10AAC
100
AcDbEntity
8
Geo
100
AcDbLine
10
-18.6665221162185
20
8.54986990459670
30
0.000000000000000
11
-18.6665221162185
21
-3.45013009540330
31
0.000000000000000
  0
LINE
  5
F10AAD
330
F10AAE
100
AcDbEntity
8
Geo
100
AcDbLine
10
37.6334778837815
20
8.54986990459670
30
0.000000000000000
11
37.6334778837815
21
-3.45013009540330
31
0.000000000000000
  0
LINE
  5
F10AAF
330
F10AB0
100
AcDbEntity
8
Geo
100
AcDbLine
10
38.3334778837815
20
7.84986990459670
30
0.000000000000000
11
38.3334778837815
21
-2.75013009540330
31
0.000000000000000
  0
LINE
  5
F10AB1
330
F10AB2
100
AcDbEntity
8
Geo
 6
Dashdot
100
AcDbLine
10
-34.6665221162185
20
2.54986990459670
30
0.000000000000000
11
38.3334778837815
21
2.54986990459670
31
0.000000000000000
  0
LWPOLYLINE
  5
F10AB3
330
F10AB4
100
AcDbEntity
8
Rahmen
100
AcDbPolyline
90
   4
70
   1
43
   0.0
 10
-134.596704249783
 20
99.9002601908066
 10
143.339115351258
 20
99.9002601908066
 10
143.339115351258
 20
-100.082393755421
 10
-134.596704249783
 20
-100.082393755421
  0
TEXT
  5
F10AB5
330
F10AB6
 100
AcDbEntity
8
Text
100
AcDbText
10
-133.503902862099
20
-99.5823937554206
30
0.000000000000000
40
1.00000000000000
1
ISBESketcher - ©ISBE GmbH      lizensiert für: Schmid Werkzeuge
100
AcDbText
  0
LWPOLYLINE
  5
F10AB7
330
F10AB8
100
AcDbEntity
8
Rahmen
100
AcDbPolyline
90
   4
70
   1
43
   0.0
 10
103.451864700781
 20
-97.1682567215958
 10
143.339115351258
 20
-97.1682567215958
 10
143.339115351258
 20
-100.082393755421
 10
103.451864700781
 20
-100.082393755421
  0
TEXT
  5
F10AB9
330
F10ABA
 100
AcDbEntity
8
Text
100
AcDbText
10
104.500000000000
20
-99.4570685169124
30
0.000000000000000
40
1.50000000000000
1
Ers. durch:
100
AcDbText
  0
TEXT
  5
F10ABB
330
F10ABC
 100
AcDbEntity
8
Text
100
AcDbText
10
0.000000000000000
20
0.500000000000000
30
0.000000000000000
40
1.50000000000000
1

100
AcDbText
  0
LWPOLYLINE
  5
F10ABD
330
F10ABE
100
AcDbEntity
8
Rahmen
100
AcDbPolyline
90
   4
70
   1
43
   0.0
 10
63.3824804856895
 20
-97.1682567215958
 10
103.451864700781
 20
-97.1682567215958
 10
103.451864700781
 20
-100.082393755421
 10
63.3824804856895
 20
-100.082393755421
  0
TEXT
  5
F10ABF
330
F10AC0
 100
AcDbEntity
8
Text
100
AcDbText
10
64.5000000000000
20
-99.4570685169124
30
0.000000000000000
40
1.50000000000000
1
Ers. für:
100
AcDbText
  0
TEXT
  5
F10AC1
330
F10AC2
 100
AcDbEntity
8
Text
100
AcDbText
10
0.000000000000000
20
0.500000000000000
30
0.000000000000000
40
1.50000000000000
1

100
AcDbText
  0
LWPOLYLINE
  5
F10AC3
330
F10AC4
100
AcDbEntity
8
Rahmen
100
AcDbPolyline
90
   4
70
   1
43
   0.0
 10
130.043365134432
 20
-94.0719861231570
 10
143.339115351258
 20
-94.0719861231570
 10
143.339115351258
 20
-97.1682567215958
 10
130.043365134432
 20
-97.1682567215958
  0
TEXT
  5
F10AC5
330
F10AC6
 100
AcDbEntity
8
Text
100
AcDbText
10
131.166666666667
20
-96.4570685169124
30
0.000000000000000
40
1.50000000000000
1
Blätter
100
AcDbText
  0
TEXT
  5
F10AC7
330
F10AC8
 100
AcDbEntity
8
Text
100
AcDbText
10
0.000000000000000
20
0.500000000000000
30
0.000000000000000
40
1.50000000000000
1

100
AcDbText
  0
LWPOLYLINE
  5
F10AC9
330
F10ACA
100
AcDbEntity
8
Rahmen
100
AcDbPolyline
90
   4
70
   1
43
   0.0
 10
130.043365134432
 20
-91.1578490893322
 10
143.339115351258
 20
-91.1578490893322
 10
143.339115351258
 20
-94.0719861231570
 10
130.043365134432
 20
-94.0719861231570
  0
TEXT
  5
F10ACB
330
F10ACC
 100
AcDbEntity
8
Text
100
AcDbText
10
131.166666666667
20
-93.4570685169124
30
0.000000000000000
40
1.50000000000000
1
Blatt
100
AcDbText
  0
TEXT
  5
F10ACD
330
F10ACE
 100
AcDbEntity
8
Text
100
AcDbText
10
0.000000000000000
20
0.500000000000000
30
0.000000000000000
40
1.50000000000000
1

100
AcDbText
  0
LWPOLYLINE
  5
F10ACF
330
F10AD0
100
AcDbEntity
8
Rahmen
100
AcDbPolyline
90
   4
70
   1
43
   0.0
 10
63.3824804856895
 20
-91.1578490893322
 10
130.043365134432
 20
-91.1578490893322
 10
130.043365134432
 20
-97.1682567215958
 10
63.3824804856895
 20
-97.1682567215958
  0
TEXT
  5
F10AD1
330
F10AD2
 100
AcDbEntity
8
Text
100
AcDbText
10
64.5000000000000
20
-93.4570685169124
30
0.000000000000000
40
1.50000000000000
1
Datum:
100
AcDbText
  0
TEXT
  5
F10AD3
330
F10AD4
 100
AcDbEntity
8
Text
100
AcDbText
10
90.9139924833767
20
-96.4570685169124
30
0.000000000000000
40
1.50000000000000
1
15.05.2019
100
AcDbText
  0
LWPOLYLINE
  5
F10AD5
330
F10AD6
100
AcDbEntity
8
Rahmen
100
AcDbPolyline
90
   4
70
   1
43
   0.0
 10
63.3824804856895
 20
-85.1474414570685
 10
143.339115351258
 20
-85.1474414570685
 10
143.339115351258
 20
-91.1578490893322
 10
63.3824804856895
 20
-91.1578490893322
  0
TEXT
  5
F10AD7
330
F10AD8
 100
AcDbEntity
8
Text
100
AcDbText
10
0.000000000000000
20
0.500000000000000
30
0.000000000000000
40
1.50000000000000
1

100
AcDbText
  0
TEXT
  5
F10AD9
330
F10ADA
 100
AcDbEntity
8
Text
100
AcDbText
10
74.1764960971379
20
-89.6254697889564
30
0.000000000000000
40
2.50000000000000
1
VHM-Schlichtfräser 0260-12-b
100
AcDbText
  0
LWPOLYLINE
  5
F10ADB
330
F10ADC
100
AcDbEntity
8
Rahmen
100
AcDbPolyline
90
   4
70
   1
43
   0.0
 10
103.451864700781
 20
-79.1370338248049
 10
143.339115351258
 20
-79.1370338248049
 10
143.339115351258
 20
-85.1474414570685
 10
103.451864700781
 20
-85.1474414570685
  0
TEXT
  5
F10ADD
330
F10ADE
 100
AcDbEntity
8
Text
100
AcDbText
10
104.500000000000
20
-81.4570685169124
30
0.000000000000000
40
1.50000000000000
1
Zu bearb. Material:
100
AcDbText
  0
TEXT
  5
F10ADF
330
F10AE0
 100
AcDbEntity
8
Text
100
AcDbText
10
0.000000000000000
20
0.500000000000000
30
0.000000000000000
40
1.50000000000000
1

100
AcDbText
  0
LWPOLYLINE
  5
F10AE1
330
F10AE2
100
AcDbEntity
8
Rahmen
100
AcDbPolyline
90
   4
70
   1
43
   0.0
 10
63.3824804856895
 20
-79.1370338248049
 10
103.451864700781
 20
-79.1370338248049
 10
103.451864700781
 20
-85.1474414570685
 10
63.3824804856895
 20
-85.1474414570685
  0
TEXT
  5
F10AE3
330
F10AE4
 100
AcDbEntity
8
Text
100
AcDbText
10
64.5000000000000
20
-81.4570685169124
30
0.000000000000000
40
1.50000000000000
1
Werkstoff:
100
AcDbText
  0
TEXT
  5
F10AE5
330
F10AE6
 100
AcDbEntity
8
Text
100
AcDbText
10
80.7679965307892
20
-84.4570685169124
30
0.000000000000000
40
1.50000000000000
1
VHM
100
AcDbText
  0
LWPOLYLINE
  5
F10AE7
330
F10AE8
100
AcDbEntity
8
Rahmen
100
AcDbPolyline
90
   4
70
   1
43
   0.0
 10
103.451864700781
 20
-76.0407632263660
 10
143.339115351258
 20
-76.0407632263660
 10
143.339115351258
 20
-79.1370338248049
 10
103.451864700781
 20
-79.1370338248049
  0
TEXT
  5
F10AE9
330
F10AEA
 100
AcDbEntity
8
Text
100
AcDbText
10
0.000000000000000
20
0.500000000000000
30
0.000000000000000
40
1.50000000000000
1

100
AcDbText
  0
TEXT
  5
F10AEB
330
F10AEC
 100
AcDbEntity
8
Text
100
AcDbText
10
0.000000000000000
20
0.500000000000000
30
0.000000000000000
40
1.50000000000000
1

100
AcDbText
  0
LWPOLYLINE
  5
F10AED
330
F10AEE
100
AcDbEntity
8
Rahmen
100
AcDbPolyline
90
   4
70
   1
43
   0.0
 10
63.3824804856895
 20
-76.0407632263660
 10
103.451864700781
 20
-76.0407632263660
 10
103.451864700781
 20
-79.1370338248049
 10
63.3824804856895
 20
-79.1370338248049
  0
TEXT
  5
F10AEF
330
F10AF0
 100
AcDbEntity
8
Text
100
AcDbText
10
64.5000000000000
20
-78.4570685169124
30
0.000000000000000
40
1.50000000000000
1
Maßstab:
100
AcDbText
  0
TEXT
  5
F10AF1
330
F10AF2
 100
AcDbEntity
8
Text
100
AcDbText
10
89.0411968777103
20
-78.4570685169124
30
0.000000000000000
40
1.50000000000000
1
1 : 1
100
AcDbText
0
VIEWPORT
5
294
102
{ACAD_XDICTIONARY
360
58A
102
}
330
25D
100
AcDbEntity
67
1
8
0
60
1
100
AcDbViewport
10
0.0
20
0.0
30
0.0
40
10.0
41
10.0
68
-1
69
1
12
0.0
22
0.0
13
0.0
23
0.0
14
1.0
24
1.0
15
0.0
25
0.0
16
0.0
26
0.0
36
1.0
17
0.0
27
0.0
37
0.0
42
0.0
43
0.0
44
0.0
45
10.0
50
0.0
51
0.0000000000007958
72
100
90
32800
1

281
0
71
0
74
0
110
0.0
120
0.0
130
0.0
111
1.0
121
0.0
131
0.0
112
0.0
122
1.0
132
0.0
79
0
146
0.0
1001
VD_INVISIBLE_NOT_FOR_READ
1000
VD_INVISIBLE_NOT_FOR_READ
0
VIEWPORT
5
295
102
{ACAD_XDICTIONARY
360
58C
102
}
330
25D
100
AcDbEntity
67
1
8
0
60
1
100
AcDbViewport
10
0.0
20
0.0
30
0.0
40
10.0
41
10.0
68
0
69
2
12
0.0
22
0.0
13
0.0
23
0.0
14
1.0
24
1.0
15
0.0
25
0.0
16
0.0
26
0.0
36
1.0
17
0.0
27
0.0
37
0.0
42
0.0
43
0.0
44
0.0
45
10.0
50
0.0
51
0.0000000000007958
72
100
90
163872
1

281
0
71
0
74
0
110
0.0
120
0.0
130
0.0
111
1.0
121
0.0
131
0.0
112
0.0
122
1.0
132
0.0
79
0
146
0.0
1001
VD_INVISIBLE_NOT_FOR_READ
1000
VD_INVISIBLE_NOT_FOR_READ
0
ENDSEC
0
SECTION
2
OBJECTS
0
DICTIONARY
5
13
330
0
100
AcDbDictionary
281
1
3
ACAD_COLOR
350
FA7
3
ACAD_GROUP
350
14
3
ACAD_LAYOUT
350
FCF
3
ACAD_MATERIAL
350
F7A
3
ACAD_MLEADERSTYLE
350
FCD
3
ACAD_MLINESTYLE
350
16
3
ACAD_PLOTSETTINGS
350
17
3
ACAD_PLOTSTYLENAME
350
18
3
ACAD_SCALELIST
350
FAB
3
ACAD_TABLESTYLE
350
FA8
3
ACAD_VISUALSTYLE
350
F93
3
ACDB_RECOMPOSE_DATA
350
107E
3
AcDbVariableDictionary
350
FF0
3
DWGPROPS
350
107F
0
DICTIONARY
5
F10005
330
F10004
100
AcDbDictionary
280
1
281
1
3
ACAD_MTEXT_2008_RT
360
F10006
0
DICTIONARY
5
F10014
330
F10013
100
AcDbDictionary
280
1
281
1
3
ACAD_MTEXT_2008_RT
360
F10015
0
DICTIONARY
5
F10019
330
F10018
100
AcDbDictionary
280
1
281
1
3
ACAD_MTEXT_2008_RT
360
F1001A
0
DICTIONARY
5
F1000A
330
F10009
100
AcDbDictionary
280
1
281
1
3
ACAD_MTEXT_2008_RT
360
F1000B
0
DICTIONARY
5
F1000F
330
F1000E
100
AcDbDictionary
280
1
281
1
3
ACAD_MTEXT_2008_RT
360
F10010
0
DICTIONARY
5
FA7
102
{ACAD_REACTORS
330
13
102
}
330
13
100
AcDbDictionary
281
1
0
DICTIONARY
5
14
330
13
100
AcDbDictionary
281
1
0
DICTIONARY
5
FCF
102
{ACAD_REACTORS
330
13
102
}
330
13
100
AcDbDictionary
281
1
3
Layout1
350
FD1
3
Model
350
FD0
0
DICTIONARY
5
F7A
102
{ACAD_REACTORS
330
13
102
}
330
13
100
AcDbDictionary
281
1
3
ByBlock
350
F83
3
ByLayer
350
F7B
3
Global
350
F8B
0
DICTIONARY
5
FCD
102
{ACAD_REACTORS
330
13
102
}
330
13
100
AcDbDictionary
281
1
3
Standard
350
FCE
0
DICTIONARY
5
16
330
13
100
AcDbDictionary
281
1
3
Standard
350
FAA
0
DICTIONARY
5
17
102
{ACAD_REACTORS
330
13
102
}
330
13
100
AcDbDictionary
281
1
0
ACDBDICTIONARYWDFLT
5
18
102
{ACAD_REACTORS
330
13
102
}
330
13
100
AcDbDictionary
281
1
3
Normal
350
19
100
AcDbDictionaryWithDefault
340
19
0
DICTIONARY
5
FAB
102
{ACAD_REACTORS
330
13
102
}
330
13
100
AcDbDictionary
281
1
3
A0
350
FAC
3
A1
350
FAD
3
A2
350
FAE
3
A3
350
FAF
3
A4
350
FB0
3
A5
350
FB1
3
A6
350
FB2
3
A7
350
FB3
3
A8
350
FB4
3
A9
350
FB5
3
B0
350
FB6
3
B1
350
FB7
3
B2
350
FB8
3
B3
350
FB9
3
B4
350
FBA
3
B5
350
FBB
3
B6
350
FBC
3
B7
350
FBD
3
B8
350
FBE
3
B9
350
FBF
3
C0
350
FC0
3
C1
350
FC1
3
C2
350
FC2
3
C3
350
FC3
3
C4
350
FC4
3
C5
350
FC5
3
C6
350
FC6
3
C7
350
FC7
3
C8
350
FC8
3
C9
350
FC9
3
D0
350
FCA
3
D1
350
FCB
3
D2
350
FCC
0
DICTIONARY
5
FA8
102
{ACAD_REACTORS
330
13
102
}
330
13
100
AcDbDictionary
281
1
3
Standard
350
FA9
0
DICTIONARY
5
F93
102
{ACAD_REACTORS
330
13
102
}
330
13
100
AcDbDictionary
281
1
3
2dWireframe
350
F99
3
3D Hidden
350
F9B
3
3dWireframe
350
F9A
3
Basic
350
F98
3
Brighten
350
F9F
3
ColorChange
350
FA3
3
Conceptual
350
F9C
3
Dim
350
F9E
3
EdgeColorOff
350
FA6
3
Facepattern
350
FA2
3
Flat
350
F94
3
FlatWithEdges
350
F95
3
Gouraud
350
F96
3
GouraudWithEdges
350
F97
3
JitterOff
350
FA4
3
Linepattern
350
FA1
3
OverhangOff
350
FA5
3
Realistic
350
F9D
3
Thicken
350
FA0
0
XRECORD
5
107E
102
{ACAD_REACTORS
330
13
102
}
330
13
100
AcDbXrecord
280
1
90
1
330
FA9
330
F10004
330
F10013
330
F10018
330
F10009
330
F1000E
0
DICTIONARY
5
FF0
102
{ACAD_REACTORS
330
13
102
}
330
13
100
AcDbDictionary
281
1
3
CANNOSCALE
350
FF3
3
CMLEADERSTYLE
350
FF2
3
CTABLESTYLE
350
FF1
3
DIMASSOC
350
FF6
3
INDEXCTL
350
FF5
3
SORTENTS
350
FF4
3
XCLIPFRAME
350
1078
0
XRECORD
5
107F
102
{ACAD_REACTORS
330
13
102
}
330
13
100
AcDbXrecord
280
1
1
DWGPROPS COOKIE
2

3

4

6

7

8

9

300
=
301
=
302
=
303
=
304
=
305
=
306
=
307
=
308
=
309
=
40
0.0
41
0.0
42
0.0
1

90
0
0
XRECORD
5
F10006
102
{ACAD_REACTORS
330
F10005
102
}
330
F10005
100
AcDbXrecord
280
1
40
48458.0
1
0.07 x 45°
0
XRECORD
5
F10015
102
{ACAD_REACTORS
330
F10014
102
}
330
F10014
100
AcDbXrecord
280
1
40
48458.0
1
16
0
XRECORD
5
F1001A
102
{ACAD_REACTORS
330
F10019
102
}
330
F10019
100
AcDbXrecord
280
1
40
48458.0
1
73
0
XRECORD
5
F1000B
102
{ACAD_REACTORS
330
F1000A
102
}
330
F1000A
100
AcDbXrecord
280
1
40
48458.0
1
Ø12
0
LAYOUT
5
FD1
102
{ACAD_XDICTIONARY
360
10A9
102
}
102
{ACAD_REACTORS
330
FCF
102
}
330
FCF
100
AcDbPlotSettings
1

2
Microsoft XPS Document Writer
4

6

40
0.0
41
0.0
42
0.0
43
0.0
44
0.0
45
0.0
46
0.0
47
0.0
48
0.0
49
0.0
140
0.0
141
0.0
142
1.0
143
1.0
70
688
72
0
73
0
74
5
7

75
16
147
1.0
148
0.0
149
0.0
100
AcDbLayout
1
Layout1
70
1
71
1
10
0.0
20
0.0
11
12.0
21
9.0
12
0.0
22
0.0
32
0.0
14
1.000000000000000E+20
24
1.000000000000000E+20
34
1.000000000000000E+20
15
-1.000000000000000E+20
25
-1.000000000000000E+20
35
-1.000000000000000E+20
146
0.0
13
0.0
23
0.0
33
0.0
16
1.0
26
0.0
36
0.0
17
0.0
27
1.0
37
0.0
76
0
330
25D
0
LAYOUT
5
FD0
102
{ACAD_XDICTIONARY
360
10A7
102
}
102
{ACAD_REACTORS
330
FCF
102
}
330
FCF
100
AcDbPlotSettings
1

2
Microsoft XPS Document Writer
4

6

40
0.0
41
0.0
42
0.0
43
0.0
44
0.0
45
0.0
46
0.0
47
0.0
48
0.0
49
0.0
140
0.0
141
0.0
142
1.0
143
1.0
70
1712
72
0
73
0
74
0
7

75
0
147
1.0
148
0.0
149
0.0
100
AcDbLayout
1
Model
70
1
71
0
10
0.0
20
0.0
11
12.0
21
9.0
12
0.0
22
0.0
32
0.0
14
0.0
24
0.0
34
0.0
15
0.0
25
0.0
35
0.0
146
0.0
13
0.0
23
0.0
33
0.0
16
1.0
26
0.0
36
0.0
17
0.0
27
1.0
37
0.0
76
0
330
261
331
26B
0
MATERIAL
5
F83
102
{ACAD_XDICTIONARY
360
F84
102
}
102
{ACAD_REACTORS
330
F7A
102
}
330
F7A
100
AcDbMaterial
1
ByBlock
72
0
43
0.0208333333333333
43
0.0
43
0.0
43
0.0
43
0.0
43
0.0208333333333333
43
0.0
43
0.0
43
0.0
43
0.0
43
1.0
43
0.0
43
0.0
43
0.0
43
0.0
43
1.0
77
0
47
0.0208333333333333
47
0.0
47
0.0
47
0.0
47
0.0
47
0.0208333333333333
47
0.0
47
0.0
47
0.0
47
0.0
47
1.0
47
0.0
47
0.0
47
0.0
47
0.0
47
1.0
171
0
49
0.0208333333333333
49
0.0
49
0.0
49
0.0
49
0.0
49
0.0208333333333333
49
0.0
49
0.0
49
0.0
49
0.0
49
1.0
49
0.0
49
0.0
49
0.0
49
0.0
49
1.0
175
0
142
0.0208333333333333
142
0.0
142
0.0
142
0.0
142
0.0
142
0.0208333333333333
142
0.0
142
0.0
142
0.0
142
0.0
142
1.0
142
0.0
142
0.0
142
0.0
142
0.0
142
1.0
179
0
144
0.0208333333333333
144
0.0
144
0.0
144
0.0
144
0.0
144
0.0208333333333333
144
0.0
144
0.0
144
0.0
144
0.0
144
1.0
144
0.0
144
0.0
144
0.0
144
0.0
144
1.0
147
0.0208333333333333
147
0.0
147
0.0
147
0.0
147
0.0
147
0.0208333333333333
147
0.0
147
0.0
147
0.0
147
0.0
147
1.0
147
0.0
147
0.0
147
0.0
147
0.0
147
1.0
0
MATERIAL
5
F7B
102
{ACAD_XDICTIONARY
360
F7C
102
}
102
{ACAD_REACTORS
330
F7A
102
}
330
F7A
100
AcDbMaterial
1
ByLayer
72
0
43
0.0208333333333333
43
0.0
43
0.0
43
0.0
43
0.0
43
0.0208333333333333
43
0.0
43
0.0
43
0.0
43
0.0
43
1.0
43
0.0
43
0.0
43
0.0
43
0.0
43
1.0
77
0
47
0.0208333333333333
47
0.0
47
0.0
47
0.0
47
0.0
47
0.0208333333333333
47
0.0
47
0.0
47
0.0
47
0.0
47
1.0
47
0.0
47
0.0
47
0.0
47
0.0
47
1.0
171
0
49
0.0208333333333333
49
0.0
49
0.0
49
0.0
49
0.0
49
0.0208333333333333
49
0.0
49
0.0
49
0.0
49
0.0
49
1.0
49
0.0
49
0.0
49
0.0
49
0.0
49
1.0
175
0
142
0.0208333333333333
142
0.0
142
0.0
142
0.0
142
0.0
142
0.0208333333333333
142
0.0
142
0.0
142
0.0
142
0.0
142
1.0
142
0.0
142
0.0
142
0.0
142
0.0
142
1.0
179
0
144
0.0208333333333333
144
0.0
144
0.0
144
0.0
144
0.0
144
0.0208333333333333
144
0.0
144
0.0
144
0.0
144
0.0
144
1.0
144
0.0
144
0.0
144
0.0
144
0.0
144
1.0
147
0.0208333333333333
147
0.0
147
0.0
147
0.0
147
0.0
147
0.0208333333333333
147
0.0
147
0.0
147
0.0
147
0.0
147
1.0
147
0.0
147
0.0
147
0.0
147
0.0
147
1.0
0
MATERIAL
5
F8B
102
{ACAD_XDICTIONARY
360
F8C
102
}
102
{ACAD_REACTORS
330
F7A
102
}
330
F7A
100
AcDbMaterial
1
Global
72
0
43
0.0208333333333333
43
0.0
43
0.0
43
0.0
43
0.0
43
0.0208333333333333
43
0.0
43
0.0
43
0.0
43
0.0
43
1.0
43
0.0
43
0.0
43
0.0
43
0.0
43
1.0
77
0
47
0.0208333333333333
47
0.0
47
0.0
47
0.0
47
0.0
47
0.0208333333333333
47
0.0
47
0.0
47
0.0
47
0.0
47
1.0
47
0.0
47
0.0
47
0.0
47
0.0
47
1.0
171
0
49
0.0208333333333333
49
0.0
49
0.0
49
0.0
49
0.0
49
0.0208333333333333
49
0.0
49
0.0
49
0.0
49
0.0
49
1.0
49
0.0
49
0.0
49
0.0
49
0.0
49
1.0
175
0
142
0.0208333333333333
142
0.0
142
0.0
142
0.0
142
0.0
142
0.0208333333333333
142
0.0
142
0.0
142
0.0
142
0.0
142
1.0
142
0.0
142
0.0
142
0.0
142
0.0
142
1.0
179
0
144
0.0208333333333333
144
0.0
144
0.0
144
0.0
144
0.0
144
0.0208333333333333
144
0.0
144
0.0
144
0.0
144
0.0
144
1.0
144
0.0
144
0.0
144
0.0
144
0.0
144
1.0
147
0.0208333333333333
147
0.0
147
0.0
147
0.0
147
0.0
147
0.0208333333333333
147
0.0
147
0.0
147
0.0
147
0.0
147
1.0
147
0.0
147
0.0
147
0.0
147
0.0
147
1.0
0
MLEADERSTYLE
5
FCE
102
{ACAD_REACTORS
330
FCD
102
}
330
FCD
100
AcDbMLeaderStyle
170
2
171
1
172
0
90
2
40
0.0
41
0.0
173
1
91
-1056964608
340
256
92
-2
290
1
42
0.09
291
1
43
0.36
3
Standard
44
0.18
300

342
253
174
1
178
6
175
1
176
0
93
-1056964608
45
0.18
292
0
297
0
46
0.18
94
-1056964608
47
1.0
49
1.0
140
1.0
293
1
141
0.0
294
1
177
0
142
1.0
295
0
296
0
143
0.125
1001
ACAD_MLEADERVER
1070
2
0
MLINESTYLE
5
FAA
102
{ACAD_REACTORS
330
16
102
}
330
16
100
AcDbMlineStyle
2
STANDARD
70
0
3

62
256
51
90.0
52
90.0
71
2
49
0.5
62
256
6
BYLAYER
49
-0.5
62
256
6
BYLAYER
0
ACDBPLACEHOLDER
5
19
102
{ACAD_REACTORS
330
18
102
}
330
18
0
SCALE
5
FAC
102
{ACAD_REACTORS
330
FAB
102
}
330
FAB
100
AcDbScale
70
0
300
1:1
140
1.0
141
1.0
290
1
0
SCALE
5
FAD
102
{ACAD_REACTORS
330
FAB
102
}
330
FAB
100
AcDbScale
70
0
300
1:2
140
1.0
141
2.0
290
0
0
SCALE
5
FAE
102
{ACAD_REACTORS
330
FAB
102
}
330
FAB
100
AcDbScale
70
0
300
1:4
140
1.0
141
4.0
290
0
0
SCALE
5
FAF
102
{ACAD_REACTORS
330
FAB
102
}
330
FAB
100
AcDbScale
70
0
300
1:5
140
1.0
141
5.0
290
0
0
SCALE
5
FB0
102
{ACAD_REACTORS
330
FAB
102
}
330
FAB
100
AcDbScale
70
0
300
1:8
140
1.0
141
8.0
290
0
0
SCALE
5
FB1
102
{ACAD_REACTORS
330
FAB
102
}
330
FAB
100
AcDbScale
70
0
300
1:10
140
1.0
141
10.0
290
0
0
SCALE
5
FB2
102
{ACAD_REACTORS
330
FAB
102
}
330
FAB
100
AcDbScale
70
0
300
1:16
140
1.0
141
16.0
290
0
0
SCALE
5
FB3
102
{ACAD_REACTORS
330
FAB
102
}
330
FAB
100
AcDbScale
70
0
300
1:20
140
1.0
141
20.0
290
0
0
SCALE
5
FB4
102
{ACAD_REACTORS
330
FAB
102
}
330
FAB
100
AcDbScale
70
0
300
1:30
140
1.0
141
30.0
290
0
0
SCALE
5
FB5
102
{ACAD_REACTORS
330
FAB
102
}
330
FAB
100
AcDbScale
70
0
300
1:40
140
1.0
141
40.0
290
0
0
SCALE
5
FB6
102
{ACAD_REACTORS
330
FAB
102
}
330
FAB
100
AcDbScale
70
0
300
1:50
140
1.0
141
50.0
290
0
0
SCALE
5
FB7
102
{ACAD_REACTORS
330
FAB
102
}
330
FAB
100
AcDbScale
70
0
300
1:100
140
1.0
141
100.0
290
0
0
SCALE
5
FB8
102
{ACAD_REACTORS
330
FAB
102
}
330
FAB
100
AcDbScale
70
0
300
2:1
140
2.0
141
1.0
290
0
0
SCALE
5
FB9
102
{ACAD_REACTORS
330
FAB
102
}
330
FAB
100
AcDbScale
70
0
300
4:1
140
4.0
141
1.0
290
0
0
SCALE
5
FBA
102
{ACAD_REACTORS
330
FAB
102
}
330
FAB
100
AcDbScale
70
0
300
8:1
140
8.0
141
1.0
290
0
0
SCALE
5
FBB
102
{ACAD_REACTORS
330
FAB
102
}
330
FAB
100
AcDbScale
70
0
300
10:1
140
10.0
141
1.0
290
0
0
SCALE
5
FBC
102
{ACAD_REACTORS
330
FAB
102
}
330
FAB
100
AcDbScale
70
0
300
100:1
140
100.0
141
1.0
290
0
0
SCALE
5
FBD
102
{ACAD_REACTORS
330
FAB
102
}
330
FAB
100
AcDbScale
70
0
300
1/128" = 1'-0"
140
0.0078125
141
12.0
290
0
0
SCALE
5
FBE
102
{ACAD_REACTORS
330
FAB
102
}
330
FAB
100
AcDbScale
70
0
300
1/64" = 1'-0"
140
0.015625
141
12.0
290
0
0
SCALE
5
FBF
102
{ACAD_REACTORS
330
FAB
102
}
330
FAB
100
AcDbScale
70
0
300
1/32" = 1'-0"
140
0.03125
141
12.0
290
0
0
SCALE
5
FC0
102
{ACAD_REACTORS
330
FAB
102
}
330
FAB
100
AcDbScale
70
0
300
1/16" = 1'-0"
140
0.0625
141
12.0
290
0
0
SCALE
5
FC1
102
{ACAD_REACTORS
330
FAB
102
}
330
FAB
100
AcDbScale
70
0
300
3/32" = 1'-0"
140
0.09375
141
12.0
290
0
0
SCALE
5
FC2
102
{ACAD_REACTORS
330
FAB
102
}
330
FAB
100
AcDbScale
70
0
300
1/8" = 1'-0"
140
0.125
141
12.0
290
0
0
SCALE
5
FC3
102
{ACAD_REACTORS
330
FAB
102
}
330
FAB
100
AcDbScale
70
0
300
3/16" = 1'-0"
140
0.1875
141
12.0
290
0
0
SCALE
5
FC4
102
{ACAD_REACTORS
330
FAB
102
}
330
FAB
100
AcDbScale
70
0
300
1/4" = 1'-0"
140
0.25
141
12.0
290
0
0
SCALE
5
FC5
102
{ACAD_REACTORS
330
FAB
102
}
330
FAB
100
AcDbScale
70
0
300
3/8" = 1'-0"
140
0.375
141
12.0
290
0
0
SCALE
5
FC6
102
{ACAD_REACTORS
330
FAB
102
}
330
FAB
100
AcDbScale
70
0
300
1/2" = 1'-0"
140
0.5
141
12.0
290
0
0
SCALE
5
FC7
102
{ACAD_REACTORS
330
FAB
102
}
330
FAB
100
AcDbScale
70
0
300
3/4" = 1'-0"
140
0.75
141
12.0
290
0
0
SCALE
5
FC8
102
{ACAD_REACTORS
330
FAB
102
}
330
FAB
100
AcDbScale
70
0
300
1" = 1'-0"
140
1.0
141
12.0
290
0
0
SCALE
5
FC9
102
{ACAD_REACTORS
330
FAB
102
}
330
FAB
100
AcDbScale
70
0
300
1-1/2" = 1'-0"
140
1.5
141
12.0
290
0
0
SCALE
5
FCA
102
{ACAD_REACTORS
330
FAB
102
}
330
FAB
100
AcDbScale
70
0
300
3" = 1'-0"
140
3.0
141
12.0
290
0
0
SCALE
5
FCB
102
{ACAD_REACTORS
330
FAB
102
}
330
FAB
100
AcDbScale
70
0
300
6" = 1'-0"
140
6.0
141
12.0
290
0
0
SCALE
5
FCC
102
{ACAD_REACTORS
330
FAB
102
}
330
FAB
100
AcDbScale
70
0
300
1'-0" = 1'-0"
140
12.0
141
12.0
290
0
0
TABLESTYLE
5
FA9
102
{ACAD_XDICTIONARY
360
FF8
102
}
102
{ACAD_REACTORS
330
FA8
102
}
330
FA8
100
AcDbTableStyle
3
Standard
70
0
71
0
40
0.06
41
0.06
280
0
281
0
7
Standard
140
0.18
170
2
62
0
63
7
283
0
274
-2
284
1
64
0
275
-2
285
1
65
0
276
-2
286
1
66
0
277
-2
287
1
67
0
278
-2
288
1
68
0
279
-2
289
1
69
0
7
Standard
140
0.25
170
5
62
0
63
7
283
0
274
-2
284
1
64
0
275
-2
285
1
65
0
276
-2
286
1
66
0
277
-2
287
1
67
0
278
-2
288
1
68
0
279
-2
289
1
69
0
7
Standard
140
0.18
170
5
62
0
63
7
283
0
274
-2
284
1
64
0
275
-2
285
1
65
0
276
-2
286
1
66
0
277
-2
287
1
67
0
278
-2
288
1
68
0
279
-2
289
1
69
0
0
VISUALSTYLE
5
F99
102
{ACAD_XDICTIONARY
360
108A
102
}
102
{ACAD_REACTORS
330
F93
102
}
330
F93
100
AcDbVisualStyle
2

70
4
71
0
72
2
73
0
90
0
40
-0.6
41
-30.0
62
5
63
7
74
1
91
4
64
7
65
257
75
1
175
1
42
1.0
92
0
66
257
43
1.0
76
1
77
6
78
2
67
7
79
5
170
0
171
0
290
0
174
0
93
1
44
0.0
173
0
291
0
45
0.0
1001
ACAD
1000
AcDbSavedByObjectVersion
1070
0
0
VISUALSTYLE
5
F9B
102
{ACAD_XDICTIONARY
360
108E
102
}
102
{ACAD_REACTORS
330
F93
102
}
330
F93
100
AcDbVisualStyle
2

70
6
71
1
72
2
73
2
90
0
40
-0.6
41
-30.0
62
5
63
7
74
2
91
2
64
7
65
257
75
2
175
1
42
179.0
92
0
66
257
43
1.0
76
1
77
6
78
2
67
7
79
3
170
0
171
0
290
0
174
0
93
1
44
0.0
173
0
291
0
45
0.0
1001
ACAD
1000
AcDbSavedByObjectVersion
1070
0
0
VISUALSTYLE
5
F9A
102
{ACAD_XDICTIONARY
360
108C
102
}
102
{ACAD_REACTORS
330
F93
102
}
330
F93
100
AcDbVisualStyle
2

70
5
71
0
72
2
73
0
90
0
40
-0.6
41
-30.0
62
5
63
7
74
1
91
4
64
7
65
257
75
1
175
1
42
1.0
92
0
66
257
43
1.0
76
1
77
6
78
2
67
7
79
5
170
0
171
0
290
0
174
0
93
1
44
0.0
173
0
291
0
45
0.0
1001
ACAD
1000
AcDbSavedByObjectVersion
1070
0
0
VISUALSTYLE
5
F98
102
{ACAD_XDICTIONARY
360
1088
102
}
102
{ACAD_REACTORS
330
F93
102
}
330
F93
100
AcDbVisualStyle
2

70
7
71
1
72
0
73
1
90
0
40
-0.6
41
-30.0
62
5
63
7
74
0
91
4
64
7
65
257
75
1
175
1
42
1.0
92
8
66
7
43
1.0
76
1
77
6
78
2
67
7
79
5
170
0
171
0
290
0
174
0
93
1
44
0.0
173
0
291
1
45
0.0
1001
ACAD
1000
AcDbSavedByObjectVersion
1070
0
0
VISUALSTYLE
5
F9F
102
{ACAD_XDICTIONARY
360
1096
102
}
102
{ACAD_REACTORS
330
F93
102
}
330
F93
100
AcDbVisualStyle
2

70
12
71
2
72
2
73
0
90
0
40
-0.6
41
-30.0
62
5
63
7
74
1
91
4
64
7
65
257
75
1
175
1
42
1.0
92
8
66
7
43
1.0
76
1
77
6
78
2
67
7
79
5
170
0
171
0
290
0
174
0
93
1
44
50.0
173
0
291
1
45
0.0
1001
ACAD
1000
AcDbSavedByObjectVersion
1070
0
0
VISUALSTYLE
5
FA3
102
{ACAD_XDICTIONARY
360
109E
102
}
102
{ACAD_REACTORS
330
F93
102
}
330
F93
100
AcDbVisualStyle
2

70
16
71
2
72
2
73
3
90
0
40
-0.6
41
-30.0
62
5
63
8
74
1
91
4
64
7
65
257
75
1
175
1
42
1.0
92
8
66
8
43
1.0
76
1
77
6
78
2
67
7
79
5
170
0
171
0
290
0
174
0
93
1
44
0.0
173
0
291
1
45
0.0
1001
ACAD
1000
AcDbSavedByObjectVersion
1070
0
0
VISUALSTYLE
5
F9C
102
{ACAD_XDICTIONARY
360
1090
102
}
102
{ACAD_REACTORS
330
F93
102
}
330
F93
100
AcDbVisualStyle
2

70
9
71
3
72
2
73
0
90
0
40
-0.6
41
-30.0
62
5
63
7
74
2
91
2
64
7
65
257
75
1
175
1
42
179.0
92
8
66
7
43
1.0
76
1
77
6
78
2
67
7
79
3
170
0
171
0
290
0
174
0
93
1
44
0.0
173
0
291
0
45
0.0
1001
ACAD
1000
AcDbSavedByObjectVersion
1070
0
0
VISUALSTYLE
5
F9E
102
{ACAD_XDICTIONARY
360
1094
102
}
102
{ACAD_REACTORS
330
F93
102
}
330
F93
100
AcDbVisualStyle
2

70
11
71
2
72
2
73
0
90
0
40
-0.6
41
-30.0
62
5
63
7
74
1
91
4
64
7
65
257
75
1
175
1
42
1.0
92
8
66
7
43
1.0
76
1
77
6
78
2
67
7
79
5
170
0
171
0
290
0
174
0
93
1
44
-50.0
173
0
291
1
45
0.0
1001
ACAD
1000
AcDbSavedByObjectVersion
1070
0
0
VISUALSTYLE
5
FA6
102
{ACAD_XDICTIONARY
360
10A4
102
}
102
{ACAD_REACTORS
330
F93
102
}
330
F93
100
AcDbVisualStyle
2

70
22
71
2
72
2
73
0
90
0
40
-0.6
41
-30.0
62
5
63
7
74
1
91
4
64
7
65
257
75
1
175
1
42
1.0
92
8
66
7
43
1.0
76
1
77
6
78
2
67
7
79
5
170
0
171
0
290
0
174
0
93
1
44
0.0
173
0
291
1
45
0.0
1001
ACAD
1000
AcDbSavedByObjectVersion
1070
0
0
VISUALSTYLE
5
FA2
102
{ACAD_XDICTIONARY
360
109C
102
}
102
{ACAD_REACTORS
330
F93
102
}
330
F93
100
AcDbVisualStyle
2

70
15
71
2
72
2
73
0
90
0
40
-0.6
41
-30.0
62
5
63
7
74
1
91
4
64
7
65
257
75
1
175
1
42
1.0
92
8
66
7
43
1.0
76
1
77
6
78
2
67
7
79
5
170
0
171
0
290
0
174
0
93
1
44
0.0
173
0
291
1
45
0.0
1001
ACAD
1000
AcDbSavedByObjectVersion
1070
0
0
VISUALSTYLE
5
F94
102
{ACAD_XDICTIONARY
360
1080
102
}
102
{ACAD_REACTORS
330
F93
102
}
330
F93
100
AcDbVisualStyle
2

70
0
71
2
72
1
73
1
90
2
40
-0.6
41
30.0
62
5
63
7
74
0
91
4
64
7
65
257
75
1
175
1
42
1.0
92
8
66
7
43
1.0
76
1
77
6
78
2
67
7
79
5
170
0
171
0
290
0
174
0
93
13
44
0.0
173
0
291
1
45
0.0
1001
ACAD
1000
AcDbSavedByObjectVersion
1070
0
0
VISUALSTYLE
5
F95
102
{ACAD_XDICTIONARY
360
1082
102
}
102
{ACAD_REACTORS
330
F93
102
}
330
F93
100
AcDbVisualStyle
2

70
1
71
2
72
1
73
1
90
2
40
-0.6
41
30.0
62
5
63
7
74
1
91
4
64
7
65
257
75
1
175
1
42
1.0
92
0
66
257
43
1.0
76
1
77
6
78
2
67
7
79
5
170
0
171
0
290
0
174
0
93
13
44
0.0
173
0
291
1
45
0.0
1001
ACAD
1000
AcDbSavedByObjectVersion
1070
0
0
VISUALSTYLE
5
F96
102
{ACAD_XDICTIONARY
360
1084
102
}
102
{ACAD_REACTORS
330
F93
102
}
330
F93
100
AcDbVisualStyle
2

70
2
71
2
72
2
73
1
90
2
40
-0.6
41
30.0
62
5
63
7
74
0
91
4
64
7
65
257
75
1
175
1
42
1.0
92
0
66
7
43
1.0
76
1
77
6
78
2
67
7
79
5
170
0
171
0
290
0
174
0
93
13
44
0.0
173
0
291
1
45
0.0
1001
ACAD
1000
AcDbSavedByObjectVersion
1070
0
0
VISUALSTYLE
5
F97
102
{ACAD_XDICTIONARY
360
1086
102
}
102
{ACAD_REACTORS
330
F93
102
}
330
F93
100
AcDbVisualStyle
2

70
3
71
2
72
2
73
1
90
2
40
-0.6
41
30.0
62
5
63
7
74
1
91
4
64
7
65
257
75
1
175
1
42
1.0
92
0
66
257
43
1.0
76
1
77
6
78
2
67
7
79
5
170
0
171
0
290
0
174
0
93
13
44
0.0
173
0
291
1
45
0.0
1001
ACAD
1000
AcDbSavedByObjectVersion
1070
0
0
VISUALSTYLE
5
FA4
102
{ACAD_XDICTIONARY
360
10A0
102
}
102
{ACAD_REACTORS
330
F93
102
}
330
F93
100
AcDbVisualStyle
2

70
20
71
2
72
2
73
0
90
0
40
-0.6
41
-30.0
62
5
63
7
74
1
91
4
64
7
65
257
75
1
175
1
42
1.0
92
10
66
7
43
1.0
76
1
77
6
78
2
67
7
79
5
170
0
171
0
290
0
174
0
93
1
44
0.0
173
0
291
1
45
0.0
1001
ACAD
1000
AcDbSavedByObjectVersion
1070
0
0
VISUALSTYLE
5
FA1
102
{ACAD_XDICTIONARY
360
109A
102
}
102
{ACAD_REACTORS
330
F93
102
}
330
F93
100
AcDbVisualStyle
2

70
14
71
2
72
2
73
0
90
0
40
-0.6
41
-30.0
62
5
63
7
74
1
91
4
64
7
65
257
75
7
175
7
42
1.0
92
8
66
7
43
1.0
76
1
77
6
78
2
67
7
79
5
170
0
171
0
290
0
174
0
93
1
44
0.0
173
0
291
1
45
0.0
1001
ACAD
1000
AcDbSavedByObjectVersion
1070
0
0
VISUALSTYLE
5
FA5
102
{ACAD_XDICTIONARY
360
10A2
102
}
102
{ACAD_REACTORS
330
F93
102
}
330
F93
100
AcDbVisualStyle
2

70
21
71
2
72
2
73
0
90
0
40
-0.6
41
-30.0
62
5
63
7
74
1
91
4
64
7
65
257
75
1
175
1
42
1.0
92
9
66
7
43
1.0
76
1
77
6
78
2
67
7
79
5
170
0
171
0
290
0
174
0
93
1
44
0.0
173
0
291
1
45
0.0
1001
ACAD
1000
AcDbSavedByObjectVersion
1070
0
0
VISUALSTYLE
5
F9D
102
{ACAD_XDICTIONARY
360
1092
102
}
102
{ACAD_REACTORS
330
F93
102
}
330
F93
100
AcDbVisualStyle
2

70
8
71
2
72
2
73
0
90
0
40
-0.6
41
-30.0
62
5
63
7
74
1
91
0
64
7
65
257
75
1
175
1
42
1.0
92
8
66
8
43
1.0
76
1
77
6
78
2
67
7
79
5
170
0
171
0
290
0
174
0
93
13
44
0.0
173
0
291
0
45
0.0
1001
ACAD
1000
AcDbSavedByObjectVersion
1070
0
0
VISUALSTYLE
5
FA0
102
{ACAD_XDICTIONARY
360
1098
102
}
102
{ACAD_REACTORS
330
F93
102
}
330
F93
100
AcDbVisualStyle
2

70
13
71
2
72
2
73
0
90
0
40
-0.6
41
-30.0
62
5
63
7
74
1
91
4
64
7
65
257
75
1
175
1
42
1.0
92
12
66
7
43
1.0
76
1
77
6
78
2
67
7
79
5
170
0
171
0
290
0
174
0
93
1
44
0.0
173
0
291
1
45
0.0
1001
ACAD
1000
AcDbSavedByObjectVersion
1070
0
0
DICTIONARYVAR
5
FF3
102
{ACAD_REACTORS
330
FF0
102
}
330
FF0
100
DictionaryVariables
280
0
1
1:1
0
DICTIONARYVAR
5
FF2
102
{ACAD_REACTORS
330
FF0
102
}
330
FF0
100
DictionaryVariables
280
0
1
STANDARD
0
DICTIONARYVAR
5
FF1
102
{ACAD_REACTORS
330
FF0
102
}
330
FF0
100
DictionaryVariables
280
0
1
STANDARD
0
DICTIONARYVAR
5
FF6
102
{ACAD_REACTORS
330
FF0
102
}
330
FF0
100
DictionaryVariables
280
0
1
1
0
DICTIONARYVAR
5
FF5
102
{ACAD_REACTORS
330
FF0
102
}
330
FF0
100
DictionaryVariables
280
0
1
0
0
DICTIONARYVAR
5
FF4
102
{ACAD_REACTORS
330
FF0
102
}
330
FF0
100
DictionaryVariables
280
0
1
127
0
DICTIONARYVAR
5
1078
102
{ACAD_REACTORS
330
FF0
102
}
330
FF0
100
DictionaryVariables
280
0
1
2
0
DICTIONARY
5
10A9
330
FD1
100
AcDbDictionary
280
1
281
1
3
ACAD_XREC_ROUNDTRIP
360
10AA
0
DICTIONARY
5
10A7
330
FD0
100
AcDbDictionary
280
1
281
1
3
ACAD_XREC_ROUNDTRIP
360
10A8
0
DICTIONARY
5
F84
330
F83
100
AcDbDictionary
280
1
281
1
3
ACAD_XREC_ROUNDTRIP
360
FFF
3
BUMPTILE
360
F86
3
DIFFUSETILE
360
F85
3
OPACITYTILE
360
F89
3
REFLECTIONTILE
360
F88
3
REFRACTIONTILE
360
F8A
3
SPECULARTILE
360
F87
0
DICTIONARY
5
F7C
330
F7B
100
AcDbDictionary
280
1
281
1
3
ACAD_XREC_ROUNDTRIP
360
FFE
3
BUMPTILE
360
F7E
3
DIFFUSETILE
360
F7D
3
OPACITYTILE
360
F81
3
REFLECTIONTILE
360
F80
3
REFRACTIONTILE
360
F82
3
SPECULARTILE
360
F7F
0
DICTIONARY
5
F8C
330
F8B
100
AcDbDictionary
280
1
281
1
3
ACAD_XREC_ROUNDTRIP
360
1000
3
BUMPTILE
360
F8E
3
DIFFUSETILE
360
F8D
3
OPACITYTILE
360
F91
3
REFLECTIONTILE
360
F90
3
REFRACTIONTILE
360
F92
3
SPECULARTILE
360
F8F
0
DICTIONARY
5
FF8
330
FA9
100
AcDbDictionary
280
1
281
1
3
ACAD_ROUNDTRIP_2008_TABLESTYLE_CELLSTYLEMAP
360
1079
3
ACAD_XREC_ROUNDTRIP
360
10A6
0
DICTIONARY
5
108A
330
F99
100
AcDbDictionary
280
1
281
1
3
ACAD_XREC_ROUNDTRIP
360
108B
0
DICTIONARY
5
108E
330
F9B
100
AcDbDictionary
280
1
281
1
3
ACAD_XREC_ROUNDTRIP
360
108F
0
DICTIONARY
5
108C
330
F9A
100
AcDbDictionary
280
1
281
1
3
ACAD_XREC_ROUNDTRIP
360
108D
0
DICTIONARY
5
1088
330
F98
100
AcDbDictionary
280
1
281
1
3
ACAD_XREC_ROUNDTRIP
360
1089
0
DICTIONARY
5
1096
330
F9F
100
AcDbDictionary
280
1
281
1
3
ACAD_XREC_ROUNDTRIP
360
1097
0
DICTIONARY
5
109E
330
FA3
100
AcDbDictionary
280
1
281
1
3
ACAD_XREC_ROUNDTRIP
360
109F
0
DICTIONARY
5
1090
330
F9C
100
AcDbDictionary
280
1
281
1
3
ACAD_XREC_ROUNDTRIP
360
1091
0
DICTIONARY
5
1094
330
F9E
100
AcDbDictionary
280
1
281
1
3
ACAD_XREC_ROUNDTRIP
360
1095
0
DICTIONARY
5
10A4
330
FA6
100
AcDbDictionary
280
1
281
1
3
ACAD_XREC_ROUNDTRIP
360
10A5
0
DICTIONARY
5
109C
330
FA2
100
AcDbDictionary
280
1
281
1
3
ACAD_XREC_ROUNDTRIP
360
109D
0
DICTIONARY
5
1080
330
F94
100
AcDbDictionary
280
1
281
1
3
ACAD_XREC_ROUNDTRIP
360
1081
0
DICTIONARY
5
1082
330
F95
100
AcDbDictionary
280
1
281
1
3
ACAD_XREC_ROUNDTRIP
360
1083
0
DICTIONARY
5
1084
330
F96
100
AcDbDictionary
280
1
281
1
3
ACAD_XREC_ROUNDTRIP
360
1085
0
DICTIONARY
5
1086
330
F97
100
AcDbDictionary
280
1
281
1
3
ACAD_XREC_ROUNDTRIP
360
1087
0
DICTIONARY
5
10A0
330
FA4
100
AcDbDictionary
280
1
281
1
3
ACAD_XREC_ROUNDTRIP
360
10A1
0
DICTIONARY
5
109A
330
FA1
100
AcDbDictionary
280
1
281
1
3
ACAD_XREC_ROUNDTRIP
360
109B
0
DICTIONARY
5
10A2
330
FA5
100
AcDbDictionary
280
1
281
1
3
ACAD_XREC_ROUNDTRIP
360
10A3
0
DICTIONARY
5
1092
330
F9D
100
AcDbDictionary
280
1
281
1
3
ACAD_XREC_ROUNDTRIP
360
1093
0
DICTIONARY
5
1098
330
FA0
100
AcDbDictionary
280
1
281
1
3
ACAD_XREC_ROUNDTRIP
360
1099
0
XRECORD
5
10AA
102
{ACAD_REACTORS
330
10A9
102
}
330
10A9
100
AcDbXrecord
280
1
102
SHADEPLOT
70
0
102
SHADEPLOTRESLEVEL
70
2
102
SHADEPLOTCUSTOMDPI
70
300
0
XRECORD
5
10A8
102
{ACAD_REACTORS
330
10A7
102
}
330
10A7
100
AcDbXrecord
280
1
102
SHADEPLOT
70
0
102
SHADEPLOTRESLEVEL
70
2
102
SHADEPLOTCUSTOMDPI
70
300
0
XRECORD
5
FFF
102
{ACAD_REACTORS
330
F84
102
}
330
F84
100
AcDbXrecord
280
1
102
MATERIAL
148
0.0
149
0.0
149
0.0
93
0
94
127
282
0
72
0
77
0
171
0
175
0
179
0
273
0
0
XRECORD
5
F86
102
{ACAD_REACTORS
330
F84
102
}
330
F84
100
AcDbXrecord
280
1
270
1
271
1
0
XRECORD
5
F85
102
{ACAD_REACTORS
330
F84
102
}
330
F84
100
AcDbXrecord
280
1
270
1
271
1
0
XRECORD
5
F89
102
{ACAD_REACTORS
330
F84
102
}
330
F84
100
AcDbXrecord
280
1
270
1
271
1
0
XRECORD
5
F88
102
{ACAD_REACTORS
330
F84
102
}
330
F84
100
AcDbXrecord
280
1
270
1
271
1
0
XRECORD
5
F8A
102
{ACAD_REACTORS
330
F84
102
}
330
F84
100
AcDbXrecord
280
1
270
1
271
1
0
XRECORD
5
F87
102
{ACAD_REACTORS
330
F84
102
}
330
F84
100
AcDbXrecord
280
1
270
1
271
1
0
XRECORD
5
FFE
102
{ACAD_REACTORS
330
F7C
102
}
330
F7C
100
AcDbXrecord
280
1
102
MATERIAL
148
0.0
149
0.0
149
0.0
93
0
94
127
282
0
72
0
77
0
171
0
175
0
179
0
273
0
0
XRECORD
5
F7E
102
{ACAD_REACTORS
330
F7C
102
}
330
F7C
100
AcDbXrecord
280
1
270
1
271
1
0
XRECORD
5
F7D
102
{ACAD_REACTORS
330
F7C
102
}
330
F7C
100
AcDbXrecord
280
1
270
1
271
1
0
XRECORD
5
F81
102
{ACAD_REACTORS
330
F7C
102
}
330
F7C
100
AcDbXrecord
280
1
270
1
271
1
0
XRECORD
5
F80
102
{ACAD_REACTORS
330
F7C
102
}
330
F7C
100
AcDbXrecord
280
1
270
1
271
1
0
XRECORD
5
F82
102
{ACAD_REACTORS
330
F7C
102
}
330
F7C
100
AcDbXrecord
280
1
270
1
271
1
0
XRECORD
5
F7F
102
{ACAD_REACTORS
330
F7C
102
}
330
F7C
100
AcDbXrecord
280
1
270
1
271
1
0
XRECORD
5
1000
102
{ACAD_REACTORS
330
F8C
102
}
330
F8C
100
AcDbXrecord
280
1
102
MATERIAL
148
0.0
149
0.0
149
0.0
93
0
94
127
282
0
72
0
77
0
171
0
175
0
179
0
273
0
0
XRECORD
5
F8E
102
{ACAD_REACTORS
330
F8C
102
}
330
F8C
100
AcDbXrecord
280
1
270
1
271
1
0
XRECORD
5
F8D
102
{ACAD_REACTORS
330
F8C
102
}
330
F8C
100
AcDbXrecord
280
1
270
1
271
1
0
XRECORD
5
F91
102
{ACAD_REACTORS
330
F8C
102
}
330
F8C
100
AcDbXrecord
280
1
270
1
271
1
0
XRECORD
5
F90
102
{ACAD_REACTORS
330
F8C
102
}
330
F8C
100
AcDbXrecord
280
1
270
1
271
1
0
XRECORD
5
F92
102
{ACAD_REACTORS
330
F8C
102
}
330
F8C
100
AcDbXrecord
280
1
270
1
271
1
0
XRECORD
5
F8F
102
{ACAD_REACTORS
330
F8C
102
}
330
F8C
100
AcDbXrecord
280
1
270
1
271
1
0
CELLSTYLEMAP
5
1079
102
{ACAD_REACTORS
330
FF8
102
}
330
FF8
100
AcDbCellStyleMap
90
3
300
CELLSTYLE
1
TABLEFORMAT_BEGIN
90
5
170
1
91
0
92
32768
62
257
93
1
300
CONTENTFORMAT
1
CONTENTFORMAT_BEGIN
90
0
91
0
92
512
93
0
300

40
0.0
140
1.0
94
5
62
0
340
253
144
0.25
309
CONTENTFORMAT_END
171
1
301
MARGIN
1
CELLMARGIN_BEGIN
40
0.06
40
0.06
40
0.06
40
0.06
40
0.18
40
0.18
309
CELLMARGIN_END
94
6
95
1
302
GRIDFORMAT
1
GRIDFORMAT_BEGIN
90
0
91
1
62
0
92
-2
340
0
93
0
40
0.045
309
GRIDFORMAT_END
95
2
302
GRIDFORMAT
1
GRIDFORMAT_BEGIN
90
0
91
1
62
0
92
-2
340
0
93
0
40
0.045
309
GRIDFORMAT_END
95
4
302
GRIDFORMAT
1
GRIDFORMAT_BEGIN
90
0
91
1
62
0
92
-2
340
0
93
0
40
0.045
309
GRIDFORMAT_END
95
8
302
GRIDFORMAT
1
GRIDFORMAT_BEGIN
90
0
91
1
62
0
92
-2
340
0
93
0
40
0.045
309
GRIDFORMAT_END
95
16
302
GRIDFORMAT
1
GRIDFORMAT_BEGIN
90
0
91
1
62
0
92
-2
340
0
93
0
40
0.045
309
GRIDFORMAT_END
95
32
302
GRIDFORMAT
1
GRIDFORMAT_BEGIN
90
0
91
1
62
0
92
-2
340
0
93
0
40
0.045
309
GRIDFORMAT_END
309
TABLEFORMAT_END
1
CELLSTYLE_BEGIN
90
1
91
1
300
_TITLE
309
CELLSTYLE_END
300
CELLSTYLE
1
TABLEFORMAT_BEGIN
90
5
170
1
91
0
92
0
62
257
93
1
300
CONTENTFORMAT
1
CONTENTFORMAT_BEGIN
90
0
91
0
92
512
93
0
300

40
0.0
140
1.0
94
5
62
0
340
253
144
0.18
309
CONTENTFORMAT_END
171
1
301
MARGIN
1
CELLMARGIN_BEGIN
40
0.06
40
0.06
40
0.06
40
0.06
40
0.18
40
0.18
309
CELLMARGIN_END
94
6
95
1
302
GRIDFORMAT
1
GRIDFORMAT_BEGIN
90
0
91
1
62
0
92
-2
340
0
93
0
40
0.045
309
GRIDFORMAT_END
95
2
302
GRIDFORMAT
1
GRIDFORMAT_BEGIN
90
0
91
1
62
0
92
-2
340
0
93
0
40
0.045
309
GRIDFORMAT_END
95
4
302
GRIDFORMAT
1
GRIDFORMAT_BEGIN
90
0
91
1
62
0
92
-2
340
0
93
0
40
0.045
309
GRIDFORMAT_END
95
8
302
GRIDFORMAT
1
GRIDFORMAT_BEGIN
90
0
91
1
62
0
92
-2
340
0
93
0
40
0.045
309
GRIDFORMAT_END
95
16
302
GRIDFORMAT
1
GRIDFORMAT_BEGIN
90
0
91
1
62
0
92
-2
340
0
93
0
40
0.045
309
GRIDFORMAT_END
95
32
302
GRIDFORMAT
1
GRIDFORMAT_BEGIN
90
0
91
1
62
0
92
-2
340
0
93
0
40
0.045
309
GRIDFORMAT_END
309
TABLEFORMAT_END
1
CELLSTYLE_BEGIN
90
2
91
1
300
_HEADER
309
CELLSTYLE_END
300
CELLSTYLE
1
TABLEFORMAT_BEGIN
90
5
170
1
91
0
92
0
62
257
93
1
300
CONTENTFORMAT
1
CONTENTFORMAT_BEGIN
90
0
91
0
92
512
93
0
300

40
0.0
140
1.0
94
2
62
0
340
253
144
0.18
309
CONTENTFORMAT_END
171
1
301
MARGIN
1
CELLMARGIN_BEGIN
40
0.06
40
0.06
40
0.06
40
0.06
40
0.18
40
0.18
309
CELLMARGIN_END
94
6
95
1
302
GRIDFORMAT
1
GRIDFORMAT_BEGIN
90
0
91
1
62
0
92
-2
340
0
93
0
40
0.045
309
GRIDFORMAT_END
95
2
302
GRIDFORMAT
1
GRIDFORMAT_BEGIN
90
0
91
1
62
0
92
-2
340
0
93
0
40
0.045
309
GRIDFORMAT_END
95
4
302
GRIDFORMAT
1
GRIDFORMAT_BEGIN
90
0
91
1
62
0
92
-2
340
0
93
0
40
0.045
309
GRIDFORMAT_END
95
8
302
GRIDFORMAT
1
GRIDFORMAT_BEGIN
90
0
91
1
62
0
92
-2
340
0
93
0
40
0.045
309
GRIDFORMAT_END
95
16
302
GRIDFORMAT
1
GRIDFORMAT_BEGIN
90
0
91
1
62
0
92
-2
340
0
93
0
40
0.045
309
GRIDFORMAT_END
95
32
302
GRIDFORMAT
1
GRIDFORMAT_BEGIN
90
0
91
1
62
0
92
-2
340
0
93
0
40
0.045
309
GRIDFORMAT_END
309
TABLEFORMAT_END
1
CELLSTYLE_BEGIN
90
3
91
2
300
_DATA
309
CELLSTYLE_END
0
XRECORD
5
10A6
102
{ACAD_REACTORS
330
FF8
102
}
330
FF8
100
AcDbXrecord
280
1
102
ACAD_ROUNDTRIP_PRE2007_TABLESTYLE
90
512
91
0
1

92
512
93
0
2

94
512
95
0
3

0
XRECORD
5
108B
102
{ACAD_REACTORS
330
108A
102
}
330
108A
100
AcDbXrecord
280
1
102
RTVSPropertyOp0
70
1
102
RTVSPropertyOp1
70
1
102
RTVSPropertyOp2
70
1
102
RTVSPropertyOp3
70
1
102
RTVSPropertyOp4
70
1
102
RTVSPropertyOp5
70
1
102
RTVSPropertyOp6
70
1
102
RTVSPropertyOp7
70
1
102
RTVSPropertyOp8
70
1
102
RTVSPropertyOp9
70
1
102
RTVSPropertyOp10
70
1
102
RTVSPropertyOp11
70
1
102
RTVSPropertyOp12
70
1
102
RTVSPropertyOp13
70
1
102
RTVSPropertyOp14
70
1
102
RTVSPropertyOp15
70
1
102
RTVSPropertyOp16
70
1
102
RTVSPropertyOp17
70
1
102
RTVSPropertyOp18
70
1
102
RTVSPropertyOp19
70
1
102
RTVSPropertyOp20
70
1
102
RTVSPropertyOp21
70
1
102
RTVSPropertyOp22
70
1
102
RTVSPropertyOp23
70
1
102
RTVSPropertyOp24
70
1
102
RTVSPropertyOp25
70
1
102
RTVSPropertyOp26
70
1
102
RTVSPropertyOp27
70
1
0
XRECORD
5
108F
102
{ACAD_REACTORS
330
108E
102
}
330
108E
100
AcDbXrecord
280
1
102
RTVSPropertyOp0
70
1
102
RTVSPropertyOp1
70
1
102
RTVSPropertyOp2
70
1
102
RTVSPropertyOp3
70
1
102
RTVSPropertyOp4
70
1
102
RTVSPropertyOp5
70
1
102
RTVSPropertyOp6
70
1
102
RTVSPropertyOp7
70
1
102
RTVSPropertyOp8
70
1
102
RTVSPropertyOp9
70
1
102
RTVSPropertyOp10
70
1
102
RTVSPropertyOp11
70
1
102
RTVSPropertyOp12
70
1
102
RTVSPropertyOp13
70
1
102
RTVSPropertyOp14
70
1
102
RTVSPropertyOp15
70
1
102
RTVSPropertyOp16
70
1
102
RTVSPropertyOp17
70
1
102
RTVSPropertyOp18
70
1
102
RTVSPropertyOp19
70
1
102
RTVSPropertyOp20
70
1
102
RTVSPropertyOp21
70
1
102
RTVSPropertyOp22
70
1
102
RTVSPropertyOp23
70
1
102
RTVSPropertyOp24
70
1
102
RTVSPropertyOp25
70
1
102
RTVSPropertyOp26
70
1
102
RTVSPropertyOp27
70
1
0
XRECORD
5
108D
102
{ACAD_REACTORS
330
108C
102
}
330
108C
100
AcDbXrecord
280
1
102
RTVSPropertyOp0
70
1
102
RTVSPropertyOp1
70
1
102
RTVSPropertyOp2
70
1
102
RTVSPropertyOp3
70
1
102
RTVSPropertyOp4
70
1
102
RTVSPropertyOp5
70
1
102
RTVSPropertyOp6
70
1
102
RTVSPropertyOp7
70
1
102
RTVSPropertyOp8
70
1
102
RTVSPropertyOp9
70
1
102
RTVSPropertyOp10
70
1
102
RTVSPropertyOp11
70
1
102
RTVSPropertyOp12
70
1
102
RTVSPropertyOp13
70
1
102
RTVSPropertyOp14
70
1
102
RTVSPropertyOp15
70
1
102
RTVSPropertyOp16
70
1
102
RTVSPropertyOp17
70
1
102
RTVSPropertyOp18
70
1
102
RTVSPropertyOp19
70
1
102
RTVSPropertyOp20
70
1
102
RTVSPropertyOp21
70
1
102
RTVSPropertyOp22
70
1
102
RTVSPropertyOp23
70
1
102
RTVSPropertyOp24
70
1
102
RTVSPropertyOp25
70
1
102
RTVSPropertyOp26
70
1
102
RTVSPropertyOp27
70
1
0
XRECORD
5
1089
102
{ACAD_REACTORS
330
1088
102
}
330
1088
100
AcDbXrecord
280
1
102
RTVSPropertyOp0
70
1
102
RTVSPropertyOp1
70
1
102
RTVSPropertyOp2
70
1
102
RTVSPropertyOp3
70
1
102
RTVSPropertyOp4
70
1
102
RTVSPropertyOp5
70
1
102
RTVSPropertyOp6
70
1
102
RTVSPropertyOp7
70
1
102
RTVSPropertyOp8
70
1
102
RTVSPropertyOp9
70
1
102
RTVSPropertyOp10
70
1
102
RTVSPropertyOp11
70
1
102
RTVSPropertyOp12
70
1
102
RTVSPropertyOp13
70
1
102
RTVSPropertyOp14
70
1
102
RTVSPropertyOp15
70
1
102
RTVSPropertyOp16
70
1
102
RTVSPropertyOp17
70
1
102
RTVSPropertyOp18
70
1
102
RTVSPropertyOp19
70
1
102
RTVSPropertyOp20
70
1
102
RTVSPropertyOp21
70
1
102
RTVSPropertyOp22
70
1
102
RTVSPropertyOp23
70
1
102
RTVSPropertyOp24
70
1
102
RTVSPropertyOp25
70
1
102
RTVSPropertyOp26
70
1
102
RTVSPropertyOp27
70
1
0
XRECORD
5
1097
102
{ACAD_REACTORS
330
1096
102
}
330
1096
100
AcDbXrecord
280
1
102
RTVSPropertyOp0
70
1
102
RTVSPropertyOp1
70
1
102
RTVSPropertyOp2
70
1
102
RTVSPropertyOp3
70
1
102
RTVSPropertyOp4
70
1
102
RTVSPropertyOp5
70
1
102
RTVSPropertyOp6
70
1
102
RTVSPropertyOp7
70
1
102
RTVSPropertyOp8
70
1
102
RTVSPropertyOp9
70
1
102
RTVSPropertyOp10
70
1
102
RTVSPropertyOp11
70
1
102
RTVSPropertyOp12
70
1
102
RTVSPropertyOp13
70
1
102
RTVSPropertyOp14
70
1
102
RTVSPropertyOp15
70
1
102
RTVSPropertyOp16
70
1
102
RTVSPropertyOp17
70
1
102
RTVSPropertyOp18
70
1
102
RTVSPropertyOp19
70
1
102
RTVSPropertyOp20
70
1
102
RTVSPropertyOp21
70
1
102
RTVSPropertyOp22
70
1
102
RTVSPropertyOp23
70
1
102
RTVSPropertyOp24
70
1
102
RTVSPropertyOp25
70
1
102
RTVSPropertyOp26
70
1
102
RTVSPropertyOp27
70
1
0
XRECORD
5
109F
102
{ACAD_REACTORS
330
109E
102
}
330
109E
100
AcDbXrecord
280
1
102
RTVSPropertyOp0
70
1
102
RTVSPropertyOp1
70
1
102
RTVSPropertyOp2
70
1
102
RTVSPropertyOp3
70
1
102
RTVSPropertyOp4
70
1
102
RTVSPropertyOp5
70
1
102
RTVSPropertyOp6
70
1
102
RTVSPropertyOp7
70
1
102
RTVSPropertyOp8
70
1
102
RTVSPropertyOp9
70
1
102
RTVSPropertyOp10
70
1
102
RTVSPropertyOp11
70
1
102
RTVSPropertyOp12
70
1
102
RTVSPropertyOp13
70
1
102
RTVSPropertyOp14
70
1
102
RTVSPropertyOp15
70
1
102
RTVSPropertyOp16
70
1
102
RTVSPropertyOp17
70
1
102
RTVSPropertyOp18
70
1
102
RTVSPropertyOp19
70
1
102
RTVSPropertyOp20
70
1
102
RTVSPropertyOp21
70
1
102
RTVSPropertyOp22
70
1
102
RTVSPropertyOp23
70
1
102
RTVSPropertyOp24
70
1
102
RTVSPropertyOp25
70
1
102
RTVSPropertyOp26
70
1
102
RTVSPropertyOp27
70
1
0
XRECORD
5
1091
102
{ACAD_REACTORS
330
1090
102
}
330
1090
100
AcDbXrecord
280
1
102
RTVSPropertyOp0
70
1
102
RTVSPropertyOp1
70
1
102
RTVSPropertyOp2
70
1
102
RTVSPropertyOp3
70
1
102
RTVSPropertyOp4
70
1
102
RTVSPropertyOp5
70
1
102
RTVSPropertyOp6
70
1
102
RTVSPropertyOp7
70
1
102
RTVSPropertyOp8
70
1
102
RTVSPropertyOp9
70
1
102
RTVSPropertyOp10
70
1
102
RTVSPropertyOp11
70
1
102
RTVSPropertyOp12
70
1
102
RTVSPropertyOp13
70
1
102
RTVSPropertyOp14
70
1
102
RTVSPropertyOp15
70
1
102
RTVSPropertyOp16
70
1
102
RTVSPropertyOp17
70
1
102
RTVSPropertyOp18
70
1
102
RTVSPropertyOp19
70
1
102
RTVSPropertyOp20
70
1
102
RTVSPropertyOp21
70
1
102
RTVSPropertyOp22
70
1
102
RTVSPropertyOp23
70
1
102
RTVSPropertyOp24
70
1
102
RTVSPropertyOp25
70
1
102
RTVSPropertyOp26
70
1
102
RTVSPropertyOp27
70
1
0
XRECORD
5
1095
102
{ACAD_REACTORS
330
1094
102
}
330
1094
100
AcDbXrecord
280
1
102
RTVSPropertyOp0
70
1
102
RTVSPropertyOp1
70
1
102
RTVSPropertyOp2
70
1
102
RTVSPropertyOp3
70
1
102
RTVSPropertyOp4
70
1
102
RTVSPropertyOp5
70
1
102
RTVSPropertyOp6
70
1
102
RTVSPropertyOp7
70
1
102
RTVSPropertyOp8
70
1
102
RTVSPropertyOp9
70
1
102
RTVSPropertyOp10
70
1
102
RTVSPropertyOp11
70
1
102
RTVSPropertyOp12
70
1
102
RTVSPropertyOp13
70
1
102
RTVSPropertyOp14
70
1
102
RTVSPropertyOp15
70
1
102
RTVSPropertyOp16
70
1
102
RTVSPropertyOp17
70
1
102
RTVSPropertyOp18
70
1
102
RTVSPropertyOp19
70
1
102
RTVSPropertyOp20
70
1
102
RTVSPropertyOp21
70
1
102
RTVSPropertyOp22
70
1
102
RTVSPropertyOp23
70
1
102
RTVSPropertyOp24
70
1
102
RTVSPropertyOp25
70
1
102
RTVSPropertyOp26
70
1
102
RTVSPropertyOp27
70
1
0
XRECORD
5
10A5
102
{ACAD_REACTORS
330
10A4
102
}
330
10A4
100
AcDbXrecord
280
1
102
RTVSPropertyOp0
70
0
102
RTVSPropertyOp1
70
0
102
RTVSPropertyOp2
70
0
102
RTVSPropertyOp3
70
0
102
RTVSPropertyOp4
70
0
102
RTVSPropertyOp5
70
0
102
RTVSPropertyOp6
70
0
102
RTVSPropertyOp7
70
0
102
RTVSPropertyOp8
70
0
102
RTVSPropertyOp9
70
0
102
RTVSPropertyOp10
70
0
102
RTVSPropertyOp11
70
0
102
RTVSPropertyOp12
70
0
102
RTVSPropertyOp13
70
0
102
RTVSPropertyOp14
70
2
102
RTVSPropertyOp15
70
0
102
RTVSPropertyOp16
70
0
102
RTVSPropertyOp17
70
0
102
RTVSPropertyOp18
70
0
102
RTVSPropertyOp19
70
0
102
RTVSPropertyOp20
70
0
102
RTVSPropertyOp21
70
0
102
RTVSPropertyOp22
70
0
102
RTVSPropertyOp23
70
0
102
RTVSPropertyOp24
70
0
102
RTVSPropertyOp25
70
0
102
RTVSPropertyOp26
70
0
102
RTVSPropertyOp27
70
0
0
XRECORD
5
109D
102
{ACAD_REACTORS
330
109C
102
}
330
109C
100
AcDbXrecord
280
1
102
RTVSPropertyOp0
70
1
102
RTVSPropertyOp1
70
1
102
RTVSPropertyOp2
70
1
102
RTVSPropertyOp3
70
1
102
RTVSPropertyOp4
70
1
102
RTVSPropertyOp5
70
1
102
RTVSPropertyOp6
70
1
102
RTVSPropertyOp7
70
1
102
RTVSPropertyOp8
70
1
102
RTVSPropertyOp9
70
1
102
RTVSPropertyOp10
70
1
102
RTVSPropertyOp11
70
1
102
RTVSPropertyOp12
70
1
102
RTVSPropertyOp13
70
1
102
RTVSPropertyOp14
70
1
102
RTVSPropertyOp15
70
1
102
RTVSPropertyOp16
70
1
102
RTVSPropertyOp17
70
1
102
RTVSPropertyOp18
70
1
102
RTVSPropertyOp19
70
1
102
RTVSPropertyOp20
70
1
102
RTVSPropertyOp21
70
1
102
RTVSPropertyOp22
70
1
102
RTVSPropertyOp23
70
1
102
RTVSPropertyOp24
70
1
102
RTVSPropertyOp25
70
1
102
RTVSPropertyOp26
70
1
102
RTVSPropertyOp27
70
1
0
XRECORD
5
1081
102
{ACAD_REACTORS
330
1080
102
}
330
1080
100
AcDbXrecord
280
1
102
RTVSPropertyOp0
70
1
102
RTVSPropertyOp1
70
1
102
RTVSPropertyOp2
70
1
102
RTVSPropertyOp3
70
1
102
RTVSPropertyOp4
70
1
102
RTVSPropertyOp5
70
1
102
RTVSPropertyOp6
70
1
102
RTVSPropertyOp7
70
1
102
RTVSPropertyOp8
70
1
102
RTVSPropertyOp9
70
1
102
RTVSPropertyOp10
70
1
102
RTVSPropertyOp11
70
1
102
RTVSPropertyOp12
70
1
102
RTVSPropertyOp13
70
1
102
RTVSPropertyOp14
70
1
102
RTVSPropertyOp15
70
1
102
RTVSPropertyOp16
70
1
102
RTVSPropertyOp17
70
1
102
RTVSPropertyOp18
70
1
102
RTVSPropertyOp19
70
1
102
RTVSPropertyOp20
70
1
102
RTVSPropertyOp21
70
1
102
RTVSPropertyOp22
70
1
102
RTVSPropertyOp23
70
1
102
RTVSPropertyOp24
70
1
102
RTVSPropertyOp25
70
1
102
RTVSPropertyOp26
70
1
102
RTVSPropertyOp27
70
1
0
XRECORD
5
1083
102
{ACAD_REACTORS
330
1082
102
}
330
1082
100
AcDbXrecord
280
1
102
RTVSPropertyOp0
70
1
102
RTVSPropertyOp1
70
1
102
RTVSPropertyOp2
70
1
102
RTVSPropertyOp3
70
1
102
RTVSPropertyOp4
70
1
102
RTVSPropertyOp5
70
1
102
RTVSPropertyOp6
70
1
102
RTVSPropertyOp7
70
1
102
RTVSPropertyOp8
70
1
102
RTVSPropertyOp9
70
1
102
RTVSPropertyOp10
70
1
102
RTVSPropertyOp11
70
1
102
RTVSPropertyOp12
70
1
102
RTVSPropertyOp13
70
1
102
RTVSPropertyOp14
70
1
102
RTVSPropertyOp15
70
1
102
RTVSPropertyOp16
70
1
102
RTVSPropertyOp17
70
1
102
RTVSPropertyOp18
70
1
102
RTVSPropertyOp19
70
1
102
RTVSPropertyOp20
70
1
102
RTVSPropertyOp21
70
1
102
RTVSPropertyOp22
70
1
102
RTVSPropertyOp23
70
1
102
RTVSPropertyOp24
70
1
102
RTVSPropertyOp25
70
1
102
RTVSPropertyOp26
70
1
102
RTVSPropertyOp27
70
1
0
XRECORD
5
1085
102
{ACAD_REACTORS
330
1084
102
}
330
1084
100
AcDbXrecord
280
1
102
RTVSPropertyOp0
70
1
102
RTVSPropertyOp1
70
1
102
RTVSPropertyOp2
70
1
102
RTVSPropertyOp3
70
1
102
RTVSPropertyOp4
70
1
102
RTVSPropertyOp5
70
1
102
RTVSPropertyOp6
70
1
102
RTVSPropertyOp7
70
1
102
RTVSPropertyOp8
70
1
102
RTVSPropertyOp9
70
1
102
RTVSPropertyOp10
70
1
102
RTVSPropertyOp11
70
1
102
RTVSPropertyOp12
70
1
102
RTVSPropertyOp13
70
1
102
RTVSPropertyOp14
70
1
102
RTVSPropertyOp15
70
1
102
RTVSPropertyOp16
70
1
102
RTVSPropertyOp17
70
1
102
RTVSPropertyOp18
70
1
102
RTVSPropertyOp19
70
1
102
RTVSPropertyOp20
70
1
102
RTVSPropertyOp21
70
1
102
RTVSPropertyOp22
70
1
102
RTVSPropertyOp23
70
1
102
RTVSPropertyOp24
70
1
102
RTVSPropertyOp25
70
1
102
RTVSPropertyOp26
70
1
102
RTVSPropertyOp27
70
1
0
XRECORD
5
1087
102
{ACAD_REACTORS
330
1086
102
}
330
1086
100
AcDbXrecord
280
1
102
RTVSPropertyOp0
70
1
102
RTVSPropertyOp1
70
1
102
RTVSPropertyOp2
70
1
102
RTVSPropertyOp3
70
1
102
RTVSPropertyOp4
70
1
102
RTVSPropertyOp5
70
1
102
RTVSPropertyOp6
70
1
102
RTVSPropertyOp7
70
1
102
RTVSPropertyOp8
70
1
102
RTVSPropertyOp9
70
1
102
RTVSPropertyOp10
70
1
102
RTVSPropertyOp11
70
1
102
RTVSPropertyOp12
70
1
102
RTVSPropertyOp13
70
1
102
RTVSPropertyOp14
70
1
102
RTVSPropertyOp15
70
1
102
RTVSPropertyOp16
70
1
102
RTVSPropertyOp17
70
1
102
RTVSPropertyOp18
70
1
102
RTVSPropertyOp19
70
1
102
RTVSPropertyOp20
70
1
102
RTVSPropertyOp21
70
1
102
RTVSPropertyOp22
70
1
102
RTVSPropertyOp23
70
1
102
RTVSPropertyOp24
70
1
102
RTVSPropertyOp25
70
1
102
RTVSPropertyOp26
70
1
102
RTVSPropertyOp27
70
1
0
XRECORD
5
10A1
102
{ACAD_REACTORS
330
10A0
102
}
330
10A0
100
AcDbXrecord
280
1
102
RTVSPropertyOp0
70
0
102
RTVSPropertyOp1
70
0
102
RTVSPropertyOp2
70
0
102
RTVSPropertyOp3
70
0
102
RTVSPropertyOp4
70
0
102
RTVSPropertyOp5
70
0
102
RTVSPropertyOp6
70
0
102
RTVSPropertyOp7
70
0
102
RTVSPropertyOp8
70
0
102
RTVSPropertyOp9
70
0
102
RTVSPropertyOp10
70
0
102
RTVSPropertyOp11
70
0
102
RTVSPropertyOp12
70
0
102
RTVSPropertyOp13
70
0
102
RTVSPropertyOp14
70
2
102
RTVSPropertyOp15
70
0
102
RTVSPropertyOp16
70
0
102
RTVSPropertyOp17
70
0
102
RTVSPropertyOp18
70
0
102
RTVSPropertyOp19
70
0
102
RTVSPropertyOp20
70
0
102
RTVSPropertyOp21
70
0
102
RTVSPropertyOp22
70
0
102
RTVSPropertyOp23
70
0
102
RTVSPropertyOp24
70
0
102
RTVSPropertyOp25
70
0
102
RTVSPropertyOp26
70
0
102
RTVSPropertyOp27
70
0
0
XRECORD
5
109B
102
{ACAD_REACTORS
330
109A
102
}
330
109A
100
AcDbXrecord
280
1
102
RTVSPropertyOp0
70
1
102
RTVSPropertyOp1
70
1
102
RTVSPropertyOp2
70
1
102
RTVSPropertyOp3
70
1
102
RTVSPropertyOp4
70
1
102
RTVSPropertyOp5
70
1
102
RTVSPropertyOp6
70
1
102
RTVSPropertyOp7
70
1
102
RTVSPropertyOp8
70
1
102
RTVSPropertyOp9
70
1
102
RTVSPropertyOp10
70
1
102
RTVSPropertyOp11
70
1
102
RTVSPropertyOp12
70
1
102
RTVSPropertyOp13
70
1
102
RTVSPropertyOp14
70
1
102
RTVSPropertyOp15
70
1
102
RTVSPropertyOp16
70
1
102
RTVSPropertyOp17
70
1
102
RTVSPropertyOp18
70
1
102
RTVSPropertyOp19
70
1
102
RTVSPropertyOp20
70
1
102
RTVSPropertyOp21
70
1
102
RTVSPropertyOp22
70
1
102
RTVSPropertyOp23
70
1
102
RTVSPropertyOp24
70
1
102
RTVSPropertyOp25
70
1
102
RTVSPropertyOp26
70
1
102
RTVSPropertyOp27
70
1
0
XRECORD
5
10A3
102
{ACAD_REACTORS
330
10A2
102
}
330
10A2
100
AcDbXrecord
280
1
102
RTVSPropertyOp0
70
0
102
RTVSPropertyOp1
70
0
102
RTVSPropertyOp2
70
0
102
RTVSPropertyOp3
70
0
102
RTVSPropertyOp4
70
0
102
RTVSPropertyOp5
70
0
102
RTVSPropertyOp6
70
0
102
RTVSPropertyOp7
70
0
102
RTVSPropertyOp8
70
0
102
RTVSPropertyOp9
70
0
102
RTVSPropertyOp10
70
0
102
RTVSPropertyOp11
70
0
102
RTVSPropertyOp12
70
0
102
RTVSPropertyOp13
70
0
102
RTVSPropertyOp14
70
2
102
RTVSPropertyOp15
70
0
102
RTVSPropertyOp16
70
0
102
RTVSPropertyOp17
70
0
102
RTVSPropertyOp18
70
0
102
RTVSPropertyOp19
70
0
102
RTVSPropertyOp20
70
0
102
RTVSPropertyOp21
70
0
102
RTVSPropertyOp22
70
0
102
RTVSPropertyOp23
70
0
102
RTVSPropertyOp24
70
0
102
RTVSPropertyOp25
70
0
102
RTVSPropertyOp26
70
0
102
RTVSPropertyOp27
70
0
0
XRECORD
5
1093
102
{ACAD_REACTORS
330
1092
102
}
330
1092
100
AcDbXrecord
280
1
102
RTVSPropertyOp0
70
1
102
RTVSPropertyOp1
70
1
102
RTVSPropertyOp2
70
1
102
RTVSPropertyOp3
70
1
102
RTVSPropertyOp4
70
1
102
RTVSPropertyOp5
70
1
102
RTVSPropertyOp6
70
1
102
RTVSPropertyOp7
70
1
102
RTVSPropertyOp8
70
1
102
RTVSPropertyOp9
70
1
102
RTVSPropertyOp10
70
1
102
RTVSPropertyOp11
70
1
102
RTVSPropertyOp12
70
1
102
RTVSPropertyOp13
70
1
102
RTVSPropertyOp14
70
1
102
RTVSPropertyOp15
70
1
102
RTVSPropertyOp16
70
1
102
RTVSPropertyOp17
70
1
102
RTVSPropertyOp18
70
1
102
RTVSPropertyOp19
70
1
102
RTVSPropertyOp20
70
1
102
RTVSPropertyOp21
70
1
102
RTVSPropertyOp22
70
1
102
RTVSPropertyOp23
70
1
102
RTVSPropertyOp24
70
1
102
RTVSPropertyOp25
70
1
102
RTVSPropertyOp26
70
1
102
RTVSPropertyOp27
70
1
0
XRECORD
5
1099
102
{ACAD_REACTORS
330
1098
102
}
330
1098
100
AcDbXrecord
280
1
102
RTVSPropertyOp0
70
1
102
RTVSPropertyOp1
70
1
102
RTVSPropertyOp2
70
1
102
RTVSPropertyOp3
70
1
102
RTVSPropertyOp4
70
1
102
RTVSPropertyOp5
70
1
102
RTVSPropertyOp6
70
1
102
RTVSPropertyOp7
70
1
102
RTVSPropertyOp8
70
1
102
RTVSPropertyOp9
70
1
102
RTVSPropertyOp10
70
1
102
RTVSPropertyOp11
70
1
102
RTVSPropertyOp12
70
1
102
RTVSPropertyOp13
70
1
102
RTVSPropertyOp14
70
1
102
RTVSPropertyOp15
70
1
102
RTVSPropertyOp16
70
1
102
RTVSPropertyOp17
70
1
102
RTVSPropertyOp18
70
1
102
RTVSPropertyOp19
70
1
102
RTVSPropertyOp20
70
1
102
RTVSPropertyOp21
70
1
102
RTVSPropertyOp22
70
1
102
RTVSPropertyOp23
70
1
102
RTVSPropertyOp24
70
1
102
RTVSPropertyOp25
70
1
102
RTVSPropertyOp26
70
1
102
RTVSPropertyOp27
70
1
0
ENDSEC
0
EOF
