0
SECTION
2
HEADER
9
$ACADVER
1
AC1015
9
$ACADMAINTVER
70
20
9
$DWGCODEPAGE
3
ANSI_1252
9
$INSBASE
10
0.0
20
0.0
30
0.0
9
$EXTMIN
10
-150.000000000000
20
-105.000000000000
30
0.0
9
$EXTMAX
10
150.000000000000
20
105.000000000000
30
0.0
9
$LIMMIN
10
0.0
20
0.0
9
$LIMMAX
10
12.0
20
9.0
9
$ORTHOMODE
70
0
9
$REGENMODE
70
1
9
$FILLMODE
70
1
9
$QTEXTMODE
70
0
9
$MIRRTEXT
70
1
9
$LTSCALE
40
1.0
9
$ATTMODE
70
1
9
$TEXTSIZE
40
0.2
9
$TRACEWID
40
0.05
9
$TEXTSTYLE
7
Standard
9
$CLAYER
8
0
9
$CELTYPE
6
ByLayer
9
$CECOLOR
62
256
9
$CELTSCALE
40
1.0
9
$DISPSILH
70
0
9
$DIMSCALE
40
1.0
9
$DIMASZ
40
2.5
9
$DIMEXO
40
0.625
9
$DIMDLI
40
0.38
9
$DIMRND
40
0.0
9
$DIMDLE
40
0.0
9
$DIMEXE
40
1.25
9
$DIMTP
40
0.0
9
$DIMTM
40
0.000000001
9
$DIMTXT
40
2.5
9
$DIMCEN
40
0.09
9
$DIMTSZ
40
0.0
9
$DIMTOL
70
1
9
$DIMLIM
70
0
9
$DIMTIH
70
0
9
$DIMTOH
70
0
9
$DIMSE1
70
0
9
$DIMSE2
70
0
9
$DIMTAD
70
1
9
$DIMZIN
70
0
9
$DIMBLK
1
VDDIM_DEFAULT
9
$DIMASO
70
1
9
$DIMSHO
70
1
9
$DIMPOST
1

9
$DIMAPOST
1

9
$DIMALT
70
0
9
$DIMALTD
70
2
9
$DIMALTF
40
25.4
9
$DIMLFAC
40
1.00000000000000
9
$DIMTOFL
70
0
9
$DIMTVP
40
0.0
9
$DIMTIX
70
0
9
$DIMSOXD
70
0
9
$DIMSAH
70
0
9
$DIMBLK1
1

9
$DIMBLK2
1

9
$DIMSTYLE
2
BEM-ISBE
9
$DIMCLRD
70
0
9
$DIMCLRE
70
0
9
$DIMCLRT
70
0
9
$DIMTFAC
40
0.5
9
$DIMGAP
40
0.625
9
$DIMJUST
70
0
9
$DIMSD1
70
0
9
$DIMSD2
70
0
9
$DIMTOLJ
70
1
9
$DIMTZIN
70
0
9
$DIMALTZ
70
0
9
$DIMALTTZ
70
0
9
$DIMUPT
70
0
9
$DIMDEC
70
3
9
$DIMTDEC
70
3
9
$DIMALTU
70
2
9
$DIMALTTD
70
2
9
$DIMTXSTY
7
Standard
9
$DIMAUNIT
70
0
9
$DIMADEC
70
3
9
$DIMALTRND
40
0.0
9
$DIMAZIN
70
0
9
$DIMDSEP
70
46
9
$DIMATFIT
70
3
9
$DIMFRAC
70
0
9
$DIMLDRBLK
1

9
$DIMLUNIT
70
2
9
$DIMLWD
70
-2
9
$DIMLWE
70
-2
9
$DIMTMOVE
70
0
9
$LUNITS
70
2
9
$LUPREC
70
4
9
$SKETCHINC
40
0.1
9
$FILLETRAD
40
0.5
9
$AUNITS
70
0
9
$AUPREC
70
0
9
$MENU
1
.
9
$ELEVATION
40
0.0
9
$PELEVATION
40
0.0
9
$THICKNESS
40
0.0
9
$LIMCHECK
70
0
9
$CHAMFERA
40
0.5
9
$CHAMFERB
40
0.5
9
$CHAMFERC
40
1.0
9
$CHAMFERD
40
0.0
9
$SKPOLY
70
0
9
$TDCREATE
40
0.0
9
$TDUCREATE
40
0.0
9
$TDUPDATE
40
0.0
9
$TDUUPDATE
40
0.0
9
$TDINDWG
40
0.0
9
$TDUSRTIMER
40
0.0
9
$USRTIMER
70
1
9
$ANGBASE
50
0.0
9
$ANGDIR
70
0
9
$PDMODE
70
0
9
$PDSIZE
40
0.0
9
$PLINEWID
40
0.0
9
$SPLFRAME
70
0
9
$SPLINETYPE
70
6
9
$SPLINESEGS
70
8
9
$HANDSEED
5
10AB
9
$SURFTAB1
70
6
9
$SURFTAB2
70
6
9
$SURFTYPE
70
6
9
$SURFU
70
6
9
$SURFV
70
6
9
$UCSBASE
2

9
$UCSNAME
2

9
$UCSORG
10
0.0
20
0.0
30
0.0
9
$UCSXDIR
10
1.0
20
0.0
30
0.0
9
$UCSYDIR
10
0.0
20
1.0
30
0.0
9
$UCSORTHOREF
2

9
$UCSORTHOVIEW
70
0
9
$UCSORGTOP
10
0.0
20
0.0
30
0.0
9
$UCSORGBOTTOM
10
0.0
20
0.0
30
0.0
9
$UCSORGLEFT
10
0.0
20
0.0
30
0.0
9
$UCSORGRIGHT
10
0.0
20
0.0
30
0.0
9
$UCSORGFRONT
10
0.0
20
0.0
30
0.0
9
$UCSORGBACK
10
0.0
20
0.0
30
0.0
9
$PUCSBASE
2

9
$PUCSNAME
2

9
$PUCSORG
10
0.0
20
0.0
30
0.0
9
$PUCSXDIR
10
1.0
20
0.0
30
0.0
9
$PUCSYDIR
10
0.0
20
1.0
30
0.0
9
$PUCSORTHOREF
2

9
$PUCSORTHOVIEW
70
0
9
$PUCSORGTOP
10
0.0
20
0.0
30
0.0
9
$PUCSORGBOTTOM
10
0.0
20
0.0
30
0.0
9
$PUCSORGLEFT
10
0.0
20
0.0
30
0.0
9
$PUCSORGRIGHT
10
0.0
20
0.0
30
0.0
9
$PUCSORGFRONT
10
0.0
20
0.0
30
0.0
9
$PUCSORGBACK
10
0.0
20
0.0
30
0.0
9
$USERI1
70
0
9
$USERI2
70
0
9
$USERI3
70
0
9
$USERI4
70
0
9
$USERI5
70
0
9
$USERR1
40
0.0
9
$USERR2
40
0.0
9
$USERR3
40
0.0
9
$USERR4
40
0.0
9
$USERR5
40
0.0
9
$WORLDVIEW
70
1
9
$SHADEDGE
70
3
9
$SHADEDIF
70
70
9
$TILEMODE
70
1
9
$MAXACTVP
70
64
9
$PINSBASE
10
0.0
20
0.0
30
0.0
9
$PLIMCHECK
70
0
9
$PEXTMIN
10
1.000000000000000E+20
20
1.000000000000000E+20
30
1.000000000000000E+20
9
$PEXTMAX
10
-1.000000000000000E+20
20
-1.000000000000000E+20
30
-1.000000000000000E+20
9
$PLIMMIN
10
0.0
20
0.0
9
$PLIMMAX
10
12.0
20
9.0
9
$UNITMODE
70
0
9
$VISRETAIN
70
1
9
$PLINEGEN
70
0
9
$PSLTSCALE
70
1
9
$TREEDEPTH
70
3020
9
$CMLSTYLE
2
Standard
9
$CMLJUST
70
0
9
$CMLSCALE
40
1.0
9
$PROXYGRAPHICS
70
1
9
$MEASUREMENT
70
0
9
$CELWEIGHT
370
-1
9
$ENDCAPS
280
0
9
$JOINSTYLE
280
0
9
$LWDISPLAY
290
0
9
$INSUNITS
70
4
9
$HYPERLINKBASE
1

9
$STYLESHEET
1

9
$XEDIT
290
1
9
$CEPSNTYPE
380
0
9
$PSTYLEMODE
290
0
9
$FINGERPRINTGUID
2
{FAEB1C30-E019-11D5-929B-00C0DF256EC4}
9
$VERSIONGUID
2
{04C5C4E4-4947-4D90-8812-D401569E61F7}
9
$EXTNAMES
290
1
9
$PSVPSCALE
40
0.0
9
$OLESTARTUP
290
0
0
ENDSEC
0
SECTION
2
CLASSES
0
CLASS
1
ACDBDICTIONARYWDFLT
2
AcDbDictionaryWithDefault
3
ObjectDBX Classes
90
0
280
0
281
0
0
CLASS
1
ACDBPLACEHOLDER
2
AcDbPlaceHolder
3
ObjectDBX Classes
90
0
280
0
281
0
0
CLASS
1
LAYOUT
2
AcDbLayout
3
ObjectDBX Classes
90
0
280
0
281
0
0
CLASS
1
MATERIAL
2
AcDbMaterial
3
ObjectDBX Classes
90
1153
280
0
281
0
0
CLASS
1
VISUALSTYLE
2
AcDbVisualStyle
3
ObjectDBX Classes
90
4095
280
0
281
0
0
CLASS
1
TABLESTYLE
2
AcDbTableStyle
3
ObjectDBX Classes
90
4095
280
0
281
0
0
CLASS
1
SCALE
2
AcDbScale
3
ObjectDBX Classes
90
1153
280
0
281
0
0
CLASS
1
MLEADERSTYLE
2
AcDbMLeaderStyle
3
ACDB_MLEADERSTYLE_CLASS
90
4095
280
0
281
0
0
CLASS
1
DICTIONARYVAR
2
AcDbDictionaryVar
3
ObjectDBX Classes
90
0
280
0
281
0
0
CLASS
1
CELLSTYLEMAP
2
AcDbCellStyleMap
3
ObjectDBX Classes
90
1152
280
0
281
0
0
ENDSEC
0
SECTION
2
TABLES
0
TABLE
2
VPORT
5
24A
330
0
100
AcDbSymbolTable
70
1
0
VPORT
5
26B
330
24A
100
AcDbSymbolTableRecord
100
AcDbViewportTableRecord
2
*Active
70
0
10
0.0
20
0.0
11
1.0
21
1.0
12
0.000000000000000
22
0.000000000000000
13
0.0
23
0.0
14
10.0
24
10.0
15
10.0
25
10.0
16
0.0
26
0.0
36
1.0
17
0.0
27
0.0
37
0.0
40
210.000000000000
41
1.42857142857143
42
1.0
43
0.0
44
0.0
50
0.0
51
0.0000000000007958
71
0
72
100
73
1
74
3
75
0
76
0
77
0
78
1
281
0
65
1
110
0.0
120
0.0
130
0.0
111
1.0
121
0.0
131
0.0
112
0.0
122
1.0
132
0.0
79
0
146
0.0
0
ENDTAB
0
TABLE
2
LTYPE
5
247
330
0
100
AcDbSymbolTable
70
25
0
LTYPE
5
256
330
247
100
AcDbSymbolTableRecord
100
AcDbLinetypeTableRecord
2
ByBlock
70
0
3

72
65
73
0
40
0.0
0
LTYPE
5
257
330
247
100
AcDbSymbolTableRecord
100
AcDbLinetypeTableRecord
2
ByLayer
70
0
3

72
65
73
0
40
0.0
0
LTYPE
5
258
330
247
100
AcDbSymbolTableRecord
100
AcDbLinetypeTableRecord
2
Continuous
70
0
3
Solid line
72
65
73
0
40
0.0
0
LTYPE
5
273
330
247
100
AcDbSymbolTableRecord
100
AcDbLinetypeTableRecord
2
CENTER
70
0
3
Center ____ _ ____ _ ____ _ ____ _ ____ _ ____
72
65
73
4
40
2.0
49
1.25
74
0
49
-0.25
74
0
49
0.25
74
0
49
-0.25
74
0
0
LTYPE
5
274
330
247
100
AcDbSymbolTableRecord
100
AcDbLinetypeTableRecord
2
DASHDOT
70
0
3
Dashdot __ . __ . __ . __ . __ . __ . __ . __
72
65
73
4
40
1.0
49
0.5
74
0
49
-0.25
74
0
49
0.0
74
0
49
-0.25
74
0
0
LTYPE
5
275
330
247
100
AcDbSymbolTableRecord
100
AcDbLinetypeTableRecord
2
DASHED
70
0
3
Dashed __ __ __ __ __ __ __ __ __ __ __ __ __ _
72
65
73
2
40
0.75
49
0.5
74
0
49
-0.25
74
0
0
LTYPE
5
276
330
247
100
AcDbSymbolTableRecord
100
AcDbLinetypeTableRecord
2
HIDDEN
70
0
3
Hidden __ __ __ __ __ __ __ __ __ __ __ __ __ __
72
65
73
2
40
0.375
49
0.25
74
0
49
-0.125
74
0
0
LTYPE
5
277
330
247
100
AcDbSymbolTableRecord
100
AcDbLinetypeTableRecord
2
HIDDEN2
70
0
3
Hidden2 _ _ _ _ _ _ _ _ _ _ _ _ _ _ _ _ _
72
65
73
2
40
0.1875
49
0.125
74
0
49
-0.0625
74
0
0
LTYPE
5
278
330
247
100
AcDbSymbolTableRecord
100
AcDbLinetypeTableRecord
2
BORDER
70
0
3
Border __ __ . __ __ . __ __ . __ __ . __ __ .
72
65
73
6
40
1.75
49
0.5
74
0
49
-0.25
74
0
49
0.5
74
0
49
-0.25
74
0
49
0.0
74
0
49
-0.25
74
0
0
LTYPE
5
279
330
247
100
AcDbSymbolTableRecord
100
AcDbLinetypeTableRecord
2
BORDER2
70
0
3
Border2 __.__.__.__.__.__.__.__.__.__.__.
72
65
73
6
40
0.875
49
0.25
74
0
49
-0.125
74
0
49
0.25
74
0
49
-0.125
74
0
49
0.0
74
0
49
-0.125
74
0
0
LTYPE
5
27A
330
247
100
AcDbSymbolTableRecord
100
AcDbLinetypeTableRecord
2
BORDERX2
70
0
3
Borderx2  ____  ____  .  ____  ____  .  ___
72
65
73
6
40
3.5
49
1.0
74
0
49
-0.5
74
0
49
1.0
74
0
49
-0.5
74
0
49
0.0
74
0
49
-0.5
74
0
0
LTYPE
5
27B
330
247
100
AcDbSymbolTableRecord
100
AcDbLinetypeTableRecord
2
CENTER2
70
0
3
Center2  ___ _ ___ _ ___ _ ___ _ ___ _ ___
72
65
73
4
40
1.125
49
0.75
74
0
49
-0.125
74
0
49
0.125
74
0
49
-0.125
74
0
0
LTYPE
5
27C
330
247
100
AcDbSymbolTableRecord
100
AcDbLinetypeTableRecord
2
CENTERX2
70
0
3
Centerx2  ________  __  ________  __  _____
72
65
73
4
40
4.0
49
2.5
74
0
49
-0.5
74
0
49
0.5
74
0
49
-0.5
74
0
0
LTYPE
5
27D
330
247
100
AcDbSymbolTableRecord
100
AcDbLinetypeTableRecord
2
DASHDOT2
70
0
3
Dashdot2  _._._._._._._._._._._._._._._.
72
65
73
4
40
0.5
49
0.25
74
0
49
-0.125
74
0
49
0.0
74
0
49
-0.125
74
0
0
LTYPE
5
27E
330
247
100
AcDbSymbolTableRecord
100
AcDbLinetypeTableRecord
2
DASHDOTX2
70
0
3
Dashdotx2 ____  .  ____  .  ____  .  ___
72
65
73
4
40
2.0
49
1.0
74
0
49
-0.5
74
0
49
0.0
74
0
49
-0.5
74
0
0
LTYPE
5
27F
330
247
100
AcDbSymbolTableRecord
100
AcDbLinetypeTableRecord
2
DASHED2
70
0
3
Dashed2 _ _ _ _ _ _ _ _ _ _ _ _ _ _ _ _ _
72
65
73
2
40
0.375
49
0.25
74
0
49
-0.125
74
0
0
LTYPE
5
280
330
247
100
AcDbSymbolTableRecord
100
AcDbLinetypeTableRecord
2
DASHEDX2
70
0
3
Dashedx2 ____  ____  ____  ____  ____  ___
72
65
73
2
40
1.5
49
1.0
74
0
49
-0.5
74
0
0
LTYPE
5
281
330
247
100
AcDbSymbolTableRecord
100
AcDbLinetypeTableRecord
2
DIVIDE
70
0
3
Divide ____ . . ____ . . ____ . . ____ . . ____
72
65
73
6
40
1.25
49
0.5
74
0
49
-0.25
74
0
49
0.0
74
0
49
-0.25
74
0
49
0.0
74
0
49
-0.25
74
0
0
LTYPE
5
282
330
247
100
AcDbSymbolTableRecord
100
AcDbLinetypeTableRecord
2
DIVIDE2
70
0
3
Divide2 __..__..__..__..__..__..__..__.._
72
65
73
6
40
0.625
49
0.25
74
0
49
-0.125
74
0
49
0.0
74
0
49
-0.125
74
0
49
0.0
74
0
49
-0.125
74
0
0
LTYPE
5
283
330
247
100
AcDbSymbolTableRecord
100
AcDbLinetypeTableRecord
2
DIVIDEX2
70
0
3
Dividex2 ________  .  .  ________  .  .  _
72
65
73
6
40
2.5
49
1.0
74
0
49
-0.5
74
0
49
0.0
74
0
49
-0.5
74
0
49
0.0
74
0
49
-0.5
74
0
0
LTYPE
5
284
330
247
100
AcDbSymbolTableRecord
100
AcDbLinetypeTableRecord
2
DOT
70
0
3
Dot . . . . . . . . . . . . . . . . . . . . . . . .
72
65
73
2
40
0.25
49
0.0
74
0
49
-0.25
74
0
0
LTYPE
5
285
330
247
100
AcDbSymbolTableRecord
100
AcDbLinetypeTableRecord
2
DOT2
70
0
3
Dot2 ........................................
72
65
73
2
40
0.125
49
0.0
74
0
49
-0.125
74
0
0
LTYPE
5
286
330
247
100
AcDbSymbolTableRecord
100
AcDbLinetypeTableRecord
2
DOTX2
70
0
3
Dotx2 .  .  .  .  .  .  .  .  .  .  .  .  .  .
72
65
73
2
40
0.5
49
0.0
74
0
49
-0.5
74
0
0
LTYPE
5
287
330
247
100
AcDbSymbolTableRecord
100
AcDbLinetypeTableRecord
2
HIDDENX2
70
0
3
Hiddenx2 ____ ____ ____ ____ ____ ____ ____
72
65
73
2
40
0.75
49
0.5
74
0
49
-0.25
74
0
0
LTYPE
5
288
330
247
100
AcDbSymbolTableRecord
100
AcDbLinetypeTableRecord
2
PHANTOM
70
0
3
Phantom ______  __  __  ______  __  __  ______
72
65
73
6
40
2.5
49
1.25
74
0
49
-0.25
74
0
49
0.25
74
0
49
-0.25
74
0
49
0.25
74
0
49
-0.25
74
0
0
LTYPE
5
289
330
247
100
AcDbSymbolTableRecord
100
AcDbLinetypeTableRecord
2
PHANTOM2
70
0
3
Phantom2 ___ _ _ ___ _ _ ___ _ _ ___ _ _
72
65
73
6
40
1.25
49
0.625
74
0
49
-0.125
74
0
49
0.125
74
0
49
-0.125
74
0
49
0.125
74
0
49
-0.125
74
0
0
LTYPE
5
28A
330
247
100
AcDbSymbolTableRecord
100
AcDbLinetypeTableRecord
2
PHANTOMX2
70
0
3
Phantomx2 ____________    ____    ____   _
72
65
73
6
40
5.0
49
2.5
74
0
49
-0.5
74
0
49
0.5
74
0
49
-0.5
74
0
49
0.5
74
0
49
-0.5
74
0
0
ENDTAB
0
TABLE
2
LAYER
5
244
330
0
100
AcDbSymbolTable
70
6
0
LAYER
5
252
330
244
100
AcDbSymbolTableRecord
100
AcDbLayerTableRecord
2
0
70
0
62
7
6
Continuous
370
0
390
251
0
LAYER
5
23F
330
244
100
AcDbSymbolTableRecord
100
AcDbLayerTableRecord
2
Bemassung
70
0
 62
   7
6
Continuous
370
0
390
251
0
LAYER
5
240
330
244
100
AcDbSymbolTableRecord
100
AcDbLayerTableRecord
2
Rahmen
70
0
 62
   7
6
Continuous
370
0
390
251
0
LAYER
5
241
330
244
100
AcDbSymbolTableRecord
100
AcDbLayerTableRecord
2
Geo
70
0
 62
   7
6
Continuous
370
0
390
251
0
LAYER
5
33A
330
244
100
AcDbSymbolTableRecord
100
AcDbLayerTableRecord
2
Defpoints
70
0
62
7
6
Continuous
290
0
370
-3
390
251
0
LAYER
5
57E
330
244
100
AcDbSymbolTableRecord
100
AcDbLayerTableRecord
2
Text
70
0
 62
   7
6
Continuous
370
0
390
251
1001
AcAecLayerStandard
1000

1000

0
ENDTAB
0
TABLE
2
STYLE
5
245
330
0
100
AcDbSymbolTable
70
2
0
STYLE
5
253
330
245
100
AcDbSymbolTableRecord
100
AcDbTextStyleTableRecord
2
Standard
70
0
40
0.0
41
1.0
50
0.0
71
0
42
0.2
3
Arial
4

1001
ACAD
1000
Arial
1071
0
0
STYLE
5
132
330
245
100
AcDbSymbolTableRecord
100
AcDbTextStyleTableRecord
2
Beschriftung
70
0
40
0.0
41
1.0
50
0.0
71
0
42
0.2
3
Arial
4

1001
ACAD
1000
Arial
1071
0
1001
AcadAnnotative
1000
AnnotativeData
1070
1
1070
1
0
ENDTAB
0
TABLE
2
VIEW
5
248
330
0
100
AcDbSymbolTable
70
0
0
ENDTAB
0
TABLE
2
UCS
5
249
330
0
100
AcDbSymbolTable
70
0
0
ENDTAB
0
TABLE
2
APPID
5
24B
330
0
100
AcDbSymbolTable
70
13
0
APPID
5
254
330
24B
100
AcDbSymbolTableRecord
100
AcDbRegAppTableRecord
2
ACAD
70
0
0
APPID
5
26C
330
24B
100
AcDbSymbolTableRecord
100
AcDbRegAppTableRecord
2
VD_INVISIBLE_NOT_FOR_READ
70
0
0
APPID
5
26D
330
24B
100
AcDbSymbolTableRecord
100
AcDbRegAppTableRecord
2
VD_TEMPHATCH
70
0
0
APPID
5
26E
330
24B
100
AcDbSymbolTableRecord
100
AcDbRegAppTableRecord
2
VDEXTRAPARAM
70
0
0
APPID
5
26F
330
24B
100
AcDbSymbolTableRecord
100
AcDbRegAppTableRecord
2
PE_URL
70
0
0
APPID
5
270
330
24B
100
AcDbSymbolTableRecord
100
AcDbRegAppTableRecord
2
VD_UNKNOWN
70
0
0
APPID
5
28F
330
24B
100
AcDbSymbolTableRecord
100
AcDbRegAppTableRecord
2
AcadAnnotative
70
0
0
APPID
5
290
330
24B
100
AcDbSymbolTableRecord
100
AcDbRegAppTableRecord
2
ACAD_DSTYLE_DIMJAG
70
0
0
APPID
5
291
330
24B
100
AcDbSymbolTableRecord
100
AcDbRegAppTableRecord
2
ACAD_DSTYLE_DIMTALN
70
0
0
APPID
5
293
330
24B
100
AcDbSymbolTableRecord
100
AcDbRegAppTableRecord
2
ACAD_PSEXT
70
0
0
APPID
5
42A
330
24B
100
AcDbSymbolTableRecord
100
AcDbRegAppTableRecord
2
ACAD_MLEADERVER
70
0
0
APPID
5
532
330
24B
100
AcDbSymbolTableRecord
100
AcDbRegAppTableRecord
2
ACAD_EXEMPT_FROM_CAD_STANDARDS
70
0
0
APPID
5
57F
330
24B
100
AcDbSymbolTableRecord
100
AcDbRegAppTableRecord
2
AcAecLayerStandard
70
0
0
ENDTAB
0
TABLE
2
DIMSTYLE
5
24C
330
0
100
AcDbSymbolTable
70
3
100
AcDbDimStyleTable
71
2
340
27
340
269
0
DIMSTYLE
105
269
330
24C
100
AcDbSymbolTableRecord
100
AcDbDimStyleTableRecord
2
Standard
70
0
172
1
174
1
288
1
340
253
342
23C
0
DIMSTYLE
105
137
330
24C
100
AcDbSymbolTableRecord
100
AcDbDimStyleTableRecord
2
Beschriftung
70
0
41
2.5
42
0.625
44
1.25
73
0
74
0
77
1
140
2.5
147
0.625
172
1
174
1
271
2
288
1
340
253
342
23C
1001
AcadAnnotative
1000
AnnotativeData
1070
1
1070
1
1001
ACAD_DSTYLE_DIMJAG
1070
388
1040
1.5
1001
ACAD_DSTYLE_DIMTALN
1070
392
1070
0
0
DIMSTYLE
105
27
102
{ACAD_REACTORS
330
F1000D
330
F10012
330
F10003
330
F10008
102
}
330
24C
100
AcDbSymbolTableRecord
100
AcDbDimStyleTableRecord
2
BEM-ISBE
70
0
41
2.5
42
0.625
44
1.25
48
0.000000001
71
1
73
0
74
0
77
1
140
2.5
144
1.00000000000000
146
0.5
147
0.625
171
 3
172
 1
179
 3
271
 3
272
 3
274
 3
340
253
342
23C
1001
ACAD_DSTYLE_DIMJAG
1070
388
1040
1.5
1001
ACAD_DSTYLE_DIMTALN
1070
392
1070
1
0
ENDTAB
0
TABLE
2
BLOCK_RECORD
5
243
330
0
100
AcDbSymbolTable
70
5
0
BLOCK_RECORD
5
261
330
243
100
AcDbSymbolTableRecord
100
AcDbBlockTableRecord
2
*Model_Space
340
FD0
0
BLOCK_RECORD
5
25D
330
243
100
AcDbSymbolTableRecord
100
AcDbBlockTableRecord
2
*Paper_Space
340
FD1
0
BLOCK_RECORD
5
265
330
243
100
AcDbSymbolTableRecord
100
AcDbBlockTableRecord
2
*Paper_Space0
340
0
0
BLOCK_RECORD
5
23C
330
243
100
AcDbSymbolTableRecord
100
AcDbBlockTableRecord
2
VDDIM_DEFAULT
340
0
102
{BLKREFS
102
}
0
BLOCK_RECORD
5
23E
330
243
100
AcDbSymbolTableRecord
100
AcDbBlockTableRecord
2
VDDIM_NONE
340
0
0
BLOCK_RECORD
5
F1000C
330
243
100
AcDbSymbolTableRecord
100
AcDbBlockTableRecord
2
*D5
340
0
0
BLOCK_RECORD
5
F10011
330
243
100
AcDbSymbolTableRecord
100
AcDbBlockTableRecord
2
*D6
340
0
0
BLOCK_RECORD
5
F10002
330
243
100
AcDbSymbolTableRecord
100
AcDbBlockTableRecord
2
*D3
340
0
0
BLOCK_RECORD
5
F10007
330
243
100
AcDbSymbolTableRecord
100
AcDbBlockTableRecord
2
*D4
340
0
0
ENDTAB
0
ENDSEC
0
SECTION
2
BLOCKS
0
BLOCK
5
262
330
261
100
AcDbEntity
8
0
100
AcDbBlockBegin
2
*Model_Space
70
0
10
0.0
20
0.0
30
0.0
3
*Model_Space
1

0
ENDBLK
5
263
330
261
100
AcDbEntity
8
0
100
AcDbBlockEnd
0
BLOCK
5
25E
330
25D
100
AcDbEntity
67
1
8
0
100
AcDbBlockBegin
2
*Paper_Space
70
0
10
0.0
20
0.0
30
0.0
3
*Paper_Space
1

0
ENDBLK
5
25F
330
25D
100
AcDbEntity
67
1
8
0
100
AcDbBlockEnd
0
BLOCK
5
266
330
265
100
AcDbEntity
8
0
100
AcDbBlockBegin
2
*Paper_Space0
70
0
10
0.0
20
0.0
30
0.0
3
*Paper_Space0
1

0
VIEWPORT
5
296
102
{ACAD_XDICTIONARY
360
58E
102
}
330
265
100
AcDbEntity
8
0
60
1
100
AcDbViewport
10
0.0
20
0.0
30
0.0
40
10.0
41
10.0
69
0
12
0.0
22
0.0
13
0.0
23
0.0
14
1.0
24
1.0
15
0.0
25
0.0
16
0.0
26
0.0
36
1.0
17
0.0
27
0.0
37
0.0
42
0.0
43
0.0
44
0.0
45
10.0
50
0.0
51
0.0000000000007958
72
100
90
163872
1

281
0
71
0
74
0
110
0.0
120
0.0
130
0.0
111
1.0
121
0.0
131
0.0
112
0.0
122
1.0
132
0.0
79
0
146
0.0
1001
VD_INVISIBLE_NOT_FOR_READ
1000
VD_INVISIBLE_NOT_FOR_READ
0
VIEWPORT
5
297
102
{ACAD_XDICTIONARY
360
590
102
}
330
265
100
AcDbEntity
8
0
60
1
100
AcDbViewport
10
0.0
20
0.0
30
0.0
40
10.0
41
10.0
69
0
12
0.0
22
0.0
13
0.0
23
0.0
14
1.0
24
1.0
15
0.0
25
0.0
16
0.0
26
0.0
36
1.0
17
0.0
27
0.0
37
0.0
42
0.0
43
0.0
44
0.0
45
10.0
50
0.0
51
0.0000000000007958
72
100
90
163872
1

281
0
71
0
74
0
110
0.0
120
0.0
130
0.0
111
1.0
121
0.0
131
0.0
112
0.0
122
1.0
132
0.0
79
0
146
0.0
1001
VD_INVISIBLE_NOT_FOR_READ
1000
VD_INVISIBLE_NOT_FOR_READ
0
ENDBLK
5
267
330
265
100
AcDbEntity
8
0
100
AcDbBlockEnd
0
BLOCK
5
28B
330
23C
100
AcDbEntity
8
0
100
AcDbBlockBegin
2
VDDIM_DEFAULT
70
0
10
0.0
20
0.0
30
0.0
3
VDDIM_DEFAULT
1

0
LWPOLYLINE
5
23D
330
23C
100
AcDbEntity
8
0
6
Continuous
62
0
100
AcDbPolyline
90
4
70
0
43
0.0
10
0.0
20
0.0
10
-1.0
20
-0.1665
10
-1.0
20
0.1665
10
0.0
20
0.0
1001
VDEXTRAPARAM
1071
1
1071
0
1071
0
1040
1.0
1000

1000

1040
0.0
1040
0.0
0
HATCH
5
292
330
23C
100
AcDbEntity
8
0
6
Continuous
62
0
100
AcDbHatch
10
0.0
20
0.0
30
0.0
210
0.0
220
0.0
230
1.0
2
SOLID
70
1
71
0
91
1
92
2
72
0
73
1
93
3
10
0.0
20
0.0
10
-1.0
20
-0.1665
10
-1.0
20
0.1665
97
0
75
0
76
1
98
1
10
0.0
20
0.0
1001
VDEXTRAPARAM
1071
1
1071
0
1071
0
1040
1.0
1000

1000

1040
0.0
1040
0.0
1001
VD_TEMPHATCH
1000
VD_TEMPHATCH
0
ENDBLK
5
28C
330
23C
100
AcDbEntity
8
0
100
AcDbBlockEnd
0
BLOCK
5
28D
330
23E
100
AcDbEntity
8
0
100
AcDbBlockBegin
2
VDDIM_NONE
70
0
10
0.0
20
0.0
30
0.0
3
VDDIM_NONE
1

0
ENDBLK
5
28E
330
23E
100
AcDbEntity
8
0
100
AcDbBlockEnd
  0
BLOCK
  5
F10016
330
F1000C
100
AcDbEntity
  8
0
100
AcDbBlockBegin
  2
*D5
 70
     1
 10
0.0
 20
0.0
 30
0.0
  3
*D5
  1

  0
LINE
  5
F10017
330
F1000C
100
AcDbEntity
  8
Bemassung
 62
     0
370
    -2
100
AcDbLine
10
-18.6208285385500
20
-1.30034522439585
30
0.000000000000000
11
-18.6208285385500
21
-8.30034522439585
31
0.000000000000000
  0
LINE
  5
F10018
330
F1000C
100
AcDbEntity
  8
Bemassung
 62
     0
370
    -2
100
AcDbLine
10
-43.6208285385500
20
-8.30034522439585
30
0.000000000000000
11
-43.6208285385500
21
30.6996547756041
31
0.000000000000000
  0
LINE
  5
F10019
330
F1000C
100
AcDbEntity
  8
Bemassung
 62
     0
370
    -2
100
AcDbLine
10
-18.6208285385500
20
-6.30034522439585
30
0.000000000000000
11
-43.6208285385500
21
-6.30034522439585
31
0.000000000000000
  0
INSERT
  5
F1001A
330
F1000C
100
AcDbEntity
  8
Bemassung
 62
     0
370
    -2
100
AcDbBlockReference
  2
VDDIM_DEFAULT
10
-18.6208285385500
20
-6.30034522439585
30
0.000000000000000
 41
2.50000000000000
 42
2.50000000000000
 43
2.50000000000000
  0
INSERT
  5
F1001B
330
F1000C
100
AcDbEntity
  8
Bemassung
 62
     0
370
    -2
100
AcDbBlockReference
  2
VDDIM_DEFAULT
10
-43.6208285385500
20
-6.30034522439585
30
0.000000000000000
 41
2.50000000000000
 42
2.50000000000000
 43
2.50000000000000
 50
180.000000000000
  0
MTEXT
  5
F1001C
330
F1000C
100
AcDbEntity
  8
Bemassung
 62
     0
100
AcDbMText
10
-32.6237054085153
20
-5.63367855772919
30
0.000000000000000
 40
2.50000000000000
 41
0.0
 71
     8
 72
     1
  1
25
 11
1.00000000000000
 21
0.000000000000000
 31
0.0
 73
     1
 44
1.0
1001
ACAD
1000
MTEXTBEGIN
1070
73
1070
1
1070
44
1040
1.0
1070
74
1070
0
1000
MTEXTEND
  0
POINT
  5
F1001D
330
F1000C
100
AcDbEntity
  8
Bemassung
 62
     0
100
AcDbPoint
10
-18.6208285385500
20
-1.30034522439585
30
0.000000000000000
  0
POINT
  5
F1001E
330
F1000C
100
AcDbEntity
  8
Bemassung
 62
     0
100
AcDbPoint
10
-43.6208285385500
20
-8.30034522439585
30
0.000000000000000
  0
ENDBLK
  5
F1001F
330
F1000C
100
AcDbEntity
  8
0
100
AcDbBlockEnd
  0
BLOCK
  5
F10020
330
F10011
100
AcDbEntity
  8
0
100
AcDbBlockBegin
  2
*D6
 70
     1
 10
0.0
 20
0.0
 30
0.0
  3
*D6
  1

  0
LINE
  5
F10021
330
F10011
100
AcDbEntity
  8
Bemassung
 62
     0
370
    -2
100
AcDbLine
10
49.3791714614500
20
17.6996547756041
30
0.000000000000000
11
49.3791714614500
21
30.6996547756041
31
0.000000000000000
  0
LINE
  5
F10022
330
F10011
100
AcDbEntity
  8
Bemassung
 62
     0
370
    -2
100
AcDbLine
10
-43.6208285385500
20
-8.30034522439585
30
0.000000000000000
11
-43.6208285385500
21
30.6996547756041
31
0.000000000000000
  0
LINE
  5
F10023
330
F10011
100
AcDbEntity
  8
Bemassung
 62
     0
370
    -2
100
AcDbLine
10
49.3791714614500
20
28.6996547756041
30
0.000000000000000
11
-43.6208285385500
21
28.6996547756041
31
0.000000000000000
  0
INSERT
  5
F10024
330
F10011
100
AcDbEntity
  8
Bemassung
 62
     0
370
    -2
100
AcDbBlockReference
  2
VDDIM_DEFAULT
10
49.3791714614500
20
28.6996547756041
30
0.000000000000000
 41
2.50000000000000
 42
2.50000000000000
 43
2.50000000000000
  0
INSERT
  5
F10025
330
F10011
100
AcDbEntity
  8
Bemassung
 62
     0
370
    -2
100
AcDbBlockReference
  2
VDDIM_DEFAULT
10
-43.6208285385500
20
28.6996547756041
30
0.000000000000000
 41
2.50000000000000
 42
2.50000000000000
 43
2.50000000000000
 50
180.000000000000
  0
MTEXT
  5
F10026
330
F10011
100
AcDbEntity
  8
Bemassung
 62
     0
100
AcDbMText
10
2.87917146144996
20
29.3663214422708
30
0.000000000000000
 40
2.50000000000000
 41
0.0
 71
     8
 72
     1
  1
93
 11
1.00000000000000
 21
0.000000000000000
 31
0.0
 73
     1
 44
1.0
1001
ACAD
1000
MTEXTBEGIN
1070
73
1070
1
1070
44
1040
1.0
1070
74
1070
0
1000
MTEXTEND
  0
POINT
  5
F10027
330
F10011
100
AcDbEntity
  8
Bemassung
 62
     0
100
AcDbPoint
10
49.3791714614500
20
17.6996547756041
30
0.000000000000000
  0
POINT
  5
F10028
330
F10011
100
AcDbEntity
  8
Bemassung
 62
     0
100
AcDbPoint
10
-43.6208285385500
20
-8.30034522439585
30
0.000000000000000
  0
ENDBLK
  5
F10029
330
F10011
100
AcDbEntity
  8
0
100
AcDbBlockEnd
  0
BLOCK
  5
F1002A
330
F10002
100
AcDbEntity
  8
0
100
AcDbBlockBegin
  2
*D3
 70
     1
 10
0.0
 20
0.0
 30
0.0
  3
*D3
  1

  0
LINE
  5
F1002B
330
F10002
100
AcDbEntity
  8
Bemassung
 62
     0
370
    -2
100
AcDbLine
10
-43.6208285385500
20
-1.30034522439585
30
0.000000000000000
11
-55.6208285385500
21
-1.30034522439585
31
0.000000000000000
  0
LINE
  5
F1002C
330
F10002
100
AcDbEntity
  8
Bemassung
 62
     0
370
    -2
100
AcDbLine
10
-43.6208285385500
20
18.6996547756041
30
0.000000000000000
11
-55.6208285385500
21
18.6996547756041
31
0.000000000000000
  0
LINE
  5
F1002D
330
F10002
100
AcDbEntity
  8
Bemassung
 62
     0
370
    -2
100
AcDbLine
10
-53.6208285385500
20
-1.30034522439585
30
0.000000000000000
11
-53.6208285385500
21
18.6996547756041
31
0.000000000000000
  0
INSERT
  5
F1002E
330
F10002
100
AcDbEntity
  8
Bemassung
 62
     0
370
    -2
100
AcDbBlockReference
  2
VDDIM_DEFAULT
10
-53.6208285385500
20
-1.30034522439585
30
0.000000000000000
 41
2.50000000000000
 42
2.50000000000000
 43
2.50000000000000
 50
270.000000000000
  0
INSERT
  5
F1002F
330
F10002
100
AcDbEntity
  8
Bemassung
 62
     0
370
    -2
100
AcDbBlockReference
  2
VDDIM_DEFAULT
10
-53.6208285385500
20
18.6996547756041
30
0.000000000000000
 41
2.50000000000000
 42
2.50000000000000
 43
2.50000000000000
 50
90.0000000000000
  0
MTEXT
  5
F10030
330
F10002
100
AcDbEntity
  8
Bemassung
 62
     0
100
AcDbMText
10
-54.2874952052167
20
8.69965477560415
30
0.000000000000000
 40
2.50000000000000
 41
0.0
 71
     8
 72
     1
  1
Ø20
 11
6.12323399573677e-17
 21
1.00000000000000
 31
0.0
 73
     1
 44
1.0
1001
ACAD
1000
MTEXTBEGIN
1070
73
1070
1
1070
44
1040
1.0
1070
74
1070
0
1000
MTEXTEND
  0
POINT
  5
F10031
330
F10002
100
AcDbEntity
  8
Bemassung
 62
     0
100
AcDbPoint
10
-43.6208285385500
20
-1.30034522439585
30
0.000000000000000
  0
POINT
  5
F10032
330
F10002
100
AcDbEntity
  8
Bemassung
 62
     0
100
AcDbPoint
10
-43.6208285385500
20
18.6996547756041
30
0.000000000000000
  0
ENDBLK
  5
F10033
330
F10002
100
AcDbEntity
  8
0
100
AcDbBlockEnd
  0
BLOCK
  5
F10034
330
F10007
100
AcDbEntity
  8
0
100
AcDbBlockBegin
  2
*D4
 70
     1
 10
0.0
 20
0.0
 30
0.0
  3
*D4
  1

  0
LINE
  5
F10035
330
F10007
100
AcDbEntity
  8
Bemassung
 62
     0
370
    -2
100
AcDbLine
10
48.3791714614500
20
-1.30034522439585
30
0.000000000000000
11
61.3791714614500
21
-1.30034522439585
31
0.000000000000000
  0
LINE
  5
F10036
330
F10007
100
AcDbEntity
  8
Bemassung
 62
     0
370
    -2
100
AcDbLine
10
48.3791714614500
20
18.6996547756041
30
0.000000000000000
11
61.3791714614500
21
18.6996547756041
31
0.000000000000000
  0
LINE
  5
F10037
330
F10007
100
AcDbEntity
  8
Bemassung
 62
     0
370
    -2
100
AcDbLine
10
59.3791714614500
20
-1.30034522439585
30
0.000000000000000
11
59.3791714614500
21
18.6996547756041
31
0.000000000000000
  0
INSERT
  5
F10038
330
F10007
100
AcDbEntity
  8
Bemassung
 62
     0
370
    -2
100
AcDbBlockReference
  2
VDDIM_DEFAULT
10
59.3791714614500
20
-1.30034522439585
30
0.000000000000000
 41
2.50000000000000
 42
2.50000000000000
 43
2.50000000000000
 50
270.000000000000
  0
INSERT
  5
F10039
330
F10007
100
AcDbEntity
  8
Bemassung
 62
     0
370
    -2
100
AcDbBlockReference
  2
VDDIM_DEFAULT
10
59.3791714614500
20
18.6996547756041
30
0.000000000000000
 41
2.50000000000000
 42
2.50000000000000
 43
2.50000000000000
 50
90.0000000000000
  0
MTEXT
  5
F1003A
330
F10007
100
AcDbEntity
  8
Bemassung
 62
     0
100
AcDbMText
10
58.7125047947833
20
8.69965477560415
30
0.000000000000000
 40
2.50000000000000
 41
0.0
 71
     8
 72
     1
  1
Ø20h6
 11
6.12323399573677e-17
 21
1.00000000000000
 31
0.0
 73
     1
 44
1.0
  0
POINT
  5
F1003B
330
F10007
100
AcDbEntity
  8
Bemassung
 62
     0
100
AcDbPoint
10
48.3791714614500
20
-1.30034522439585
30
0.000000000000000
  0
POINT
  5
F1003C
330
F10007
100
AcDbEntity
  8
Bemassung
 62
     0
100
AcDbPoint
10
48.3791714614500
20
18.6996547756041
30
0.000000000000000
  0
ENDBLK
  5
F1003D
330
F10007
100
AcDbEntity
  8
0
100
AcDbBlockEnd
0
ENDSEC
0
SECTION
2
ENTITIES
  0
DIMENSION
  5
F1000D
330
261
100
AcDbEntity
  8
Bemassung
100
AcDbDimension
  2
*D5
10
-43.6208285385500
20
-6.30034522439585
30
0.000000000000000
11
-32.6237054085153
21
-5.63367855772919
31
0.000000000000000
 70
32
 1
25
 71
     8
  3
BEM-ISBE
100
AcDbAlignedDimension
13
-18.6208285385500
23
-1.30034522439585
33
0.000000000000000
14
-43.6208285385500
24
-8.30034522439585
34
0.000000000000000
100
AcDbRotatedDimension
1001
ACAD
1000
DSTYLE
1002
{
1070
284
1070
8
1070
78
1070
8
1070
144
1040
1.00000000000000
1070
147
1040
0.625
1070
 72
1070
 0
1070
 71
1070
 0
1002
}
  0
DIMENSION
  5
F10012
330
261
100
AcDbEntity
  8
Bemassung
100
AcDbDimension
  2
*D6
10
-43.6208285385500
20
28.6996547756041
30
0.000000000000000
11
2.87917146144996
21
29.3663214422708
31
0.000000000000000
 70
32
 1
93
 71
     8
  3
BEM-ISBE
100
AcDbAlignedDimension
13
49.3791714614500
23
17.6996547756041
33
0.000000000000000
14
-43.6208285385500
24
-8.30034522439585
34
0.000000000000000
100
AcDbRotatedDimension
1001
ACAD
1000
DSTYLE
1002
{
1070
284
1070
8
1070
78
1070
8
1070
144
1040
1.00000000000000
1070
147
1040
0.625
1070
 72
1070
 0
1070
 71
1070
 0
1002
}
  0
DIMENSION
  5
F10003
330
261
100
AcDbEntity
  8
Bemassung
100
AcDbDimension
  2
*D3
10
-53.6208285385500
20
18.6996547756041
30
0.000000000000000
11
-54.2874952052167
21
8.69965477560415
31
0.000000000000000
 70
32
 1
Ø20
 71
     8
  3
BEM-ISBE
100
AcDbAlignedDimension
13
-43.6208285385500
23
-1.30034522439585
33
0.000000000000000
14
-43.6208285385500
24
18.6996547756041
34
0.000000000000000
50
90.0000000000000
100
AcDbRotatedDimension
1001
ACAD
1000
DSTYLE
1002
{
1070
284
1070
8
1070
78
1070
8
1070
144
1040
1.00000000000000
1070
147
1040
0.625
1070
 72
1070
 0
1070
 71
1070
 0
1002
}
  0
DIMENSION
  5
F10008
330
261
100
AcDbEntity
  8
Bemassung
100
AcDbDimension
  2
*D4
10
59.3791714614500
20
18.6996547756041
30
0.000000000000000
11
58.7125047947833
21
8.69965477560415
31
0.000000000000000
 70
32
 1
Ø20h6
 71
     8
  3
BEM-ISBE
100
AcDbAlignedDimension
13
48.3791714614500
23
-1.30034522439585
33
0.000000000000000
14
48.3791714614500
24
18.6996547756041
34
0.000000000000000
50
90.0000000000000
100
AcDbRotatedDimension
1001
ACAD
1000
DSTYLE
1002
{
1070
284
1070
8
1070
78
1070
8
1070
144
1040
1.00000000000000
1070
147
1040
0.625
1070
 72
1070
 0
1070
 71
1070
 0
1002
}
  0
LINE
  5
F1003E
330
F1003F
100
AcDbEntity
8
Geo
100
AcDbLine
10
-43.6208285385500
20
8.69965477560415
30
0.000000000000000
11
-43.6208285385500
21
18.6996547756041
31
0.000000000000000
  0
LINE
  5
F10040
330
F10041
100
AcDbEntity
8
Geo
100
AcDbLine
10
-43.6208285385500
20
18.6996547756041
30
0.000000000000000
11
-18.6208285385500
21
18.6996547756041
31
0.000000000000000
  0
LINE
  5
F10042
330
F10043
100
AcDbEntity
8
Geo
100
AcDbLine
10
-18.6208285385500
20
18.6996547756041
30
0.000000000000000
11
17.0791714614500
21
18.6996547756041
31
0.000000000000000
  0
LINE
  5
F10044
330
F10045
100
AcDbEntity
8
Geo
100
AcDbLine
10
17.0791714614500
20
18.6996547756041
30
0.000000000000000
11
18.8791714614500
21
16.8996547756041
31
0.000000000000000
  0
LINE
  5
F10046
330
F10047
100
AcDbEntity
8
Geo
100
AcDbLine
10
18.8791714614500
20
16.8996547756041
30
0.000000000000000
11
29.8791714614500
21
16.8996547756041
31
0.000000000000000
  0
LINE
  5
F10048
330
F10049
100
AcDbEntity
8
Geo
100
AcDbLine
10
29.8791714614500
20
16.8996547756041
30
0.000000000000000
11
31.6791714614500
21
18.6996547756041
31
0.000000000000000
  0
LINE
  5
F1004A
330
F1004B
100
AcDbEntity
8
Geo
100
AcDbLine
10
31.6791714614500
20
18.6996547756041
30
0.000000000000000
11
48.3791714614500
21
18.6996547756041
31
0.000000000000000
  0
LINE
  5
F1004C
330
F1004D
100
AcDbEntity
8
Geo
100
AcDbLine
10
48.3791714614500
20
18.6996547756041
30
0.000000000000000
11
49.3791714614500
21
17.6996547756041
31
0.000000000000000
  0
LINE
  5
F1004E
330
F1004F
100
AcDbEntity
8
Geo
100
AcDbLine
10
-43.6208285385500
20
18.6996547756041
30
0.000000000000000
11
-43.5208285385500
21
18.6994881094004
31
0.000000000000000
  0
LINE
  5
F10050
330
F10051
100
AcDbEntity
8
Geo
100
AcDbLine
10
-43.5208285385500
20
18.6994881094004
30
0.000000000000000
11
-43.4208285385500
21
18.6989881163449
31
0.000000000000000
  0
LINE
  5
F10052
330
F10053
100
AcDbEntity
8
Geo
100
AcDbLine
10
-43.4208285385500
20
18.6989881163449
30
0.000000000000000
11
-43.3208285385500
21
18.6981548131038
31
0.000000000000000
  0
LINE
  5
F10054
330
F10055
100
AcDbEntity
8
Geo
100
AcDbLine
10
-43.3208285385500
20
18.6981548131038
30
0.000000000000000
11
-43.2208285385500
21
18.6969882274539
31
0.000000000000000
  0
LINE
  5
F10056
330
F10057
100
AcDbEntity
8
Geo
100
AcDbLine
10
-43.2208285385500
20
18.6969882274539
30
0.000000000000000
11
-43.1208285385500
21
18.6954883982813
31
0.000000000000000
  0
LINE
  5
F10058
330
F10059
100
AcDbEntity
8
Geo
100
AcDbLine
10
-43.1208285385500
20
18.6954883982813
30
0.000000000000000
11
-43.0208285385500
21
18.6936553755801
31
0.000000000000000
  0
LINE
  5
F1005A
330
F1005B
100
AcDbEntity
8
Geo
100
AcDbLine
10
-43.0208285385500
20
18.6936553755801
30
0.000000000000000
11
-42.9208285385500
21
18.6914892204510
31
0.000000000000000
  0
LINE
  5
F1005C
330
F1005D
100
AcDbEntity
8
Geo
100
AcDbLine
10
-42.9208285385500
20
18.6914892204510
30
0.000000000000000
11
-42.8208285385500
21
18.6889900050989
31
0.000000000000000
  0
LINE
  5
F1005E
330
F1005F
100
AcDbEntity
8
Geo
100
AcDbLine
10
-42.8208285385500
20
18.6889900050989
30
0.000000000000000
11
-42.7208285385500
21
18.6861578128308
31
0.000000000000000
  0
LINE
  5
F10060
330
F10061
100
AcDbEntity
8
Geo
100
AcDbLine
10
-42.7208285385500
20
18.6861578128308
30
0.000000000000000
11
-42.6208285385500
21
18.6829927380527
31
0.000000000000000
  0
LINE
  5
F10062
330
F10063
100
AcDbEntity
8
Geo
100
AcDbLine
10
-42.6208285385500
20
18.6829927380527
30
0.000000000000000
11
-42.5208285385500
21
18.6794948862670
31
0.000000000000000
  0
LINE
  5
F10064
330
F10065
100
AcDbEntity
8
Geo
100
AcDbLine
10
-42.5208285385500
20
18.6794948862670
30
0.000000000000000
11
-42.4208285385500
21
18.6756643740683
31
0.000000000000000
  0
LINE
  5
F10066
330
F10067
100
AcDbEntity
8
Geo
100
AcDbLine
10
-42.4208285385500
20
18.6756643740683
30
0.000000000000000
11
-42.3208285385500
21
18.6715013291400
31
0.000000000000000
  0
LINE
  5
F10068
330
F10069
100
AcDbEntity
8
Geo
100
AcDbLine
10
-42.3208285385500
20
18.6715013291400
30
0.000000000000000
11
-42.2208285385500
21
18.6670058902499
31
0.000000000000000
  0
LINE
  5
F1006A
330
F1006B
100
AcDbEntity
8
Geo
100
AcDbLine
10
-42.2208285385500
20
18.6670058902499
30
0.000000000000000
11
-42.1208285385500
21
18.6621782072456
31
0.000000000000000
  0
LINE
  5
F1006C
330
F1006D
100
AcDbEntity
8
Geo
100
AcDbLine
10
-42.1208285385500
20
18.6621782072456
30
0.000000000000000
11
-42.0208285385500
21
18.6570184410493
31
0.000000000000000
  0
LINE
  5
F1006E
330
F1006F
100
AcDbEntity
8
Geo
100
AcDbLine
10
-42.0208285385500
20
18.6570184410493
30
0.000000000000000
11
-41.9208285385500
21
18.6515267636528
31
0.000000000000000
  0
LINE
  5
F10070
330
F10071
100
AcDbEntity
8
Geo
100
AcDbLine
10
-41.9208285385500
20
18.6515267636528
30
0.000000000000000
11
-41.8208285385500
21
18.6457033581115
31
0.000000000000000
  0
LINE
  5
F10072
330
F10073
100
AcDbEntity
8
Geo
100
AcDbLine
10
-41.8208285385500
20
18.6457033581115
30
0.000000000000000
11
-41.7208285385500
21
18.6395484185384
31
0.000000000000000
  0
LINE
  5
F10074
330
F10075
100
AcDbEntity
8
Geo
100
AcDbLine
10
-41.7208285385500
20
18.6395484185384
30
0.000000000000000
11
-41.6208285385500
21
18.6330621500976
31
0.000000000000000
  0
LINE
  5
F10076
330
F10077
100
AcDbEntity
8
Geo
100
AcDbLine
10
-41.6208285385500
20
18.6330621500976
30
0.000000000000000
11
-41.5208285385500
21
18.6262447689973
31
0.000000000000000
  0
LINE
  5
F10078
330
F10079
100
AcDbEntity
8
Geo
100
AcDbLine
10
-41.5208285385500
20
18.6262447689973
30
0.000000000000000
11
-41.4208285385500
21
18.6190965024831
31
0.000000000000000
  0
LINE
  5
F1007A
330
F1007B
100
AcDbEntity
8
Geo
100
AcDbLine
10
-41.4208285385500
20
18.6190965024831
30
0.000000000000000
11
-41.3208285385500
21
18.6116175888298
31
0.000000000000000
  0
LINE
  5
F1007C
330
F1007D
100
AcDbEntity
8
Geo
100
AcDbLine
10
-41.3208285385500
20
18.6116175888298
30
0.000000000000000
11
-41.2208285385500
21
18.6038082773338
31
0.000000000000000
  0
LINE
  5
F1007E
330
F1007F
100
AcDbEntity
8
Geo
100
AcDbLine
10
-41.2208285385500
20
18.6038082773338
30
0.000000000000000
11
-41.1208285385500
21
18.5956688283049
31
0.000000000000000
  0
LINE
  5
F10080
330
F10081
100
AcDbEntity
8
Geo
100
AcDbLine
10
-41.1208285385500
20
18.5956688283049
30
0.000000000000000
11
-41.0208285385500
21
18.5871995130571
31
0.000000000000000
  0
LINE
  5
F10082
330
F10083
100
AcDbEntity
8
Geo
100
AcDbLine
10
-41.0208285385500
20
18.5871995130571
30
0.000000000000000
11
-40.9208285385500
21
18.5784006139002
31
0.000000000000000
  0
LINE
  5
F10084
330
F10085
100
AcDbEntity
8
Geo
100
AcDbLine
10
-40.9208285385500
20
18.5784006139002
30
0.000000000000000
11
-40.8208285385500
21
18.5692724241301
31
0.000000000000000
  0
LINE
  5
F10086
330
F10087
100
AcDbEntity
8
Geo
100
AcDbLine
10
-40.8208285385500
20
18.5692724241301
30
0.000000000000000
11
-40.7208285385500
21
18.5598152480189
31
0.000000000000000
  0
LINE
  5
F10088
330
F10089
100
AcDbEntity
8
Geo
100
AcDbLine
10
-40.7208285385500
20
18.5598152480189
30
0.000000000000000
11
-40.6208285385500
21
18.5500294008050
31
0.000000000000000
  0
LINE
  5
F1008A
330
F1008B
100
AcDbEntity
8
Geo
100
AcDbLine
10
-40.6208285385500
20
18.5500294008050
30
0.000000000000000
11
-40.5208285385500
21
18.5399152086822
31
0.000000000000000
  0
LINE
  5
F1008C
330
F1008D
100
AcDbEntity
8
Geo
100
AcDbLine
10
-40.5208285385500
20
18.5399152086822
30
0.000000000000000
11
-40.4208285385500
21
18.5294730087895
31
0.000000000000000
  0
LINE
  5
F1008E
330
F1008F
100
AcDbEntity
8
Geo
100
AcDbLine
10
-40.4208285385500
20
18.5294730087895
30
0.000000000000000
11
-40.3208285385500
21
18.5187031491992
31
0.000000000000000
  0
LINE
  5
F10090
330
F10091
100
AcDbEntity
8
Geo
100
AcDbLine
10
-40.3208285385500
20
18.5187031491992
30
0.000000000000000
11
-40.2208285385500
21
18.5076059889056
31
0.000000000000000
  0
LINE
  5
F10092
330
F10093
100
AcDbEntity
8
Geo
100
AcDbLine
10
-40.2208285385500
20
18.5076059889056
30
0.000000000000000
11
-40.1208285385500
21
18.4961818978131
31
0.000000000000000
  0
LINE
  5
F10094
330
F10095
100
AcDbEntity
8
Geo
100
AcDbLine
10
-40.1208285385500
20
18.4961818978131
30
0.000000000000000
11
-40.0208285385500
21
18.4844312567235
31
0.000000000000000
  0
LINE
  5
F10096
330
F10097
100
AcDbEntity
8
Geo
100
AcDbLine
10
-40.0208285385500
20
18.4844312567235
30
0.000000000000000
11
-39.9208285385500
21
18.4723544573239
31
0.000000000000000
  0
LINE
  5
F10098
330
F10099
100
AcDbEntity
8
Geo
100
AcDbLine
10
-39.9208285385500
20
18.4723544573239
30
0.000000000000000
11
-39.8208285385500
21
18.4599519021732
31
0.000000000000000
  0
LINE
  5
F1009A
330
F1009B
100
AcDbEntity
8
Geo
100
AcDbLine
10
-39.8208285385500
20
18.4599519021732
30
0.000000000000000
11
-39.7208285385500
21
18.4472240046886
31
0.000000000000000
  0
LINE
  5
F1009C
330
F1009D
100
AcDbEntity
8
Geo
100
AcDbLine
10
-39.7208285385500
20
18.4472240046886
30
0.000000000000000
11
-39.6208285385500
21
18.4341711891323
31
0.000000000000000
  0
LINE
  5
F1009E
330
F1009F
100
AcDbEntity
8
Geo
100
AcDbLine
10
-39.6208285385500
20
18.4341711891323
30
0.000000000000000
11
-39.5208285385500
21
18.4207938905968
31
0.000000000000000
  0
LINE
  5
F100A0
330
F100A1
100
AcDbEntity
8
Geo
100
AcDbLine
10
-39.5208285385500
20
18.4207938905968
30
0.000000000000000
11
-39.4208285385500
21
18.4070925549910
31
0.000000000000000
  0
LINE
  5
F100A2
330
F100A3
100
AcDbEntity
8
Geo
100
AcDbLine
10
-39.4208285385500
20
18.4070925549910
30
0.000000000000000
11
-39.3208285385500
21
18.3930676390246
31
0.000000000000000
  0
LINE
  5
F100A4
330
F100A5
100
AcDbEntity
8
Geo
100
AcDbLine
10
-39.3208285385500
20
18.3930676390246
30
0.000000000000000
11
-39.2208285385500
21
18.3787196101937
31
0.000000000000000
  0
LINE
  5
F100A6
330
F100A7
100
AcDbEntity
8
Geo
100
AcDbLine
10
-39.2208285385500
20
18.3787196101937
30
0.000000000000000
11
-39.1208285385500
21
18.3640489467646
31
0.000000000000000
  0
LINE
  5
F100A8
330
F100A9
100
AcDbEntity
8
Geo
100
AcDbLine
10
-39.1208285385500
20
18.3640489467646
30
0.000000000000000
11
-39.0208285385500
21
18.3490561377579
31
0.000000000000000
  0
LINE
  5
F100AA
330
F100AB
100
AcDbEntity
8
Geo
100
AcDbLine
10
-39.0208285385500
20
18.3490561377579
30
0.000000000000000
11
-38.9208285385500
21
18.3337416829326
31
0.000000000000000
  0
LINE
  5
F100AC
330
F100AD
100
AcDbEntity
8
Geo
100
AcDbLine
10
-38.9208285385500
20
18.3337416829326
30
0.000000000000000
11
-38.8208285385500
21
18.3181060927691
31
0.000000000000000
  0
LINE
  5
F100AE
330
F100AF
100
AcDbEntity
8
Geo
100
AcDbLine
10
-38.8208285385500
20
18.3181060927691
30
0.000000000000000
11
-38.7208285385500
21
18.3021498884523
31
0.000000000000000
  0
LINE
  5
F100B0
330
F100B1
100
AcDbEntity
8
Geo
100
AcDbLine
10
-38.7208285385500
20
18.3021498884523
30
0.000000000000000
11
-38.6208285385500
21
18.2858736018541
31
0.000000000000000
  0
LINE
  5
F100B2
330
F100B3
100
AcDbEntity
8
Geo
100
AcDbLine
10
-38.6208285385500
20
18.2858736018541
30
0.000000000000000
11
-38.5208285385500
21
18.2692777755161
31
0.000000000000000
  0
LINE
  5
F100B4
330
F100B5
100
AcDbEntity
8
Geo
100
AcDbLine
10
-38.5208285385500
20
18.2692777755161
30
0.000000000000000
11
-38.4208285385500
21
18.2523629626308
31
0.000000000000000
  0
LINE
  5
F100B6
330
F100B7
100
AcDbEntity
8
Geo
100
AcDbLine
10
-38.4208285385500
20
18.2523629626308
30
0.000000000000000
11
-38.3208285385500
21
18.2351297270237
31
0.000000000000000
  0
LINE
  5
F100B8
330
F100B9
100
AcDbEntity
8
Geo
100
AcDbLine
10
-38.3208285385500
20
18.2351297270237
30
0.000000000000000
11
-38.2208285385500
21
18.2175786431346
31
0.000000000000000
  0
LINE
  5
F100BA
330
F100BB
100
AcDbEntity
8
Geo
100
AcDbLine
10
-38.2208285385500
20
18.2175786431346
30
0.000000000000000
11
-38.1208285385500
21
18.1997102959978
31
0.000000000000000
  0
LINE
  5
F100BC
330
F100BD
100
AcDbEntity
8
Geo
100
AcDbLine
10
-38.1208285385500
20
18.1997102959978
30
0.000000000000000
11
-38.0208285385500
21
18.1815252812233
31
0.000000000000000
  0
LINE
  5
F100BE
330
F100BF
100
AcDbEntity
8
Geo
100
AcDbLine
10
-38.0208285385500
20
18.1815252812233
30
0.000000000000000
11
-37.9208285385500
21
18.1630242049765
31
0.000000000000000
  0
LINE
  5
F100C0
330
F100C1
100
AcDbEntity
8
Geo
100
AcDbLine
10
-37.9208285385500
20
18.1630242049765
30
0.000000000000000
11
-37.8208285385500
21
18.1442076839584
31
0.000000000000000
  0
LINE
  5
F100C2
330
F100C3
100
AcDbEntity
8
Geo
100
AcDbLine
10
-37.8208285385500
20
18.1442076839584
30
0.000000000000000
11
-37.7208285385501
21
18.1250763453844
31
0.000000000000000
  0
LINE
  5
F100C4
330
F100C5
100
AcDbEntity
8
Geo
100
AcDbLine
10
-37.7208285385501
20
18.1250763453844
30
0.000000000000000
11
-37.6208285385501
21
18.1056308269642
31
0.000000000000000
  0
LINE
  5
F100C6
330
F100C7
100
AcDbEntity
8
Geo
100
AcDbLine
10
-37.6208285385501
20
18.1056308269642
30
0.000000000000000
11
-37.5208285385500
21
18.0858717768799
31
0.000000000000000
  0
LINE
  5
F100C8
330
F100C9
100
AcDbEntity
8
Geo
100
AcDbLine
10
-37.5208285385500
20
18.0858717768799
30
0.000000000000000
11
-37.4208285385500
21
18.0657998537646
31
0.000000000000000
  0
LINE
  5
F100CA
330
F100CB
100
AcDbEntity
8
Geo
100
AcDbLine
10
-37.4208285385500
20
18.0657998537646
30
0.000000000000000
11
-37.3208285385500
21
18.0454157266806
31
0.000000000000000
  0
LINE
  5
F100CC
330
F100CD
100
AcDbEntity
8
Geo
100
AcDbLine
10
-37.3208285385500
20
18.0454157266806
30
0.000000000000000
11
-37.2208285385501
21
18.0247200750969
31
0.000000000000000
  0
LINE
  5
F100CE
330
F100CF
100
AcDbEntity
8
Geo
100
AcDbLine
10
-37.2208285385501
20
18.0247200750969
30
0.000000000000000
11
-37.1208285385501
21
18.0037135888667
31
0.000000000000000
  0
LINE
  5
F100D0
330
F100D1
100
AcDbEntity
8
Geo
100
AcDbLine
10
-37.1208285385501
20
18.0037135888667
30
0.000000000000000
11
-37.0208285385500
21
17.9823969682042
31
0.000000000000000
  0
LINE
  5
F100D2
330
F100D3
100
AcDbEntity
8
Geo
100
AcDbLine
10
-37.0208285385500
20
17.9823969682042
30
0.000000000000000
11
-36.9208285385501
21
17.9607709236614
31
0.000000000000000
  0
LINE
  5
F100D4
330
F100D5
100
AcDbEntity
8
Geo
100
AcDbLine
10
-36.9208285385501
20
17.9607709236614
30
0.000000000000000
11
-36.8208285385501
21
17.9388361761046
31
0.000000000000000
  0
LINE
  5
F100D6
330
F100D7
100
AcDbEntity
8
Geo
100
AcDbLine
10
-36.8208285385501
20
17.9388361761046
30
0.000000000000000
11
-36.7208285385501
21
17.9165934566899
31
0.000000000000000
  0
LINE
  5
F100D8
330
F100D9
100
AcDbEntity
8
Geo
100
AcDbLine
10
-36.7208285385501
20
17.9165934566899
30
0.000000000000000
11
-36.6208285385501
21
17.8940435068392
31
0.000000000000000
  0
LINE
  5
F100DA
330
F100DB
100
AcDbEntity
8
Geo
100
AcDbLine
10
-36.6208285385501
20
17.8940435068392
30
0.000000000000000
11
-36.5208285385500
21
17.8711870782155
31
0.000000000000000
  0
LINE
  5
F100DC
330
F100DD
100
AcDbEntity
8
Geo
100
AcDbLine
10
-36.5208285385500
20
17.8711870782155
30
0.000000000000000
11
-36.4208285385501
21
17.8480249326976
31
0.000000000000000
  0
LINE
  5
F100DE
330
F100DF
100
AcDbEntity
8
Geo
100
AcDbLine
10
-36.4208285385501
20
17.8480249326976
30
0.000000000000000
11
-36.3208285385501
21
17.8245578423548
31
0.000000000000000
  0
LINE
  5
F100E0
330
F100E1
100
AcDbEntity
8
Geo
100
AcDbLine
10
-36.3208285385501
20
17.8245578423548
30
0.000000000000000
11
-36.2208285385501
21
17.8007865894214
31
0.000000000000000
  0
LINE
  5
F100E2
330
F100E3
100
AcDbEntity
8
Geo
100
AcDbLine
10
-36.2208285385501
20
17.8007865894214
30
0.000000000000000
11
-36.1208285385501
21
17.7767119662702
31
0.000000000000000
  0
LINE
  5
F100E4
330
F100E5
100
AcDbEntity
8
Geo
100
AcDbLine
10
-36.1208285385501
20
17.7767119662702
30
0.000000000000000
11
-36.0208285385501
21
17.7523347753865
31
0.000000000000000
  0
LINE
  5
F100E6
330
F100E7
100
AcDbEntity
8
Geo
100
AcDbLine
10
-36.0208285385501
20
17.7523347753865
30
0.000000000000000
11
-35.9208285385501
21
17.7276558293410
31
0.000000000000000
  0
LINE
  5
F100E8
330
F100E9
100
AcDbEntity
8
Geo
100
AcDbLine
10
-35.9208285385501
20
17.7276558293410
30
0.000000000000000
11
-35.8208285385501
21
17.7026759507629
31
0.000000000000000
  0
LINE
  5
F100EA
330
F100EB
100
AcDbEntity
8
Geo
100
AcDbLine
10
-35.8208285385501
20
17.7026759507629
30
0.000000000000000
11
-35.7208285385501
21
17.6773959723127
31
0.000000000000000
  0
LINE
  5
F100EC
330
F100ED
100
AcDbEntity
8
Geo
100
AcDbLine
10
-35.7208285385501
20
17.6773959723127
30
0.000000000000000
11
-35.6208285385501
21
17.6518167366538
31
0.000000000000000
  0
LINE
  5
F100EE
330
F100EF
100
AcDbEntity
8
Geo
100
AcDbLine
10
-35.6208285385501
20
17.6518167366538
30
0.000000000000000
11
-35.5208285385501
21
17.6259390964251
31
0.000000000000000
  0
LINE
  5
F100F0
330
F100F1
100
AcDbEntity
8
Geo
100
AcDbLine
10
-35.5208285385501
20
17.6259390964251
30
0.000000000000000
11
-35.4208285385501
21
17.5997639142122
31
0.000000000000000
  0
LINE
  5
F100F2
330
F100F3
100
AcDbEntity
8
Geo
100
AcDbLine
10
-35.4208285385501
20
17.5997639142122
30
0.000000000000000
11
-35.3208285385501
21
17.5732920625188
31
0.000000000000000
  0
LINE
  5
F100F4
330
F100F5
100
AcDbEntity
8
Geo
100
AcDbLine
10
-35.3208285385501
20
17.5732920625188
30
0.000000000000000
11
-35.2208285385501
21
17.5465244237374
31
0.000000000000000
  0
LINE
  5
F100F6
330
F100F7
100
AcDbEntity
8
Geo
100
AcDbLine
10
-35.2208285385501
20
17.5465244237374
30
0.000000000000000
11
-35.1208285385501
21
17.5194618901203
31
0.000000000000000
  0
LINE
  5
F100F8
330
F100F9
100
AcDbEntity
8
Geo
100
AcDbLine
10
-35.1208285385501
20
17.5194618901203
30
0.000000000000000
11
-35.0208285385501
21
17.4921053637493
31
0.000000000000000
  0
LINE
  5
F100FA
330
F100FB
100
AcDbEntity
8
Geo
100
AcDbLine
10
-35.0208285385501
20
17.4921053637493
30
0.000000000000000
11
-34.9208285385501
21
17.4644557565062
31
0.000000000000000
  0
LINE
  5
F100FC
330
F100FD
100
AcDbEntity
8
Geo
100
AcDbLine
10
-34.9208285385501
20
17.4644557565062
30
0.000000000000000
11
-34.8208285385501
21
17.4365139900420
31
0.000000000000000
  0
LINE
  5
F100FE
330
F100FF
100
AcDbEntity
8
Geo
100
AcDbLine
10
-34.8208285385501
20
17.4365139900420
30
0.000000000000000
11
-34.7208285385501
21
17.4082809957462
31
0.000000000000000
  0
LINE
  5
F10100
330
F10101
100
AcDbEntity
8
Geo
100
AcDbLine
10
-34.7208285385501
20
17.4082809957462
30
0.000000000000000
11
-34.6208285385501
21
17.3797577147161
31
0.000000000000000
  0
LINE
  5
F10102
330
F10103
100
AcDbEntity
8
Geo
100
AcDbLine
10
-34.6208285385501
20
17.3797577147161
30
0.000000000000000
11
-34.5208285385501
21
17.3509450977251
31
0.000000000000000
  0
LINE
  5
F10104
330
F10105
100
AcDbEntity
8
Geo
100
AcDbLine
10
-34.5208285385501
20
17.3509450977251
30
0.000000000000000
11
-34.4208285385501
21
17.3218441051910
31
0.000000000000000
  0
LINE
  5
F10106
330
F10107
100
AcDbEntity
8
Geo
100
AcDbLine
10
-34.4208285385501
20
17.3218441051910
30
0.000000000000000
11
-34.3208285385501
21
17.2924557071443
31
0.000000000000000
  0
LINE
  5
F10108
330
F10109
100
AcDbEntity
8
Geo
100
AcDbLine
10
-34.3208285385501
20
17.2924557071443
30
0.000000000000000
11
-34.2208285385501
21
17.2627808831956
31
0.000000000000000
  0
LINE
  5
F1010A
330
F1010B
100
AcDbEntity
8
Geo
100
AcDbLine
10
-34.2208285385501
20
17.2627808831956
30
0.000000000000000
11
-34.1208285385501
21
17.2328206225027
31
0.000000000000000
  0
LINE
  5
F1010C
330
F1010D
100
AcDbEntity
8
Geo
100
AcDbLine
10
-34.1208285385501
20
17.2328206225027
30
0.000000000000000
11
-34.0208285385501
21
17.2025759237385
31
0.000000000000000
  0
LINE
  5
F1010E
330
F1010F
100
AcDbEntity
8
Geo
100
AcDbLine
10
-34.0208285385501
20
17.2025759237385
30
0.000000000000000
11
-33.9208285385501
21
17.1720477950566
31
0.000000000000000
  0
LINE
  5
F10110
330
F10111
100
AcDbEntity
8
Geo
100
AcDbLine
10
-33.9208285385501
20
17.1720477950566
30
0.000000000000000
11
-33.8208285385501
21
17.1412372540585
31
0.000000000000000
  0
LINE
  5
F10112
330
F10113
100
AcDbEntity
8
Geo
100
AcDbLine
10
-33.8208285385501
20
17.1412372540585
30
0.000000000000000
11
-33.7208285385501
21
17.1101453277595
31
0.000000000000000
  0
LINE
  5
F10114
330
F10115
100
AcDbEntity
8
Geo
100
AcDbLine
10
-33.7208285385501
20
17.1101453277595
30
0.000000000000000
11
-33.6208285385501
21
17.0787730525541
31
0.000000000000000
  0
LINE
  5
F10116
330
F10117
100
AcDbEntity
8
Geo
100
AcDbLine
10
-33.6208285385501
20
17.0787730525541
30
0.000000000000000
11
-33.5208285385501
21
17.0471214741820
31
0.000000000000000
  0
LINE
  5
F10118
330
F10119
100
AcDbEntity
8
Geo
100
AcDbLine
10
-33.5208285385501
20
17.0471214741820
30
0.000000000000000
11
-33.4208285385501
21
17.0151916476928
31
0.000000000000000
  0
LINE
  5
F1011A
330
F1011B
100
AcDbEntity
8
Geo
100
AcDbLine
10
-33.4208285385501
20
17.0151916476928
30
0.000000000000000
11
-33.3208285385501
21
16.9829846374112
31
0.000000000000000
  0
LINE
  5
F1011C
330
F1011D
100
AcDbEntity
8
Geo
100
AcDbLine
10
-33.3208285385501
20
16.9829846374112
30
0.000000000000000
11
-33.2208285385501
21
16.9505015169012
31
0.000000000000000
  0
LINE
  5
F1011E
330
F1011F
100
AcDbEntity
8
Geo
100
AcDbLine
10
-33.2208285385501
20
16.9505015169012
30
0.000000000000000
11
-33.1208285385501
21
16.9177433689305
31
0.000000000000000
  0
LINE
  5
F10120
330
F10121
100
AcDbEntity
8
Geo
100
AcDbLine
10
-33.1208285385501
20
16.9177433689305
30
0.000000000000000
11
-33.0208285385501
21
16.8847112854342
31
0.000000000000000
  0
LINE
  5
F10122
330
F10123
100
AcDbEntity
8
Geo
100
AcDbLine
10
-33.0208285385501
20
16.8847112854342
30
0.000000000000000
11
-32.9208285385501
21
16.8514063674789
31
0.000000000000000
  0
LINE
  5
F10124
330
F10125
100
AcDbEntity
8
Geo
100
AcDbLine
10
-32.9208285385501
20
16.8514063674789
30
0.000000000000000
11
-32.8208285385501
21
16.8178297252252
31
0.000000000000000
  0
LINE
  5
F10126
330
F10127
100
AcDbEntity
8
Geo
100
AcDbLine
10
-32.8208285385501
20
16.8178297252252
30
0.000000000000000
11
-32.7208285385501
21
16.7839824778916
31
0.000000000000000
  0
LINE
  5
F10128
330
F10129
100
AcDbEntity
8
Geo
100
AcDbLine
10
-32.7208285385501
20
16.7839824778916
30
0.000000000000000
11
-32.6208285385501
21
16.7498657537164
31
0.000000000000000
  0
LINE
  5
F1012A
330
F1012B
100
AcDbEntity
8
Geo
100
AcDbLine
10
-32.6208285385501
20
16.7498657537164
30
0.000000000000000
11
-32.5208285385501
21
16.7154806899207
31
0.000000000000000
  0
LINE
  5
F1012C
330
F1012D
100
AcDbEntity
8
Geo
100
AcDbLine
10
-32.5208285385501
20
16.7154806899207
30
0.000000000000000
11
-32.4208285385501
21
16.6808284326701
31
0.000000000000000
  0
LINE
  5
F1012E
330
F1012F
100
AcDbEntity
8
Geo
100
AcDbLine
10
-32.4208285385501
20
16.6808284326701
30
0.000000000000000
11
-32.3208285385501
21
16.6459101370365
31
0.000000000000000
  0
LINE
  5
F10130
330
F10131
100
AcDbEntity
8
Geo
100
AcDbLine
10
-32.3208285385501
20
16.6459101370365
30
0.000000000000000
11
-32.2208285385501
21
16.6107269669600
31
0.000000000000000
  0
LINE
  5
F10132
330
F10133
100
AcDbEntity
8
Geo
100
AcDbLine
10
-32.2208285385501
20
16.6107269669600
30
0.000000000000000
11
-32.1208285385501
21
16.5752800952097
31
0.000000000000000
  0
LINE
  5
F10134
330
F10135
100
AcDbEntity
8
Geo
100
AcDbLine
10
-32.1208285385501
20
16.5752800952097
30
0.000000000000000
11
-32.0208285385501
21
16.5395707033445
31
0.000000000000000
  0
LINE
  5
F10136
330
F10137
100
AcDbEntity
8
Geo
100
AcDbLine
10
-32.0208285385501
20
16.5395707033445
30
0.000000000000000
11
-31.9208285385501
21
16.5035999816744
31
0.000000000000000
  0
LINE
  5
F10138
330
F10139
100
AcDbEntity
8
Geo
100
AcDbLine
10
-31.9208285385501
20
16.5035999816744
30
0.000000000000000
11
-31.8208285385501
21
16.4673691292200
31
0.000000000000000
  0
LINE
  5
F1013A
330
F1013B
100
AcDbEntity
8
Geo
100
AcDbLine
10
-31.8208285385501
20
16.4673691292200
30
0.000000000000000
11
-31.7208285385501
21
16.4308793536730
31
0.000000000000000
  0
LINE
  5
F1013C
330
F1013D
100
AcDbEntity
8
Geo
100
AcDbLine
10
-31.7208285385501
20
16.4308793536730
30
0.000000000000000
11
-31.6208285385501
21
16.3941318713560
31
0.000000000000000
  0
LINE
  5
F1013E
330
F1013F
100
AcDbEntity
8
Geo
100
AcDbLine
10
-31.6208285385501
20
16.3941318713560
30
0.000000000000000
11
-31.5208285385501
21
16.3571279071815
31
0.000000000000000
  0
LINE
  5
F10140
330
F10141
100
AcDbEntity
8
Geo
100
AcDbLine
10
-31.5208285385501
20
16.3571279071815
30
0.000000000000000
11
-31.4208285385501
21
16.3198686946117
31
0.000000000000000
  0
LINE
  5
F10142
330
F10143
100
AcDbEntity
8
Geo
100
AcDbLine
10
-31.4208285385501
20
16.3198686946117
30
0.000000000000000
11
-31.3208285385501
21
16.2823554756168
31
0.000000000000000
  0
LINE
  5
F10144
330
F10145
100
AcDbEntity
8
Geo
100
AcDbLine
10
-31.3208285385501
20
16.2823554756168
30
0.000000000000000
11
-31.2208285385501
21
16.2445895006340
31
0.000000000000000
  0
LINE
  5
F10146
330
F10147
100
AcDbEntity
8
Geo
100
AcDbLine
10
-31.2208285385501
20
16.2445895006340
30
0.000000000000000
11
-31.1208285385501
21
16.2065720285256
31
0.000000000000000
  0
LINE
  5
F10148
330
F10149
100
AcDbEntity
8
Geo
100
AcDbLine
10
-31.1208285385501
20
16.2065720285256
30
0.000000000000000
11
-31.0208285385501
21
16.1683043265373
31
0.000000000000000
  0
LINE
  5
F1014A
330
F1014B
100
AcDbEntity
8
Geo
100
AcDbLine
10
-31.0208285385501
20
16.1683043265373
30
0.000000000000000
11
-30.9208285385501
21
16.1297876702554
31
0.000000000000000
  0
LINE
  5
F1014C
330
F1014D
100
AcDbEntity
8
Geo
100
AcDbLine
10
-30.9208285385501
20
16.1297876702554
30
0.000000000000000
11
-30.8208285385501
21
16.0910233435651
31
0.000000000000000
  0
LINE
  5
F1014E
330
F1014F
100
AcDbEntity
8
Geo
100
AcDbLine
10
-30.8208285385501
20
16.0910233435651
30
0.000000000000000
11
-30.7208285385501
21
16.0520126386068
31
0.000000000000000
  0
LINE
  5
F10150
330
F10151
100
AcDbEntity
8
Geo
100
AcDbLine
10
-30.7208285385501
20
16.0520126386068
30
0.000000000000000
11
-30.6208285385501
21
16.0127568557339
31
0.000000000000000
  0
LINE
  5
F10152
330
F10153
100
AcDbEntity
8
Geo
100
AcDbLine
10
-30.6208285385501
20
16.0127568557339
30
0.000000000000000
11
-30.5208285385501
21
15.9732573034688
31
0.000000000000000
  0
LINE
  5
F10154
330
F10155
100
AcDbEntity
8
Geo
100
AcDbLine
10
-30.5208285385501
20
15.9732573034688
30
0.000000000000000
11
-30.4208285385501
21
15.9335152984596
31
0.000000000000000
  0
LINE
  5
F10156
330
F10157
100
AcDbEntity
8
Geo
100
AcDbLine
10
-30.4208285385501
20
15.9335152984596
30
0.000000000000000
11
-30.3208285385501
21
15.8935321654361
31
0.000000000000000
  0
LINE
  5
F10158
330
F10159
100
AcDbEntity
8
Geo
100
AcDbLine
10
-30.3208285385501
20
15.8935321654361
30
0.000000000000000
11
-30.2208285385501
21
15.8533092371657
31
0.000000000000000
  0
LINE
  5
F1015A
330
F1015B
100
AcDbEntity
8
Geo
100
AcDbLine
10
-30.2208285385501
20
15.8533092371657
30
0.000000000000000
11
-30.1208285385501
21
15.8128478544089
31
0.000000000000000
  0
LINE
  5
F1015C
330
F1015D
100
AcDbEntity
8
Geo
100
AcDbLine
10
-30.1208285385501
20
15.8128478544089
30
0.000000000000000
11
-30.0208285385501
21
15.7721493658748
31
0.000000000000000
  0
LINE
  5
F1015E
330
F1015F
100
AcDbEntity
8
Geo
100
AcDbLine
10
-30.0208285385501
20
15.7721493658748
30
0.000000000000000
11
-29.9208285385501
21
15.7312151281759
31
0.000000000000000
  0
LINE
  5
F10160
330
F10161
100
AcDbEntity
8
Geo
100
AcDbLine
10
-29.9208285385501
20
15.7312151281759
30
0.000000000000000
11
-29.8208285385501
21
15.6900465057830
31
0.000000000000000
  0
LINE
  5
F10162
330
F10163
100
AcDbEntity
8
Geo
100
AcDbLine
10
-29.8208285385501
20
15.6900465057830
30
0.000000000000000
11
-29.7208285385501
21
15.6486448709797
31
0.000000000000000
  0
LINE
  5
F10164
330
F10165
100
AcDbEntity
8
Geo
100
AcDbLine
10
-29.7208285385501
20
15.6486448709797
30
0.000000000000000
11
-29.6208285385501
21
15.6070116038166
31
0.000000000000000
  0
LINE
  5
F10166
330
F10167
100
AcDbEntity
8
Geo
100
AcDbLine
10
-29.6208285385501
20
15.6070116038166
30
0.000000000000000
11
-29.5208285385501
21
15.5651480920655
31
0.000000000000000
  0
LINE
  5
F10168
330
F10169
100
AcDbEntity
8
Geo
100
AcDbLine
10
-29.5208285385501
20
15.5651480920655
30
0.000000000000000
11
-29.4208285385501
21
15.5230557311728
31
0.000000000000000
  0
LINE
  5
F1016A
330
F1016B
100
AcDbEntity
8
Geo
100
AcDbLine
10
-29.4208285385501
20
15.5230557311728
30
0.000000000000000
11
-29.3208285385501
21
15.4807359242134
31
0.000000000000000
  0
LINE
  5
F1016C
330
F1016D
100
AcDbEntity
8
Geo
100
AcDbLine
10
-29.3208285385501
20
15.4807359242134
30
0.000000000000000
11
-29.2208285385501
21
15.4381900818437
31
0.000000000000000
  0
LINE
  5
F1016E
330
F1016F
100
AcDbEntity
8
Geo
100
AcDbLine
10
-29.2208285385501
20
15.4381900818437
30
0.000000000000000
11
-29.1208285385501
21
15.3954196222543
31
0.000000000000000
  0
LINE
  5
F10170
330
F10171
100
AcDbEntity
8
Geo
100
AcDbLine
10
-29.1208285385501
20
15.3954196222543
30
0.000000000000000
11
-29.0208285385501
21
15.3524259711233
31
0.000000000000000
  0
LINE
  5
F10172
330
F10173
100
AcDbEntity
8
Geo
100
AcDbLine
10
-29.0208285385501
20
15.3524259711233
30
0.000000000000000
11
-28.9208285385501
21
15.3092105615685
31
0.000000000000000
  0
LINE
  5
F10174
330
F10175
100
AcDbEntity
8
Geo
100
AcDbLine
10
-28.9208285385501
20
15.3092105615685
30
0.000000000000000
11
-28.8208285385501
21
15.2657748340995
31
0.000000000000000
  0
LINE
  5
F10176
330
F10177
100
AcDbEntity
8
Geo
100
AcDbLine
10
-28.8208285385501
20
15.2657748340995
30
0.000000000000000
11
-28.7208285385501
21
15.2221202365698
31
0.000000000000000
  0
LINE
  5
F10178
330
F10179
100
AcDbEntity
8
Geo
100
AcDbLine
10
-28.7208285385501
20
15.2221202365698
30
0.000000000000000
11
-28.6208285385501
21
15.1782482241287
31
0.000000000000000
  0
LINE
  5
F1017A
330
F1017B
100
AcDbEntity
8
Geo
100
AcDbLine
10
-28.6208285385501
20
15.1782482241287
30
0.000000000000000
11
-28.5208285385501
21
15.1341602591725
31
0.000000000000000
  0
LINE
  5
F1017C
330
F1017D
100
AcDbEntity
8
Geo
100
AcDbLine
10
-28.5208285385501
20
15.1341602591725
30
0.000000000000000
11
-28.4208285385501
21
15.0898578112960
31
0.000000000000000
  0
LINE
  5
F1017E
330
F1017F
100
AcDbEntity
8
Geo
100
AcDbLine
10
-28.4208285385501
20
15.0898578112960
30
0.000000000000000
11
-28.3208285385501
21
15.0453423572434
31
0.000000000000000
  0
LINE
  5
F10180
330
F10181
100
AcDbEntity
8
Geo
100
AcDbLine
10
-28.3208285385501
20
15.0453423572434
30
0.000000000000000
11
-28.2208285385501
21
15.0006153808588
31
0.000000000000000
  0
LINE
  5
F10182
330
F10183
100
AcDbEntity
8
Geo
100
AcDbLine
10
-28.2208285385501
20
15.0006153808588
30
0.000000000000000
11
-28.1208285385501
21
14.9556783730376
31
0.000000000000000
  0
LINE
  5
F10184
330
F10185
100
AcDbEntity
8
Geo
100
AcDbLine
10
-28.1208285385501
20
14.9556783730376
30
0.000000000000000
11
-28.0208285385501
21
14.9105328316757
31
0.000000000000000
  0
LINE
  5
F10186
330
F10187
100
AcDbEntity
8
Geo
100
AcDbLine
10
-28.0208285385501
20
14.9105328316757
30
0.000000000000000
11
-27.9208285385501
21
14.8651802616203
31
0.000000000000000
  0
LINE
  5
F10188
330
F10189
100
AcDbEntity
8
Geo
100
AcDbLine
10
-27.9208285385501
20
14.8651802616203
30
0.000000000000000
11
-27.8208285385501
21
14.8196221746196
31
0.000000000000000
  0
LINE
  5
F1018A
330
F1018B
100
AcDbEntity
8
Geo
100
AcDbLine
10
-27.8208285385501
20
14.8196221746196
30
0.000000000000000
11
-27.7208285385501
21
14.7738600892723
31
0.000000000000000
  0
LINE
  5
F1018C
330
F1018D
100
AcDbEntity
8
Geo
100
AcDbLine
10
-27.7208285385501
20
14.7738600892723
30
0.000000000000000
11
-27.6208285385501
21
14.7278955309769
31
0.000000000000000
  0
LINE
  5
F1018E
330
F1018F
100
AcDbEntity
8
Geo
100
AcDbLine
10
-27.6208285385501
20
14.7278955309769
30
0.000000000000000
11
-27.5208285385501
21
14.6817300318812
31
0.000000000000000
  0
LINE
  5
F10190
330
F10191
100
AcDbEntity
8
Geo
100
AcDbLine
10
-27.5208285385501
20
14.6817300318812
30
0.000000000000000
11
-27.4208285385501
21
14.6353651308309
31
0.000000000000000
  0
LINE
  5
F10192
330
F10193
100
AcDbEntity
8
Geo
100
AcDbLine
10
-27.4208285385501
20
14.6353651308309
30
0.000000000000000
11
-27.3208285385501
21
14.5888023733183
31
0.000000000000000
  0
LINE
  5
F10194
330
F10195
100
AcDbEntity
8
Geo
100
AcDbLine
10
-27.3208285385501
20
14.5888023733183
30
0.000000000000000
11
-27.2208285385501
21
14.5420433114311
31
0.000000000000000
  0
LINE
  5
F10196
330
F10197
100
AcDbEntity
8
Geo
100
AcDbLine
10
-27.2208285385501
20
14.5420433114311
30
0.000000000000000
11
-27.1208285385501
21
14.4950895038003
31
0.000000000000000
  0
LINE
  5
F10198
330
F10199
100
AcDbEntity
8
Geo
100
AcDbLine
10
-27.1208285385501
20
14.4950895038003
30
0.000000000000000
11
-27.0208285385501
21
14.4479425155485
31
0.000000000000000
  0
LINE
  5
F1019A
330
F1019B
100
AcDbEntity
8
Geo
100
AcDbLine
10
-27.0208285385501
20
14.4479425155485
30
0.000000000000000
11
-26.9208285385501
21
14.4006039182377
31
0.000000000000000
  0
LINE
  5
F1019C
330
F1019D
100
AcDbEntity
8
Geo
100
AcDbLine
10
-26.9208285385501
20
14.4006039182377
30
0.000000000000000
11
-26.8208285385501
21
14.3530752898166
31
0.000000000000000
  0
LINE
  5
F1019E
330
F1019F
100
AcDbEntity
8
Geo
100
AcDbLine
10
-26.8208285385501
20
14.3530752898166
30
0.000000000000000
11
-26.7208285385501
21
14.3053582145685
31
0.000000000000000
  0
LINE
  5
F101A0
330
F101A1
100
AcDbEntity
8
Geo
100
AcDbLine
10
-26.7208285385501
20
14.3053582145685
30
0.000000000000000
11
-26.6208285385501
21
14.2574542830581
31
0.000000000000000
  0
LINE
  5
F101A2
330
F101A3
100
AcDbEntity
8
Geo
100
AcDbLine
10
-26.6208285385501
20
14.2574542830581
30
0.000000000000000
11
-26.5208285385501
21
14.2093650920788
31
0.000000000000000
  0
LINE
  5
F101A4
330
F101A5
100
AcDbEntity
8
Geo
100
AcDbLine
10
-26.5208285385501
20
14.2093650920788
30
0.000000000000000
11
-26.4208285385501
21
14.1610922445991
31
0.000000000000000
  0
LINE
  5
F101A6
330
F101A7
100
AcDbEntity
8
Geo
100
AcDbLine
10
-26.4208285385501
20
14.1610922445991
30
0.000000000000000
11
-26.3208285385501
21
14.1126373497095
31
0.000000000000000
  0
LINE
  5
F101A8
330
F101A9
100
AcDbEntity
8
Geo
100
AcDbLine
10
-26.3208285385501
20
14.1126373497095
30
0.000000000000000
11
-26.2208285385501
21
14.0640020225685
31
0.000000000000000
  0
LINE
  5
F101AA
330
F101AB
100
AcDbEntity
8
Geo
100
AcDbLine
10
-26.2208285385501
20
14.0640020225685
30
0.000000000000000
11
-26.1208285385501
21
14.0151878843494
31
0.000000000000000
  0
LINE
  5
F101AC
330
F101AD
100
AcDbEntity
8
Geo
100
AcDbLine
10
-26.1208285385501
20
14.0151878843494
30
0.000000000000000
11
-26.0208285385501
21
13.9661965621855
31
0.000000000000000
  0
LINE
  5
F101AE
330
F101AF
100
AcDbEntity
8
Geo
100
AcDbLine
10
-26.0208285385501
20
13.9661965621855
30
0.000000000000000
11
-25.9208285385501
21
13.9170296891164
31
0.000000000000000
  0
LINE
  5
F101B0
330
F101B1
100
AcDbEntity
8
Geo
100
AcDbLine
10
-25.9208285385501
20
13.9170296891164
30
0.000000000000000
11
-25.8208285385501
21
13.8676889040332
31
0.000000000000000
  0
LINE
  5
F101B2
330
F101B3
100
AcDbEntity
8
Geo
100
AcDbLine
10
-25.8208285385501
20
13.8676889040332
30
0.000000000000000
11
-25.7208285385501
21
13.8181758516243
31
0.000000000000000
  0
LINE
  5
F101B4
330
F101B5
100
AcDbEntity
8
Geo
100
AcDbLine
10
-25.7208285385501
20
13.8181758516243
30
0.000000000000000
11
-25.6208285385501
21
13.7684921823201
31
0.000000000000000
  0
LINE
  5
F101B6
330
F101B7
100
AcDbEntity
8
Geo
100
AcDbLine
10
-25.6208285385501
20
13.7684921823201
30
0.000000000000000
11
-25.5208285385501
21
13.7186395522383
31
0.000000000000000
  0
LINE
  5
F101B8
330
F101B9
100
AcDbEntity
8
Geo
100
AcDbLine
10
-25.5208285385501
20
13.7186395522383
30
0.000000000000000
11
-25.4208285385501
21
13.6686196231287
31
0.000000000000000
  0
LINE
  5
F101BA
330
F101BB
100
AcDbEntity
8
Geo
100
AcDbLine
10
-25.4208285385501
20
13.6686196231287
30
0.000000000000000
11
-25.3208285385501
21
13.6184340623177
31
0.000000000000000
  0
LINE
  5
F101BC
330
F101BD
100
AcDbEntity
8
Geo
100
AcDbLine
10
-25.3208285385501
20
13.6184340623177
30
0.000000000000000
11
-25.2208285385501
21
13.5680845426525
31
0.000000000000000
  0
LINE
  5
F101BE
330
F101BF
100
AcDbEntity
8
Geo
100
AcDbLine
10
-25.2208285385501
20
13.5680845426525
30
0.000000000000000
11
-25.1208285385501
21
13.5175727424458
31
0.000000000000000
  0
LINE
  5
F101C0
330
F101C1
100
AcDbEntity
8
Geo
100
AcDbLine
10
-25.1208285385501
20
13.5175727424458
30
0.000000000000000
11
-25.0208285385500
21
13.4669003454197
31
0.000000000000000
  0
LINE
  5
F101C2
330
F101C3
100
AcDbEntity
8
Geo
100
AcDbLine
10
-25.0208285385500
20
13.4669003454197
30
0.000000000000000
11
-24.9208285385500
21
13.4160690406493
31
0.000000000000000
  0
LINE
  5
F101C4
330
F101C5
100
AcDbEntity
8
Geo
100
AcDbLine
10
-24.9208285385500
20
13.4160690406493
30
0.000000000000000
11
-24.8208285385500
21
13.3650805225069
31
0.000000000000000
  0
LINE
  5
F101C6
330
F101C7
100
AcDbEntity
8
Geo
100
AcDbLine
10
-24.8208285385500
20
13.3650805225069
30
0.000000000000000
11
-24.7208285385500
21
13.3139364906048
31
0.000000000000000
  0
LINE
  5
F101C8
330
F101C9
100
AcDbEntity
8
Geo
100
AcDbLine
10
-24.7208285385500
20
13.3139364906048
30
0.000000000000000
11
-24.6208285385500
21
13.2626386497395
31
0.000000000000000
  0
LINE
  5
F101CA
330
F101CB
100
AcDbEntity
8
Geo
100
AcDbLine
10
-24.6208285385500
20
13.2626386497395
30
0.000000000000000
11
-24.5208285385500
21
13.2111887098342
31
0.000000000000000
  0
LINE
  5
F101CC
330
F101CD
100
AcDbEntity
8
Geo
100
AcDbLine
10
-24.5208285385500
20
13.2111887098342
30
0.000000000000000
11
-24.4208285385500
21
13.1595883858821
31
0.000000000000000
  0
LINE
  5
F101CE
330
F101CF
100
AcDbEntity
8
Geo
100
AcDbLine
10
-24.4208285385500
20
13.1595883858821
30
0.000000000000000
11
-24.3208285385500
21
13.1078393978894
31
0.000000000000000
  0
LINE
  5
F101D0
330
F101D1
100
AcDbEntity
8
Geo
100
AcDbLine
10
-24.3208285385500
20
13.1078393978894
30
0.000000000000000
11
-24.2208285385500
21
13.0559434708174
31
0.000000000000000
  0
LINE
  5
F101D2
330
F101D3
100
AcDbEntity
8
Geo
100
AcDbLine
10
-24.2208285385500
20
13.0559434708174
30
0.000000000000000
11
-24.1208285385500
21
13.0039023345256
31
0.000000000000000
  0
LINE
  5
F101D4
330
F101D5
100
AcDbEntity
8
Geo
100
AcDbLine
10
-24.1208285385500
20
13.0039023345256
30
0.000000000000000
11
-24.0208285385500
21
12.9517177237137
31
0.000000000000000
  0
LINE
  5
F101D6
330
F101D7
100
AcDbEntity
8
Geo
100
AcDbLine
10
-24.0208285385500
20
12.9517177237137
30
0.000000000000000
11
-23.9208285385500
21
12.8993913778639
31
0.000000000000000
  0
LINE
  5
F101D8
330
F101D9
100
AcDbEntity
8
Geo
100
AcDbLine
10
-23.9208285385500
20
12.8993913778639
30
0.000000000000000
11
-23.8208285385500
21
12.8469250411829
31
0.000000000000000
  0
LINE
  5
F101DA
330
F101DB
100
AcDbEntity
8
Geo
100
AcDbLine
10
-23.8208285385500
20
12.8469250411829
30
0.000000000000000
11
-23.7208285385500
21
12.7943204625437
31
0.000000000000000
  0
LINE
  5
F101DC
330
F101DD
100
AcDbEntity
8
Geo
100
AcDbLine
10
-43.6208285385500
20
8.69965477560415
30
0.000000000000000
11
-43.5208285385500
21
8.64192006943476
31
0.000000000000000
  0
LINE
  5
F101DE
330
F101DF
100
AcDbEntity
8
Geo
100
AcDbLine
10
-43.5208285385500
20
8.64192006943476
30
0.000000000000000
11
-43.4208285385500
21
8.58418728775028
31
0.000000000000000
  0
LINE
  5
F101E0
330
F101E1
100
AcDbEntity
8
Geo
100
AcDbLine
10
-43.4208285385500
20
8.58418728775028
30
0.000000000000000
11
-43.3208285385500
21
8.52645835497136
31
0.000000000000000
  0
LINE
  5
F101E2
330
F101E3
100
AcDbEntity
8
Geo
100
AcDbLine
10
-43.3208285385500
20
8.52645835497136
30
0.000000000000000
11
-43.2208285385500
21
8.46873519539042
31
0.000000000000000
  0
LINE
  5
F101E4
330
F101E5
100
AcDbEntity
8
Geo
100
AcDbLine
10
-43.2208285385500
20
8.46873519539042
30
0.000000000000000
11
-43.1208285385500
21
8.41101973310745
31
0.000000000000000
  0
LINE
  5
F101E6
330
F101E7
100
AcDbEntity
8
Geo
100
AcDbLine
10
-43.1208285385500
20
8.41101973310745
30
0.000000000000000
11
-43.0208285385500
21
8.35331389196583
31
0.000000000000000
  0
LINE
  5
F101E8
330
F101E9
100
AcDbEntity
8
Geo
100
AcDbLine
10
-43.0208285385500
20
8.35331389196583
30
0.000000000000000
11
-42.9208285385500
21
8.29561959548827
31
0.000000000000000
  0
LINE
  5
F101EA
330
F101EB
100
AcDbEntity
8
Geo
100
AcDbLine
10
-42.9208285385500
20
8.29561959548827
30
0.000000000000000
11
-42.8208285385500
21
8.23793876681263
31
0.000000000000000
  0
LINE
  5
F101EC
330
F101ED
100
AcDbEntity
8
Geo
100
AcDbLine
10
-42.8208285385500
20
8.23793876681263
30
0.000000000000000
11
-42.7208285385500
21
8.18027332862787
31
0.000000000000000
  0
LINE
  5
F101EE
330
F101EF
100
AcDbEntity
8
Geo
100
AcDbLine
10
-42.7208285385500
20
8.18027332862787
30
0.000000000000000
11
-42.6208285385500
21
8.12262520310992
31
0.000000000000000
  0
LINE
  5
F101F0
330
F101F1
100
AcDbEntity
8
Geo
100
AcDbLine
10
-42.6208285385500
20
8.12262520310992
30
0.000000000000000
11
-42.5208285385500
21
8.06499631185762
31
0.000000000000000
  0
LINE
  5
F101F2
330
F101F3
100
AcDbEntity
8
Geo
100
AcDbLine
10
-42.5208285385500
20
8.06499631185762
30
0.000000000000000
11
-42.4208285385500
21
8.00738857582868
31
0.000000000000000
  0
LINE
  5
F101F4
330
F101F5
100
AcDbEntity
8
Geo
100
AcDbLine
10
-42.4208285385500
20
8.00738857582868
30
0.000000000000000
11
-42.3208285385500
21
7.94980391527564
31
0.000000000000000
  0
LINE
  5
F101F6
330
F101F7
100
AcDbEntity
8
Geo
100
AcDbLine
10
-42.3208285385500
20
7.94980391527564
30
0.000000000000000
11
-42.2208285385500
21
7.89224424968184
31
0.000000000000000
  0
LINE
  5
F101F8
330
F101F9
100
AcDbEntity
8
Geo
100
AcDbLine
10
-42.2208285385500
20
7.89224424968184
30
0.000000000000000
11
-42.1208285385500
21
7.83471149769748
31
0.000000000000000
  0
LINE
  5
F101FA
330
F101FB
100
AcDbEntity
8
Geo
100
AcDbLine
10
-42.1208285385500
20
7.83471149769748
30
0.000000000000000
11
-42.0208285385500
21
7.77720757707563
31
0.000000000000000
  0
LINE
  5
F101FC
330
F101FD
100
AcDbEntity
8
Geo
100
AcDbLine
10
-42.0208285385500
20
7.77720757707563
30
0.000000000000000
11
-41.9208285385500
21
7.71973440460831
31
0.000000000000000
  0
LINE
  5
F101FE
330
F101FF
100
AcDbEntity
8
Geo
100
AcDbLine
10
-41.9208285385500
20
7.71973440460831
30
0.000000000000000
11
-41.8208285385500
21
7.66229389606264
31
0.000000000000000
  0
LINE
  5
F10200
330
F10201
100
AcDbEntity
8
Geo
100
AcDbLine
10
-41.8208285385500
20
7.66229389606264
30
0.000000000000000
11
-41.7208285385500
21
7.60488796611689
31
0.000000000000000
  0
LINE
  5
F10202
330
F10203
100
AcDbEntity
8
Geo
100
AcDbLine
10
-41.7208285385500
20
7.60488796611689
30
0.000000000000000
11
-41.6208285385500
21
7.54751852829676
31
0.000000000000000
  0
LINE
  5
F10204
330
F10205
100
AcDbEntity
8
Geo
100
AcDbLine
10
-41.6208285385500
20
7.54751852829676
30
0.000000000000000
11
-41.5208285385500
21
7.49018749491153
31
0.000000000000000
  0
LINE
  5
F10206
330
F10207
100
AcDbEntity
8
Geo
100
AcDbLine
10
-41.5208285385500
20
7.49018749491153
30
0.000000000000000
11
-41.4208285385500
21
7.43289677699033
31
0.000000000000000
  0
LINE
  5
F10208
330
F10209
100
AcDbEntity
8
Geo
100
AcDbLine
10
-41.4208285385500
20
7.43289677699033
30
0.000000000000000
11
-41.3208285385500
21
7.37564828421846
31
0.000000000000000
  0
LINE
  5
F1020A
330
F1020B
100
AcDbEntity
8
Geo
100
AcDbLine
10
-41.3208285385500
20
7.37564828421846
30
0.000000000000000
11
-41.2208285385500
21
7.31844392487372
31
0.000000000000000
  0
LINE
  5
F1020C
330
F1020D
100
AcDbEntity
8
Geo
100
AcDbLine
10
-41.2208285385500
20
7.31844392487372
30
0.000000000000000
11
-41.1208285385500
21
7.26128560576277
31
0.000000000000000
  0
LINE
  5
F1020E
330
F1020F
100
AcDbEntity
8
Geo
100
AcDbLine
10
-41.1208285385500
20
7.26128560576277
30
0.000000000000000
11
-41.0208285385500
21
7.20417523215763
31
0.000000000000000
  0
LINE
  5
F10210
330
F10211
100
AcDbEntity
8
Geo
100
AcDbLine
10
-41.0208285385500
20
7.20417523215763
30
0.000000000000000
11
-40.9208285385500
21
7.14711470773214
31
0.000000000000000
  0
LINE
  5
F10212
330
F10213
100
AcDbEntity
8
Geo
100
AcDbLine
10
-40.9208285385500
20
7.14711470773214
30
0.000000000000000
11
-40.8208285385500
21
7.09010593449849
31
0.000000000000000
  0
LINE
  5
F10214
330
F10215
100
AcDbEntity
8
Geo
100
AcDbLine
10
-40.8208285385500
20
7.09010593449849
30
0.000000000000000
11
-40.7208285385500
21
7.03315081274385
31
0.000000000000000
  0
LINE
  5
F10216
330
F10217
100
AcDbEntity
8
Geo
100
AcDbLine
10
-40.7208285385500
20
7.03315081274385
30
0.000000000000000
11
-40.6208285385500
21
6.97625124096700
31
0.000000000000000
  0
LINE
  5
F10218
330
F10219
100
AcDbEntity
8
Geo
100
AcDbLine
10
-40.6208285385500
20
6.97625124096700
30
0.000000000000000
11
-40.5208285385500
21
6.91940911581506
31
0.000000000000000
  0
LINE
  5
F1021A
330
F1021B
100
AcDbEntity
8
Geo
100
AcDbLine
10
-40.5208285385500
20
6.91940911581506
30
0.000000000000000
11
-40.4208285385500
21
6.86262633202027
31
0.000000000000000
  0
LINE
  5
F1021C
330
F1021D
100
AcDbEntity
8
Geo
100
AcDbLine
10
-40.4208285385500
20
6.86262633202027
30
0.000000000000000
11
-40.3208285385500
21
6.80590478233685
31
0.000000000000000
  0
LINE
  5
F1021E
330
F1021F
100
AcDbEntity
8
Geo
100
AcDbLine
10
-40.3208285385500
20
6.80590478233685
30
0.000000000000000
11
-40.2208285385500
21
6.74924635747785
31
0.000000000000000
  0
LINE
  5
F10220
330
F10221
100
AcDbEntity
8
Geo
100
AcDbLine
10
-40.2208285385500
20
6.74924635747785
30
0.000000000000000
11
-40.1208285385500
21
6.69265294605219
31
0.000000000000000
  0
LINE
  5
F10222
330
F10223
100
AcDbEntity
8
Geo
100
AcDbLine
10
-40.1208285385500
20
6.69265294605219
30
0.000000000000000
11
-40.0208285385500
21
6.63612643450169
31
0.000000000000000
  0
LINE
  5
F10224
330
F10225
100
AcDbEntity
8
Geo
100
AcDbLine
10
-40.0208285385500
20
6.63612643450169
30
0.000000000000000
11
-39.9208285385500
21
6.57966870703816
31
0.000000000000000
  0
LINE
  5
F10226
330
F10227
100
AcDbEntity
8
Geo
100
AcDbLine
10
-39.9208285385500
20
6.57966870703816
30
0.000000000000000
11
-39.8208285385500
21
6.52328164558062
31
0.000000000000000
  0
LINE
  5
F10228
330
F10229
100
AcDbEntity
8
Geo
100
AcDbLine
10
-39.8208285385500
20
6.52328164558062
30
0.000000000000000
11
-39.7208285385500
21
6.46696712969256
31
0.000000000000000
  0
LINE
  5
F1022A
330
F1022B
100
AcDbEntity
8
Geo
100
AcDbLine
10
-39.7208285385500
20
6.46696712969256
30
0.000000000000000
11
-39.6208285385500
21
6.41072703651931
31
0.000000000000000
  0
LINE
  5
F1022C
330
F1022D
100
AcDbEntity
8
Geo
100
AcDbLine
10
-39.6208285385500
20
6.41072703651931
30
0.000000000000000
11
-39.5208285385500
21
6.35456324072542
31
0.000000000000000
  0
LINE
  5
F1022E
330
F1022F
100
AcDbEntity
8
Geo
100
AcDbLine
10
-39.5208285385500
20
6.35456324072542
30
0.000000000000000
11
-39.4208285385500
21
6.29847761443222
31
0.000000000000000
  0
LINE
  5
F10230
330
F10231
100
AcDbEntity
8
Geo
100
AcDbLine
10
-39.4208285385500
20
6.29847761443222
30
0.000000000000000
11
-39.3208285385500
21
6.24247202715539
31
0.000000000000000
  0
LINE
  5
F10232
330
F10233
100
AcDbEntity
8
Geo
100
AcDbLine
10
-39.3208285385500
20
6.24247202715539
30
0.000000000000000
11
-39.2208285385500
21
6.18654834574266
31
0.000000000000000
  0
LINE
  5
F10234
330
F10235
100
AcDbEntity
8
Geo
100
AcDbLine
10
-39.2208285385500
20
6.18654834574266
30
0.000000000000000
11
-39.1208285385500
21
6.13070843431157
31
0.000000000000000
  0
LINE
  5
F10236
330
F10237
100
AcDbEntity
8
Geo
100
AcDbLine
10
-39.1208285385500
20
6.13070843431157
30
0.000000000000000
11
-39.0208285385500
21
6.07495415418732
31
0.000000000000000
  0
LINE
  5
F10238
330
F10239
100
AcDbEntity
8
Geo
100
AcDbLine
10
-39.0208285385500
20
6.07495415418732
30
0.000000000000000
11
-38.9208285385500
21
6.01928736384076
31
0.000000000000000
  0
LINE
  5
F1023A
330
F1023B
100
AcDbEntity
8
Geo
100
AcDbLine
10
-38.9208285385500
20
6.01928736384076
30
0.000000000000000
11
-38.8208285385500
21
5.96370991882641
31
0.000000000000000
  0
LINE
  5
F1023C
330
F1023D
100
AcDbEntity
8
Geo
100
AcDbLine
10
-38.8208285385500
20
5.96370991882641
30
0.000000000000000
11
-38.7208285385500
21
5.90822367172062
31
0.000000000000000
  0
LINE
  5
F1023E
330
F1023F
100
AcDbEntity
8
Geo
100
AcDbLine
10
-38.7208285385500
20
5.90822367172062
30
0.000000000000000
11
-38.6208285385500
21
5.85283047205983
31
0.000000000000000
  0
LINE
  5
F10240
330
F10241
100
AcDbEntity
8
Geo
100
AcDbLine
10
-38.6208285385500
20
5.85283047205983
30
0.000000000000000
11
-38.5208285385500
21
5.79753216627890
31
0.000000000000000
  0
LINE
  5
F10242
330
F10243
100
AcDbEntity
8
Geo
100
AcDbLine
10
-38.5208285385500
20
5.79753216627890
30
0.000000000000000
11
-38.4208285385500
21
5.74233059764957
31
0.000000000000000
  0
LINE
  5
F10244
330
F10245
100
AcDbEntity
8
Geo
100
AcDbLine
10
-38.4208285385500
20
5.74233059764957
30
0.000000000000000
11
-38.3208285385500
21
5.68722760621900
31
0.000000000000000
  0
LINE
  5
F10246
330
F10247
100
AcDbEntity
8
Geo
100
AcDbLine
10
-38.3208285385500
20
5.68722760621900
30
0.000000000000000
11
-38.2208285385500
21
5.63222502874849
31
0.000000000000000
  0
LINE
  5
F10248
330
F10249
100
AcDbEntity
8
Geo
100
AcDbLine
10
-38.2208285385500
20
5.63222502874849
30
0.000000000000000
11
-38.1208285385500
21
5.57732469865218
31
0.000000000000000
  0
LINE
  5
F1024A
330
F1024B
100
AcDbEntity
8
Geo
100
AcDbLine
10
-38.1208285385500
20
5.57732469865218
30
0.000000000000000
11
-38.0208285385500
21
5.52252844593601
31
0.000000000000000
  0
LINE
  5
F1024C
330
F1024D
100
AcDbEntity
8
Geo
100
AcDbLine
10
-38.0208285385500
20
5.52252844593601
30
0.000000000000000
11
-37.9208285385500
21
5.46783809713664
31
0.000000000000000
  0
LINE
  5
F1024E
330
F1024F
100
AcDbEntity
8
Geo
100
AcDbLine
10
-37.9208285385500
20
5.46783809713664
30
0.000000000000000
11
-37.8208285385500
21
5.41325547526065
31
0.000000000000000
  0
LINE
  5
F10250
330
F10251
100
AcDbEntity
8
Geo
100
AcDbLine
10
-37.8208285385500
20
5.41325547526065
30
0.000000000000000
11
-37.7208285385501
21
5.35878239972370
31
0.000000000000000
  0
LINE
  5
F10252
330
F10253
100
AcDbEntity
8
Geo
100
AcDbLine
10
-37.7208285385501
20
5.35878239972370
30
0.000000000000000
11
-37.6208285385501
21
5.30442068628995
31
0.000000000000000
  0
LINE
  5
F10254
330
F10255
100
AcDbEntity
8
Geo
100
AcDbLine
10
-37.6208285385501
20
5.30442068628995
30
0.000000000000000
11
-37.5208285385500
21
5.25017214701146
31
0.000000000000000
  0
LINE
  5
F10256
330
F10257
100
AcDbEntity
8
Geo
100
AcDbLine
10
-37.5208285385500
20
5.25017214701146
30
0.000000000000000
11
-37.4208285385500
21
5.19603859016787
31
0.000000000000000
  0
LINE
  5
F10258
330
F10259
100
AcDbEntity
8
Geo
100
AcDbLine
10
-37.4208285385500
20
5.19603859016787
30
0.000000000000000
11
-37.3208285385500
21
5.14202182020605
31
0.000000000000000
  0
LINE
  5
F1025A
330
F1025B
100
AcDbEntity
8
Geo
100
AcDbLine
10
-37.3208285385500
20
5.14202182020605
30
0.000000000000000
11
-37.2208285385501
21
5.08812363768000
31
0.000000000000000
  0
LINE
  5
F1025C
330
F1025D
100
AcDbEntity
8
Geo
100
AcDbLine
10
-37.2208285385501
20
5.08812363768000
30
0.000000000000000
11
-37.1208285385501
21
5.03434583919081
31
0.000000000000000
  0
LINE
  5
F1025E
330
F1025F
100
AcDbEntity
8
Geo
100
AcDbLine
10
-37.1208285385501
20
5.03434583919081
30
0.000000000000000
11
-37.0208285385500
21
4.98069021732679
31
0.000000000000000
  0
LINE
  5
F10260
330
F10261
100
AcDbEntity
8
Geo
100
AcDbLine
10
-37.0208285385500
20
4.98069021732679
30
0.000000000000000
11
-36.9208285385501
21
4.92715856060370
31
0.000000000000000
  0
LINE
  5
F10262
330
F10263
100
AcDbEntity
8
Geo
100
AcDbLine
10
-36.9208285385501
20
4.92715856060370
30
0.000000000000000
11
-36.8208285385501
21
4.87375265340513
31
0.000000000000000
  0
LINE
  5
F10264
330
F10265
100
AcDbEntity
8
Geo
100
AcDbLine
10
-36.8208285385501
20
4.87375265340513
30
0.000000000000000
11
-36.7208285385501
21
4.82047427592306
31
0.000000000000000
  0
LINE
  5
F10266
330
F10267
100
AcDbEntity
8
Geo
100
AcDbLine
10
-36.7208285385501
20
4.82047427592306
30
0.000000000000000
11
-36.6208285385501
21
4.76732520409846
31
0.000000000000000
  0
LINE
  5
F10268
330
F10269
100
AcDbEntity
8
Geo
100
AcDbLine
10
-36.6208285385501
20
4.76732520409846
30
0.000000000000000
11
-36.5208285385500
21
4.71430720956214
31
0.000000000000000
  0
LINE
  5
F1026A
330
F1026B
100
AcDbEntity
8
Geo
100
AcDbLine
10
-36.5208285385500
20
4.71430720956214
30
0.000000000000000
11
-36.4208285385501
21
4.66142205957567
31
0.000000000000000
  0
LINE
  5
F1026C
330
F1026D
100
AcDbEntity
8
Geo
100
AcDbLine
10
-36.4208285385501
20
4.66142205957567
30
0.000000000000000
11
-36.3208285385501
21
4.60867151697249
31
0.000000000000000
  0
LINE
  5
F1026E
330
F1026F
100
AcDbEntity
8
Geo
100
AcDbLine
10
-36.3208285385501
20
4.60867151697249
30
0.000000000000000
11
-36.2208285385501
21
4.55605734009914
31
0.000000000000000
  0
LINE
  5
F10270
330
F10271
100
AcDbEntity
8
Geo
100
AcDbLine
10
-36.2208285385501
20
4.55605734009914
30
0.000000000000000
11
-36.1208285385501
21
4.50358128275664
31
0.000000000000000
  0
LINE
  5
F10272
330
F10273
100
AcDbEntity
8
Geo
100
AcDbLine
10
-36.1208285385501
20
4.50358128275664
30
0.000000000000000
11
-36.0208285385501
21
4.45124509414205
31
0.000000000000000
  0
LINE
  5
F10274
330
F10275
100
AcDbEntity
8
Geo
100
AcDbLine
10
-36.0208285385501
20
4.45124509414205
30
0.000000000000000
11
-35.9208285385501
21
4.39905051879013
31
0.000000000000000
  0
LINE
  5
F10276
330
F10277
100
AcDbEntity
8
Geo
100
AcDbLine
10
-35.9208285385501
20
4.39905051879013
30
0.000000000000000
11
-35.8208285385501
21
4.34699929651524
31
0.000000000000000
  0
LINE
  5
F10278
330
F10279
100
AcDbEntity
8
Geo
100
AcDbLine
10
-35.8208285385501
20
4.34699929651524
30
0.000000000000000
11
-35.7208285385501
21
4.29509316235329
31
0.000000000000000
  0
LINE
  5
F1027A
330
F1027B
100
AcDbEntity
8
Geo
100
AcDbLine
10
-35.7208285385501
20
4.29509316235329
30
0.000000000000000
11
-35.6208285385501
21
4.24333384650396
31
0.000000000000000
  0
LINE
  5
F1027C
330
F1027D
100
AcDbEntity
8
Geo
100
AcDbLine
10
-35.6208285385501
20
4.24333384650396
30
0.000000000000000
11
-35.5208285385501
21
4.19172307427297
31
0.000000000000000
  0
LINE
  5
F1027E
330
F1027F
100
AcDbEntity
8
Geo
100
AcDbLine
10
-35.5208285385501
20
4.19172307427297
30
0.000000000000000
11
-35.4208285385501
21
4.14026256601463
31
0.000000000000000
  0
LINE
  5
F10280
330
F10281
100
AcDbEntity
8
Geo
100
AcDbLine
10
-35.4208285385501
20
4.14026256601463
30
0.000000000000000
11
-35.3208285385501
21
4.08895403707444
31
0.000000000000000
  0
LINE
  5
F10282
330
F10283
100
AcDbEntity
8
Geo
100
AcDbLine
10
-35.3208285385501
20
4.08895403707444
30
0.000000000000000
11
-35.2208285385501
21
4.03779919773195
31
0.000000000000000
  0
LINE
  5
F10284
330
F10285
100
AcDbEntity
8
Geo
100
AcDbLine
10
-35.2208285385501
20
4.03779919773195
30
0.000000000000000
11
-35.1208285385501
21
3.98679975314374
31
0.000000000000000
  0
LINE
  5
F10286
330
F10287
100
AcDbEntity
8
Geo
100
AcDbLine
10
-35.1208285385501
20
3.98679975314374
30
0.000000000000000
11
-35.0208285385501
21
3.93595740328657
31
0.000000000000000
  0
LINE
  5
F10288
330
F10289
100
AcDbEntity
8
Geo
100
AcDbLine
10
-35.0208285385501
20
3.93595740328657
30
0.000000000000000
11
-34.9208285385501
21
3.88527384290073
31
0.000000000000000
  0
LINE
  5
F1028A
330
F1028B
100
AcDbEntity
8
Geo
100
AcDbLine
10
-34.9208285385501
20
3.88527384290073
30
0.000000000000000
11
-34.8208285385501
21
3.83475076143353
31
0.000000000000000
  0
LINE
  5
F1028C
330
F1028D
100
AcDbEntity
8
Geo
100
AcDbLine
10
-34.8208285385501
20
3.83475076143353
30
0.000000000000000
11
-34.7208285385501
21
3.78438984298302
31
0.000000000000000
  0
LINE
  5
F1028E
330
F1028F
100
AcDbEntity
8
Geo
100
AcDbLine
10
-34.7208285385501
20
3.78438984298302
30
0.000000000000000
11
-34.6208285385501
21
3.73419276624182
31
0.000000000000000
  0
LINE
  5
F10290
330
F10291
100
AcDbEntity
8
Geo
100
AcDbLine
10
-34.6208285385501
20
3.73419276624182
30
0.000000000000000
11
-34.5208285385501
21
3.68416120444116
31
0.000000000000000
  0
LINE
  5
F10292
330
F10293
100
AcDbEntity
8
Geo
100
AcDbLine
10
-34.5208285385501
20
3.68416120444116
30
0.000000000000000
11
-34.4208285385501
21
3.63429682529514
31
0.000000000000000
  0
LINE
  5
F10294
330
F10295
100
AcDbEntity
8
Geo
100
AcDbLine
10
-34.4208285385501
20
3.63429682529514
30
0.000000000000000
11
-34.3208285385501
21
3.58460129094512
31
0.000000000000000
  0
LINE
  5
F10296
330
F10297
100
AcDbEntity
8
Geo
100
AcDbLine
10
-34.3208285385501
20
3.58460129094512
30
0.000000000000000
11
-34.2208285385501
21
3.53507625790431
31
0.000000000000000
  0
LINE
  5
F10298
330
F10299
100
AcDbEntity
8
Geo
100
AcDbLine
10
-34.2208285385501
20
3.53507625790431
30
0.000000000000000
11
-34.1208285385501
21
3.48572337700255
31
0.000000000000000
  0
LINE
  5
F1029A
330
F1029B
100
AcDbEntity
8
Geo
100
AcDbLine
10
-34.1208285385501
20
3.48572337700255
30
0.000000000000000
11
-34.0208285385501
21
3.43654429333131
31
0.000000000000000
  0
LINE
  5
F1029C
330
F1029D
100
AcDbEntity
8
Geo
100
AcDbLine
10
-34.0208285385501
20
3.43654429333131
30
0.000000000000000
11
-33.9208285385501
21
3.38754064618882
31
0.000000000000000
  0
LINE
  5
F1029E
330
F1029F
100
AcDbEntity
8
Geo
100
AcDbLine
10
-33.9208285385501
20
3.38754064618882
30
0.000000000000000
11
-33.8208285385501
21
3.33871406902544
31
0.000000000000000
  0
LINE
  5
F102A0
330
F102A1
100
AcDbEntity
8
Geo
100
AcDbLine
10
-33.8208285385501
20
3.33871406902544
30
0.000000000000000
11
-33.7208285385501
21
3.29006618938924
31
0.000000000000000
  0
LINE
  5
F102A2
330
F102A3
100
AcDbEntity
8
Geo
100
AcDbLine
10
-33.7208285385501
20
3.29006618938924
30
0.000000000000000
11
-33.6208285385501
21
3.24159862887169
31
0.000000000000000
  0
LINE
  5
F102A4
330
F102A5
100
AcDbEntity
8
Geo
100
AcDbLine
10
-33.6208285385501
20
3.24159862887169
30
0.000000000000000
11
-33.5208285385501
21
3.19331300305366
31
0.000000000000000
  0
LINE
  5
F102A6
330
F102A7
100
AcDbEntity
8
Geo
100
AcDbLine
10
-33.5208285385501
20
3.19331300305366
30
0.000000000000000
11
-33.4208285385501
21
3.14521092145153
31
0.000000000000000
  0
LINE
  5
F102A8
330
F102A9
100
AcDbEntity
8
Geo
100
AcDbLine
10
-33.4208285385501
20
3.14521092145153
30
0.000000000000000
11
-33.3208285385501
21
3.09729398746358
31
0.000000000000000
  0
LINE
  5
F102AA
330
F102AB
100
AcDbEntity
8
Geo
100
AcDbLine
10
-33.3208285385501
20
3.09729398746358
30
0.000000000000000
11
-33.2208285385501
21
3.04956379831649
31
0.000000000000000
  0
LINE
  5
F102AC
330
F102AD
100
AcDbEntity
8
Geo
100
AcDbLine
10
-33.2208285385501
20
3.04956379831649
30
0.000000000000000
11
-33.1208285385501
21
3.00202194501216
31
0.000000000000000
  0
LINE
  5
F102AE
330
F102AF
100
AcDbEntity
8
Geo
100
AcDbLine
10
-33.1208285385501
20
3.00202194501216
30
0.000000000000000
11
-33.0208285385501
21
2.95467001227462
31
0.000000000000000
  0
LINE
  5
F102B0
330
F102B1
100
AcDbEntity
8
Geo
100
AcDbLine
10
-33.0208285385501
20
2.95467001227462
30
0.000000000000000
11
-32.9208285385501
21
2.90750957849725
31
0.000000000000000
  0
LINE
  5
F102B2
330
F102B3
100
AcDbEntity
8
Geo
100
AcDbLine
10
-32.9208285385501
20
2.90750957849725
30
0.000000000000000
11
-32.8208285385501
21
2.86054221569014
31
0.000000000000000
  0
LINE
  5
F102B4
330
F102B5
100
AcDbEntity
8
Geo
100
AcDbLine
10
-32.8208285385501
20
2.86054221569014
30
0.000000000000000
11
-32.7208285385501
21
2.81376948942770
31
0.000000000000000
  0
LINE
  5
F102B6
330
F102B7
100
AcDbEntity
8
Geo
100
AcDbLine
10
-32.7208285385501
20
2.81376948942770
30
0.000000000000000
11
-32.6208285385501
21
2.76719295879648
31
0.000000000000000
  0
LINE
  5
F102B8
330
F102B9
100
AcDbEntity
8
Geo
100
AcDbLine
10
-32.6208285385501
20
2.76719295879648
30
0.000000000000000
11
-32.5208285385501
21
2.72081417634319
31
0.000000000000000
  0
LINE
  5
F102BA
330
F102BB
100
AcDbEntity
8
Geo
100
AcDbLine
10
-32.5208285385501
20
2.72081417634319
30
0.000000000000000
11
-32.4208285385501
21
2.67463468802294
31
0.000000000000000
  0
LINE
  5
F102BC
330
F102BD
100
AcDbEntity
8
Geo
100
AcDbLine
10
-32.4208285385501
20
2.67463468802294
30
0.000000000000000
11
-32.3208285385501
21
2.62865603314774
31
0.000000000000000
  0
LINE
  5
F102BE
330
F102BF
100
AcDbEntity
8
Geo
100
AcDbLine
10
-32.3208285385501
20
2.62865603314774
30
0.000000000000000
11
-32.2208285385501
21
2.58287974433516
31
0.000000000000000
  0
LINE
  5
F102C0
330
F102C1
100
AcDbEntity
8
Geo
100
AcDbLine
10
-32.2208285385501
20
2.58287974433516
30
0.000000000000000
11
-32.1208285385501
21
2.53730734745725
31
0.000000000000000
  0
LINE
  5
F102C2
330
F102C3
100
AcDbEntity
8
Geo
100
AcDbLine
10
-32.1208285385501
20
2.53730734745725
30
0.000000000000000
11
-32.0208285385501
21
2.49194036158970
31
0.000000000000000
  0
LINE
  5
F102C4
330
F102C5
100
AcDbEntity
8
Geo
100
AcDbLine
10
-32.0208285385501
20
2.49194036158970
30
0.000000000000000
11
-31.9208285385501
21
2.44678029896116
31
0.000000000000000
  0
LINE
  5
F102C6
330
F102C7
100
AcDbEntity
8
Geo
100
AcDbLine
10
-31.9208285385501
20
2.44678029896116
30
0.000000000000000
11
-31.8208285385501
21
2.40182866490287
31
0.000000000000000
  0
LINE
  5
F102C8
330
F102C9
100
AcDbEntity
8
Geo
100
AcDbLine
10
-31.8208285385501
20
2.40182866490287
30
0.000000000000000
11
-31.7208285385501
21
2.35708695779847
31
0.000000000000000
  0
LINE
  5
F102CA
330
F102CB
100
AcDbEntity
8
Geo
100
AcDbLine
10
-31.7208285385501
20
2.35708695779847
30
0.000000000000000
11
-31.6208285385501
21
2.31255666903406
31
0.000000000000000
  0
LINE
  5
F102CC
330
F102CD
100
AcDbEntity
8
Geo
100
AcDbLine
10
-31.6208285385501
20
2.31255666903406
30
0.000000000000000
11
-31.5208285385501
21
2.26823928294847
31
0.000000000000000
  0
LINE
  5
F102CE
330
F102CF
100
AcDbEntity
8
Geo
100
AcDbLine
10
-31.5208285385501
20
2.26823928294847
30
0.000000000000000
11
-31.4208285385501
21
2.22413627678380
31
0.000000000000000
  0
LINE
  5
F102D0
330
F102D1
100
AcDbEntity
8
Geo
100
AcDbLine
10
-31.4208285385501
20
2.22413627678380
30
0.000000000000000
11
-31.3208285385501
21
2.18024912063618
31
0.000000000000000
  0
LINE
  5
F102D2
330
F102D3
100
AcDbEntity
8
Geo
100
AcDbLine
10
-31.3208285385501
20
2.18024912063618
30
0.000000000000000
11
-31.2208285385501
21
2.13657927740674
31
0.000000000000000
  0
LINE
  5
F102D4
330
F102D5
100
AcDbEntity
8
Geo
100
AcDbLine
10
-31.2208285385501
20
2.13657927740674
30
0.000000000000000
11
-31.1208285385501
21
2.09312820275288
31
0.000000000000000
  0
LINE
  5
F102D6
330
F102D7
100
AcDbEntity
8
Geo
100
AcDbLine
10
-31.1208285385501
20
2.09312820275288
30
0.000000000000000
11
-31.0208285385501
21
2.04989734503973
31
0.000000000000000
  0
LINE
  5
F102D8
330
F102D9
100
AcDbEntity
8
Geo
100
AcDbLine
10
-31.0208285385501
20
2.04989734503973
30
0.000000000000000
11
-30.9208285385501
21
2.00688814529189
31
0.000000000000000
  0
LINE
  5
F102DA
330
F102DB
100
AcDbEntity
8
Geo
100
AcDbLine
10
-30.9208285385501
20
2.00688814529189
30
0.000000000000000
11
-30.8208285385501
21
1.96410203714535
31
0.000000000000000
  0
LINE
  5
F102DC
330
F102DD
100
AcDbEntity
8
Geo
100
AcDbLine
10
-30.8208285385501
20
1.96410203714535
30
0.000000000000000
11
-30.7208285385501
21
1.92154044679977
31
0.000000000000000
  0
LINE
  5
F102DE
330
F102DF
100
AcDbEntity
8
Geo
100
AcDbLine
10
-30.7208285385501
20
1.92154044679977
30
0.000000000000000
11
-30.6208285385501
21
1.87920479297088
31
0.000000000000000
  0
LINE
  5
F102E0
330
F102E1
100
AcDbEntity
8
Geo
100
AcDbLine
10
-30.6208285385501
20
1.87920479297088
30
0.000000000000000
11
-30.5208285385501
21
1.83709648684322
31
0.000000000000000
  0
LINE
  5
F102E2
330
F102E3
100
AcDbEntity
8
Geo
100
AcDbLine
10
-30.5208285385501
20
1.83709648684322
30
0.000000000000000
11
-30.4208285385501
21
1.79521693202311
31
0.000000000000000
  0
LINE
  5
F102E4
330
F102E5
100
AcDbEntity
8
Geo
100
AcDbLine
10
-30.4208285385501
20
1.79521693202311
30
0.000000000000000
11
-30.3208285385501
21
1.75356752449180
31
0.000000000000000
  0
LINE
  5
F102E6
330
F102E7
100
AcDbEntity
8
Geo
100
AcDbLine
10
-30.3208285385501
20
1.75356752449180
30
0.000000000000000
11
-30.2208285385501
21
1.71214965255905
31
0.000000000000000
  0
LINE
  5
F102E8
330
F102E9
100
AcDbEntity
8
Geo
100
AcDbLine
10
-30.2208285385501
20
1.71214965255905
30
0.000000000000000
11
-30.1208285385501
21
1.67096469681675
31
0.000000000000000
  0
LINE
  5
F102EA
330
F102EB
100
AcDbEntity
8
Geo
100
AcDbLine
10
-30.1208285385501
20
1.67096469681675
30
0.000000000000000
11
-30.0208285385501
21
1.63001403009293
31
0.000000000000000
  0
LINE
  5
F102EC
330
F102ED
100
AcDbEntity
8
Geo
100
AcDbLine
10
-30.0208285385501
20
1.63001403009293
30
0.000000000000000
11
-29.9208285385501
21
1.58929901740603
31
0.000000000000000
  0
LINE
  5
F102EE
330
F102EF
100
AcDbEntity
8
Geo
100
AcDbLine
10
-29.9208285385501
20
1.58929901740603
30
0.000000000000000
11
-29.8208285385501
21
1.54882101591938
31
0.000000000000000
  0
LINE
  5
F102F0
330
F102F1
100
AcDbEntity
8
Geo
100
AcDbLine
10
-29.8208285385501
20
1.54882101591938
30
0.000000000000000
11
-29.7208285385501
21
1.50858137489593
31
0.000000000000000
  0
LINE
  5
F102F2
330
F102F3
100
AcDbEntity
8
Geo
100
AcDbLine
10
-29.7208285385501
20
1.50858137489593
30
0.000000000000000
11
-29.6208285385501
21
1.46858143565333
31
0.000000000000000
  0
LINE
  5
F102F4
330
F102F5
100
AcDbEntity
8
Geo
100
AcDbLine
10
-29.6208285385501
20
1.46858143565333
30
0.000000000000000
11
-29.5208285385501
21
1.42882253151919
31
0.000000000000000
  0
LINE
  5
F102F6
330
F102F7
100
AcDbEntity
8
Geo
100
AcDbLine
10
-29.5208285385501
20
1.42882253151919
30
0.000000000000000
11
-29.4208285385501
21
1.38930598778663
31
0.000000000000000
  0
LINE
  5
F102F8
330
F102F9
100
AcDbEntity
8
Geo
100
AcDbLine
10
-29.4208285385501
20
1.38930598778663
30
0.000000000000000
11
-29.3208285385501
21
1.35003312167011
31
0.000000000000000
  0
LINE
  5
F102FA
330
F102FB
100
AcDbEntity
8
Geo
100
AcDbLine
10
-29.3208285385501
20
1.35003312167011
30
0.000000000000000
11
-29.2208285385501
21
1.31100524226154
31
0.000000000000000
  0
LINE
  5
F102FC
330
F102FD
100
AcDbEntity
8
Geo
100
AcDbLine
10
-29.2208285385501
20
1.31100524226154
30
0.000000000000000
11
-29.1208285385501
21
1.27222365048661
31
0.000000000000000
  0
LINE
  5
F102FE
330
F102FF
100
AcDbEntity
8
Geo
100
AcDbLine
10
-29.1208285385501
20
1.27222365048661
30
0.000000000000000
11
-29.0208285385501
21
1.23368963906146
31
0.000000000000000
  0
LINE
  5
F10300
330
F10301
100
AcDbEntity
8
Geo
100
AcDbLine
10
-29.0208285385501
20
1.23368963906146
30
0.000000000000000
11
-28.9208285385501
21
1.19540449244957
31
0.000000000000000
  0
LINE
  5
F10302
330
F10303
100
AcDbEntity
8
Geo
100
AcDbLine
10
-28.9208285385501
20
1.19540449244957
30
0.000000000000000
11
-28.8208285385501
21
1.15736948681895
31
0.000000000000000
  0
LINE
  5
F10304
330
F10305
100
AcDbEntity
8
Geo
100
AcDbLine
10
-28.8208285385501
20
1.15736948681895
30
0.000000000000000
11
-28.7208285385501
21
1.11958588999959
31
0.000000000000000
  0
LINE
  5
F10306
330
F10307
100
AcDbEntity
8
Geo
100
AcDbLine
10
-28.7208285385501
20
1.11958588999959
30
0.000000000000000
11
-28.6208285385501
21
1.08205496144124
31
0.000000000000000
  0
LINE
  5
F10308
330
F10309
100
AcDbEntity
8
Geo
100
AcDbLine
10
-28.6208285385501
20
1.08205496144124
30
0.000000000000000
11
-28.5208285385501
21
1.04477795217135
31
0.000000000000000
  0
LINE
  5
F1030A
330
F1030B
100
AcDbEntity
8
Geo
100
AcDbLine
10
-28.5208285385501
20
1.04477795217135
30
0.000000000000000
11
-28.4208285385501
21
1.00775610475346
31
0.000000000000000
  0
LINE
  5
F1030C
330
F1030D
100
AcDbEntity
8
Geo
100
AcDbLine
10
-28.4208285385501
20
1.00775610475346
30
0.000000000000000
11
-28.3208285385501
21
0.970990653245720
31
0.000000000000000
  0
LINE
  5
F1030E
330
F1030F
100
AcDbEntity
8
Geo
100
AcDbLine
10
-28.3208285385501
20
0.970990653245720
30
0.000000000000000
11
-28.2208285385501
21
0.934482823159777
31
0.000000000000000
  0
LINE
  5
F10310
330
F10311
100
AcDbEntity
8
Geo
100
AcDbLine
10
-28.2208285385501
20
0.934482823159777
30
0.000000000000000
11
-28.1208285385501
21
0.898233831419918
31
0.000000000000000
  0
LINE
  5
F10312
330
F10313
100
AcDbEntity
8
Geo
100
AcDbLine
10
-28.1208285385501
20
0.898233831419918
30
0.000000000000000
11
-28.0208285385501
21
0.862244886322513
31
0.000000000000000
  0
LINE
  5
F10314
330
F10315
100
AcDbEntity
8
Geo
100
AcDbLine
10
-28.0208285385501
20
0.862244886322513
30
0.000000000000000
11
-27.9208285385501
21
0.826517187495731
31
0.000000000000000
  0
LINE
  5
F10316
330
F10317
100
AcDbEntity
8
Geo
100
AcDbLine
10
-27.9208285385501
20
0.826517187495731
30
0.000000000000000
11
-27.8208285385501
21
0.791051925859559
31
0.000000000000000
  0
LINE
  5
F10318
330
F10319
100
AcDbEntity
8
Geo
100
AcDbLine
10
-27.8208285385501
20
0.791051925859559
30
0.000000000000000
11
-27.7208285385501
21
0.755850283586102
31
0.000000000000000
  0
LINE
  5
F1031A
330
F1031B
100
AcDbEntity
8
Geo
100
AcDbLine
10
-27.7208285385501
20
0.755850283586102
30
0.000000000000000
11
-27.6208285385501
21
0.720913434060176
31
0.000000000000000
  0
LINE
  5
F1031C
330
F1031D
100
AcDbEntity
8
Geo
100
AcDbLine
10
-27.6208285385501
20
0.720913434060176
30
0.000000000000000
11
-27.5208285385501
21
0.686242541840196
31
0.000000000000000
  0
LINE
  5
F1031E
330
F1031F
100
AcDbEntity
8
Geo
100
AcDbLine
10
-27.5208285385501
20
0.686242541840196
30
0.000000000000000
11
-27.4208285385501
21
0.651838762619359
31
0.000000000000000
  0
LINE
  5
F10320
330
F10321
100
AcDbEntity
8
Geo
100
AcDbLine
10
-27.4208285385501
20
0.651838762619359
30
0.000000000000000
11
-27.3208285385501
21
0.617703243187121
31
0.000000000000000
  0
LINE
  5
F10322
330
F10323
100
AcDbEntity
8
Geo
100
AcDbLine
10
-27.3208285385501
20
0.617703243187121
30
0.000000000000000
11
-27.2208285385501
21
0.583837121390969
31
0.000000000000000
  0
LINE
  5
F10324
330
F10325
100
AcDbEntity
8
Geo
100
AcDbLine
10
-27.2208285385501
20
0.583837121390969
30
0.000000000000000
11
-27.1208285385501
21
0.550241526098494
31
0.000000000000000
  0
LINE
  5
F10326
330
F10327
100
AcDbEntity
8
Geo
100
AcDbLine
10
-27.1208285385501
20
0.550241526098494
30
0.000000000000000
11
-27.0208285385501
21
0.516917577159761
31
0.000000000000000
  0
LINE
  5
F10328
330
F10329
100
AcDbEntity
8
Geo
100
AcDbLine
10
-27.0208285385501
20
0.516917577159761
30
0.000000000000000
11
-26.9208285385501
21
0.483866385369982
31
0.000000000000000
  0
LINE
  5
F1032A
330
F1032B
100
AcDbEntity
8
Geo
100
AcDbLine
10
-26.9208285385501
20
0.483866385369982
30
0.000000000000000
11
-26.8208285385501
21
0.451089052432492
31
0.000000000000000
  0
LINE
  5
F1032C
330
F1032D
100
AcDbEntity
8
Geo
100
AcDbLine
10
-26.8208285385501
20
0.451089052432492
30
0.000000000000000
11
-26.7208285385501
21
0.418586670922018
31
0.000000000000000
  0
LINE
  5
F1032E
330
F1032F
100
AcDbEntity
8
Geo
100
AcDbLine
10
-26.7208285385501
20
0.418586670922018
30
0.000000000000000
11
-26.6208285385501
21
0.386360324248269
31
0.000000000000000
  0
LINE
  5
F10330
330
F10331
100
AcDbEntity
8
Geo
100
AcDbLine
10
-26.6208285385501
20
0.386360324248269
30
0.000000000000000
11
-26.5208285385501
21
0.354411086619816
31
0.000000000000000
  0
LINE
  5
F10332
330
F10333
100
AcDbEntity
8
Geo
100
AcDbLine
10
-26.5208285385501
20
0.354411086619816
30
0.000000000000000
11
-26.4208285385501
21
0.322740023008290
31
0.000000000000000
  0
LINE
  5
F10334
330
F10335
100
AcDbEntity
8
Geo
100
AcDbLine
10
-26.4208285385501
20
0.322740023008290
30
0.000000000000000
11
-26.3208285385501
21
0.291348189112878
31
0.000000000000000
  0
LINE
  5
F10336
330
F10337
100
AcDbEntity
8
Geo
100
AcDbLine
10
-26.3208285385501
20
0.291348189112878
30
0.000000000000000
11
-26.2208285385501
21
0.260236631325135
31
0.000000000000000
  0
LINE
  5
F10338
330
F10339
100
AcDbEntity
8
Geo
100
AcDbLine
10
-26.2208285385501
20
0.260236631325135
30
0.000000000000000
11
-26.1208285385501
21
0.229406386694111
31
0.000000000000000
  0
LINE
  5
F1033A
330
F1033B
100
AcDbEntity
8
Geo
100
AcDbLine
10
-26.1208285385501
20
0.229406386694111
30
0.000000000000000
11
-26.0208285385501
21
0.198858482891767
31
0.000000000000000
  0
LINE
  5
F1033C
330
F1033D
100
AcDbEntity
8
Geo
100
AcDbLine
10
-26.0208285385501
20
0.198858482891767
30
0.000000000000000
11
-25.9208285385501
21
0.168593938178736
31
0.000000000000000
  0
LINE
  5
F1033E
330
F1033F
100
AcDbEntity
8
Geo
100
AcDbLine
10
-25.9208285385501
20
0.168593938178736
30
0.000000000000000
11
-25.8208285385501
21
0.138613761370376
31
0.000000000000000
  0
LINE
  5
F10340
330
F10341
100
AcDbEntity
8
Geo
100
AcDbLine
10
-25.8208285385501
20
0.138613761370376
30
0.000000000000000
11
-25.7208285385501
21
0.108918951803133
31
0.000000000000000
  0
LINE
  5
F10342
330
F10343
100
AcDbEntity
8
Geo
100
AcDbLine
10
-25.7208285385501
20
0.108918951803133
30
0.000000000000000
11
-25.6208285385501
21
0.0795104993012465
31
0.000000000000000
  0
LINE
  5
F10344
330
F10345
100
AcDbEntity
8
Geo
100
AcDbLine
10
-25.6208285385501
20
0.0795104993012465
30
0.000000000000000
11
-25.5208285385501
21
0.0503893841437435
31
0.000000000000000
  0
LINE
  5
F10346
330
F10347
100
AcDbEntity
8
Geo
100
AcDbLine
10
-25.5208285385501
20
0.0503893841437435
30
0.000000000000000
11
-25.4208285385501
21
0.0215565770317649
31
0.000000000000000
  0
LINE
  5
F10348
330
F10349
100
AcDbEntity
8
Geo
100
AcDbLine
10
-25.4208285385501
20
0.0215565770317649
30
0.000000000000000
11
-25.3208285385501
21
-0.00698696094378626
31
0.000000000000000
  0
LINE
  5
F1034A
330
F1034B
100
AcDbEntity
8
Geo
100
AcDbLine
10
-25.3208285385501
20
-0.00698696094378626
30
0.000000000000000
11
-25.2208285385501
21
-0.0352402783342907
31
0.000000000000000
  0
LINE
  5
F1034C
330
F1034D
100
AcDbEntity
8
Geo
100
AcDbLine
10
-25.2208285385501
20
-0.0352402783342907
30
0.000000000000000
11
-25.1208285385501
21
-0.0632024333651149
31
0.000000000000000
  0
LINE
  5
F1034E
330
F1034F
100
AcDbEntity
8
Geo
100
AcDbLine
10
-25.1208285385501
20
-0.0632024333651149
30
0.000000000000000
11
-25.0208285385500
21
-0.0908724939670158
31
0.000000000000000
  0
LINE
  5
F10350
330
F10351
100
AcDbEntity
8
Geo
100
AcDbLine
10
-25.0208285385500
20
-0.0908724939670158
30
0.000000000000000
11
-24.9208285385500
21
-0.118249537807200
31
0.000000000000000
  0
LINE
  5
F10352
330
F10353
100
AcDbEntity
8
Geo
100
AcDbLine
10
-24.9208285385500
20
-0.118249537807200
30
0.000000000000000
11
-24.8208285385500
21
-0.145332652320077
31
0.000000000000000
  0
LINE
  5
F10354
330
F10355
100
AcDbEntity
8
Geo
100
AcDbLine
10
-24.8208285385500
20
-0.145332652320077
30
0.000000000000000
11
-24.7208285385500
21
-0.172120934737668
31
0.000000000000000
  0
LINE
  5
F10356
330
F10357
100
AcDbEntity
8
Geo
100
AcDbLine
10
-24.7208285385500
20
-0.172120934737668
30
0.000000000000000
11
-24.6208285385500
21
-0.198613492119710
31
0.000000000000000
  0
LINE
  5
F10358
330
F10359
100
AcDbEntity
8
Geo
100
AcDbLine
10
-24.6208285385500
20
-0.198613492119710
30
0.000000000000000
11
-24.5208285385500
21
-0.224809441383405
31
0.000000000000000
  0
LINE
  5
F1035A
330
F1035B
100
AcDbEntity
8
Geo
100
AcDbLine
10
-24.5208285385500
20
-0.224809441383405
30
0.000000000000000
11
-24.4208285385500
21
-0.250707909332872
31
0.000000000000000
  0
LINE
  5
F1035C
330
F1035D
100
AcDbEntity
8
Geo
100
AcDbLine
10
-24.4208285385500
20
-0.250707909332872
30
0.000000000000000
11
-24.3208285385500
21
-0.276308032688245
31
0.000000000000000
  0
LINE
  5
F1035E
330
F1035F
100
AcDbEntity
8
Geo
100
AcDbLine
10
-24.3208285385500
20
-0.276308032688245
30
0.000000000000000
11
-24.2208285385500
21
-0.301608958114448
31
0.000000000000000
  0
LINE
  5
F10360
330
F10361
100
AcDbEntity
8
Geo
100
AcDbLine
10
-24.2208285385500
20
-0.301608958114448
30
0.000000000000000
11
-24.1208285385500
21
-0.326609842249642
31
0.000000000000000
  0
LINE
  5
F10362
330
F10363
100
AcDbEntity
8
Geo
100
AcDbLine
10
-24.1208285385500
20
-0.326609842249642
30
0.000000000000000
11
-24.0208285385500
21
-0.351309851733340
31
0.000000000000000
  0
LINE
  5
F10364
330
F10365
100
AcDbEntity
8
Geo
100
AcDbLine
10
-24.0208285385500
20
-0.351309851733340
30
0.000000000000000
11
-23.9208285385500
21
-0.375708163234178
31
0.000000000000000
  0
LINE
  5
F10366
330
F10367
100
AcDbEntity
8
Geo
100
AcDbLine
10
-23.9208285385500
20
-0.375708163234178
30
0.000000000000000
11
-23.8208285385500
21
-0.399803963477364
31
0.000000000000000
  0
LINE
  5
F10368
330
F10369
100
AcDbEntity
8
Geo
100
AcDbLine
10
-23.8208285385500
20
-0.399803963477364
30
0.000000000000000
11
-23.7208285385500
21
-0.423596449271791
31
0.000000000000000
  0
LINE
  5
F1036A
330
F1036B
100
AcDbEntity
8
Geo
100
AcDbLine
10
-43.6208285385500
20
-1.30034522439585
30
0.000000000000000
11
-43.6208285385500
21
-1.30034522439585
31
0.000000000000000
  0
LINE
  5
F1036C
330
F1036D
100
AcDbEntity
8
Geo
100
AcDbLine
10
-43.6208285385500
20
18.2102199385557
30
0.000000000000000
11
-43.5208285385500
21
18.1922204242050
31
0.000000000000000
  0
LINE
  5
F1036E
330
F1036F
100
AcDbEntity
8
Geo
100
AcDbLine
10
-43.5208285385500
20
18.1922204242050
30
0.000000000000000
11
-43.4208285385500
21
18.1739044918784
31
0.000000000000000
  0
LINE
  5
F10370
330
F10371
100
AcDbEntity
8
Geo
100
AcDbLine
10
-43.4208285385500
20
18.1739044918784
30
0.000000000000000
11
-43.3208285385500
21
18.1552727521051
31
0.000000000000000
  0
LINE
  5
F10372
330
F10373
100
AcDbEntity
8
Geo
100
AcDbLine
10
-43.3208285385500
20
18.1552727521051
30
0.000000000000000
11
-43.2208285385500
21
18.1363258259414
31
0.000000000000000
  0
LINE
  5
F10374
330
F10375
100
AcDbEntity
8
Geo
100
AcDbLine
10
-43.2208285385500
20
18.1363258259414
30
0.000000000000000
11
-43.1208285385500
21
18.1170643449498
31
0.000000000000000
  0
LINE
  5
F10376
330
F10377
100
AcDbEntity
8
Geo
100
AcDbLine
10
-43.1208285385500
20
18.1170643449498
30
0.000000000000000
11
-43.0208285385500
21
18.0974889511779
31
0.000000000000000
  0
LINE
  5
F10378
330
F10379
100
AcDbEntity
8
Geo
100
AcDbLine
10
-43.0208285385500
20
18.0974889511779
30
0.000000000000000
11
-42.9208285385500
21
18.0776002971370
31
0.000000000000000
  0
LINE
  5
F1037A
330
F1037B
100
AcDbEntity
8
Geo
100
AcDbLine
10
-42.9208285385500
20
18.0776002971370
30
0.000000000000000
11
-42.8208285385500
21
18.0573990457804
31
0.000000000000000
  0
LINE
  5
F1037C
330
F1037D
100
AcDbEntity
8
Geo
100
AcDbLine
10
-42.8208285385500
20
18.0573990457804
30
0.000000000000000
11
-42.7208285385500
21
18.0368858704812
31
0.000000000000000
  0
LINE
  5
F1037E
330
F1037F
100
AcDbEntity
8
Geo
100
AcDbLine
10
-42.7208285385500
20
18.0368858704812
30
0.000000000000000
11
-42.6208285385500
21
18.0160614550100
31
0.000000000000000
  0
LINE
  5
F10380
330
F10381
100
AcDbEntity
8
Geo
100
AcDbLine
10
-42.6208285385500
20
18.0160614550100
30
0.000000000000000
11
-42.5208285385500
21
17.9949264935122
31
0.000000000000000
  0
LINE
  5
F10382
330
F10383
100
AcDbEntity
8
Geo
100
AcDbLine
10
-42.5208285385500
20
17.9949264935122
30
0.000000000000000
11
-42.4208285385500
21
17.9734816904845
31
0.000000000000000
  0
LINE
  5
F10384
330
F10385
100
AcDbEntity
8
Geo
100
AcDbLine
10
-42.4208285385500
20
17.9734816904845
30
0.000000000000000
11
-42.3208285385500
21
17.9517277607516
31
0.000000000000000
  0
LINE
  5
F10386
330
F10387
100
AcDbEntity
8
Geo
100
AcDbLine
10
-42.3208285385500
20
17.9517277607516
30
0.000000000000000
11
-42.2208285385500
21
17.9296654294425
31
0.000000000000000
  0
LINE
  5
F10388
330
F10389
100
AcDbEntity
8
Geo
100
AcDbLine
10
-42.2208285385500
20
17.9296654294425
30
0.000000000000000
11
-42.1208285385500
21
17.9072954319663
31
0.000000000000000
  0
LINE
  5
F1038A
330
F1038B
100
AcDbEntity
8
Geo
100
AcDbLine
10
-42.1208285385500
20
17.9072954319663
30
0.000000000000000
11
-42.0208285385500
21
17.8846185139875
31
0.000000000000000
  0
LINE
  5
F1038C
330
F1038D
100
AcDbEntity
8
Geo
100
AcDbLine
10
-42.0208285385500
20
17.8846185139875
30
0.000000000000000
11
-41.9208285385500
21
17.8616354314011
31
0.000000000000000
  0
LINE
  5
F1038E
330
F1038F
100
AcDbEntity
8
Geo
100
AcDbLine
10
-41.9208285385500
20
17.8616354314011
30
0.000000000000000
11
-41.8208285385500
21
17.8383469503079
31
0.000000000000000
  0
LINE
  5
F10390
330
F10391
100
AcDbEntity
8
Geo
100
AcDbLine
10
-41.8208285385500
20
17.8383469503079
30
0.000000000000000
11
-41.7208285385500
21
17.8147538469884
31
0.000000000000000
  0
LINE
  5
F10392
330
F10393
100
AcDbEntity
8
Geo
100
AcDbLine
10
-41.7208285385500
20
17.8147538469884
30
0.000000000000000
11
-41.6208285385500
21
17.7908569078771
31
0.000000000000000
  0
LINE
  5
F10394
330
F10395
100
AcDbEntity
8
Geo
100
AcDbLine
10
-41.6208285385500
20
17.7908569078771
30
0.000000000000000
11
-41.5208285385500
21
17.7666569295365
31
0.000000000000000
  0
LINE
  5
F10396
330
F10397
100
AcDbEntity
8
Geo
100
AcDbLine
10
-41.5208285385500
20
17.7666569295365
30
0.000000000000000
11
-41.4208285385500
21
17.7421547186304
31
0.000000000000000
  0
LINE
  5
F10398
330
F10399
100
AcDbEntity
8
Geo
100
AcDbLine
10
-41.4208285385500
20
17.7421547186304
30
0.000000000000000
11
-41.3208285385500
21
17.7173510918967
31
0.000000000000000
  0
LINE
  5
F1039A
330
F1039B
100
AcDbEntity
8
Geo
100
AcDbLine
10
-41.3208285385500
20
17.7173510918967
30
0.000000000000000
11
-41.2208285385500
21
17.6922468761209
31
0.000000000000000
  0
LINE
  5
F1039C
330
F1039D
100
AcDbEntity
8
Geo
100
AcDbLine
10
-41.2208285385500
20
17.6922468761209
30
0.000000000000000
11
-41.1208285385500
21
17.6668429081076
31
0.000000000000000
  0
LINE
  5
F1039E
330
F1039F
100
AcDbEntity
8
Geo
100
AcDbLine
10
-41.1208285385500
20
17.6668429081076
30
0.000000000000000
11
-41.0208285385500
21
17.6411400346535
31
0.000000000000000
  0
LINE
  5
F103A0
330
F103A1
100
AcDbEntity
8
Geo
100
AcDbLine
10
-41.0208285385500
20
17.6411400346535
30
0.000000000000000
11
-40.9208285385500
21
17.6151391125188
31
0.000000000000000
  0
LINE
  5
F103A2
330
F103A3
100
AcDbEntity
8
Geo
100
AcDbLine
10
-40.9208285385500
20
17.6151391125188
30
0.000000000000000
11
-40.8208285385500
21
17.5888410083983
31
0.000000000000000
  0
LINE
  5
F103A4
330
F103A5
100
AcDbEntity
8
Geo
100
AcDbLine
10
-40.8208285385500
20
17.5888410083983
30
0.000000000000000
11
-40.7208285385500
21
17.5622465988931
31
0.000000000000000
  0
LINE
  5
F103A6
330
F103A7
100
AcDbEntity
8
Geo
100
AcDbLine
10
-40.7208285385500
20
17.5622465988931
30
0.000000000000000
11
-40.6208285385500
21
17.5353567704811
31
0.000000000000000
  0
LINE
  5
F103A8
330
F103A9
100
AcDbEntity
8
Geo
100
AcDbLine
10
-40.6208285385500
20
17.5353567704811
30
0.000000000000000
11
-40.5208285385500
21
17.5081724194874
31
0.000000000000000
  0
LINE
  5
F103AA
330
F103AB
100
AcDbEntity
8
Geo
100
AcDbLine
10
-40.5208285385500
20
17.5081724194874
30
0.000000000000000
11
-40.4208285385500
21
17.4806944520544
31
0.000000000000000
  0
LINE
  5
F103AC
330
F103AD
100
AcDbEntity
8
Geo
100
AcDbLine
10
-40.4208285385500
20
17.4806944520544
30
0.000000000000000
11
-40.3208285385500
21
17.4529237841120
31
0.000000000000000
  0
LINE
  5
F103AE
330
F103AF
100
AcDbEntity
8
Geo
100
AcDbLine
10
-40.3208285385500
20
17.4529237841120
30
0.000000000000000
11
-40.2208285385500
21
17.4248613413465
31
0.000000000000000
  0
LINE
  5
F103B0
330
F103B1
100
AcDbEntity
8
Geo
100
AcDbLine
10
-40.2208285385500
20
17.4248613413465
30
0.000000000000000
11
-40.1208285385500
21
17.3965080591700
31
0.000000000000000
  0
LINE
  5
F103B2
330
F103B3
100
AcDbEntity
8
Geo
100
AcDbLine
10
-40.1208285385500
20
17.3965080591700
30
0.000000000000000
11
-40.0208285385500
21
17.3678648826893
31
0.000000000000000
  0
LINE
  5
F103B4
330
F103B5
100
AcDbEntity
8
Geo
100
AcDbLine
10
-40.0208285385500
20
17.3678648826893
30
0.000000000000000
11
-39.9208285385500
21
17.3389327666743
31
0.000000000000000
  0
LINE
  5
F103B6
330
F103B7
100
AcDbEntity
8
Geo
100
AcDbLine
10
-39.9208285385500
20
17.3389327666743
30
0.000000000000000
11
-39.8208285385500
21
17.3097126755262
31
0.000000000000000
  0
LINE
  5
F103B8
330
F103B9
100
AcDbEntity
8
Geo
100
AcDbLine
10
-39.8208285385500
20
17.3097126755262
30
0.000000000000000
11
-39.7208285385500
21
17.2802055832454
31
0.000000000000000
  0
LINE
  5
F103BA
330
F103BB
100
AcDbEntity
8
Geo
100
AcDbLine
10
-39.7208285385500
20
17.2802055832454
30
0.000000000000000
11
-39.6208285385500
21
17.2504124733987
31
0.000000000000000
  0
LINE
  5
F103BC
330
F103BD
100
AcDbEntity
8
Geo
100
AcDbLine
10
-39.6208285385500
20
17.2504124733987
30
0.000000000000000
11
-39.5208285385500
21
17.2203343390873
31
0.000000000000000
  0
LINE
  5
F103BE
330
F103BF
100
AcDbEntity
8
Geo
100
AcDbLine
10
-39.5208285385500
20
17.2203343390873
30
0.000000000000000
11
-39.4208285385500
21
17.1899721829126
31
0.000000000000000
  0
LINE
  5
F103C0
330
F103C1
100
AcDbEntity
8
Geo
100
AcDbLine
10
-39.4208285385500
20
17.1899721829126
30
0.000000000000000
11
-39.3208285385500
21
17.1593270169439
31
0.000000000000000
  0
LINE
  5
F103C2
330
F103C3
100
AcDbEntity
8
Geo
100
AcDbLine
10
-39.3208285385500
20
17.1593270169439
30
0.000000000000000
11
-39.2208285385500
21
17.1283998626837
31
0.000000000000000
  0
LINE
  5
F103C4
330
F103C5
100
AcDbEntity
8
Geo
100
AcDbLine
10
-39.2208285385500
20
17.1283998626837
30
0.000000000000000
11
-39.1208285385500
21
17.0971917510344
31
0.000000000000000
  0
LINE
  5
F103C6
330
F103C7
100
AcDbEntity
8
Geo
100
AcDbLine
10
-39.1208285385500
20
17.0971917510344
30
0.000000000000000
11
-39.0208285385500
21
17.0657037222635
31
0.000000000000000
  0
LINE
  5
F103C8
330
F103C9
100
AcDbEntity
8
Geo
100
AcDbLine
10
-39.0208285385500
20
17.0657037222635
30
0.000000000000000
11
-38.9208285385500
21
17.0339368259690
31
0.000000000000000
  0
LINE
  5
F103CA
330
F103CB
100
AcDbEntity
8
Geo
100
AcDbLine
10
-38.9208285385500
20
17.0339368259690
30
0.000000000000000
11
-38.8208285385500
21
17.0018921210445
31
0.000000000000000
  0
LINE
  5
F103CC
330
F103CD
100
AcDbEntity
8
Geo
100
AcDbLine
10
-38.8208285385500
20
17.0018921210445
30
0.000000000000000
11
-38.7208285385500
21
16.9695706756439
31
0.000000000000000
  0
LINE
  5
F103CE
330
F103CF
100
AcDbEntity
8
Geo
100
AcDbLine
10
-38.7208285385500
20
16.9695706756439
30
0.000000000000000
11
-38.6208285385500
21
16.9369735671456
31
0.000000000000000
  0
LINE
  5
F103D0
330
F103D1
100
AcDbEntity
8
Geo
100
AcDbLine
10
-38.6208285385500
20
16.9369735671456
30
0.000000000000000
11
-38.5208285385500
21
16.9041018821171
31
0.000000000000000
  0
LINE
  5
F103D2
330
F103D3
100
AcDbEntity
8
Geo
100
AcDbLine
10
-38.5208285385500
20
16.9041018821171
30
0.000000000000000
11
-38.4208285385500
21
16.8709567162780
31
0.000000000000000
  0
LINE
  5
F103D4
330
F103D5
100
AcDbEntity
8
Geo
100
AcDbLine
10
-38.4208285385500
20
16.8709567162780
30
0.000000000000000
11
-38.3208285385500
21
16.8375391744641
31
0.000000000000000
  0
LINE
  5
F103D6
330
F103D7
100
AcDbEntity
8
Geo
100
AcDbLine
10
-38.3208285385500
20
16.8375391744641
30
0.000000000000000
11
-38.2208285385500
21
16.8038503705905
31
0.000000000000000
  0
LINE
  5
F103D8
330
F103D9
100
AcDbEntity
8
Geo
100
AcDbLine
10
-38.2208285385500
20
16.8038503705905
30
0.000000000000000
11
-38.1208285385500
21
16.7698914276140
31
0.000000000000000
  0
LINE
  5
F103DA
330
F103DB
100
AcDbEntity
8
Geo
100
AcDbLine
10
-38.1208285385500
20
16.7698914276140
30
0.000000000000000
11
-38.0208285385500
21
16.7356634774965
31
0.000000000000000
  0
LINE
  5
F103DC
330
F103DD
100
AcDbEntity
8
Geo
100
AcDbLine
10
-38.0208285385500
20
16.7356634774965
30
0.000000000000000
11
-37.9208285385500
21
16.7011676611662
31
0.000000000000000
  0
LINE
  5
F103DE
330
F103DF
100
AcDbEntity
8
Geo
100
AcDbLine
10
-37.9208285385500
20
16.7011676611662
30
0.000000000000000
11
-37.8208285385500
21
16.6664051284807
31
0.000000000000000
  0
LINE
  5
F103E0
330
F103E1
100
AcDbEntity
8
Geo
100
AcDbLine
10
-37.8208285385500
20
16.6664051284807
30
0.000000000000000
11
-37.7208285385501
21
16.6313770381877
31
0.000000000000000
  0
LINE
  5
F103E2
330
F103E3
100
AcDbEntity
8
Geo
100
AcDbLine
10
-37.7208285385501
20
16.6313770381877
30
0.000000000000000
11
-37.6208285385501
21
16.5960845578870
31
0.000000000000000
  0
LINE
  5
F103E4
330
F103E5
100
AcDbEntity
8
Geo
100
AcDbLine
10
-37.6208285385501
20
16.5960845578870
30
0.000000000000000
11
-37.5208285385500
21
16.5605288639915
31
0.000000000000000
  0
LINE
  5
F103E6
330
F103E7
100
AcDbEntity
8
Geo
100
AcDbLine
10
-37.5208285385500
20
16.5605288639915
30
0.000000000000000
11
-37.4208285385500
21
16.5247111416875
31
0.000000000000000
  0
LINE
  5
F103E8
330
F103E9
100
AcDbEntity
8
Geo
100
AcDbLine
10
-37.4208285385500
20
16.5247111416875
30
0.000000000000000
11
-37.3208285385500
21
16.4886325848958
31
0.000000000000000
  0
LINE
  5
F103EA
330
F103EB
100
AcDbEntity
8
Geo
100
AcDbLine
10
-37.3208285385500
20
16.4886325848958
30
0.000000000000000
11
-37.2208285385501
21
16.4522943962317
31
0.000000000000000
  0
LINE
  5
F103EC
330
F103ED
100
AcDbEntity
8
Geo
100
AcDbLine
10
-37.2208285385501
20
16.4522943962317
30
0.000000000000000
11
-37.1208285385501
21
16.4156977869648
31
0.000000000000000
  0
LINE
  5
F103EE
330
F103EF
100
AcDbEntity
8
Geo
100
AcDbLine
10
-37.1208285385501
20
16.4156977869648
30
0.000000000000000
11
-37.0208285385500
21
16.3788439769785
31
0.000000000000000
  0
LINE
  5
F103F0
330
F103F1
100
AcDbEntity
8
Geo
100
AcDbLine
10
-37.0208285385500
20
16.3788439769785
30
0.000000000000000
11
-36.9208285385501
21
16.3417341947300
31
0.000000000000000
  0
LINE
  5
F103F2
330
F103F3
100
AcDbEntity
8
Geo
100
AcDbLine
10
-36.9208285385501
20
16.3417341947300
30
0.000000000000000
11
-36.8208285385501
21
16.3043696772084
31
0.000000000000000
  0
LINE
  5
F103F4
330
F103F5
100
AcDbEntity
8
Geo
100
AcDbLine
10
-36.8208285385501
20
16.3043696772084
30
0.000000000000000
11
-36.7208285385501
21
16.2667516698942
31
0.000000000000000
  0
LINE
  5
F103F6
330
F103F7
100
AcDbEntity
8
Geo
100
AcDbLine
10
-36.7208285385501
20
16.2667516698942
30
0.000000000000000
11
-36.6208285385501
21
16.2288814267175
31
0.000000000000000
  0
LINE
  5
F103F8
330
F103F9
100
AcDbEntity
8
Geo
100
AcDbLine
10
-36.6208285385501
20
16.2288814267175
30
0.000000000000000
11
-36.5208285385500
21
16.1907602100163
31
0.000000000000000
  0
LINE
  5
F103FA
330
F103FB
100
AcDbEntity
8
Geo
100
AcDbLine
10
-36.5208285385500
20
16.1907602100163
30
0.000000000000000
11
-36.4208285385501
21
16.1523892904942
31
0.000000000000000
  0
LINE
  5
F103FC
330
F103FD
100
AcDbEntity
8
Geo
100
AcDbLine
10
-36.4208285385501
20
16.1523892904942
30
0.000000000000000
11
-36.3208285385501
21
16.1137699471784
31
0.000000000000000
  0
LINE
  5
F103FE
330
F103FF
100
AcDbEntity
8
Geo
100
AcDbLine
10
-36.3208285385501
20
16.1137699471784
30
0.000000000000000
11
-36.2208285385501
21
16.0749034673767
31
0.000000000000000
  0
LINE
  5
F10400
330
F10401
100
AcDbEntity
8
Geo
100
AcDbLine
10
-36.2208285385501
20
16.0749034673767
30
0.000000000000000
11
-36.1208285385501
21
16.0357911466348
31
0.000000000000000
  0
LINE
  5
F10402
330
F10403
100
AcDbEntity
8
Geo
100
AcDbLine
10
-36.1208285385501
20
16.0357911466348
30
0.000000000000000
11
-36.0208285385501
21
15.9964342886931
31
0.000000000000000
  0
LINE
  5
F10404
330
F10405
100
AcDbEntity
8
Geo
100
AcDbLine
10
-36.0208285385501
20
15.9964342886931
30
0.000000000000000
11
-35.9208285385501
21
15.9568342054433
31
0.000000000000000
  0
LINE
  5
F10406
330
F10407
100
AcDbEntity
8
Geo
100
AcDbLine
10
-35.9208285385501
20
15.9568342054433
30
0.000000000000000
11
-35.8208285385501
21
15.9169922168845
31
0.000000000000000
  0
LINE
  5
F10408
330
F10409
100
AcDbEntity
8
Geo
100
AcDbLine
10
-35.8208285385501
20
15.9169922168845
30
0.000000000000000
11
-35.7208285385501
21
15.8769096510792
31
0.000000000000000
  0
LINE
  5
F1040A
330
F1040B
100
AcDbEntity
8
Geo
100
AcDbLine
10
-35.7208285385501
20
15.8769096510792
30
0.000000000000000
11
-35.6208285385501
21
15.8365878441093
31
0.000000000000000
  0
LINE
  5
F1040C
330
F1040D
100
AcDbEntity
8
Geo
100
AcDbLine
10
-35.6208285385501
20
15.8365878441093
30
0.000000000000000
11
-35.5208285385501
21
15.7960281400312
31
0.000000000000000
  0
LINE
  5
F1040E
330
F1040F
100
AcDbEntity
8
Geo
100
AcDbLine
10
-35.5208285385501
20
15.7960281400312
30
0.000000000000000
11
-35.4208285385501
21
15.7552318908315
31
0.000000000000000
  0
LINE
  5
F10410
330
F10411
100
AcDbEntity
8
Geo
100
AcDbLine
10
-35.4208285385501
20
15.7552318908315
30
0.000000000000000
11
-35.3208285385501
21
15.7142004563811
31
0.000000000000000
  0
LINE
  5
F10412
330
F10413
100
AcDbEntity
8
Geo
100
AcDbLine
10
-35.3208285385501
20
15.7142004563811
30
0.000000000000000
11
-35.2208285385501
21
15.6729352043910
31
0.000000000000000
  0
LINE
  5
F10414
330
F10415
100
AcDbEntity
8
Geo
100
AcDbLine
10
-35.2208285385501
20
15.6729352043910
30
0.000000000000000
11
-35.1208285385501
21
15.6314375103655
31
0.000000000000000
  0
LINE
  5
F10416
330
F10417
100
AcDbEntity
8
Geo
100
AcDbLine
10
-35.1208285385501
20
15.6314375103655
30
0.000000000000000
11
-35.0208285385501
21
15.5897087575574
31
0.000000000000000
  0
LINE
  5
F10418
330
F10419
100
AcDbEntity
8
Geo
100
AcDbLine
10
-35.0208285385501
20
15.5897087575574
30
0.000000000000000
11
-34.9208285385501
21
15.5477503369211
31
0.000000000000000
  0
LINE
  5
F1041A
330
F1041B
100
AcDbEntity
8
Geo
100
AcDbLine
10
-34.9208285385501
20
15.5477503369211
30
0.000000000000000
11
-34.8208285385501
21
15.5055636470669
31
0.000000000000000
  0
LINE
  5
F1041C
330
F1041D
100
AcDbEntity
8
Geo
100
AcDbLine
10
-34.8208285385501
20
15.5055636470669
30
0.000000000000000
11
-34.7208285385501
21
15.4631500942139
31
0.000000000000000
  0
LINE
  5
F1041E
330
F1041F
100
AcDbEntity
8
Geo
100
AcDbLine
10
-34.7208285385501
20
15.4631500942139
30
0.000000000000000
11
-34.6208285385501
21
15.4205110921431
31
0.000000000000000
  0
LINE
  5
F10420
330
F10421
100
AcDbEntity
8
Geo
100
AcDbLine
10
-34.6208285385501
20
15.4205110921431
30
0.000000000000000
11
-34.5208285385501
21
15.3776480621508
31
0.000000000000000
  0
LINE
  5
F10422
330
F10423
100
AcDbEntity
8
Geo
100
AcDbLine
10
-34.5208285385501
20
15.3776480621508
30
0.000000000000000
11
-34.4208285385501
21
15.3345624330005
31
0.000000000000000
  0
LINE
  5
F10424
330
F10425
100
AcDbEntity
8
Geo
100
AcDbLine
10
-34.4208285385501
20
15.3345624330005
30
0.000000000000000
11
-34.3208285385501
21
15.2912556408761
31
0.000000000000000
  0
LINE
  5
F10426
330
F10427
100
AcDbEntity
8
Geo
100
AcDbLine
10
-34.3208285385501
20
15.2912556408761
30
0.000000000000000
11
-34.2208285385501
21
15.2477291293331
31
0.000000000000000
  0
LINE
  5
F10428
330
F10429
100
AcDbEntity
8
Geo
100
AcDbLine
10
-34.2208285385501
20
15.2477291293331
30
0.000000000000000
11
-34.1208285385501
21
15.2039843492513
31
0.000000000000000
  0
LINE
  5
F1042A
330
F1042B
100
AcDbEntity
8
Geo
100
AcDbLine
10
-34.1208285385501
20
15.2039843492513
30
0.000000000000000
11
-34.0208285385501
21
15.1600227587859
31
0.000000000000000
  0
LINE
  5
F1042C
330
F1042D
100
AcDbEntity
8
Geo
100
AcDbLine
10
-34.0208285385501
20
15.1600227587859
30
0.000000000000000
11
-33.9208285385501
21
15.1158458233193
31
0.000000000000000
  0
LINE
  5
F1042E
330
F1042F
100
AcDbEntity
8
Geo
100
AcDbLine
10
-33.9208285385501
20
15.1158458233193
30
0.000000000000000
11
-33.8208285385501
21
15.0714550154119
31
0.000000000000000
  0
LINE
  5
F10430
330
F10431
100
AcDbEntity
8
Geo
100
AcDbLine
10
-33.8208285385501
20
15.0714550154119
30
0.000000000000000
11
-33.7208285385501
21
15.0268518147531
31
0.000000000000000
  0
LINE
  5
F10432
330
F10433
100
AcDbEntity
8
Geo
100
AcDbLine
10
-33.7208285385501
20
15.0268518147531
30
0.000000000000000
11
-33.6208285385501
21
14.9820377081122
31
0.000000000000000
  0
LINE
  5
F10434
330
F10435
100
AcDbEntity
8
Geo
100
AcDbLine
10
-33.6208285385501
20
14.9820377081122
30
0.000000000000000
11
-33.5208285385501
21
14.9370141892886
31
0.000000000000000
  0
LINE
  5
F10436
330
F10437
100
AcDbEntity
8
Geo
100
AcDbLine
10
-33.5208285385501
20
14.9370141892886
30
0.000000000000000
11
-33.4208285385501
21
14.8917827590621
31
0.000000000000000
  0
LINE
  5
F10438
330
F10439
100
AcDbEntity
8
Geo
100
AcDbLine
10
-33.4208285385501
20
14.8917827590621
30
0.000000000000000
11
-33.3208285385501
21
14.8463449251427
31
0.000000000000000
  0
LINE
  5
F1043A
330
F1043B
100
AcDbEntity
8
Geo
100
AcDbLine
10
-33.3208285385501
20
14.8463449251427
30
0.000000000000000
11
-33.2208285385501
21
14.8007022021209
31
0.000000000000000
  0
LINE
  5
F1043C
330
F1043D
100
AcDbEntity
8
Geo
100
AcDbLine
10
-33.2208285385501
20
14.8007022021209
30
0.000000000000000
11
-33.1208285385501
21
14.7548561114165
31
0.000000000000000
  0
LINE
  5
F1043E
330
F1043F
100
AcDbEntity
8
Geo
100
AcDbLine
10
-33.1208285385501
20
14.7548561114165
30
0.000000000000000
11
-33.0208285385501
21
14.7088081812281
31
0.000000000000000
  0
LINE
  5
F10440
330
F10441
100
AcDbEntity
8
Geo
100
AcDbLine
10
-33.0208285385501
20
14.7088081812281
30
0.000000000000000
11
-32.9208285385501
21
14.6625599464827
31
0.000000000000000
  0
LINE
  5
F10442
330
F10443
100
AcDbEntity
8
Geo
100
AcDbLine
10
-32.9208285385501
20
14.6625599464827
30
0.000000000000000
11
-32.8208285385501
21
14.6161129487837
31
0.000000000000000
  0
LINE
  5
F10444
330
F10445
100
AcDbEntity
8
Geo
100
AcDbLine
10
-32.8208285385501
20
14.6161129487837
30
0.000000000000000
11
-32.7208285385501
21
14.5694687363600
31
0.000000000000000
  0
LINE
  5
F10446
330
F10447
100
AcDbEntity
8
Geo
100
AcDbLine
10
-32.7208285385501
20
14.5694687363600
30
0.000000000000000
11
-32.6208285385501
21
14.5226288640145
31
0.000000000000000
  0
LINE
  5
F10448
330
F10449
100
AcDbEntity
8
Geo
100
AcDbLine
10
-32.6208285385501
20
14.5226288640145
30
0.000000000000000
11
-32.5208285385501
21
14.4755948930719
31
0.000000000000000
  0
LINE
  5
F1044A
330
F1044B
100
AcDbEntity
8
Geo
100
AcDbLine
10
-32.5208285385501
20
14.4755948930719
30
0.000000000000000
11
-32.4208285385501
21
14.4283683913269
31
0.000000000000000
  0
LINE
  5
F1044C
330
F1044D
100
AcDbEntity
8
Geo
100
AcDbLine
10
-32.4208285385501
20
14.4283683913269
30
0.000000000000000
11
-32.3208285385501
21
14.3809509329917
31
0.000000000000000
  0
LINE
  5
F1044E
330
F1044F
100
AcDbEntity
8
Geo
100
AcDbLine
10
-32.3208285385501
20
14.3809509329917
30
0.000000000000000
11
-32.2208285385501
21
14.3333440986441
31
0.000000000000000
  0
LINE
  5
F10450
330
F10451
100
AcDbEntity
8
Geo
100
AcDbLine
10
-32.2208285385501
20
14.3333440986441
30
0.000000000000000
11
-32.1208285385501
21
14.2855494751739
31
0.000000000000000
  0
LINE
  5
F10452
330
F10453
100
AcDbEntity
8
Geo
100
AcDbLine
10
-32.1208285385501
20
14.2855494751739
30
0.000000000000000
11
-32.0208285385501
21
14.2375686557310
31
0.000000000000000
  0
LINE
  5
F10454
330
F10455
100
AcDbEntity
8
Geo
100
AcDbLine
10
-32.0208285385501
20
14.2375686557310
30
0.000000000000000
11
-31.9208285385501
21
14.1894032396715
31
0.000000000000000
  0
LINE
  5
F10456
330
F10457
100
AcDbEntity
8
Geo
100
AcDbLine
10
-31.9208285385501
20
14.1894032396715
30
0.000000000000000
11
-31.8208285385501
21
14.1410548325049
31
0.000000000000000
  0
LINE
  5
F10458
330
F10459
100
AcDbEntity
8
Geo
100
AcDbLine
10
-31.8208285385501
20
14.1410548325049
30
0.000000000000000
11
-31.7208285385501
21
14.0925250458402
31
0.000000000000000
  0
LINE
  5
F1045A
330
F1045B
100
AcDbEntity
8
Geo
100
AcDbLine
10
-31.7208285385501
20
14.0925250458402
30
0.000000000000000
11
-31.6208285385501
21
14.0438154973325
31
0.000000000000000
  0
LINE
  5
F1045C
330
F1045D
100
AcDbEntity
8
Geo
100
AcDbLine
10
-31.6208285385501
20
14.0438154973325
30
0.000000000000000
11
-31.5208285385501
21
13.9949278106289
31
0.000000000000000
  0
LINE
  5
F1045E
330
F1045F
100
AcDbEntity
8
Geo
100
AcDbLine
10
-31.5208285385501
20
13.9949278106289
30
0.000000000000000
11
-31.4208285385501
21
13.9458636153144
31
0.000000000000000
  0
LINE
  5
F10460
330
F10461
100
AcDbEntity
8
Geo
100
AcDbLine
10
-31.4208285385501
20
13.9458636153144
30
0.000000000000000
11
-31.3208285385501
21
13.8966245468577
31
0.000000000000000
  0
LINE
  5
F10462
330
F10463
100
AcDbEntity
8
Geo
100
AcDbLine
10
-31.3208285385501
20
13.8966245468577
30
0.000000000000000
11
-31.2208285385501
21
13.8472122465565
31
0.000000000000000
  0
LINE
  5
F10464
330
F10465
100
AcDbEntity
8
Geo
100
AcDbLine
10
-31.2208285385501
20
13.8472122465565
30
0.000000000000000
11
-31.1208285385501
21
13.7976283614829
31
0.000000000000000
  0
LINE
  5
F10466
330
F10467
100
AcDbEntity
8
Geo
100
AcDbLine
10
-31.1208285385501
20
13.7976283614829
30
0.000000000000000
11
-31.0208285385501
21
13.7478745444285
31
0.000000000000000
  0
LINE
  5
F10468
330
F10469
100
AcDbEntity
8
Geo
100
AcDbLine
10
-31.0208285385501
20
13.7478745444285
30
0.000000000000000
11
-30.9208285385501
21
13.6979524538492
31
0.000000000000000
  0
LINE
  5
F1046A
330
F1046B
100
AcDbEntity
8
Geo
100
AcDbLine
10
-30.9208285385501
20
13.6979524538492
30
0.000000000000000
11
-30.8208285385501
21
13.6478637538100
31
0.000000000000000
  0
LINE
  5
F1046C
330
F1046D
100
AcDbEntity
8
Geo
100
AcDbLine
10
-30.8208285385501
20
13.6478637538100
30
0.000000000000000
11
-30.7208285385501
21
13.5976101139298
31
0.000000000000000
  0
LINE
  5
F1046E
330
F1046F
100
AcDbEntity
8
Geo
100
AcDbLine
10
-30.7208285385501
20
13.5976101139298
30
0.000000000000000
11
-30.6208285385501
21
13.5471932093252
31
0.000000000000000
  0
LINE
  5
F10470
330
F10471
100
AcDbEntity
8
Geo
100
AcDbLine
10
-30.6208285385501
20
13.5471932093252
30
0.000000000000000
11
-30.5208285385501
21
13.4966147205549
31
0.000000000000000
  0
LINE
  5
F10472
330
F10473
100
AcDbEntity
8
Geo
100
AcDbLine
10
-30.5208285385501
20
13.4966147205549
30
0.000000000000000
11
-30.4208285385501
21
13.4458763335640
31
0.000000000000000
  0
LINE
  5
F10474
330
F10475
100
AcDbEntity
8
Geo
100
AcDbLine
10
-30.4208285385501
20
13.4458763335640
30
0.000000000000000
11
-30.3208285385501
21
13.3949797396273
31
0.000000000000000
  0
LINE
  5
F10476
330
F10477
100
AcDbEntity
8
Geo
100
AcDbLine
10
-30.3208285385501
20
13.3949797396273
30
0.000000000000000
11
-30.2208285385501
21
13.3439266352932
31
0.000000000000000
  0
LINE
  5
F10478
330
F10479
100
AcDbEntity
8
Geo
100
AcDbLine
10
-30.2208285385501
20
13.3439266352932
30
0.000000000000000
11
-30.1208285385501
21
13.2927187223271
31
0.000000000000000
  0
LINE
  5
F1047A
330
F1047B
100
AcDbEntity
8
Geo
100
AcDbLine
10
-30.1208285385501
20
13.2927187223271
30
0.000000000000000
11
-30.0208285385501
21
13.2413577076547
31
0.000000000000000
  0
LINE
  5
F1047C
330
F1047D
100
AcDbEntity
8
Geo
100
AcDbLine
10
-30.0208285385501
20
13.2413577076547
30
0.000000000000000
11
-29.9208285385501
21
13.1898453033052
31
0.000000000000000
  0
LINE
  5
F1047E
330
F1047F
100
AcDbEntity
8
Geo
100
AcDbLine
10
-29.9208285385501
20
13.1898453033052
30
0.000000000000000
11
-29.8208285385501
21
13.1381832263538
31
0.000000000000000
  0
LINE
  5
F10480
330
F10481
100
AcDbEntity
8
Geo
100
AcDbLine
10
-29.8208285385501
20
13.1381832263538
30
0.000000000000000
11
-29.7208285385501
21
13.0863731988650
31
0.000000000000000
  0
LINE
  5
F10482
330
F10483
100
AcDbEntity
8
Geo
100
AcDbLine
10
-29.7208285385501
20
13.0863731988650
30
0.000000000000000
11
-29.6208285385501
21
13.0344169478350
31
0.000000000000000
  0
LINE
  5
F10484
330
F10485
100
AcDbEntity
8
Geo
100
AcDbLine
10
-29.6208285385501
20
13.0344169478350
30
0.000000000000000
11
-29.5208285385501
21
12.9823162051339
31
0.000000000000000
  0
LINE
  5
F10486
330
F10487
100
AcDbEntity
8
Geo
100
AcDbLine
10
-29.5208285385501
20
12.9823162051339
30
0.000000000000000
11
-29.4208285385501
21
12.9300727074484
31
0.000000000000000
  0
LINE
  5
F10488
330
F10489
100
AcDbEntity
8
Geo
100
AcDbLine
10
-29.4208285385501
20
12.9300727074484
30
0.000000000000000
11
-29.3208285385501
21
12.8776881962235
31
0.000000000000000
  0
LINE
  5
F1048A
330
F1048B
100
AcDbEntity
8
Geo
100
AcDbLine
10
-29.3208285385501
20
12.8776881962235
30
0.000000000000000
11
-29.2208285385501
21
12.8251644176048
31
0.000000000000000
  0
LINE
  5
F1048C
330
F1048D
100
AcDbEntity
8
Geo
100
AcDbLine
10
-29.2208285385501
20
12.8251644176048
30
0.000000000000000
11
-29.1208285385501
21
12.7725031223800
31
0.000000000000000
  0
LINE
  5
F1048E
330
F1048F
100
AcDbEntity
8
Geo
100
AcDbLine
10
-29.1208285385501
20
12.7725031223800
30
0.000000000000000
11
-29.0208285385501
21
12.7197060659208
31
0.000000000000000
  0
LINE
  5
F10490
330
F10491
100
AcDbEntity
8
Geo
100
AcDbLine
10
-29.0208285385501
20
12.7197060659208
30
0.000000000000000
11
-28.9208285385501
21
12.6667750081241
31
0.000000000000000
  0
LINE
  5
F10492
330
F10493
100
AcDbEntity
8
Geo
100
AcDbLine
10
-28.9208285385501
20
12.6667750081241
30
0.000000000000000
11
-28.8208285385501
21
12.6137117133536
31
0.000000000000000
  0
LINE
  5
F10494
330
F10495
100
AcDbEntity
8
Geo
100
AcDbLine
10
-28.8208285385501
20
12.6137117133536
30
0.000000000000000
11
-28.7208285385501
21
12.5605179503810
31
0.000000000000000
  0
LINE
  5
F10496
330
F10497
100
AcDbEntity
8
Geo
100
AcDbLine
10
-28.7208285385501
20
12.5605179503810
30
0.000000000000000
11
-28.6208285385501
21
12.5071954923267
31
0.000000000000000
  0
LINE
  5
F10498
330
F10499
100
AcDbEntity
8
Geo
100
AcDbLine
10
-28.6208285385501
20
12.5071954923267
30
0.000000000000000
11
-28.5208285385501
21
12.4537461166011
31
0.000000000000000
  0
LINE
  5
F1049A
330
F1049B
100
AcDbEntity
8
Geo
100
AcDbLine
10
-28.5208285385501
20
12.4537461166011
30
0.000000000000000
11
-28.4208285385501
21
12.4001716048450
31
0.000000000000000
  0
LINE
  5
F1049C
330
F1049D
100
AcDbEntity
8
Geo
100
AcDbLine
10
-28.4208285385501
20
12.4001716048450
30
0.000000000000000
11
-28.3208285385501
21
12.3464737428706
31
0.000000000000000
  0
LINE
  5
F1049E
330
F1049F
100
AcDbEntity
8
Geo
100
AcDbLine
10
-28.3208285385501
20
12.3464737428706
30
0.000000000000000
11
-28.2208285385501
21
12.2926543206017
31
0.000000000000000
  0
LINE
  5
F104A0
330
F104A1
100
AcDbEntity
8
Geo
100
AcDbLine
10
-28.2208285385501
20
12.2926543206017
30
0.000000000000000
11
-28.1208285385501
21
12.2387151320139
31
0.000000000000000
  0
LINE
  5
F104A2
330
F104A3
100
AcDbEntity
8
Geo
100
AcDbLine
10
-28.1208285385501
20
12.2387151320139
30
0.000000000000000
11
-28.0208285385501
21
12.1846579750752
31
0.000000000000000
  0
LINE
  5
F104A4
330
F104A5
100
AcDbEntity
8
Geo
100
AcDbLine
10
-28.0208285385501
20
12.1846579750752
30
0.000000000000000
11
-27.9208285385501
21
12.1304846516859
31
0.000000000000000
  0
LINE
  5
F104A6
330
F104A7
100
AcDbEntity
8
Geo
100
AcDbLine
10
-27.9208285385501
20
12.1304846516859
30
0.000000000000000
11
-27.8208285385501
21
12.0761969676185
31
0.000000000000000
  0
LINE
  5
F104A8
330
F104A9
100
AcDbEntity
8
Geo
100
AcDbLine
10
-27.8208285385501
20
12.0761969676185
30
0.000000000000000
11
-27.7208285385501
21
12.0217967324572
31
0.000000000000000
  0
LINE
  5
F104AA
330
F104AB
100
AcDbEntity
8
Geo
100
AcDbLine
10
-27.7208285385501
20
12.0217967324572
30
0.000000000000000
11
-27.6208285385501
21
11.9672857595384
31
0.000000000000000
  0
LINE
  5
F104AC
330
F104AD
100
AcDbEntity
8
Geo
100
AcDbLine
10
-27.6208285385501
20
11.9672857595384
30
0.000000000000000
11
-27.5208285385501
21
11.9126658658893
31
0.000000000000000
  0
LINE
  5
F104AE
330
F104AF
100
AcDbEntity
8
Geo
100
AcDbLine
10
-27.5208285385501
20
11.9126658658893
30
0.000000000000000
11
-27.4208285385501
21
11.8579388721680
31
0.000000000000000
  0
LINE
  5
F104B0
330
F104B1
100
AcDbEntity
8
Geo
100
AcDbLine
10
-27.4208285385501
20
11.8579388721680
30
0.000000000000000
11
-27.3208285385501
21
11.8031066026026
31
0.000000000000000
  0
LINE
  5
F104B2
330
F104B3
100
AcDbEntity
8
Geo
100
AcDbLine
10
-27.3208285385501
20
11.8031066026026
30
0.000000000000000
11
-27.2208285385501
21
11.7481708849303
31
0.000000000000000
  0
LINE
  5
F104B4
330
F104B5
100
AcDbEntity
8
Geo
100
AcDbLine
10
-27.2208285385501
20
11.7481708849303
30
0.000000000000000
11
-27.1208285385501
21
11.6931335503367
31
0.000000000000000
  0
LINE
  5
F104B6
330
F104B7
100
AcDbEntity
8
Geo
100
AcDbLine
10
-27.1208285385501
20
11.6931335503367
30
0.000000000000000
11
-27.0208285385501
21
11.6379964333944
31
0.000000000000000
  0
LINE
  5
F104B8
330
F104B9
100
AcDbEntity
8
Geo
100
AcDbLine
10
-27.0208285385501
20
11.6379964333944
30
0.000000000000000
11
-26.9208285385501
21
11.5827613720022
31
0.000000000000000
  0
LINE
  5
F104BA
330
F104BB
100
AcDbEntity
8
Geo
100
AcDbLine
10
-26.9208285385501
20
11.5827613720022
30
0.000000000000000
11
-26.8208285385501
21
11.5274302073238
31
0.000000000000000
  0
LINE
  5
F104BC
330
F104BD
100
AcDbEntity
8
Geo
100
AcDbLine
10
-26.8208285385501
20
11.5274302073238
30
0.000000000000000
11
-26.7208285385501
21
11.4720047837262
31
0.000000000000000
  0
LINE
  5
F104BE
330
F104BF
100
AcDbEntity
8
Geo
100
AcDbLine
10
-26.7208285385501
20
11.4720047837262
30
0.000000000000000
11
-26.6208285385501
21
11.4164869487183
31
0.000000000000000
  0
LINE
  5
F104C0
330
F104C1
100
AcDbEntity
8
Geo
100
AcDbLine
10
-26.6208285385501
20
11.4164869487183
30
0.000000000000000
11
-26.5208285385501
21
11.3608785528896
31
0.000000000000000
  0
LINE
  5
F104C2
330
F104C3
100
AcDbEntity
8
Geo
100
AcDbLine
10
-26.5208285385501
20
11.3608785528896
30
0.000000000000000
11
-26.4208285385501
21
11.3051814498480
31
0.000000000000000
  0
LINE
  5
F104C4
330
F104C5
100
AcDbEntity
8
Geo
100
AcDbLine
10
-26.4208285385501
20
11.3051814498480
30
0.000000000000000
11
-26.3208285385501
21
11.2493974961585
31
0.000000000000000
  0
LINE
  5
F104C6
330
F104C7
100
AcDbEntity
8
Geo
100
AcDbLine
10
-26.3208285385501
20
11.2493974961585
30
0.000000000000000
11
-26.2208285385501
21
11.1935285512811
31
0.000000000000000
  0
LINE
  5
F104C8
330
F104C9
100
AcDbEntity
8
Geo
100
AcDbLine
10
-26.2208285385501
20
11.1935285512811
30
0.000000000000000
11
-26.1208285385501
21
11.1375764775087
31
0.000000000000000
  0
LINE
  5
F104CA
330
F104CB
100
AcDbEntity
8
Geo
100
AcDbLine
10
-26.1208285385501
20
11.1375764775087
30
0.000000000000000
11
-26.0208285385501
21
11.0815431399054
31
0.000000000000000
  0
LINE
  5
F104CC
330
F104CD
100
AcDbEntity
8
Geo
100
AcDbLine
10
-26.0208285385501
20
11.0815431399054
30
0.000000000000000
11
-25.9208285385501
21
11.0254304062438
31
0.000000000000000
  0
LINE
  5
F104CE
330
F104CF
100
AcDbEntity
8
Geo
100
AcDbLine
10
-25.9208285385501
20
11.0254304062438
30
0.000000000000000
11
-25.8208285385501
21
10.9692401469431
31
0.000000000000000
  0
LINE
  5
F104D0
330
F104D1
100
AcDbEntity
8
Geo
100
AcDbLine
10
-25.8208285385501
20
10.9692401469431
30
0.000000000000000
11
-25.7208285385501
21
10.9129742350070
31
0.000000000000000
  0
LINE
  5
F104D2
330
F104D3
100
AcDbEntity
8
Geo
100
AcDbLine
10
-25.7208285385501
20
10.9129742350070
30
0.000000000000000
11
-25.6208285385501
21
10.8566345459604
31
0.000000000000000
  0
LINE
  5
F104D4
330
F104D5
100
AcDbEntity
8
Geo
100
AcDbLine
10
-25.6208285385501
20
10.8566345459604
30
0.000000000000000
11
-25.5208285385501
21
10.8002229577879
31
0.000000000000000
  0
LINE
  5
F104D6
330
F104D7
100
AcDbEntity
8
Geo
100
AcDbLine
10
-25.5208285385501
20
10.8002229577879
30
0.000000000000000
11
-25.4208285385501
21
10.7437413508705
31
0.000000000000000
  0
LINE
  5
F104D8
330
F104D9
100
AcDbEntity
8
Geo
100
AcDbLine
10
-25.4208285385501
20
10.7437413508705
30
0.000000000000000
11
-25.3208285385501
21
10.6871916079231
31
0.000000000000000
  0
LINE
  5
F104DA
330
F104DB
100
AcDbEntity
8
Geo
100
AcDbLine
10
-25.3208285385501
20
10.6871916079231
30
0.000000000000000
11
-25.2208285385501
21
10.6305756139321
31
0.000000000000000
  0
LINE
  5
F104DC
330
F104DD
100
AcDbEntity
8
Geo
100
AcDbLine
10
-25.2208285385501
20
10.6305756139321
30
0.000000000000000
11
-25.1208285385501
21
10.5738952560919
31
0.000000000000000
  0
LINE
  5
F104DE
330
F104DF
100
AcDbEntity
8
Geo
100
AcDbLine
10
-25.1208285385501
20
10.5738952560919
30
0.000000000000000
11
-25.0208285385500
21
10.5171524237425
31
0.000000000000000
  0
LINE
  5
F104E0
330
F104E1
100
AcDbEntity
8
Geo
100
AcDbLine
10
-25.0208285385500
20
10.5171524237425
30
0.000000000000000
11
-24.9208285385500
21
10.4603490083065
31
0.000000000000000
  0
LINE
  5
F104E2
330
F104E3
100
AcDbEntity
8
Geo
100
AcDbLine
10
-24.9208285385500
20
10.4603490083065
30
0.000000000000000
11
-24.8208285385500
21
10.4034869032258
31
0.000000000000000
  0
LINE
  5
F104E4
330
F104E5
100
AcDbEntity
8
Geo
100
AcDbLine
10
-24.8208285385500
20
10.4034869032258
30
0.000000000000000
11
-24.7208285385500
21
10.3465680038986
31
0.000000000000000
  0
LINE
  5
F104E6
330
F104E7
100
AcDbEntity
8
Geo
100
AcDbLine
10
-24.7208285385500
20
10.3465680038986
30
0.000000000000000
11
-24.6208285385500
21
10.2895942076162
31
0.000000000000000
  0
LINE
  5
F104E8
330
F104E9
100
AcDbEntity
8
Geo
100
AcDbLine
10
-24.6208285385500
20
10.2895942076162
30
0.000000000000000
11
-24.5208285385500
21
10.2325674135000
31
0.000000000000000
  0
LINE
  5
F104EA
330
F104EB
100
AcDbEntity
8
Geo
100
AcDbLine
10
-24.5208285385500
20
10.2325674135000
30
0.000000000000000
11
-24.4208285385500
21
10.1754895224379
31
0.000000000000000
  0
LINE
  5
F104EC
330
F104ED
100
AcDbEntity
8
Geo
100
AcDbLine
10
-24.4208285385500
20
10.1754895224379
30
0.000000000000000
11
-24.3208285385500
21
10.1183624370208
31
0.000000000000000
  0
LINE
  5
F104EE
330
F104EF
100
AcDbEntity
8
Geo
100
AcDbLine
10
-24.3208285385500
20
10.1183624370208
30
0.000000000000000
11
-24.2208285385500
21
10.0611880614796
31
0.000000000000000
  0
LINE
  5
F104F0
330
F104F1
100
AcDbEntity
8
Geo
100
AcDbLine
10
-24.2208285385500
20
10.0611880614796
30
0.000000000000000
11
-24.1208285385500
21
10.0039683016217
31
0.000000000000000
  0
LINE
  5
F104F2
330
F104F3
100
AcDbEntity
8
Geo
100
AcDbLine
10
-24.1208285385500
20
10.0039683016217
30
0.000000000000000
11
-24.0208285385500
21
9.94670506476707
31
0.000000000000000
  0
LINE
  5
F104F4
330
F104F5
100
AcDbEntity
8
Geo
100
AcDbLine
10
-24.0208285385500
20
9.94670506476707
30
0.000000000000000
11
-23.9208285385500
21
9.88940025968489
31
0.000000000000000
  0
LINE
  5
F104F6
330
F104F7
100
AcDbEntity
8
Geo
100
AcDbLine
10
-23.9208285385500
20
9.88940025968489
30
0.000000000000000
11
-23.8208285385500
21
9.83205579653007
31
0.000000000000000
  0
LINE
  5
F104F8
330
F104F9
100
AcDbEntity
8
Geo
100
AcDbLine
10
-23.8208285385500
20
9.83205579653007
30
0.000000000000000
11
-23.7208285385500
21
9.77467358677941
31
0.000000000000000
  0
LINE
  5
F104FA
330
F104FB
100
AcDbEntity
8
Geo
100
AcDbLine
10
-43.6208285385500
20
5.60948483185470
30
0.000000000000000
11
-43.5208285385500
21
5.55462736602529
31
0.000000000000000
  0
LINE
  5
F104FC
330
F104FD
100
AcDbEntity
8
Geo
100
AcDbLine
10
-43.5208285385500
20
5.55462736602529
30
0.000000000000000
11
-43.4208285385500
21
5.49987473415166
31
0.000000000000000
  0
LINE
  5
F104FE
330
F104FF
100
AcDbEntity
8
Geo
100
AcDbLine
10
-43.4208285385500
20
5.49987473415166
30
0.000000000000000
11
-43.3208285385500
21
5.44522876131647
31
0.000000000000000
  0
LINE
  5
F10500
330
F10501
100
AcDbEntity
8
Geo
100
AcDbLine
10
-43.3208285385500
20
5.44522876131647
30
0.000000000000000
11
-43.2208285385500
21
5.39069126904708
31
0.000000000000000
  0
LINE
  5
F10502
330
F10503
100
AcDbEntity
8
Geo
100
AcDbLine
10
-43.2208285385500
20
5.39069126904708
30
0.000000000000000
11
-43.1208285385500
21
5.33626407525486
31
0.000000000000000
  0
LINE
  5
F10504
330
F10505
100
AcDbEntity
8
Geo
100
AcDbLine
10
-43.1208285385500
20
5.33626407525486
30
0.000000000000000
11
-43.0208285385500
21
5.28194899417457
31
0.000000000000000
  0
LINE
  5
F10506
330
F10507
100
AcDbEntity
8
Geo
100
AcDbLine
10
-43.0208285385500
20
5.28194899417457
30
0.000000000000000
11
-42.9208285385500
21
5.22774783630386
31
0.000000000000000
  0
LINE
  5
F10508
330
F10509
100
AcDbEntity
8
Geo
100
AcDbLine
10
-42.9208285385500
20
5.22774783630386
30
0.000000000000000
11
-42.8208285385500
21
5.17366240834300
31
0.000000000000000
  0
LINE
  5
F1050A
330
F1050B
100
AcDbEntity
8
Geo
100
AcDbLine
10
-42.8208285385500
20
5.17366240834300
30
0.000000000000000
11
-42.7208285385500
21
5.11969451313456
31
0.000000000000000
  0
LINE
  5
F1050C
330
F1050D
100
AcDbEntity
8
Geo
100
AcDbLine
10
-42.7208285385500
20
5.11969451313456
30
0.000000000000000
11
-42.6208285385500
21
5.06584594960339
31
0.000000000000000
  0
LINE
  5
F1050E
330
F1050F
100
AcDbEntity
8
Geo
100
AcDbLine
10
-42.6208285385500
20
5.06584594960339
30
0.000000000000000
11
-42.5208285385500
21
5.01211851269663
31
0.000000000000000
  0
LINE
  5
F10510
330
F10511
100
AcDbEntity
8
Geo
100
AcDbLine
10
-42.5208285385500
20
5.01211851269663
30
0.000000000000000
11
-42.4208285385500
21
4.95851399332386
31
0.000000000000000
  0
LINE
  5
F10512
330
F10513
100
AcDbEntity
8
Geo
100
AcDbLine
10
-42.4208285385500
20
4.95851399332386
30
0.000000000000000
11
-42.3208285385500
21
4.90503417829743
31
0.000000000000000
  0
LINE
  5
F10514
330
F10515
100
AcDbEntity
8
Geo
100
AcDbLine
10
-42.3208285385500
20
4.90503417829743
30
0.000000000000000
11
-42.2208285385500
21
4.85168085027289
31
0.000000000000000
  0
LINE
  5
F10516
330
F10517
100
AcDbEntity
8
Geo
100
AcDbLine
10
-42.2208285385500
20
4.85168085027289
30
0.000000000000000
11
-42.1208285385500
21
4.79845578768957
31
0.000000000000000
  0
LINE
  5
F10518
330
F10519
100
AcDbEntity
8
Geo
100
AcDbLine
10
-42.1208285385500
20
4.79845578768957
30
0.000000000000000
11
-42.0208285385500
21
4.74536076471129
31
0.000000000000000
  0
LINE
  5
F1051A
330
F1051B
100
AcDbEntity
8
Geo
100
AcDbLine
10
-42.0208285385500
20
4.74536076471129
30
0.000000000000000
11
-41.9208285385500
21
4.69239755116723
31
0.000000000000000
  0
LINE
  5
F1051C
330
F1051D
100
AcDbEntity
8
Geo
100
AcDbLine
10
-41.9208285385500
20
4.69239755116723
30
0.000000000000000
11
-41.8208285385500
21
4.63956791249295
31
0.000000000000000
  0
LINE
  5
F1051E
330
F1051F
100
AcDbEntity
8
Geo
100
AcDbLine
10
-41.8208285385500
20
4.63956791249295
30
0.000000000000000
11
-41.7208285385500
21
4.58687360967150
31
0.000000000000000
  0
LINE
  5
F10520
330
F10521
100
AcDbEntity
8
Geo
100
AcDbLine
10
-41.7208285385500
20
4.58687360967150
30
0.000000000000000
11
-41.6208285385500
21
4.53431639917478
31
0.000000000000000
  0
LINE
  5
F10522
330
F10523
100
AcDbEntity
8
Geo
100
AcDbLine
10
-41.6208285385500
20
4.53431639917478
30
0.000000000000000
11
-41.5208285385500
21
4.48189803290492
31
0.000000000000000
  0
LINE
  5
F10524
330
F10525
100
AcDbEntity
8
Geo
100
AcDbLine
10
-41.5208285385500
20
4.48189803290492
30
0.000000000000000
11
-41.4208285385500
21
4.42962025813595
31
0.000000000000000
  0
LINE
  5
F10526
330
F10527
100
AcDbEntity
8
Geo
100
AcDbLine
10
-41.4208285385500
20
4.42962025813595
30
0.000000000000000
11
-41.3208285385500
21
4.37748481745552
31
0.000000000000000
  0
LINE
  5
F10528
330
F10529
100
AcDbEntity
8
Geo
100
AcDbLine
10
-41.3208285385500
20
4.37748481745552
30
0.000000000000000
11
-41.2208285385500
21
4.32549344870684
31
0.000000000000000
  0
LINE
  5
F1052A
330
F1052B
100
AcDbEntity
8
Geo
100
AcDbLine
10
-41.2208285385500
20
4.32549344870684
30
0.000000000000000
11
-41.1208285385500
21
4.27364788493070
31
0.000000000000000
  0
LINE
  5
F1052C
330
F1052D
100
AcDbEntity
8
Geo
100
AcDbLine
10
-41.1208285385500
20
4.27364788493070
30
0.000000000000000
11
-41.0208285385500
21
4.22194985430777
31
0.000000000000000
  0
LINE
  5
F1052E
330
F1052F
100
AcDbEntity
8
Geo
100
AcDbLine
10
-41.0208285385500
20
4.22194985430777
30
0.000000000000000
11
-40.9208285385500
21
4.17040108010094
31
0.000000000000000
  0
LINE
  5
F10530
330
F10531
100
AcDbEntity
8
Geo
100
AcDbLine
10
-40.9208285385500
20
4.17040108010094
30
0.000000000000000
11
-40.8208285385500
21
4.11900328059793
31
0.000000000000000
  0
LINE
  5
F10532
330
F10533
100
AcDbEntity
8
Geo
100
AcDbLine
10
-40.8208285385500
20
4.11900328059793
30
0.000000000000000
11
-40.7208285385500
21
4.06775816905395
31
0.000000000000000
  0
LINE
  5
F10534
330
F10535
100
AcDbEntity
8
Geo
100
AcDbLine
10
-40.7208285385500
20
4.06775816905395
30
0.000000000000000
11
-40.6208285385500
21
4.01666745363464
31
0.000000000000000
  0
LINE
  5
F10536
330
F10537
100
AcDbEntity
8
Geo
100
AcDbLine
10
-40.6208285385500
20
4.01666745363464
30
0.000000000000000
11
-40.5208285385500
21
3.96573283735912
31
0.000000000000000
  0
LINE
  5
F10538
330
F10539
100
AcDbEntity
8
Geo
100
AcDbLine
10
-40.5208285385500
20
3.96573283735912
30
0.000000000000000
11
-40.4208285385500
21
3.91495601804322
31
0.000000000000000
  0
LINE
  5
F1053A
330
F1053B
100
AcDbEntity
8
Geo
100
AcDbLine
10
-40.4208285385500
20
3.91495601804322
30
0.000000000000000
11
-40.3208285385500
21
3.86433868824287
31
0.000000000000000
  0
LINE
  5
F1053C
330
F1053D
100
AcDbEntity
8
Geo
100
AcDbLine
10
-40.3208285385500
20
3.86433868824287
30
0.000000000000000
11
-40.2208285385500
21
3.81388253519772
31
0.000000000000000
  0
LINE
  5
F1053E
330
F1053F
100
AcDbEntity
8
Geo
100
AcDbLine
10
-40.2208285385500
20
3.81388253519772
30
0.000000000000000
11
-40.1208285385500
21
3.76358924077487
31
0.000000000000000
  0
LINE
  5
F10540
330
F10541
100
AcDbEntity
8
Geo
100
AcDbLine
10
-40.1208285385500
20
3.76358924077487
30
0.000000000000000
11
-40.0208285385500
21
3.71346048141280
31
0.000000000000000
  0
LINE
  5
F10542
330
F10543
100
AcDbEntity
8
Geo
100
AcDbLine
10
-40.0208285385500
20
3.71346048141280
30
0.000000000000000
11
-39.9208285385500
21
3.66349792806552
31
0.000000000000000
  0
LINE
  5
F10544
330
F10545
100
AcDbEntity
8
Geo
100
AcDbLine
10
-39.9208285385500
20
3.66349792806552
30
0.000000000000000
11
-39.8208285385500
21
3.61370324614685
31
0.000000000000000
  0
LINE
  5
F10546
330
F10547
100
AcDbEntity
8
Geo
100
AcDbLine
10
-39.8208285385500
20
3.61370324614685
30
0.000000000000000
11
-39.7208285385500
21
3.56407809547491
31
0.000000000000000
  0
LINE
  5
F10548
330
F10549
100
AcDbEntity
8
Geo
100
AcDbLine
10
-39.7208285385500
20
3.56407809547491
30
0.000000000000000
11
-39.6208285385500
21
3.51462413021679
31
0.000000000000000
  0
LINE
  5
F1054A
330
F1054B
100
AcDbEntity
8
Geo
100
AcDbLine
10
-39.6208285385500
20
3.51462413021679
30
0.000000000000000
11
-39.5208285385500
21
3.46534299883342
31
0.000000000000000
  0
LINE
  5
F1054C
330
F1054D
100
AcDbEntity
8
Geo
100
AcDbLine
10
-39.5208285385500
20
3.46534299883342
30
0.000000000000000
11
-39.4208285385500
21
3.41623634402461
31
0.000000000000000
  0
LINE
  5
F1054E
330
F1054F
100
AcDbEntity
8
Geo
100
AcDbLine
10
-39.4208285385500
20
3.41623634402461
30
0.000000000000000
11
-39.3208285385500
21
3.36730580267433
31
0.000000000000000
  0
LINE
  5
F10550
330
F10551
100
AcDbEntity
8
Geo
100
AcDbLine
10
-39.3208285385500
20
3.36730580267433
30
0.000000000000000
11
-39.2208285385500
21
3.31855300579607
31
0.000000000000000
  0
LINE
  5
F10552
330
F10553
100
AcDbEntity
8
Geo
100
AcDbLine
10
-39.2208285385500
20
3.31855300579607
30
0.000000000000000
11
-39.1208285385500
21
3.26997957847855
31
0.000000000000000
  0
LINE
  5
F10554
330
F10555
100
AcDbEntity
8
Geo
100
AcDbLine
10
-39.1208285385500
20
3.26997957847855
30
0.000000000000000
11
-39.0208285385500
21
3.22158713983153
31
0.000000000000000
  0
LINE
  5
F10556
330
F10557
100
AcDbEntity
8
Geo
100
AcDbLine
10
-39.0208285385500
20
3.22158713983153
30
0.000000000000000
11
-38.9208285385500
21
3.17337730293180
31
0.000000000000000
  0
LINE
  5
F10558
330
F10559
100
AcDbEntity
8
Geo
100
AcDbLine
10
-38.9208285385500
20
3.17337730293180
30
0.000000000000000
11
-38.8208285385500
21
3.12535167476947
31
0.000000000000000
  0
LINE
  5
F1055A
330
F1055B
100
AcDbEntity
8
Geo
100
AcDbLine
10
-38.8208285385500
20
3.12535167476947
30
0.000000000000000
11
-38.7208285385500
21
3.07751185619436
31
0.000000000000000
  0
LINE
  5
F1055C
330
F1055D
100
AcDbEntity
8
Geo
100
AcDbLine
10
-38.7208285385500
20
3.07751185619436
30
0.000000000000000
11
-38.6208285385500
21
3.02985944186267
31
0.000000000000000
  0
LINE
  5
F1055E
330
F1055F
100
AcDbEntity
8
Geo
100
AcDbLine
10
-38.6208285385500
20
3.02985944186267
30
0.000000000000000
11
-38.5208285385500
21
2.98239602018378
31
0.000000000000000
  0
LINE
  5
F10560
330
F10561
100
AcDbEntity
8
Geo
100
AcDbLine
10
-38.5208285385500
20
2.98239602018378
30
0.000000000000000
11
-38.4208285385500
21
2.93512317326737
31
0.000000000000000
  0
LINE
  5
F10562
330
F10563
100
AcDbEntity
8
Geo
100
AcDbLine
10
-38.4208285385500
20
2.93512317326737
30
0.000000000000000
11
-38.3208285385500
21
2.88804247687062
31
0.000000000000000
  0
LINE
  5
F10564
330
F10565
100
AcDbEntity
8
Geo
100
AcDbLine
10
-38.3208285385500
20
2.88804247687062
30
0.000000000000000
11
-38.2208285385500
21
2.84115550034571
31
0.000000000000000
  0
LINE
  5
F10566
330
F10567
100
AcDbEntity
8
Geo
100
AcDbLine
10
-38.2208285385500
20
2.84115550034571
30
0.000000000000000
11
-38.1208285385500
21
2.79446380658753
31
0.000000000000000
  0
LINE
  5
F10568
330
F10569
100
AcDbEntity
8
Geo
100
AcDbLine
10
-38.1208285385500
20
2.79446380658753
30
0.000000000000000
11
-38.0208285385500
21
2.74796895198153
31
0.000000000000000
  0
LINE
  5
F1056A
330
F1056B
100
AcDbEntity
8
Geo
100
AcDbLine
10
-38.0208285385500
20
2.74796895198153
30
0.000000000000000
11
-37.9208285385500
21
2.70167248635191
31
0.000000000000000
  0
LINE
  5
F1056C
330
F1056D
100
AcDbEntity
8
Geo
100
AcDbLine
10
-37.9208285385500
20
2.70167248635191
30
0.000000000000000
11
-37.8208285385500
21
2.65557595290990
31
0.000000000000000
  0
LINE
  5
F1056E
330
F1056F
100
AcDbEntity
8
Geo
100
AcDbLine
10
-37.8208285385500
20
2.65557595290990
30
0.000000000000000
11
-37.7208285385501
21
2.60968088820234
31
0.000000000000000
  0
LINE
  5
F10570
330
F10571
100
AcDbEntity
8
Geo
100
AcDbLine
10
-37.7208285385501
20
2.60968088820234
30
0.000000000000000
11
-37.6208285385501
21
2.56398882206047
31
0.000000000000000
  0
LINE
  5
F10572
330
F10573
100
AcDbEntity
8
Geo
100
AcDbLine
10
-37.6208285385501
20
2.56398882206047
30
0.000000000000000
11
-37.5208285385500
21
2.51850127754894
31
0.000000000000000
  0
LINE
  5
F10574
330
F10575
100
AcDbEntity
8
Geo
100
AcDbLine
10
-37.5208285385500
20
2.51850127754894
30
0.000000000000000
11
-37.4208285385500
21
2.47321977091501
31
0.000000000000000
  0
LINE
  5
F10576
330
F10577
100
AcDbEntity
8
Geo
100
AcDbLine
10
-37.4208285385500
20
2.47321977091501
30
0.000000000000000
11
-37.3208285385500
21
2.42814581153806
31
0.000000000000000
  0
LINE
  5
F10578
330
F10579
100
AcDbEntity
8
Geo
100
AcDbLine
10
-37.3208285385500
20
2.42814581153806
30
0.000000000000000
11
-37.2208285385501
21
2.38328090187921
31
0.000000000000000
  0
LINE
  5
F1057A
330
F1057B
100
AcDbEntity
8
Geo
100
AcDbLine
10
-37.2208285385501
20
2.38328090187921
30
0.000000000000000
11
-37.1208285385501
21
2.33862653743130
31
0.000000000000000
  0
LINE
  5
F1057C
330
F1057D
100
AcDbEntity
8
Geo
100
AcDbLine
10
-37.1208285385501
20
2.33862653743130
30
0.000000000000000
11
-37.0208285385500
21
2.29418420666902
31
0.000000000000000
  0
LINE
  5
F1057E
330
F1057F
100
AcDbEntity
8
Geo
100
AcDbLine
10
-37.0208285385500
20
2.29418420666902
30
0.000000000000000
11
-36.9208285385501
21
2.24995539099927
31
0.000000000000000
  0
LINE
  5
F10580
330
F10581
100
AcDbEntity
8
Geo
100
AcDbLine
10
-36.9208285385501
20
2.24995539099927
30
0.000000000000000
11
-36.8208285385501
21
2.20594156471181
31
0.000000000000000
  0
LINE
  5
F10582
330
F10583
100
AcDbEntity
8
Geo
100
AcDbLine
10
-36.8208285385501
20
2.20594156471181
30
0.000000000000000
11
-36.7208285385501
21
2.16214419493011
31
0.000000000000000
  0
LINE
  5
F10584
330
F10585
100
AcDbEntity
8
Geo
100
AcDbLine
10
-36.7208285385501
20
2.16214419493011
30
0.000000000000000
11
-36.6208285385501
21
2.11856474156244
31
0.000000000000000
  0
LINE
  5
F10586
330
F10587
100
AcDbEntity
8
Geo
100
AcDbLine
10
-36.6208285385501
20
2.11856474156244
30
0.000000000000000
11
-36.5208285385500
21
2.07520465725322
31
0.000000000000000
  0
LINE
  5
F10588
330
F10589
100
AcDbEntity
8
Geo
100
AcDbLine
10
-36.5208285385500
20
2.07520465725322
30
0.000000000000000
11
-36.4208285385501
21
2.03206538733456
31
0.000000000000000
  0
LINE
  5
F1058A
330
F1058B
100
AcDbEntity
8
Geo
100
AcDbLine
10
-36.4208285385501
20
2.03206538733456
30
0.000000000000000
11
-36.3208285385501
21
1.98914836977815
31
0.000000000000000
  0
LINE
  5
F1058C
330
F1058D
100
AcDbEntity
8
Geo
100
AcDbLine
10
-36.3208285385501
20
1.98914836977815
30
0.000000000000000
11
-36.2208285385501
21
1.94645503514726
31
0.000000000000000
  0
LINE
  5
F1058E
330
F1058F
100
AcDbEntity
8
Geo
100
AcDbLine
10
-36.2208285385501
20
1.94645503514726
30
0.000000000000000
11
-36.1208285385501
21
1.90398680654908
31
0.000000000000000
  0
LINE
  5
F10590
330
F10591
100
AcDbEntity
8
Geo
100
AcDbLine
10
-36.1208285385501
20
1.90398680654908
30
0.000000000000000
11
-36.0208285385501
21
1.86174509958731
31
0.000000000000000
  0
LINE
  5
F10592
330
F10593
100
AcDbEntity
8
Geo
100
AcDbLine
10
-36.0208285385501
20
1.86174509958731
30
0.000000000000000
11
-35.9208285385501
21
1.81973132231494
31
0.000000000000000
  0
LINE
  5
F10594
330
F10595
100
AcDbEntity
8
Geo
100
AcDbLine
10
-35.9208285385501
20
1.81973132231494
30
0.000000000000000
11
-35.8208285385501
21
1.77794687518731
31
0.000000000000000
  0
LINE
  5
F10596
330
F10597
100
AcDbEntity
8
Geo
100
AcDbLine
10
-35.8208285385501
20
1.77794687518731
30
0.000000000000000
11
-35.7208285385501
21
1.73639315101547
31
0.000000000000000
  0
LINE
  5
F10598
330
F10599
100
AcDbEntity
8
Geo
100
AcDbLine
10
-35.7208285385501
20
1.73639315101547
30
0.000000000000000
11
-35.6208285385501
21
1.69507153491970
31
0.000000000000000
  0
LINE
  5
F1059A
330
F1059B
100
AcDbEntity
8
Geo
100
AcDbLine
10
-35.6208285385501
20
1.69507153491970
30
0.000000000000000
11
-35.5208285385501
21
1.65398340428338
31
0.000000000000000
  0
LINE
  5
F1059C
330
F1059D
100
AcDbEntity
8
Geo
100
AcDbLine
10
-35.5208285385501
20
1.65398340428338
30
0.000000000000000
11
-35.4208285385501
21
1.61313012870706
31
0.000000000000000
  0
LINE
  5
F1059E
330
F1059F
100
AcDbEntity
8
Geo
100
AcDbLine
10
-35.4208285385501
20
1.61313012870706
30
0.000000000000000
11
-35.3208285385501
21
1.57251306996281
31
0.000000000000000
  0
LINE
  5
F105A0
330
F105A1
100
AcDbEntity
8
Geo
100
AcDbLine
10
-35.3208285385501
20
1.57251306996281
30
0.000000000000000
11
-35.2208285385501
21
1.53213358194884
31
0.000000000000000
  0
LINE
  5
F105A2
330
F105A3
100
AcDbEntity
8
Geo
100
AcDbLine
10
-35.2208285385501
20
1.53213358194884
30
0.000000000000000
11
-35.1208285385501
21
1.49199301064432
31
0.000000000000000
  0
LINE
  5
F105A4
330
F105A5
100
AcDbEntity
8
Geo
100
AcDbLine
10
-35.1208285385501
20
1.49199301064432
30
0.000000000000000
11
-35.0208285385501
21
1.45209269406459
31
0.000000000000000
  0
LINE
  5
F105A6
330
F105A7
100
AcDbEntity
8
Geo
100
AcDbLine
10
-35.0208285385501
20
1.45209269406459
30
0.000000000000000
11
-34.9208285385501
21
1.41243396221652
31
0.000000000000000
  0
LINE
  5
F105A8
330
F105A9
100
AcDbEntity
8
Geo
100
AcDbLine
10
-34.9208285385501
20
1.41243396221652
30
0.000000000000000
11
-34.8208285385501
21
1.37301813705414
31
0.000000000000000
  0
LINE
  5
F105AA
330
F105AB
100
AcDbEntity
8
Geo
100
AcDbLine
10
-34.8208285385501
20
1.37301813705414
30
0.000000000000000
11
-34.7208285385501
21
1.33384653243467
31
0.000000000000000
  0
LINE
  5
F105AC
330
F105AD
100
AcDbEntity
8
Geo
100
AcDbLine
10
-34.7208285385501
20
1.33384653243467
30
0.000000000000000
11
-34.6208285385501
21
1.29492045407460
31
0.000000000000000
  0
LINE
  5
F105AE
330
F105AF
100
AcDbEntity
8
Geo
100
AcDbLine
10
-34.6208285385501
20
1.29492045407460
30
0.000000000000000
11
-34.5208285385501
21
1.25624119950631
31
0.000000000000000
  0
LINE
  5
F105B0
330
F105B1
100
AcDbEntity
8
Geo
100
AcDbLine
10
-34.5208285385501
20
1.25624119950631
30
0.000000000000000
11
-34.4208285385501
21
1.21781005803468
31
0.000000000000000
  0
LINE
  5
F105B2
330
F105B3
100
AcDbEntity
8
Geo
100
AcDbLine
10
-34.4208285385501
20
1.21781005803468
30
0.000000000000000
11
-34.3208285385501
21
1.17962831069420
31
0.000000000000000
  0
LINE
  5
F105B4
330
F105B5
100
AcDbEntity
8
Geo
100
AcDbLine
10
-34.3208285385501
20
1.17962831069420
30
0.000000000000000
11
-34.2208285385501
21
1.14169723020626
31
0.000000000000000
  0
LINE
  5
F105B6
330
F105B7
100
AcDbEntity
8
Geo
100
AcDbLine
10
-34.2208285385501
20
1.14169723020626
30
0.000000000000000
11
-34.1208285385501
21
1.10401808093668
31
0.000000000000000
  0
LINE
  5
F105B8
330
F105B9
100
AcDbEntity
8
Geo
100
AcDbLine
10
-34.1208285385501
20
1.10401808093668
30
0.000000000000000
11
-34.0208285385501
21
1.06659211885363
31
0.000000000000000
  0
LINE
  5
F105BA
330
F105BB
100
AcDbEntity
8
Geo
100
AcDbLine
10
-34.0208285385501
20
1.06659211885363
30
0.000000000000000
11
-33.9208285385501
21
1.02942059148571
31
0.000000000000000
  0
LINE
  5
F105BC
330
F105BD
100
AcDbEntity
8
Geo
100
AcDbLine
10
-33.9208285385501
20
1.02942059148571
30
0.000000000000000
11
-33.8208285385501
21
0.992504737880386
31
0.000000000000000
  0
LINE
  5
F105BE
330
F105BF
100
AcDbEntity
8
Geo
100
AcDbLine
10
-33.8208285385501
20
0.992504737880386
30
0.000000000000000
11
-33.7208285385501
21
0.955845788562695
31
0.000000000000000
  0
LINE
  5
F105C0
330
F105C1
100
AcDbEntity
8
Geo
100
AcDbLine
10
-33.7208285385501
20
0.955845788562695
30
0.000000000000000
11
-33.6208285385501
21
0.919444965494221
31
0.000000000000000
  0
LINE
  5
F105C2
330
F105C3
100
AcDbEntity
8
Geo
100
AcDbLine
10
-33.6208285385501
20
0.919444965494221
30
0.000000000000000
11
-33.5208285385501
21
0.883303482032360
31
0.000000000000000
  0
LINE
  5
F105C4
330
F105C5
100
AcDbEntity
8
Geo
100
AcDbLine
10
-33.5208285385501
20
0.883303482032360
30
0.000000000000000
11
-33.4208285385501
21
0.847422542889883
31
0.000000000000000
  0
LINE
  5
F105C6
330
F105C7
100
AcDbEntity
8
Geo
100
AcDbLine
10
-33.4208285385501
20
0.847422542889883
30
0.000000000000000
11
-33.3208285385501
21
0.811803344094772
31
0.000000000000000
  0
LINE
  5
F105C8
330
F105C9
100
AcDbEntity
8
Geo
100
AcDbLine
10
-33.3208285385501
20
0.811803344094772
30
0.000000000000000
11
-33.2208285385501
21
0.776447072950355
31
0.000000000000000
  0
LINE
  5
F105CA
330
F105CB
100
AcDbEntity
8
Geo
100
AcDbLine
10
-33.2208285385501
20
0.776447072950355
30
0.000000000000000
11
-33.1208285385501
21
0.741354907995731
31
0.000000000000000
  0
LINE
  5
F105CC
330
F105CD
100
AcDbEntity
8
Geo
100
AcDbLine
10
-33.1208285385501
20
0.741354907995731
30
0.000000000000000
11
-33.0208285385501
21
0.706528018966480
31
0.000000000000000
  0
LINE
  5
F105CE
330
F105CF
100
AcDbEntity
8
Geo
100
AcDbLine
10
-33.0208285385501
20
0.706528018966480
30
0.000000000000000
11
-32.9208285385501
21
0.671967566755683
31
0.000000000000000
  0
LINE
  5
F105D0
330
F105D1
100
AcDbEntity
8
Geo
100
AcDbLine
10
-32.9208285385501
20
0.671967566755683
30
0.000000000000000
11
-32.8208285385501
21
0.637674703375211
31
0.000000000000000
  0
LINE
  5
F105D2
330
F105D3
100
AcDbEntity
8
Geo
100
AcDbLine
10
-32.8208285385501
20
0.637674703375211
30
0.000000000000000
11
-32.7208285385501
21
0.603650571917331
31
0.000000000000000
  0
LINE
  5
F105D4
330
F105D5
100
AcDbEntity
8
Geo
100
AcDbLine
10
-32.7208285385501
20
0.603650571917331
30
0.000000000000000
11
-32.6208285385501
21
0.569896306516615
31
0.000000000000000
  0
LINE
  5
F105D6
330
F105D7
100
AcDbEntity
8
Geo
100
AcDbLine
10
-32.6208285385501
20
0.569896306516615
30
0.000000000000000
11
-32.5208285385501
21
0.536413032312113
31
0.000000000000000
  0
LINE
  5
F105D8
330
F105D9
100
AcDbEntity
8
Geo
100
AcDbLine
10
-32.5208285385501
20
0.536413032312113
30
0.000000000000000
11
-32.4208285385501
21
0.503201865409862
31
0.000000000000000
  0
LINE
  5
F105DA
330
F105DB
100
AcDbEntity
8
Geo
100
AcDbLine
10
-32.4208285385501
20
0.503201865409862
30
0.000000000000000
11
-32.3208285385501
21
0.470263912845692
31
0.000000000000000
  0
LINE
  5
F105DC
330
F105DD
100
AcDbEntity
8
Geo
100
AcDbLine
10
-32.3208285385501
20
0.470263912845692
30
0.000000000000000
11
-32.2208285385501
21
0.437600272548298
31
0.000000000000000
  0
LINE
  5
F105DE
330
F105DF
100
AcDbEntity
8
Geo
100
AcDbLine
10
-32.2208285385501
20
0.437600272548298
30
0.000000000000000
11
-32.1208285385501
21
0.405212033302671
31
0.000000000000000
  0
LINE
  5
F105E0
330
F105E1
100
AcDbEntity
8
Geo
100
AcDbLine
10
-32.1208285385501
20
0.405212033302671
30
0.000000000000000
11
-32.0208285385501
21
0.373100274713783
31
0.000000000000000
  0
LINE
  5
F105E2
330
F105E3
100
AcDbEntity
8
Geo
100
AcDbLine
10
-32.0208285385501
20
0.373100274713783
30
0.000000000000000
11
-31.9208285385501
21
0.341266067170615
31
0.000000000000000
  0
LINE
  5
F105E4
330
F105E5
100
AcDbEntity
8
Geo
100
AcDbLine
10
-31.9208285385501
20
0.341266067170615
30
0.000000000000000
11
-31.8208285385501
21
0.309710471810471
31
0.000000000000000
  0
LINE
  5
F105E6
330
F105E7
100
AcDbEntity
8
Geo
100
AcDbLine
10
-31.8208285385501
20
0.309710471810471
30
0.000000000000000
11
-31.7208285385501
21
0.278434540483609
31
0.000000000000000
  0
LINE
  5
F105E8
330
F105E9
100
AcDbEntity
8
Geo
100
AcDbLine
10
-31.7208285385501
20
0.278434540483609
30
0.000000000000000
11
-31.6208285385501
21
0.247439315718173
31
0.000000000000000
  0
LINE
  5
F105EA
330
F105EB
100
AcDbEntity
8
Geo
100
AcDbLine
10
-31.6208285385501
20
0.247439315718173
30
0.000000000000000
11
-31.5208285385501
21
0.216725830685457
31
0.000000000000000
  0
LINE
  5
F105EC
330
F105ED
100
AcDbEntity
8
Geo
100
AcDbLine
10
-31.5208285385501
20
0.216725830685457
30
0.000000000000000
11
-31.4208285385501
21
0.186295109165449
31
0.000000000000000
  0
LINE
  5
F105EE
330
F105EF
100
AcDbEntity
8
Geo
100
AcDbLine
10
-31.4208285385501
20
0.186295109165449
30
0.000000000000000
11
-31.3208285385501
21
0.156148165512713
31
0.000000000000000
  0
LINE
  5
F105F0
330
F105F1
100
AcDbEntity
8
Geo
100
AcDbLine
10
-31.3208285385501
20
0.156148165512713
30
0.000000000000000
11
-31.2208285385501
21
0.126286004622585
31
0.000000000000000
  0
LINE
  5
F105F2
330
F105F3
100
AcDbEntity
8
Geo
100
AcDbLine
10
-31.2208285385501
20
0.126286004622585
30
0.000000000000000
11
-31.1208285385501
21
0.0967096218976593
31
0.000000000000000
  0
LINE
  5
F105F4
330
F105F5
100
AcDbEntity
8
Geo
100
AcDbLine
10
-31.1208285385501
20
0.0967096218976593
30
0.000000000000000
11
-31.0208285385501
21
0.0674200032146235
31
0.000000000000000
  0
LINE
  5
F105F6
330
F105F7
100
AcDbEntity
8
Geo
100
AcDbLine
10
-31.0208285385501
20
0.0674200032146235
30
0.000000000000000
11
-30.9208285385501
21
0.0384181248913880
31
0.000000000000000
  0
LINE
  5
F105F8
330
F105F9
100
AcDbEntity
8
Geo
100
AcDbLine
10
-30.9208285385501
20
0.0384181248913880
30
0.000000000000000
11
-30.8208285385501
21
0.00970495365454127
31
0.000000000000000
  0
LINE
  5
F105FA
330
F105FB
100
AcDbEntity
8
Geo
100
AcDbLine
10
-30.8208285385501
20
0.00970495365454127
30
0.000000000000000
11
-30.7208285385501
21
-0.0187185533928620
31
0.000000000000000
  0
LINE
  5
F105FC
330
F105FD
100
AcDbEntity
8
Geo
100
AcDbLine
10
-30.7208285385501
20
-0.0187185533928620
30
0.000000000000000
11
-30.6208285385501
21
-0.0468514488032223
31
0.000000000000000
  0
LINE
  5
F105FE
330
F105FF
100
AcDbEntity
8
Geo
100
AcDbLine
10
-30.6208285385501
20
-0.0468514488032223
30
0.000000000000000
11
-30.5208285385501
21
-0.0746927948159630
31
0.000000000000000
  0
LINE
  5
F10600
330
F10601
100
AcDbEntity
8
Geo
100
AcDbLine
10
-30.5208285385501
20
-0.0746927948159630
30
0.000000000000000
11
-30.4208285385501
21
-0.102241663388794
31
0.000000000000000
  0
LINE
  5
F10602
330
F10603
100
AcDbEntity
8
Geo
100
AcDbLine
10
-30.4208285385501
20
-0.102241663388794
30
0.000000000000000
11
-30.3208285385501
21
-0.129497136228650
31
0.000000000000000
  0
LINE
  5
F10604
330
F10605
100
AcDbEntity
8
Geo
100
AcDbLine
10
-30.3208285385501
20
-0.129497136228650
30
0.000000000000000
11
-30.2208285385501
21
-0.156458304822293
31
0.000000000000000
  0
LINE
  5
F10606
330
F10607
100
AcDbEntity
8
Geo
100
AcDbLine
10
-30.2208285385501
20
-0.156458304822293
30
0.000000000000000
11
-30.1208285385501
21
-0.183124270466594
31
0.000000000000000
  0
LINE
  5
F10608
330
F10609
100
AcDbEntity
8
Geo
100
AcDbLine
10
-30.1208285385501
20
-0.183124270466594
30
0.000000000000000
11
-30.0208285385501
21
-0.209494144298507
31
0.000000000000000
  0
LINE
  5
F1060A
330
F1060B
100
AcDbEntity
8
Geo
100
AcDbLine
10
-30.0208285385501
20
-0.209494144298507
30
0.000000000000000
11
-29.9208285385501
21
-0.235567047324677
31
0.000000000000000
  0
LINE
  5
F1060C
330
F1060D
100
AcDbEntity
8
Geo
100
AcDbLine
10
-29.9208285385501
20
-0.235567047324677
30
0.000000000000000
11
-29.8208285385501
21
-0.261342110450748
31
0.000000000000000
  0
LINE
  5
F1060E
330
F1060F
100
AcDbEntity
8
Geo
100
AcDbLine
10
-29.8208285385501
20
-0.261342110450748
30
0.000000000000000
11
-29.7208285385501
21
-0.286818474510341
31
0.000000000000000
  0
LINE
  5
F10610
330
F10611
100
AcDbEntity
8
Geo
100
AcDbLine
10
-29.7208285385501
20
-0.286818474510341
30
0.000000000000000
11
-29.6208285385501
21
-0.311995290293677
31
0.000000000000000
  0
LINE
  5
F10612
330
F10613
100
AcDbEntity
8
Geo
100
AcDbLine
10
-29.6208285385501
20
-0.311995290293677
30
0.000000000000000
11
-29.5208285385501
21
-0.336871718575891
31
0.000000000000000
  0
LINE
  5
F10614
330
F10615
100
AcDbEntity
8
Geo
100
AcDbLine
10
-29.5208285385501
20
-0.336871718575891
30
0.000000000000000
11
-29.4208285385501
21
-0.361446930145016
31
0.000000000000000
  0
LINE
  5
F10616
330
F10617
100
AcDbEntity
8
Geo
100
AcDbLine
10
-29.4208285385501
20
-0.361446930145016
30
0.000000000000000
11
-29.3208285385501
21
-0.385720105829606
31
0.000000000000000
  0
LINE
  5
F10618
330
F10619
100
AcDbEntity
8
Geo
100
AcDbLine
10
-29.3208285385501
20
-0.385720105829606
30
0.000000000000000
11
-29.2208285385501
21
-0.409690436526050
31
0.000000000000000
  0
LINE
  5
F1061A
330
F1061B
100
AcDbEntity
8
Geo
100
AcDbLine
10
-29.2208285385501
20
-0.409690436526050
30
0.000000000000000
11
-29.1208285385501
21
-0.433357123225550
31
0.000000000000000
  0
LINE
  5
F1061C
330
F1061D
100
AcDbEntity
8
Geo
100
AcDbLine
10
-29.1208285385501
20
-0.433357123225550
30
0.000000000000000
11
-29.0208285385501
21
-0.456719377040736
31
0.000000000000000
  0
LINE
  5
F1061E
330
F1061F
100
AcDbEntity
8
Geo
100
AcDbLine
10
-29.0208285385501
20
-0.456719377040736
30
0.000000000000000
11
-28.9208285385501
21
-0.479776419231978
31
0.000000000000000
  0
LINE
  5
F10620
330
F10621
100
AcDbEntity
8
Geo
100
AcDbLine
10
-28.9208285385501
20
-0.479776419231978
30
0.000000000000000
11
-28.8208285385501
21
-0.502527481233338
31
0.000000000000000
  0
LINE
  5
F10622
330
F10623
100
AcDbEntity
8
Geo
100
AcDbLine
10
-28.8208285385501
20
-0.502527481233338
30
0.000000000000000
11
-28.7208285385501
21
-0.524971804678190
31
0.000000000000000
  0
LINE
  5
F10624
330
F10625
100
AcDbEntity
8
Geo
100
AcDbLine
10
-28.7208285385501
20
-0.524971804678190
30
0.000000000000000
11
-28.6208285385501
21
-0.547108641424499
31
0.000000000000000
  0
LINE
  5
F10626
330
F10627
100
AcDbEntity
8
Geo
100
AcDbLine
10
-28.6208285385501
20
-0.547108641424499
30
0.000000000000000
11
-28.5208285385501
21
-0.568937253579751
31
0.000000000000000
  0
LINE
  5
F10628
330
F10629
100
AcDbEntity
8
Geo
100
AcDbLine
10
-28.5208285385501
20
-0.568937253579751
30
0.000000000000000
11
-28.4208285385501
21
-0.590456913525570
31
0.000000000000000
  0
LINE
  5
F1062A
330
F1062B
100
AcDbEntity
8
Geo
100
AcDbLine
10
-28.4208285385501
20
-0.590456913525570
30
0.000000000000000
11
-28.3208285385501
21
-0.611666903941943
31
0.000000000000000
  0
LINE
  5
F1062C
330
F1062D
100
AcDbEntity
8
Geo
100
AcDbLine
10
-28.3208285385501
20
-0.611666903941943
30
0.000000000000000
11
-28.2208285385501
21
-0.632566517831156
31
0.000000000000000
  0
LINE
  5
F1062E
330
F1062F
100
AcDbEntity
8
Geo
100
AcDbLine
10
-28.2208285385501
20
-0.632566517831156
30
0.000000000000000
11
-28.1208285385501
21
-0.653155058541351
31
0.000000000000000
  0
LINE
  5
F10630
330
F10631
100
AcDbEntity
8
Geo
100
AcDbLine
10
-28.1208285385501
20
-0.653155058541351
30
0.000000000000000
11
-28.0208285385501
21
-0.673431839789737
31
0.000000000000000
  0
LINE
  5
F10632
330
F10633
100
AcDbEntity
8
Geo
100
AcDbLine
10
-28.0208285385501
20
-0.673431839789737
30
0.000000000000000
11
-27.9208285385501
21
-0.693396185685490
31
0.000000000000000
  0
LINE
  5
F10634
330
F10635
100
AcDbEntity
8
Geo
100
AcDbLine
10
-27.9208285385501
20
-0.693396185685490
30
0.000000000000000
11
-27.8208285385501
21
-0.713047430752258
31
0.000000000000000
  0
LINE
  5
F10636
330
F10637
100
AcDbEntity
8
Geo
100
AcDbLine
10
-27.8208285385501
20
-0.713047430752258
30
0.000000000000000
11
-27.7208285385501
21
-0.732384919950361
31
0.000000000000000
  0
LINE
  5
F10638
330
F10639
100
AcDbEntity
8
Geo
100
AcDbLine
10
-27.7208285385501
20
-0.732384919950361
30
0.000000000000000
11
-27.6208285385501
21
-0.751408008698613
31
0.000000000000000
  0
LINE
  5
F1063A
330
F1063B
100
AcDbEntity
8
Geo
100
AcDbLine
10
-27.6208285385501
20
-0.751408008698613
30
0.000000000000000
11
-27.5208285385501
21
-0.770116062895820
31
0.000000000000000
  0
LINE
  5
F1063C
330
F1063D
100
AcDbEntity
8
Geo
100
AcDbLine
10
-27.5208285385501
20
-0.770116062895820
30
0.000000000000000
11
-27.4208285385501
21
-0.788508458941909
31
0.000000000000000
  0
LINE
  5
F1063E
330
F1063F
100
AcDbEntity
8
Geo
100
AcDbLine
10
-27.4208285385501
20
-0.788508458941909
30
0.000000000000000
11
-27.3208285385501
21
-0.806584583758710
31
0.000000000000000
  0
LINE
  5
F10640
330
F10641
100
AcDbEntity
8
Geo
100
AcDbLine
10
-27.3208285385501
20
-0.806584583758710
30
0.000000000000000
11
-27.2208285385501
21
-0.824343834810405
31
0.000000000000000
  0
LINE
  5
F10642
330
F10643
100
AcDbEntity
8
Geo
100
AcDbLine
10
-27.2208285385501
20
-0.824343834810405
30
0.000000000000000
11
-27.1208285385501
21
-0.841785620123606
31
0.000000000000000
  0
LINE
  5
F10644
330
F10645
100
AcDbEntity
8
Geo
100
AcDbLine
10
-27.1208285385501
20
-0.841785620123606
30
0.000000000000000
11
-27.0208285385501
21
-0.858909358307081
31
0.000000000000000
  0
LINE
  5
F10646
330
F10647
100
AcDbEntity
8
Geo
100
AcDbLine
10
-27.0208285385501
20
-0.858909358307081
30
0.000000000000000
11
-26.9208285385501
21
-0.875714478571142
31
0.000000000000000
  0
LINE
  5
F10648
330
F10649
100
AcDbEntity
8
Geo
100
AcDbLine
10
-26.9208285385501
20
-0.875714478571142
30
0.000000000000000
11
-26.8208285385501
21
-0.892200420746672
31
0.000000000000000
  0
LINE
  5
F1064A
330
F1064B
100
AcDbEntity
8
Geo
100
AcDbLine
10
-26.8208285385501
20
-0.892200420746672
30
0.000000000000000
11
-26.7208285385501
21
-0.908366635303791
31
0.000000000000000
  0
LINE
  5
F1064C
330
F1064D
100
AcDbEntity
8
Geo
100
AcDbLine
10
-26.7208285385501
20
-0.908366635303791
30
0.000000000000000
11
-26.6208285385501
21
-0.924212583370176
31
0.000000000000000
  0
LINE
  5
F1064E
330
F1064F
100
AcDbEntity
8
Geo
100
AcDbLine
10
-26.6208285385501
20
-0.924212583370176
30
0.000000000000000
11
-26.5208285385501
21
-0.939737736749027
31
0.000000000000000
  0
LINE
  5
F10650
330
F10651
100
AcDbEntity
8
Geo
100
AcDbLine
10
-26.5208285385501
20
-0.939737736749027
30
0.000000000000000
11
-26.4208285385501
21
-0.954941577936669
31
0.000000000000000
  0
LINE
  5
F10652
330
F10653
100
AcDbEntity
8
Geo
100
AcDbLine
10
-26.4208285385501
20
-0.954941577936669
30
0.000000000000000
11
-26.3208285385501
21
-0.969823600139801
31
0.000000000000000
  0
LINE
  5
F10654
330
F10655
100
AcDbEntity
8
Geo
100
AcDbLine
10
-26.3208285385501
20
-0.969823600139801
30
0.000000000000000
11
-26.2208285385501
21
-0.984383307292395
31
0.000000000000000
  0
LINE
  5
F10656
330
F10657
100
AcDbEntity
8
Geo
100
AcDbLine
10
-26.2208285385501
20
-0.984383307292395
30
0.000000000000000
11
-26.1208285385501
21
-0.998620214072233
31
0.000000000000000
  0
LINE
  5
F10658
330
F10659
100
AcDbEntity
8
Geo
100
AcDbLine
10
-26.1208285385501
20
-0.998620214072233
30
0.000000000000000
11
-26.0208285385501
21
-1.01253384591707
31
0.000000000000000
  0
LINE
  5
F1065A
330
F1065B
100
AcDbEntity
8
Geo
100
AcDbLine
10
-26.0208285385501
20
-1.01253384591707
30
0.000000000000000
11
-25.9208285385501
21
-1.02612373904046
31
0.000000000000000
  0
LINE
  5
F1065C
330
F1065D
100
AcDbEntity
8
Geo
100
AcDbLine
10
-25.9208285385501
20
-1.02612373904046
30
0.000000000000000
11
-25.8208285385501
21
-1.03938944044723
31
0.000000000000000
  0
LINE
  5
F1065E
330
F1065F
100
AcDbEntity
8
Geo
100
AcDbLine
10
-25.8208285385501
20
-1.03938944044723
30
0.000000000000000
11
-25.7208285385501
21
-1.05233050794856
31
0.000000000000000
  0
LINE
  5
F10660
330
F10661
100
AcDbEntity
8
Geo
100
AcDbLine
10
-25.7208285385501
20
-1.05233050794856
30
0.000000000000000
11
-25.6208285385501
21
-1.06494651017673
31
0.000000000000000
  0
LINE
  5
F10662
330
F10663
100
AcDbEntity
8
Geo
100
AcDbLine
10
-25.6208285385501
20
-1.06494651017673
30
0.000000000000000
11
-25.5208285385501
21
-1.07723702659951
31
0.000000000000000
  0
LINE
  5
F10664
330
F10665
100
AcDbEntity
8
Geo
100
AcDbLine
10
-25.5208285385501
20
-1.07723702659951
30
0.000000000000000
11
-25.4208285385501
21
-1.08920164753415
31
0.000000000000000
  0
LINE
  5
F10666
330
F10667
100
AcDbEntity
8
Geo
100
AcDbLine
10
-25.4208285385501
20
-1.08920164753415
30
0.000000000000000
11
-25.3208285385501
21
-1.10083997416105
31
0.000000000000000
  0
LINE
  5
F10668
330
F10669
100
AcDbEntity
8
Geo
100
AcDbLine
10
-25.3208285385501
20
-1.10083997416105
30
0.000000000000000
11
-25.2208285385501
21
-1.11215161853709
31
0.000000000000000
  0
LINE
  5
F1066A
330
F1066B
100
AcDbEntity
8
Geo
100
AcDbLine
10
-25.2208285385501
20
-1.11215161853709
30
0.000000000000000
11
-25.1208285385501
21
-1.12313620360848
31
0.000000000000000
  0
LINE
  5
F1066C
330
F1066D
100
AcDbEntity
8
Geo
100
AcDbLine
10
-25.1208285385501
20
-1.12313620360848
30
0.000000000000000
11
-25.0208285385500
21
-1.13379336322342
31
0.000000000000000
  0
LINE
  5
F1066E
330
F1066F
100
AcDbEntity
8
Geo
100
AcDbLine
10
-25.0208285385500
20
-1.13379336322342
30
0.000000000000000
11
-24.9208285385500
21
-1.14412274214423
31
0.000000000000000
  0
LINE
  5
F10670
330
F10671
100
AcDbEntity
8
Geo
100
AcDbLine
10
-24.9208285385500
20
-1.14412274214423
30
0.000000000000000
11
-24.8208285385500
21
-1.15412399605925
31
0.000000000000000
  0
LINE
  5
F10672
330
F10673
100
AcDbEntity
8
Geo
100
AcDbLine
10
-24.8208285385500
20
-1.15412399605925
30
0.000000000000000
11
-24.7208285385500
21
-1.16379679159426
31
0.000000000000000
  0
LINE
  5
F10674
330
F10675
100
AcDbEntity
8
Geo
100
AcDbLine
10
-24.7208285385500
20
-1.16379679159426
30
0.000000000000000
11
-24.6208285385500
21
-1.17314080632365
31
0.000000000000000
  0
LINE
  5
F10676
330
F10677
100
AcDbEntity
8
Geo
100
AcDbLine
10
-24.6208285385500
20
-1.17314080632365
30
0.000000000000000
11
-24.5208285385500
21
-1.18215572878112
31
0.000000000000000
  0
LINE
  5
F10678
330
F10679
100
AcDbEntity
8
Geo
100
AcDbLine
10
-24.5208285385500
20
-1.18215572878112
30
0.000000000000000
11
-24.4208285385500
21
-1.19084125847009
31
0.000000000000000
  0
LINE
  5
F1067A
330
F1067B
100
AcDbEntity
8
Geo
100
AcDbLine
10
-24.4208285385500
20
-1.19084125847009
30
0.000000000000000
11
-24.3208285385500
21
-1.19919710587371
31
0.000000000000000
  0
LINE
  5
F1067C
330
F1067D
100
AcDbEntity
8
Geo
100
AcDbLine
10
-24.3208285385500
20
-1.19919710587371
30
0.000000000000000
11
-24.2208285385500
21
-1.20722299246451
31
0.000000000000000
  0
LINE
  5
F1067E
330
F1067F
100
AcDbEntity
8
Geo
100
AcDbLine
10
-24.2208285385500
20
-1.20722299246451
30
0.000000000000000
11
-24.1208285385500
21
-1.21491865071367
31
0.000000000000000
  0
LINE
  5
F10680
330
F10681
100
AcDbEntity
8
Geo
100
AcDbLine
10
-24.1208285385500
20
-1.21491865071367
30
0.000000000000000
11
-24.0208285385500
21
-1.22228382409997
31
0.000000000000000
  0
LINE
  5
F10682
330
F10683
100
AcDbEntity
8
Geo
100
AcDbLine
10
-24.0208285385500
20
-1.22228382409997
30
0.000000000000000
11
-23.9208285385500
21
-1.22931826711832
31
0.000000000000000
  0
LINE
  5
F10684
330
F10685
100
AcDbEntity
8
Geo
100
AcDbLine
10
-23.9208285385500
20
-1.22931826711832
30
0.000000000000000
11
-23.8208285385500
21
-1.23602174528792
31
0.000000000000000
  0
LINE
  5
F10686
330
F10687
100
AcDbEntity
8
Geo
100
AcDbLine
10
-23.8208285385500
20
-1.23602174528792
30
0.000000000000000
11
-23.7208285385500
21
-1.24239403516012
31
0.000000000000000
  0
LINE
  5
F10688
330
F10689
100
AcDbEntity
8
Geo
100
AcDbLine
10
-23.7208285385500
20
12.7943204625437
30
0.000000000000000
11
-23.5208285385500
21
12.6887035978647
31
0.000000000000000
  0
LINE
  5
F1068A
330
F1068B
100
AcDbEntity
8
Geo
100
AcDbLine
10
-23.5208285385500
20
12.6887035978647
30
0.000000000000000
11
-23.4208285385500
21
12.6356948323773
31
0.000000000000000
  0
LINE
  5
F1068C
330
F1068D
100
AcDbEntity
8
Geo
100
AcDbLine
10
-23.4208285385500
20
12.6356948323773
30
0.000000000000000
11
-23.3208285385500
21
12.5825548659191
31
0.000000000000000
  0
LINE
  5
F1068E
330
F1068F
100
AcDbEntity
8
Geo
100
AcDbLine
10
-23.3208285385500
20
12.5825548659191
30
0.000000000000000
11
-23.2208285385500
21
12.5292854698177
31
0.000000000000000
  0
LINE
  5
F10690
330
F10691
100
AcDbEntity
8
Geo
100
AcDbLine
10
-23.2208285385500
20
12.5292854698177
30
0.000000000000000
11
-23.1208285385500
21
12.4758884197184
31
0.000000000000000
  0
LINE
  5
F10692
330
F10693
100
AcDbEntity
8
Geo
100
AcDbLine
10
-23.1208285385500
20
12.4758884197184
30
0.000000000000000
11
-23.0208285385500
21
12.4223654955457
31
0.000000000000000
  0
LINE
  5
F10694
330
F10695
100
AcDbEntity
8
Geo
100
AcDbLine
10
-23.0208285385500
20
12.4223654955457
30
0.000000000000000
11
-22.9208285385500
21
12.3687184815423
31
0.000000000000000
  0
LINE
  5
F10696
330
F10697
100
AcDbEntity
8
Geo
100
AcDbLine
10
-22.9208285385500
20
12.3687184815423
30
0.000000000000000
11
-22.8208285385500
21
12.3149491665649
31
0.000000000000000
  0
LINE
  5
F10698
330
F10699
100
AcDbEntity
8
Geo
100
AcDbLine
10
-22.8208285385500
20
12.3149491665649
30
0.000000000000000
11
-22.7208285385500
21
12.2610593450931
31
0.000000000000000
  0
LINE
  5
F1069A
330
F1069B
100
AcDbEntity
8
Geo
100
AcDbLine
10
-22.7208285385500
20
12.2610593450931
30
0.000000000000000
11
-22.6208285385500
21
12.2070508199550
31
0.000000000000000
  0
LINE
  5
F1069C
330
F1069D
100
AcDbEntity
8
Geo
100
AcDbLine
10
-22.6208285385500
20
12.2070508199550
30
0.000000000000000
11
-22.5208285385500
21
12.1529254087663
31
0.000000000000000
  0
LINE
  5
F1069E
330
F1069F
100
AcDbEntity
8
Geo
100
AcDbLine
10
-22.5208285385500
20
12.1529254087663
30
0.000000000000000
11
-22.4208285385500
21
12.0986849577520
31
0.000000000000000
  0
LINE
  5
F106A0
330
F106A1
100
AcDbEntity
8
Geo
100
AcDbLine
10
-22.4208285385500
20
12.0986849577520
30
0.000000000000000
11
-22.3208285385500
21
12.0443313692771
31
0.000000000000000
  0
LINE
  5
F106A2
330
F106A3
100
AcDbEntity
8
Geo
100
AcDbLine
10
-22.3208285385500
20
12.0443313692771
30
0.000000000000000
11
-22.2208285385500
21
11.9898666534403
31
0.000000000000000
  0
LINE
  5
F106A4
330
F106A5
100
AcDbEntity
8
Geo
100
AcDbLine
10
-22.2208285385500
20
11.9898666534403
30
0.000000000000000
11
-22.1208285385500
21
11.9352930199698
31
0.000000000000000
  0
LINE
  5
F106A6
330
F106A7
100
AcDbEntity
8
Geo
100
AcDbLine
10
-22.1208285385500
20
11.9352930199698
30
0.000000000000000
11
-22.0208285385500
21
11.8806130349842
31
0.000000000000000
  0
LINE
  5
F106A8
330
F106A9
100
AcDbEntity
8
Geo
100
AcDbLine
10
-22.0208285385500
20
11.8806130349842
30
0.000000000000000
11
-21.9208285385500
21
11.8258298786370
31
0.000000000000000
  0
LINE
  5
F106AA
330
F106AB
100
AcDbEntity
8
Geo
100
AcDbLine
10
-21.9208285385500
20
11.8258298786370
30
0.000000000000000
11
-21.8208285385500
21
11.7709477550836
31
0.000000000000000
  0
LINE
  5
F106AC
330
F106AD
100
AcDbEntity
8
Geo
100
AcDbLine
10
-21.8208285385500
20
11.7709477550836
30
0.000000000000000
11
-21.7208285385500
21
11.7159725265388
31
0.000000000000000
  0
LINE
  5
F106AE
330
F106AF
100
AcDbEntity
8
Geo
100
AcDbLine
10
-21.7208285385500
20
11.7159725265388
30
0.000000000000000
11
-21.6208285385500
21
11.6609126695298
31
0.000000000000000
  0
LINE
  5
F106B0
330
F106B1
100
AcDbEntity
8
Geo
100
AcDbLine
10
-21.6208285385500
20
11.6609126695298
30
0.000000000000000
11
-21.5208285385500
21
11.6057806850570
31
0.000000000000000
  0
LINE
  5
F106B2
330
F106B3
100
AcDbEntity
8
Geo
100
AcDbLine
10
-21.5208285385500
20
11.6057806850570
30
0.000000000000000
11
-21.4208285385500
21
11.5505951366407
31
0.000000000000000
  0
LINE
  5
F106B4
330
F106B5
100
AcDbEntity
8
Geo
100
AcDbLine
10
-21.4208285385500
20
11.5505951366407
30
0.000000000000000
11
-21.3208285385500
21
11.4953835427545
31
0.000000000000000
  0
LINE
  5
F106B6
330
F106B7
100
AcDbEntity
8
Geo
100
AcDbLine
10
-21.3208285385500
20
11.4953835427545
30
0.000000000000000
11
-21.2208285385500
21
11.4401864146514
31
0.000000000000000
  0
LINE
  5
F106B8
330
F106B9
100
AcDbEntity
8
Geo
100
AcDbLine
10
-21.2208285385500
20
11.4401864146514
30
0.000000000000000
11
-21.1208285385500
21
11.3850628089874
31
0.000000000000000
  0
LINE
  5
F106BA
330
F106BB
100
AcDbEntity
8
Geo
100
AcDbLine
10
-21.1208285385500
20
11.3850628089874
30
0.000000000000000
11
-21.0208285385500
21
11.3300978589959
31
0.000000000000000
  0
LINE
  5
F106BC
330
F106BD
100
AcDbEntity
8
Geo
100
AcDbLine
10
-21.0208285385500
20
11.3300978589959
30
0.000000000000000
11
-20.9208285385500
21
11.2754128604283
31
0.000000000000000
  0
LINE
  5
F106BE
330
F106BF
100
AcDbEntity
8
Geo
100
AcDbLine
10
-20.9208285385500
20
11.2754128604283
30
0.000000000000000
11
-20.8208285385500
21
11.2211786212824
31
0.000000000000000
  0
LINE
  5
F106C0
330
F106C1
100
AcDbEntity
8
Geo
100
AcDbLine
10
-20.8208285385500
20
11.2211786212824
30
0.000000000000000
11
-20.7208285385500
21
11.1676329396850
31
0.000000000000000
  0
LINE
  5
F106C2
330
F106C3
100
AcDbEntity
8
Geo
100
AcDbLine
10
-20.7208285385500
20
11.1676329396850
30
0.000000000000000
11
-20.6208285385500
21
11.1151032541618
31
0.000000000000000
  0
LINE
  5
F106C4
330
F106C5
100
AcDbEntity
8
Geo
100
AcDbLine
10
-20.6208285385500
20
11.1151032541618
30
0.000000000000000
11
-20.5208285385500
21
11.0640357164374
31
0.000000000000000
  0
LINE
  5
F106C6
330
F106C7
100
AcDbEntity
8
Geo
100
AcDbLine
10
-20.5208285385500
20
11.0640357164374
30
0.000000000000000
11
-20.4208285385500
21
11.0150321694914
31
0.000000000000000
  0
LINE
  5
F106C8
330
F106C9
100
AcDbEntity
8
Geo
100
AcDbLine
10
-20.4208285385500
20
11.0150321694914
30
0.000000000000000
11
-20.3208285385500
21
10.9688967718193
31
0.000000000000000
  0
LINE
  5
F106CA
330
F106CB
100
AcDbEntity
8
Geo
100
AcDbLine
10
-20.3208285385500
20
10.9688967718193
30
0.000000000000000
11
-20.2208285385500
21
10.9266942888286
31
0.000000000000000
  0
LINE
  5
F106CC
330
F106CD
100
AcDbEntity
8
Geo
100
AcDbLine
10
-20.2208285385500
20
10.9266942888286
30
0.000000000000000
11
-20.1208285385500
21
10.8898223649690
31
0.000000000000000
  0
LINE
  5
F106CE
330
F106CF
100
AcDbEntity
8
Geo
100
AcDbLine
10
-20.1208285385500
20
10.8898223649690
30
0.000000000000000
11
-20.0208285385500
21
10.8601003771532
31
0.000000000000000
  0
LINE
  5
F106D0
330
F106D1
100
AcDbEntity
8
Geo
100
AcDbLine
10
-20.0208285385500
20
10.8601003771532
30
0.000000000000000
11
-19.9208285385500
21
10.8398777155053
31
0.000000000000000
  0
LINE
  5
F106D2
330
F106D3
100
AcDbEntity
8
Geo
100
AcDbLine
10
-19.9208285385500
20
10.8398777155053
30
0.000000000000000
11
-19.8208285385500
21
10.8321644727735
31
0.000000000000000
  0
LINE
  5
F106D4
330
F106D5
100
AcDbEntity
8
Geo
100
AcDbLine
10
-19.8208285385500
20
10.8321644727735
30
0.000000000000000
11
-19.7208285385500
21
10.8407874168721
31
0.000000000000000
  0
LINE
  5
F106D6
330
F106D7
100
AcDbEntity
8
Geo
100
AcDbLine
10
-19.7208285385500
20
10.8407874168721
30
0.000000000000000
11
-19.6208285385500
21
10.8705735175319
31
0.000000000000000
  0
LINE
  5
F106D8
330
F106D9
100
AcDbEntity
8
Geo
100
AcDbLine
10
-19.6208285385500
20
10.8705735175319
30
0.000000000000000
11
-19.5208285385500
21
10.9275617069926
31
0.000000000000000
  0
LINE
  5
F106DA
330
F106DB
100
AcDbEntity
8
Geo
100
AcDbLine
10
-19.5208285385500
20
10.9275617069926
30
0.000000000000000
11
-19.4208285385500
21
11.0192400315255
31
0.000000000000000
  0
LINE
  5
F106DC
330
F106DD
100
AcDbEntity
8
Geo
100
AcDbLine
10
-19.4208285385500
20
11.0192400315255
30
0.000000000000000
11
-19.3208285385500
21
11.1547980917343
31
0.000000000000000
  0
LINE
  5
F106DE
330
F106DF
100
AcDbEntity
8
Geo
100
AcDbLine
10
-19.3208285385500
20
11.1547980917343
30
0.000000000000000
11
-19.2208285385500
21
11.3453702714378
31
0.000000000000000
  0
LINE
  5
F106E0
330
F106E1
100
AcDbEntity
8
Geo
100
AcDbLine
10
-19.2208285385500
20
11.3453702714378
30
0.000000000000000
11
-19.1208285385500
21
11.6042173997334
31
0.000000000000000
  0
LINE
  5
F106E2
330
F106E3
100
AcDbEntity
8
Geo
100
AcDbLine
10
-19.1208285385500
20
11.6042173997334
30
0.000000000000000
11
-19.0208285385500
21
11.9467417088104
31
0.000000000000000
  0
LINE
  5
F106E4
330
F106E5
100
AcDbEntity
8
Geo
100
AcDbLine
10
-19.0208285385500
20
11.9467417088104
30
0.000000000000000
11
-18.9208285385500
21
12.3901320472155
31
0.000000000000000
  0
LINE
  5
F106E6
330
F106E7
100
AcDbEntity
8
Geo
100
AcDbLine
10
-18.9208285385500
20
12.3901320472155
30
0.000000000000000
11
-18.8208285385500
21
12.9522593051646
31
0.000000000000000
  0
LINE
  5
F106E8
330
F106E9
100
AcDbEntity
8
Geo
100
AcDbLine
10
-18.8208285385500
20
12.9522593051646
30
0.000000000000000
11
-18.7208285385500
21
13.6491328297214
31
0.000000000000000
  0
LINE
  5
F106EA
330
F106EB
100
AcDbEntity
8
Geo
100
AcDbLine
10
-18.7208285385500
20
13.6491328297214
30
0.000000000000000
11
-18.6208285385500
21
14.4897155415088
31
0.000000000000000
  0
LINE
  5
F106EC
330
F106ED
100
AcDbEntity
8
Geo
100
AcDbLine
10
-18.6208285385500
20
14.4897155415088
30
0.000000000000000
11
-18.6208285385500
21
14.6927784831982
31
0.000000000000000
  0
LINE
  5
F106EE
330
F106EF
100
AcDbEntity
8
Geo
100
AcDbLine
10
-18.6208285385500
20
14.6927784831982
30
0.000000000000000
11
-18.7208285385500
21
15.3910748066816
31
0.000000000000000
  0
LINE
  5
F106F0
330
F106F1
100
AcDbEntity
8
Geo
100
AcDbLine
10
-18.7208285385500
20
15.3910748066816
30
0.000000000000000
11
-18.8208285385500
21
15.9786641241251
31
0.000000000000000
  0
LINE
  5
F106F2
330
F106F3
100
AcDbEntity
8
Geo
100
AcDbLine
10
-18.8208285385500
20
15.9786641241251
30
0.000000000000000
11
-18.9208285385500
21
16.4697290897702
31
0.000000000000000
  0
LINE
  5
F106F4
330
F106F5
100
AcDbEntity
8
Geo
100
AcDbLine
10
-18.9208285385500
20
16.4697290897702
30
0.000000000000000
11
-19.0208285385500
21
16.8777277709414
31
0.000000000000000
  0
LINE
  5
F106F6
330
F106F7
100
AcDbEntity
8
Geo
100
AcDbLine
10
-19.0208285385500
20
16.8777277709414
30
0.000000000000000
11
-19.1208285385500
21
17.2150065770252
31
0.000000000000000
  0
LINE
  5
F106F8
330
F106F9
100
AcDbEntity
8
Geo
100
AcDbLine
10
-19.1208285385500
20
17.2150065770252
30
0.000000000000000
11
-19.2208285385500
21
17.4926153996943
31
0.000000000000000
  0
LINE
  5
F106FA
330
F106FB
100
AcDbEntity
8
Geo
100
AcDbLine
10
-19.2208285385500
20
17.4926153996943
30
0.000000000000000
11
-19.3208285385500
21
17.7202585927490
31
0.000000000000000
  0
LINE
  5
F106FC
330
F106FD
100
AcDbEntity
8
Geo
100
AcDbLine
10
-19.3208285385500
20
17.7202585927490
30
0.000000000000000
11
-19.4208285385500
21
17.9063326530486
31
0.000000000000000
  0
LINE
  5
F106FE
330
F106FF
100
AcDbEntity
8
Geo
100
AcDbLine
10
-19.4208285385500
20
17.9063326530486
30
0.000000000000000
11
-19.5208285385500
21
18.0580153518142
31
0.000000000000000
  0
LINE
  5
F10700
330
F10701
100
AcDbEntity
8
Geo
100
AcDbLine
10
-19.5208285385500
20
18.0580153518142
30
0.000000000000000
11
-19.6208285385500
21
18.1813818093244
31
0.000000000000000
  0
LINE
  5
F10702
330
F10703
100
AcDbEntity
8
Geo
100
AcDbLine
10
-19.6208285385500
20
18.1813818093244
30
0.000000000000000
11
-19.7208285385500
21
18.2815310519866
31
0.000000000000000
  0
LINE
  5
F10704
330
F10705
100
AcDbEntity
8
Geo
100
AcDbLine
10
-19.7208285385500
20
18.2815310519866
30
0.000000000000000
11
-19.8208285385500
21
18.3627124507158
31
0.000000000000000
  0
LINE
  5
F10706
330
F10707
100
AcDbEntity
8
Geo
100
AcDbLine
10
-19.8208285385500
20
18.3627124507158
30
0.000000000000000
11
-19.9208285385500
21
18.4284455984258
31
0.000000000000000
  0
LINE
  5
F10708
330
F10709
100
AcDbEntity
8
Geo
100
AcDbLine
10
-19.9208285385500
20
18.4284455984258
30
0.000000000000000
11
-20.0208285385500
21
18.4816300601217
31
0.000000000000000
  0
LINE
  5
F1070A
330
F1070B
100
AcDbEntity
8
Geo
100
AcDbLine
10
-20.0208285385500
20
18.4816300601217
30
0.000000000000000
11
-20.1208285385500
21
18.5246433612651
31
0.000000000000000
  0
LINE
  5
F1070C
330
F1070D
100
AcDbEntity
8
Geo
100
AcDbLine
10
-20.1208285385500
20
18.5246433612651
30
0.000000000000000
11
-20.2208285385500
21
18.5594268340136
31
0.000000000000000
  0
LINE
  5
F1070E
330
F1070F
100
AcDbEntity
8
Geo
100
AcDbLine
10
-20.2208285385500
20
18.5594268340136
30
0.000000000000000
11
-20.3208285385500
21
18.5875597175050
31
0.000000000000000
  0
LINE
  5
F10710
330
F10711
100
AcDbEntity
8
Geo
100
AcDbLine
10
-20.3208285385500
20
18.5875597175050
30
0.000000000000000
11
-20.4208285385500
21
18.6103223561323
31
0.000000000000000
  0
LINE
  5
F10712
330
F10713
100
AcDbEntity
8
Geo
100
AcDbLine
10
-20.4208285385500
20
18.6103223561323
30
0.000000000000000
11
-20.5208285385500
21
18.6287495663368
31
0.000000000000000
  0
LINE
  5
F10714
330
F10715
100
AcDbEntity
8
Geo
100
AcDbLine
10
-20.5208285385500
20
18.6287495663368
30
0.000000000000000
11
-20.6208285385500
21
18.6436753243681
31
0.000000000000000
  0
LINE
  5
F10716
330
F10717
100
AcDbEntity
8
Geo
100
AcDbLine
10
-20.6208285385500
20
18.6436753243681
30
0.000000000000000
11
-20.7208285385500
21
18.6557699182297
31
0.000000000000000
  0
LINE
  5
F10718
330
F10719
100
AcDbEntity
8
Geo
100
AcDbLine
10
-20.7208285385500
20
18.6557699182297
30
0.000000000000000
11
-20.8208285385500
21
18.6655706433888
31
0.000000000000000
  0
LINE
  5
F1071A
330
F1071B
100
AcDbEntity
8
Geo
100
AcDbLine
10
-20.8208285385500
20
18.6655706433888
30
0.000000000000000
11
-20.9208285385500
21
18.6735070285484
31
0.000000000000000
  0
LINE
  5
F1071C
330
F1071D
100
AcDbEntity
8
Geo
100
AcDbLine
10
-20.9208285385500
20
18.6735070285484
30
0.000000000000000
11
-21.0208285385500
21
18.6799214711893
31
0.000000000000000
  0
LINE
  5
F1071E
330
F1071F
100
AcDbEntity
8
Geo
100
AcDbLine
10
-21.0208285385500
20
18.6799214711893
30
0.000000000000000
11
-21.1208285385500
21
18.6850860531517
31
0.000000000000000
  0
LINE
  5
F10720
330
F10721
100
AcDbEntity
8
Geo
100
AcDbLine
10
-21.1208285385500
20
18.6850860531517
30
0.000000000000000
11
-21.2208285385500
21
18.6892162006873
31
0.000000000000000
  0
LINE
  5
F10722
330
F10723
100
AcDbEntity
8
Geo
100
AcDbLine
10
-21.2208285385500
20
18.6892162006873
30
0.000000000000000
11
-21.3208285385500
21
18.6924817549116
31
0.000000000000000
  0
LINE
  5
F10724
330
F10725
100
AcDbEntity
8
Geo
100
AcDbLine
10
-21.3208285385500
20
18.6924817549116
30
0.000000000000000
11
-21.4208285385500
21
18.6950159293601
31
0.000000000000000
  0
LINE
  5
F10726
330
F10727
100
AcDbEntity
8
Geo
100
AcDbLine
10
-21.4208285385500
20
18.6950159293601
30
0.000000000000000
11
-21.5208285385500
21
18.6969225521581
31
0.000000000000000
  0
LINE
  5
F10728
330
F10729
100
AcDbEntity
8
Geo
100
AcDbLine
10
-21.5208285385500
20
18.6969225521581
30
0.000000000000000
11
-21.6208285385500
21
18.6982819211797
31
0.000000000000000
  0
LINE
  5
F1072A
330
F1072B
100
AcDbEntity
8
Geo
100
AcDbLine
10
-21.6208285385500
20
18.6982819211797
30
0.000000000000000
11
-21.7208285385500
21
18.6991555410584
31
0.000000000000000
  0
LINE
  5
F1072C
330
F1072D
100
AcDbEntity
8
Geo
100
AcDbLine
10
-21.7208285385500
20
18.6991555410584
30
0.000000000000000
11
-21.8208285385500
21
18.6995899603243
31
0.000000000000000
  0
LINE
  5
F1072E
330
F1072F
100
AcDbEntity
8
Geo
100
AcDbLine
10
-21.8208285385500
20
18.6995899603243
30
0.000000000000000
11
-21.8785086021222
21
18.6996547756041
31
0.000000000000000
  0
LINE
  5
F10730
330
F10731
100
AcDbEntity
8
Geo
100
AcDbLine
10
-23.7208285385500
20
-0.423596449271791
30
0.000000000000000
11
-23.5208285385500
21
-0.470268315328621
31
0.000000000000000
  0
LINE
  5
F10732
330
F10733
100
AcDbEntity
8
Geo
100
AcDbLine
10
-23.5208285385500
20
-0.470268315328621
30
0.000000000000000
11
-23.4208285385500
21
-0.493146139866479
31
0.000000000000000
  0
LINE
  5
F10734
330
F10735
100
AcDbEntity
8
Geo
100
AcDbLine
10
-23.4208285385500
20
-0.493146139866479
30
0.000000000000000
11
-23.3208285385500
21
-0.515717538558334
31
0.000000000000000
  0
LINE
  5
F10736
330
F10737
100
AcDbEntity
8
Geo
100
AcDbLine
10
-23.3208285385500
20
-0.515717538558334
30
0.000000000000000
11
-23.2208285385500
21
-0.537981759026202
31
0.000000000000000
  0
LINE
  5
F10738
330
F10739
100
AcDbEntity
8
Geo
100
AcDbLine
10
-23.2208285385500
20
-0.537981759026202
30
0.000000000000000
11
-23.1208285385500
21
-0.559938059129991
31
0.000000000000000
  0
LINE
  5
F1073A
330
F1073B
100
AcDbEntity
8
Geo
100
AcDbLine
10
-23.1208285385500
20
-0.559938059129991
30
0.000000000000000
11
-23.0208285385500
21
-0.581585706983960
31
0.000000000000000
  0
LINE
  5
F1073C
330
F1073D
100
AcDbEntity
8
Geo
100
AcDbLine
10
-23.0208285385500
20
-0.581585706983960
30
0.000000000000000
11
-22.9208285385500
21
-0.602923980943290
31
0.000000000000000
  0
LINE
  5
F1073E
330
F1073F
100
AcDbEntity
8
Geo
100
AcDbLine
10
-22.9208285385500
20
-0.602923980943290
30
0.000000000000000
11
-22.8208285385500
21
-0.623952169494313
31
0.000000000000000
  0
LINE
  5
F10740
330
F10741
100
AcDbEntity
8
Geo
100
AcDbLine
10
-22.8208285385500
20
-0.623952169494313
30
0.000000000000000
11
-22.7208285385500
21
-0.644669570886808
31
0.000000000000000
  0
LINE
  5
F10742
330
F10743
100
AcDbEntity
8
Geo
100
AcDbLine
10
-22.7208285385500
20
-0.644669570886808
30
0.000000000000000
11
-22.6208285385500
21
-0.665075492165030
31
0.000000000000000
  0
LINE
  5
F10744
330
F10745
100
AcDbEntity
8
Geo
100
AcDbLine
10
-22.6208285385500
20
-0.665075492165030
30
0.000000000000000
11
-22.5208285385500
21
-0.685169246940992
31
0.000000000000000
  0
LINE
  5
F10746
330
F10747
100
AcDbEntity
8
Geo
100
AcDbLine
10
-22.5208285385500
20
-0.685169246940992
30
0.000000000000000
11
-22.4208285385500
21
-0.704950150752319
31
0.000000000000000
  0
LINE
  5
F10748
330
F10749
100
AcDbEntity
8
Geo
100
AcDbLine
10
-22.4208285385500
20
-0.704950150752319
30
0.000000000000000
11
-22.3208285385500
21
-0.724417512092739
31
0.000000000000000
  0
LINE
  5
F1074A
330
F1074B
100
AcDbEntity
8
Geo
100
AcDbLine
10
-22.3208285385500
20
-0.724417512092739
30
0.000000000000000
11
-22.2208285385500
21
-0.743570616122259
31
0.000000000000000
  0
LINE
  5
F1074C
330
F1074D
100
AcDbEntity
8
Geo
100
AcDbLine
10
-22.2208285385500
20
-0.743570616122259
30
0.000000000000000
11
-22.1208285385500
21
-0.762408696577726
31
0.000000000000000
  0
LINE
  5
F1074E
330
F1074F
100
AcDbEntity
8
Geo
100
AcDbLine
10
-22.1208285385500
20
-0.762408696577726
30
0.000000000000000
11
-22.0208285385500
21
-0.780930889431628
31
0.000000000000000
  0
LINE
  5
F10750
330
F10751
100
AcDbEntity
8
Geo
100
AcDbLine
10
-22.0208285385500
20
-0.780930889431628
30
0.000000000000000
11
-21.9208285385500
21
-0.799136159308466
31
0.000000000000000
  0
LINE
  5
F10752
330
F10753
100
AcDbEntity
8
Geo
100
AcDbLine
10
-21.9208285385500
20
-0.799136159308466
30
0.000000000000000
11
-21.8208285385500
21
-0.817023186489577
31
0.000000000000000
  0
LINE
  5
F10754
330
F10755
100
AcDbEntity
8
Geo
100
AcDbLine
10
-21.8208285385500
20
-0.817023186489577
30
0.000000000000000
11
-21.7208285385500
21
-0.834590198456304
31
0.000000000000000
  0
LINE
  5
F10756
330
F10757
100
AcDbEntity
8
Geo
100
AcDbLine
10
-21.7208285385500
20
-0.834590198456304
30
0.000000000000000
11
-21.6208285385500
21
-0.851834725288537
31
0.000000000000000
  0
LINE
  5
F10758
330
F10759
100
AcDbEntity
8
Geo
100
AcDbLine
10
-21.6208285385500
20
-0.851834725288537
30
0.000000000000000
11
-21.5208285385500
21
-0.868753252819751
31
0.000000000000000
  0
LINE
  5
F1075A
330
F1075B
100
AcDbEntity
8
Geo
100
AcDbLine
10
-21.5208285385500
20
-0.868753252819751
30
0.000000000000000
11
-21.4208285385500
21
-0.885340741234302
31
0.000000000000000
  0
LINE
  5
F1075C
330
F1075D
100
AcDbEntity
8
Geo
100
AcDbLine
10
-21.4208285385500
20
-0.885340741234302
30
0.000000000000000
11
-21.3208285385500
21
-0.901589969767580
31
0.000000000000000
  0
LINE
  5
F1075E
330
F1075F
100
AcDbEntity
8
Geo
100
AcDbLine
10
-21.3208285385500
20
-0.901589969767580
30
0.000000000000000
11
-21.2208285385500
21
-0.917490660302558
31
0.000000000000000
  0
LINE
  5
F10760
330
F10761
100
AcDbEntity
8
Geo
100
AcDbLine
10
-21.2208285385500
20
-0.917490660302558
30
0.000000000000000
11
-21.1208285385500
21
-0.933028323836066
31
0.000000000000000
  0
LINE
  5
F10762
330
F10763
100
AcDbEntity
8
Geo
100
AcDbLine
10
-21.1208285385500
20
-0.933028323836066
30
0.000000000000000
11
-21.0208285385500
21
-0.948182763711943
31
0.000000000000000
  0
LINE
  5
F10764
330
F10765
100
AcDbEntity
8
Geo
100
AcDbLine
10
-21.0208285385500
20
-0.948182763711943
30
0.000000000000000
11
-20.9208285385500
21
-0.962926157483205
31
0.000000000000000
  0
LINE
  5
F10766
330
F10767
100
AcDbEntity
8
Geo
100
AcDbLine
10
-20.9208285385500
20
-0.962926157483205
30
0.000000000000000
11
-20.8208285385500
21
-0.977220623804298
31
0.000000000000000
  0
LINE
  5
F10768
330
F10769
100
AcDbEntity
8
Geo
100
AcDbLine
10
-20.8208285385500
20
-0.977220623804298
30
0.000000000000000
11
-20.7208285385500
21
-0.991015159009253
31
0.000000000000000
  0
LINE
  5
F1076A
330
F1076B
100
AcDbEntity
8
Geo
100
AcDbLine
10
-20.7208285385500
20
-0.991015159009253
30
0.000000000000000
11
-20.6208285385500
21
-1.00424179471408
31
0.000000000000000
  0
LINE
  5
F1076C
330
F1076D
100
AcDbEntity
8
Geo
100
AcDbLine
10
-20.6208285385500
20
-1.00424179471408
30
0.000000000000000
11
-20.5208285385500
21
-1.01681077348441
31
0.000000000000000
  0
LINE
  5
F1076E
330
F1076F
100
AcDbEntity
8
Geo
100
AcDbLine
10
-20.5208285385500
20
-1.01681077348441
30
0.000000000000000
11
-20.4208285385500
21
-1.02860444811498
31
0.000000000000000
  0
LINE
  5
F10770
330
F10771
100
AcDbEntity
8
Geo
100
AcDbLine
10
-20.4208285385500
20
-1.02860444811498
30
0.000000000000000
11
-20.3208285385500
21
-1.03946945415152
31
0.000000000000000
  0
LINE
  5
F10772
330
F10773
100
AcDbEntity
8
Geo
100
AcDbLine
10
-20.3208285385500
20
-1.03946945415152
30
0.000000000000000
11
-20.2208285385500
21
-1.04920644027830
31
0.000000000000000
  0
LINE
  5
F10774
330
F10775
100
AcDbEntity
8
Geo
100
AcDbLine
10
-20.2208285385500
20
-1.04920644027830
30
0.000000000000000
11
-20.1208285385500
21
-1.05755619528788
31
0.000000000000000
  0
LINE
  5
F10776
330
F10777
100
AcDbEntity
8
Geo
100
AcDbLine
10
-20.1208285385500
20
-1.05755619528788
30
0.000000000000000
11
-20.0208285385500
21
-1.06418027025501
31
0.000000000000000
  0
LINE
  5
F10778
330
F10779
100
AcDbEntity
8
Geo
100
AcDbLine
10
-20.0208285385500
20
-1.06418027025501
30
0.000000000000000
11
-19.9208285385500
21
-1.06863298466997
31
0.000000000000000
  0
LINE
  5
F1077A
330
F1077B
100
AcDbEntity
8
Geo
100
AcDbLine
10
-19.9208285385500
20
-1.06863298466997
30
0.000000000000000
11
-19.8208285385500
21
-1.07031975821520
31
0.000000000000000
  0
LINE
  5
F1077C
330
F1077D
100
AcDbEntity
8
Geo
100
AcDbLine
10
-19.8208285385500
20
-1.07031975821520
30
0.000000000000000
11
-19.7208285385500
21
-1.06843362553644
31
0.000000000000000
  0
LINE
  5
F1077E
330
F1077F
100
AcDbEntity
8
Geo
100
AcDbLine
10
-19.7208285385500
20
-1.06843362553644
30
0.000000000000000
11
-19.6208285385500
21
-1.06185698313215
31
0.000000000000000
  0
LINE
  5
F10780
330
F10781
100
AcDbEntity
8
Geo
100
AcDbLine
10
-19.6208285385500
20
-1.06185698313215
30
0.000000000000000
11
-19.5208285385500
21
-1.04900824580918
31
0.000000000000000
  0
LINE
  5
F10782
330
F10783
100
AcDbEntity
8
Geo
100
AcDbLine
10
-19.5208285385500
20
-1.04900824580918
30
0.000000000000000
11
-19.4208285385500
21
-1.02760199290529
31
0.000000000000000
  0
LINE
  5
F10784
330
F10785
100
AcDbEntity
8
Geo
100
AcDbLine
10
-19.4208285385500
20
-1.02760199290529
30
0.000000000000000
11
-19.3208285385500
21
-0.994274835098722
31
0.000000000000000
  0
LINE
  5
F10786
330
F10787
100
AcDbEntity
8
Geo
100
AcDbLine
10
-19.3208285385500
20
-0.994274835098722
30
0.000000000000000
11
-19.2208285385500
21
-0.944005811284326
31
0.000000000000000
  0
LINE
  5
F10788
330
F10789
100
AcDbEntity
8
Geo
100
AcDbLine
10
-19.2208285385500
20
-0.944005811284326
30
0.000000000000000
11
-19.1208285385500
21
-0.869227915834363
31
0.000000000000000
  0
LINE
  5
F1078A
330
F1078B
100
AcDbEntity
8
Geo
100
AcDbLine
10
-19.1208285385500
20
-0.869227915834363
30
0.000000000000000
11
-19.0208285385500
21
-0.758485974469394
31
0.000000000000000
  0
LINE
  5
F1078C
330
F1078D
100
AcDbEntity
8
Geo
100
AcDbLine
10
-19.0208285385500
20
-0.758485974469394
30
0.000000000000000
11
-18.9208285385500
21
-0.594449673331226
31
0.000000000000000
  0
LINE
  5
F1078E
330
F1078F
100
AcDbEntity
8
Geo
100
AcDbLine
10
-18.9208285385500
20
-0.594449673331226
30
0.000000000000000
11
-18.8208285385500
21
-0.351055401788674
31
0.000000000000000
  0
LINE
  5
F10790
330
F10791
100
AcDbEntity
8
Geo
100
AcDbLine
10
-18.8208285385500
20
-0.351055401788674
30
0.000000000000000
11
-18.7208285385500
21
0.0104277103346480
31
0.000000000000000
  0
LINE
  5
F10792
330
F10793
100
AcDbEntity
8
Geo
100
AcDbLine
10
-18.7208285385500
20
0.0104277103346480
30
0.000000000000000
11
-18.6208285385500
21
0.546422513051320
31
0.000000000000000
  0
LINE
  5
F10794
330
F10795
100
AcDbEntity
8
Geo
100
AcDbLine
10
-18.6208285385500
20
0.546422513051320
30
0.000000000000000
11
-18.6208285385500
21
0.694502170845483
31
0.000000000000000
  0
LINE
  5
F10796
330
F10797
100
AcDbEntity
8
Geo
100
AcDbLine
10
-18.6208285385500
20
0.694502170845483
30
0.000000000000000
11
-18.7208285385500
21
1.26830913920046
31
0.000000000000000
  0
LINE
  5
F10798
330
F10799
100
AcDbEntity
8
Geo
100
AcDbLine
10
-18.7208285385500
20
1.26830913920046
30
0.000000000000000
11
-18.8208285385500
21
1.84283168439455
31
0.000000000000000
  0
LINE
  5
F1079A
330
F1079B
100
AcDbEntity
8
Geo
100
AcDbLine
10
-18.8208285385500
20
1.84283168439455
30
0.000000000000000
11
-18.9208285385500
21
2.40474054645561
31
0.000000000000000
  0
LINE
  5
F1079C
330
F1079D
100
AcDbEntity
8
Geo
100
AcDbLine
10
-18.9208285385500
20
2.40474054645561
30
0.000000000000000
11
-19.0208285385500
21
2.94473322245199
31
0.000000000000000
  0
LINE
  5
F1079E
330
F1079F
100
AcDbEntity
8
Geo
100
AcDbLine
10
-19.0208285385500
20
2.94473322245199
30
0.000000000000000
11
-19.1208285385500
21
3.45668007625314
31
0.000000000000000
  0
LINE
  5
F107A0
330
F107A1
100
AcDbEntity
8
Geo
100
AcDbLine
10
-19.1208285385500
20
3.45668007625314
30
0.000000000000000
11
-19.2208285385500
21
3.93689890707585
31
0.000000000000000
  0
LINE
  5
F107A2
330
F107A3
100
AcDbEntity
8
Geo
100
AcDbLine
10
-19.2208285385500
20
3.93689890707585
30
0.000000000000000
11
-19.3208285385500
21
4.38355621624380
31
0.000000000000000
  0
LINE
  5
F107A4
330
F107A5
100
AcDbEntity
8
Geo
100
AcDbLine
10
-19.3208285385500
20
4.38355621624380
30
0.000000000000000
11
-19.4208285385500
21
4.79618420943175
31
0.000000000000000
  0
LINE
  5
F107A6
330
F107A7
100
AcDbEntity
8
Geo
100
AcDbLine
10
-19.4208285385500
20
4.79618420943175
30
0.000000000000000
11
-19.5208285385500
21
5.17529847613089
31
0.000000000000000
  0
LINE
  5
F107A8
330
F107A9
100
AcDbEntity
8
Geo
100
AcDbLine
10
-19.5208285385500
20
5.17529847613089
30
0.000000000000000
11
-19.6208285385500
21
5.52210029801930
31
0.000000000000000
  0
LINE
  5
F107AA
330
F107AB
100
AcDbEntity
8
Geo
100
AcDbLine
10
-19.6208285385500
20
5.52210029801930
30
0.000000000000000
11
-19.7208285385500
21
5.83824829904407
31
0.000000000000000
  0
LINE
  5
F107AC
330
F107AD
100
AcDbEntity
8
Geo
100
AcDbLine
10
-19.7208285385500
20
5.83824829904407
30
0.000000000000000
11
-19.8208285385500
21
6.12568578444149
31
0.000000000000000
  0
LINE
  5
F107AE
330
F107AF
100
AcDbEntity
8
Geo
100
AcDbLine
10
-19.8208285385500
20
6.12568578444149
30
0.000000000000000
11
-19.9208285385500
21
6.38651208096112
31
0.000000000000000
  0
LINE
  5
F107B0
330
F107B1
100
AcDbEntity
8
Geo
100
AcDbLine
10
-19.9208285385500
20
6.38651208096112
30
0.000000000000000
11
-20.0208285385500
21
6.62288817025638
31
0.000000000000000
  0
LINE
  5
F107B2
330
F107B3
100
AcDbEntity
8
Geo
100
AcDbLine
10
-20.0208285385500
20
6.62288817025638
30
0.000000000000000
11
-20.1208285385500
21
6.83696873345111
31
0.000000000000000
  0
LINE
  5
F107B4
330
F107B5
100
AcDbEntity
8
Geo
100
AcDbLine
10
-20.1208285385500
20
6.83696873345111
30
0.000000000000000
11
-20.2208285385500
21
7.03085432132346
31
0.000000000000000
  0
LINE
  5
F107B6
330
F107B7
100
AcDbEntity
8
Geo
100
AcDbLine
10
-20.2208285385500
20
7.03085432132346
30
0.000000000000000
11
-20.3208285385500
21
7.20655871039823
31
0.000000000000000
  0
LINE
  5
F107B8
330
F107B9
100
AcDbEntity
8
Geo
100
AcDbLine
10
-20.3208285385500
20
7.20655871039823
30
0.000000000000000
11
-20.4208285385500
21
7.36598761012800
31
0.000000000000000
  0
LINE
  5
F107BA
330
F107BB
100
AcDbEntity
8
Geo
100
AcDbLine
10
-20.4208285385500
20
7.36598761012800
30
0.000000000000000
11
-20.5208285385500
21
7.51092577509722
31
0.000000000000000
  0
LINE
  5
F107BC
330
F107BD
100
AcDbEntity
8
Geo
100
AcDbLine
10
-20.5208285385500
20
7.51092577509722
30
0.000000000000000
11
-20.6208285385500
21
7.64303027950295
31
0.000000000000000
  0
LINE
  5
F107BE
330
F107BF
100
AcDbEntity
8
Geo
100
AcDbLine
10
-20.6208285385500
20
7.64303027950295
30
0.000000000000000
11
-20.7208285385500
21
7.76382826028051
31
0.000000000000000
  0
LINE
  5
F107C0
330
F107C1
100
AcDbEntity
8
Geo
100
AcDbLine
10
-20.7208285385500
20
7.76382826028051
30
0.000000000000000
11
-20.8208285385500
21
7.87471785908385
31
0.000000000000000
  0
LINE
  5
F107C2
330
F107C3
100
AcDbEntity
8
Geo
100
AcDbLine
10
-20.8208285385500
20
7.87471785908385
30
0.000000000000000
11
-20.9208285385500
21
7.97697141725187
31
0.000000000000000
  0
LINE
  5
F107C4
330
F107C5
100
AcDbEntity
8
Geo
100
AcDbLine
10
-20.9208285385500
20
7.97697141725187
30
0.000000000000000
11
-21.0208285385500
21
8.07174022330050
31
0.000000000000000
  0
LINE
  5
F107C6
330
F107C7
100
AcDbEntity
8
Geo
100
AcDbLine
10
-21.0208285385500
20
8.07174022330050
30
0.000000000000000
11
-21.1208285385500
21
8.16006029696768
31
0.000000000000000
  0
LINE
  5
F107C8
330
F107C9
100
AcDbEntity
8
Geo
100
AcDbLine
10
-21.1208285385500
20
8.16006029696768
30
0.000000000000000
11
-21.2208285385500
21
8.24285883156460
31
0.000000000000000
  0
LINE
  5
F107CA
330
F107CB
100
AcDbEntity
8
Geo
100
AcDbLine
10
-21.2208285385500
20
8.24285883156460
30
0.000000000000000
11
-21.3208285385500
21
8.32096101855828
31
0.000000000000000
  0
LINE
  5
F107CC
330
F107CD
100
AcDbEntity
8
Geo
100
AcDbLine
10
-21.3208285385500
20
8.32096101855828
30
0.000000000000000
11
-21.4208285385500
21
8.39509705367533
31
0.000000000000000
  0
LINE
  5
F107CE
330
F107CF
100
AcDbEntity
8
Geo
100
AcDbLine
10
-21.4208285385500
20
8.39509705367533
30
0.000000000000000
11
-21.5208285385500
21
8.46590917911928
31
0.000000000000000
  0
LINE
  5
F107D0
330
F107D1
100
AcDbEntity
8
Geo
100
AcDbLine
10
-21.5208285385500
20
8.46590917911928
30
0.000000000000000
11
-21.6208285385500
21
8.53395865688138
31
0.000000000000000
  0
LINE
  5
F107D2
330
F107D3
100
AcDbEntity
8
Geo
100
AcDbLine
10
-21.6208285385500
20
8.53395865688138
30
0.000000000000000
11
-21.7208285385500
21
8.59973259749015
31
0.000000000000000
  0
LINE
  5
F107D4
330
F107D5
100
AcDbEntity
8
Geo
100
AcDbLine
10
-21.7208285385500
20
8.59973259749015
30
0.000000000000000
11
-21.8208285385500
21
8.66365058980420
31
0.000000000000000
  0
LINE
  5
F107D6
330
F107D7
100
AcDbEntity
8
Geo
100
AcDbLine
10
-21.8208285385500
20
8.66365058980420
30
0.000000000000000
11
-21.9208285385500
21
8.72607109278241
31
0.000000000000000
  0
LINE
  5
F107D8
330
F107D9
100
AcDbEntity
8
Geo
100
AcDbLine
10
-21.9208285385500
20
8.72607109278241
30
0.000000000000000
11
-22.0208285385500
21
8.78729756117147
31
0.000000000000000
  0
LINE
  5
F107DA
330
F107DB
100
AcDbEntity
8
Geo
100
AcDbLine
10
-22.0208285385500
20
8.78729756117147
30
0.000000000000000
11
-22.1208285385500
21
8.84758428491977
31
0.000000000000000
  0
LINE
  5
F107DC
330
F107DD
100
AcDbEntity
8
Geo
100
AcDbLine
10
-22.1208285385500
20
8.84758428491977
30
0.000000000000000
11
-22.2208285385500
21
8.90714192772787
31
0.000000000000000
  0
LINE
  5
F107DE
330
F107DF
100
AcDbEntity
8
Geo
100
AcDbLine
10
-22.2208285385500
20
8.90714192772787
30
0.000000000000000
11
-22.3208285385500
21
8.96614275411633
31
0.000000000000000
  0
LINE
  5
F107E0
330
F107E1
100
AcDbEntity
8
Geo
100
AcDbLine
10
-22.3208285385500
20
8.96614275411633
30
0.000000000000000
11
-22.4208285385500
21
9.02472553719640
31
0.000000000000000
  0
LINE
  5
F107E2
330
F107E3
100
AcDbEntity
8
Geo
100
AcDbLine
10
-22.4208285385500
20
9.02472553719640
30
0.000000000000000
11
-22.5208285385500
21
9.08300014130814
31
0.000000000000000
  0
LINE
  5
F107E4
330
F107E5
100
AcDbEntity
8
Geo
100
AcDbLine
10
-22.5208285385500
20
9.08300014130814
30
0.000000000000000
11
-22.6208285385500
21
9.14105177509065
31
0.000000000000000
  0
LINE
  5
F107E6
330
F107E7
100
AcDbEntity
8
Geo
100
AcDbLine
10
-22.6208285385500
20
9.14105177509065
30
0.000000000000000
11
-22.7208285385500
21
9.19894491155055
31
0.000000000000000
  0
LINE
  5
F107E8
330
F107E9
100
AcDbEntity
8
Geo
100
AcDbLine
10
-22.7208285385500
20
9.19894491155055
30
0.000000000000000
11
-22.8208285385500
21
9.25672687242699
31
0.000000000000000
  0
LINE
  5
F107EA
330
F107EB
100
AcDbEntity
8
Geo
100
AcDbLine
10
-22.8208285385500
20
9.25672687242699
30
0.000000000000000
11
-22.9208285385500
21
9.31443107470728
31
0.000000000000000
  0
LINE
  5
F107EC
330
F107ED
100
AcDbEntity
8
Geo
100
AcDbLine
10
-22.9208285385500
20
9.31443107470728
30
0.000000000000000
11
-23.0208285385500
21
9.37207993759190
31
0.000000000000000
  0
LINE
  5
F107EE
330
F107EF
100
AcDbEntity
8
Geo
100
AcDbLine
10
-23.0208285385500
20
9.37207993759190
30
0.000000000000000
11
-23.1208285385500
21
9.42968744858648
31
0.000000000000000
  0
LINE
  5
F107F0
330
F107F1
100
AcDbEntity
8
Geo
100
AcDbLine
10
-23.1208285385500
20
9.42968744858648
30
0.000000000000000
11
-23.2208285385500
21
9.48726138774030
31
0.000000000000000
  0
LINE
  5
F107F2
330
F107F3
100
AcDbEntity
8
Geo
100
AcDbLine
10
-23.2208285385500
20
9.48726138774030
30
0.000000000000000
11
-23.3208285385500
21
9.54480520937523
31
0.000000000000000
  0
LINE
  5
F107F4
330
F107F5
100
AcDbEntity
8
Geo
100
AcDbLine
10
-23.3208285385500
20
9.54480520937523
30
0.000000000000000
11
-23.4208285385500
21
9.60231958096654
31
0.000000000000000
  0
LINE
  5
F107F6
330
F107F7
100
AcDbEntity
8
Geo
100
AcDbLine
10
-23.4208285385500
20
9.60231958096654
30
0.000000000000000
11
-23.5208285385500
21
9.65980357915274
31
0.000000000000000
  0
LINE
  5
F107F8
330
F107F9
100
AcDbEntity
8
Geo
100
AcDbLine
10
-23.5208285385500
20
9.65980357915274
30
0.000000000000000
11
-23.7208285385500
21
9.77467358677941
31
0.000000000000000
  0
LINE
  5
F107FA
330
F107FB
100
AcDbEntity
8
Geo
100
AcDbLine
10
-21.8785086021221
20
-1.30034522439585
30
0.000000000000000
11
-21.9208285385500
21
-1.30031033324432
31
0.000000000000000
  0
LINE
  5
F107FC
330
F107FD
100
AcDbEntity
8
Geo
100
AcDbLine
10
-21.9208285385500
20
-1.30031033324432
30
0.000000000000000
11
-22.0208285385500
21
-1.29996115412726
31
0.000000000000000
  0
LINE
  5
F107FE
330
F107FF
100
AcDbEntity
8
Geo
100
AcDbLine
10
-22.0208285385500
20
-1.29996115412726
30
0.000000000000000
11
-22.1208285385500
21
-1.29925100754401
31
0.000000000000000
  0
LINE
  5
F10800
330
F10801
100
AcDbEntity
8
Geo
100
AcDbLine
10
-22.1208285385500
20
-1.29925100754401
30
0.000000000000000
11
-22.2208285385500
21
-1.29819244675846
31
0.000000000000000
  0
LINE
  5
F10802
330
F10803
100
AcDbEntity
8
Geo
100
AcDbLine
10
-22.2208285385500
20
-1.29819244675846
30
0.000000000000000
11
-22.3208285385500
21
-1.29679380163110
31
0.000000000000000
  0
LINE
  5
F10804
330
F10805
100
AcDbEntity
8
Geo
100
AcDbLine
10
-22.3208285385500
20
-1.29679380163110
30
0.000000000000000
11
-22.4208285385500
21
-1.29506027786075
31
0.000000000000000
  0
LINE
  5
F10806
330
F10807
100
AcDbEntity
8
Geo
100
AcDbLine
10
-22.4208285385500
20
-1.29506027786075
30
0.000000000000000
11
-22.5208285385500
21
-1.29299483951762
31
0.000000000000000
  0
LINE
  5
F10808
330
F10809
100
AcDbEntity
8
Geo
100
AcDbLine
10
-22.5208285385500
20
-1.29299483951762
30
0.000000000000000
11
-22.6208285385500
21
-1.29059890930518
31
0.000000000000000
  0
LINE
  5
F1080A
330
F1080B
100
AcDbEntity
8
Geo
100
AcDbLine
10
-22.6208285385500
20
-1.29059890930518
30
0.000000000000000
11
-22.7208285385500
21
-1.28787291447745
31
0.000000000000000
  0
LINE
  5
F1080C
330
F1080D
100
AcDbEntity
8
Geo
100
AcDbLine
10
-22.7208285385500
20
-1.28787291447745
30
0.000000000000000
11
-22.8208285385500
21
-1.28481670159190
31
0.000000000000000
  0
LINE
  5
F1080E
330
F1080F
100
AcDbEntity
8
Geo
100
AcDbLine
10
-22.8208285385500
20
-1.28481670159190
30
0.000000000000000
11
-22.9208285385500
21
-1.28142983991039
31
0.000000000000000
  0
LINE
  5
F10810
330
F10811
100
AcDbEntity
8
Geo
100
AcDbLine
10
-22.9208285385500
20
-1.28142983991039
30
0.000000000000000
11
-23.0208285385500
21
-1.27771183094719
31
0.000000000000000
  0
LINE
  5
F10812
330
F10813
100
AcDbEntity
8
Geo
100
AcDbLine
10
-23.0208285385500
20
-1.27771183094719
30
0.000000000000000
11
-23.1208285385500
21
-1.27366224013231
31
0.000000000000000
  0
LINE
  5
F10814
330
F10815
100
AcDbEntity
8
Geo
100
AcDbLine
10
-23.1208285385500
20
-1.27366224013231
30
0.000000000000000
11
-23.2208285385500
21
-1.26928076559178
31
0.000000000000000
  0
LINE
  5
F10816
330
F10817
100
AcDbEntity
8
Geo
100
AcDbLine
10
-23.2208285385500
20
-1.26928076559178
30
0.000000000000000
11
-23.3208285385500
21
-1.26456725846838
31
0.000000000000000
  0
LINE
  5
F10818
330
F10819
100
AcDbEntity
8
Geo
100
AcDbLine
10
-23.3208285385500
20
-1.26456725846838
30
0.000000000000000
11
-23.4208285385500
21
-1.25952170888291
31
0.000000000000000
  0
LINE
  5
F1081A
330
F1081B
100
AcDbEntity
8
Geo
100
AcDbLine
10
-23.4208285385500
20
-1.25952170888291
30
0.000000000000000
11
-23.5208285385500
21
-1.25414421146828
31
0.000000000000000
  0
LINE
  5
F1081C
330
F1081D
100
AcDbEntity
8
Geo
100
AcDbLine
10
-23.5208285385500
20
-1.25414421146828
30
0.000000000000000
11
-23.7208285385500
21
-1.24239403516012
31
0.000000000000000
  0
LINE
  5
F1081E
330
F1081F
100
AcDbEntity
8
Geo
100
AcDbLine
10
-43.6208285385500
20
7.71484702259194
30
0.000000000000000
11
-43.5208285385500
21
7.65813128249096
31
0.000000000000000
  0
LINE
  5
F10820
330
F10821
100
AcDbEntity
8
Geo
100
AcDbLine
10
-43.5208285385500
20
7.65813128249096
30
0.000000000000000
11
-43.4208285385500
21
7.60145025974334
31
0.000000000000000
  0
LINE
  5
F10822
330
F10823
100
AcDbEntity
8
Geo
100
AcDbLine
10
-43.4208285385500
20
7.60145025974334
30
0.000000000000000
11
-43.3208285385500
21
7.54480584371124
31
0.000000000000000
  0
LINE
  5
F10824
330
F10825
100
AcDbEntity
8
Geo
100
AcDbLine
10
-43.3208285385500
20
7.54480584371124
30
0.000000000000000
11
-43.2208285385500
21
7.48819992253661
31
0.000000000000000
  0
LINE
  5
F10826
330
F10827
100
AcDbEntity
8
Geo
100
AcDbLine
10
-43.2208285385500
20
7.48819992253661
30
0.000000000000000
11
-43.1208285385500
21
7.43163438307823
31
0.000000000000000
  0
LINE
  5
F10828
330
F10829
100
AcDbEntity
8
Geo
100
AcDbLine
10
-43.1208285385500
20
7.43163438307823
30
0.000000000000000
11
-43.0208285385500
21
7.37511111084887
31
0.000000000000000
  0
LINE
  5
F1082A
330
F1082B
100
AcDbEntity
8
Geo
100
AcDbLine
10
-43.0208285385500
20
7.37511111084887
30
0.000000000000000
11
-42.9208285385500
21
7.31863198995235
31
0.000000000000000
  0
LINE
  5
F1082C
330
F1082D
100
AcDbEntity
8
Geo
100
AcDbLine
10
-42.9208285385500
20
7.31863198995235
30
0.000000000000000
11
-42.8208285385500
21
7.26219890302082
31
0.000000000000000
  0
LINE
  5
F1082E
330
F1082F
100
AcDbEntity
8
Geo
100
AcDbLine
10
-42.8208285385500
20
7.26219890302082
30
0.000000000000000
11
-42.7208285385500
21
7.20581373115194
31
0.000000000000000
  0
LINE
  5
F10830
330
F10831
100
AcDbEntity
8
Geo
100
AcDbLine
10
-42.7208285385500
20
7.20581373115194
30
0.000000000000000
11
-42.6208285385500
21
7.14947835384623
31
0.000000000000000
  0
LINE
  5
F10832
330
F10833
100
AcDbEntity
8
Geo
100
AcDbLine
10
-42.6208285385500
20
7.14947835384623
30
0.000000000000000
11
-42.5208285385500
21
7.09319464894437
31
0.000000000000000
  0
LINE
  5
F10834
330
F10835
100
AcDbEntity
8
Geo
100
AcDbLine
10
-42.5208285385500
20
7.09319464894437
30
0.000000000000000
11
-42.4208285385500
21
7.03696449256465
31
0.000000000000000
  0
LINE
  5
F10836
330
F10837
100
AcDbEntity
8
Geo
100
AcDbLine
10
-42.4208285385500
20
7.03696449256465
30
0.000000000000000
11
-42.3208285385500
21
6.98078975904042
31
0.000000000000000
  0
LINE
  5
F10838
330
F10839
100
AcDbEntity
8
Geo
100
AcDbLine
10
-42.3208285385500
20
6.98078975904042
30
0.000000000000000
11
-42.2208285385500
21
6.92467232085759
31
0.000000000000000
  0
LINE
  5
F1083A
330
F1083B
100
AcDbEntity
8
Geo
100
AcDbLine
10
-42.2208285385500
20
6.92467232085759
30
0.000000000000000
11
-42.1208285385500
21
6.86861404859223
31
0.000000000000000
  0
LINE
  5
F1083C
330
F1083D
100
AcDbEntity
8
Geo
100
AcDbLine
10
-42.1208285385500
20
6.86861404859223
30
0.000000000000000
11
-42.0208285385500
21
6.81261681084823
31
0.000000000000000
  0
LINE
  5
F1083E
330
F1083F
100
AcDbEntity
8
Geo
100
AcDbLine
10
-42.0208285385500
20
6.81261681084823
30
0.000000000000000
11
-41.9208285385500
21
6.75668247419500
31
0.000000000000000
  0
LINE
  5
F10840
330
F10841
100
AcDbEntity
8
Geo
100
AcDbLine
10
-41.9208285385500
20
6.75668247419500
30
0.000000000000000
11
-41.8208285385500
21
6.70081290310524
31
0.000000000000000
  0
LINE
  5
F10842
330
F10843
100
AcDbEntity
8
Geo
100
AcDbLine
10
-41.8208285385500
20
6.70081290310524
30
0.000000000000000
11
-41.7208285385500
21
6.64500995989282
31
0.000000000000000
  0
LINE
  5
F10844
330
F10845
100
AcDbEntity
8
Geo
100
AcDbLine
10
-41.7208285385500
20
6.64500995989282
30
0.000000000000000
11
-41.6208285385500
21
6.58927550465068
31
0.000000000000000
  0
LINE
  5
F10846
330
F10847
100
AcDbEntity
8
Geo
100
AcDbLine
10
-41.6208285385500
20
6.58927550465068
30
0.000000000000000
11
-41.5208285385500
21
6.53361139518883
31
0.000000000000000
  0
LINE
  5
F10848
330
F10849
100
AcDbEntity
8
Geo
100
AcDbLine
10
-41.5208285385500
20
6.53361139518883
30
0.000000000000000
11
-41.4208285385500
21
6.47801948697244
31
0.000000000000000
  0
LINE
  5
F1084A
330
F1084B
100
AcDbEntity
8
Geo
100
AcDbLine
10
-41.4208285385500
20
6.47801948697244
30
0.000000000000000
11
-41.3208285385500
21
6.42250163305996
31
0.000000000000000
  0
LINE
  5
F1084C
330
F1084D
100
AcDbEntity
8
Geo
100
AcDbLine
10
-41.3208285385500
20
6.42250163305996
30
0.000000000000000
11
-41.2208285385500
21
6.36705968404139
31
0.000000000000000
  0
LINE
  5
F1084E
330
F1084F
100
AcDbEntity
8
Geo
100
AcDbLine
10
-41.2208285385500
20
6.36705968404139
30
0.000000000000000
11
-41.1208285385500
21
6.31169548797655
31
0.000000000000000
  0
LINE
  5
F10850
330
F10851
100
AcDbEntity
8
Geo
100
AcDbLine
10
-41.1208285385500
20
6.31169548797655
30
0.000000000000000
11
-41.0208285385500
21
6.25641089033353
31
0.000000000000000
  0
LINE
  5
F10852
330
F10853
100
AcDbEntity
8
Geo
100
AcDbLine
10
-41.0208285385500
20
6.25641089033353
30
0.000000000000000
11
-40.9208285385500
21
6.20120773392712
31
0.000000000000000
  0
LINE
  5
F10854
330
F10855
100
AcDbEntity
8
Geo
100
AcDbLine
10
-40.9208285385500
20
6.20120773392712
30
0.000000000000000
11
-40.8208285385500
21
6.14608785885744
31
0.000000000000000
  0
LINE
  5
F10856
330
F10857
100
AcDbEntity
8
Geo
100
AcDbLine
10
-40.8208285385500
20
6.14608785885744
30
0.000000000000000
11
-40.7208285385500
21
6.09105310244853
31
0.000000000000000
  0
LINE
  5
F10858
330
F10859
100
AcDbEntity
8
Geo
100
AcDbLine
10
-40.7208285385500
20
6.09105310244853
30
0.000000000000000
11
-40.6208285385500
21
6.03610529918720
31
0.000000000000000
  0
LINE
  5
F1085A
330
F1085B
100
AcDbEntity
8
Geo
100
AcDbLine
10
-40.6208285385500
20
6.03610529918720
30
0.000000000000000
11
-40.5208285385500
21
5.98124628066178
31
0.000000000000000
  0
LINE
  5
F1085C
330
F1085D
100
AcDbEntity
8
Geo
100
AcDbLine
10
-40.5208285385500
20
5.98124628066178
30
0.000000000000000
11
-40.4208285385500
21
5.92647787550117
31
0.000000000000000
  0
LINE
  5
F1085E
330
F1085F
100
AcDbEntity
8
Geo
100
AcDbLine
10
-40.4208285385500
20
5.92647787550117
30
0.000000000000000
11
-40.3208285385500
21
5.87180190931377
31
0.000000000000000
  0
LINE
  5
F10860
330
F10861
100
AcDbEntity
8
Geo
100
AcDbLine
10
-40.3208285385500
20
5.87180190931377
30
0.000000000000000
11
-40.2208285385500
21
5.81722020462676
31
0.000000000000000
  0
LINE
  5
F10862
330
F10863
100
AcDbEntity
8
Geo
100
AcDbLine
10
-40.2208285385500
20
5.81722020462676
30
0.000000000000000
11
-40.1208285385500
21
5.76273458082521
31
0.000000000000000
  0
LINE
  5
F10864
330
F10865
100
AcDbEntity
8
Geo
100
AcDbLine
10
-40.1208285385500
20
5.76273458082521
30
0.000000000000000
11
-40.0208285385500
21
5.70834685409156
31
0.000000000000000
  0
LINE
  5
F10866
330
F10867
100
AcDbEntity
8
Geo
100
AcDbLine
10
-40.0208285385500
20
5.70834685409156
30
0.000000000000000
11
-39.9208285385500
21
5.65405883734498
31
0.000000000000000
  0
LINE
  5
F10868
330
F10869
100
AcDbEntity
8
Geo
100
AcDbLine
10
-39.9208285385500
20
5.65405883734498
30
0.000000000000000
11
-39.8208285385500
21
5.59987234018101
31
0.000000000000000
  0
LINE
  5
F1086A
330
F1086B
100
AcDbEntity
8
Geo
100
AcDbLine
10
-39.8208285385500
20
5.59987234018101
30
0.000000000000000
11
-39.7208285385500
21
5.54578916881120
31
0.000000000000000
  0
LINE
  5
F1086C
330
F1086D
100
AcDbEntity
8
Geo
100
AcDbLine
10
-39.7208285385500
20
5.54578916881120
30
0.000000000000000
11
-39.6208285385500
21
5.49181112600294
31
0.000000000000000
  0
LINE
  5
F1086E
330
F1086F
100
AcDbEntity
8
Geo
100
AcDbLine
10
-39.6208285385500
20
5.49181112600294
30
0.000000000000000
11
-39.5208285385500
21
5.43794001101930
31
0.000000000000000
  0
LINE
  5
F10870
330
F10871
100
AcDbEntity
8
Geo
100
AcDbLine
10
-39.5208285385500
20
5.43794001101930
30
0.000000000000000
11
-39.4208285385500
21
5.38417761955914
31
0.000000000000000
  0
LINE
  5
F10872
330
F10873
100
AcDbEntity
8
Geo
100
AcDbLine
10
-39.4208285385500
20
5.38417761955914
30
0.000000000000000
11
-39.3208285385500
21
5.33052574369719
31
0.000000000000000
  0
LINE
  5
F10874
330
F10875
100
AcDbEntity
8
Geo
100
AcDbLine
10
-39.3208285385500
20
5.33052574369719
30
0.000000000000000
11
-39.2208285385500
21
5.27698617182435
31
0.000000000000000
  0
LINE
  5
F10876
330
F10877
100
AcDbEntity
8
Geo
100
AcDbLine
10
-39.2208285385500
20
5.27698617182435
30
0.000000000000000
11
-39.1208285385500
21
5.22356068858805
31
0.000000000000000
  0
LINE
  5
F10878
330
F10879
100
AcDbEntity
8
Geo
100
AcDbLine
10
-39.1208285385500
20
5.22356068858805
30
0.000000000000000
11
-39.0208285385500
21
5.17025107483280
31
0.000000000000000
  0
LINE
  5
F1087A
330
F1087B
100
AcDbEntity
8
Geo
100
AcDbLine
10
-39.0208285385500
20
5.17025107483280
30
0.000000000000000
11
-38.9208285385500
21
5.11705910754077
31
0.000000000000000
  0
LINE
  5
F1087C
330
F1087D
100
AcDbEntity
8
Geo
100
AcDbLine
10
-38.9208285385500
20
5.11705910754077
30
0.000000000000000
11
-38.8208285385500
21
5.06398655977263
31
0.000000000000000
  0
LINE
  5
F1087E
330
F1087F
100
AcDbEntity
8
Geo
100
AcDbLine
10
-38.8208285385500
20
5.06398655977263
30
0.000000000000000
11
-38.7208285385500
21
5.01103520060837
31
0.000000000000000
  0
LINE
  5
F10880
330
F10881
100
AcDbEntity
8
Geo
100
AcDbLine
10
-38.7208285385500
20
5.01103520060837
30
0.000000000000000
11
-38.6208285385500
21
4.95820679508842
31
0.000000000000000
  0
LINE
  5
F10882
330
F10883
100
AcDbEntity
8
Geo
100
AcDbLine
10
-38.6208285385500
20
4.95820679508842
30
0.000000000000000
11
-38.5208285385500
21
4.90550310415471
31
0.000000000000000
  0
LINE
  5
F10884
330
F10885
100
AcDbEntity
8
Geo
100
AcDbLine
10
-38.5208285385500
20
4.90550310415471
30
0.000000000000000
11
-38.4208285385500
21
4.85292588459208
31
0.000000000000000
  0
LINE
  5
F10886
330
F10887
100
AcDbEntity
8
Geo
100
AcDbLine
10
-38.4208285385500
20
4.85292588459208
30
0.000000000000000
11
-38.3208285385500
21
4.80047688896964
31
0.000000000000000
  0
LINE
  5
F10888
330
F10889
100
AcDbEntity
8
Geo
100
AcDbLine
10
-38.3208285385500
20
4.80047688896964
30
0.000000000000000
11
-38.2208285385500
21
4.74815786558238
31
0.000000000000000
  0
LINE
  5
F1088A
330
F1088B
100
AcDbEntity
8
Geo
100
AcDbLine
10
-38.2208285385500
20
4.74815786558238
30
0.000000000000000
11
-38.1208285385500
21
4.69597055839291
31
0.000000000000000
  0
LINE
  5
F1088C
330
F1088D
100
AcDbEntity
8
Geo
100
AcDbLine
10
-38.1208285385500
20
4.69597055839291
30
0.000000000000000
11
-38.0208285385500
21
4.64391670697331
31
0.000000000000000
  0
LINE
  5
F1088E
330
F1088F
100
AcDbEntity
8
Geo
100
AcDbLine
10
-38.0208285385500
20
4.64391670697331
30
0.000000000000000
11
-37.9208285385500
21
4.59199804644713
31
0.000000000000000
  0
LINE
  5
F10890
330
F10891
100
AcDbEntity
8
Geo
100
AcDbLine
10
-37.9208285385500
20
4.59199804644713
30
0.000000000000000
11
-37.8208285385500
21
4.54021630743158
31
0.000000000000000
  0
LINE
  5
F10892
330
F10893
100
AcDbEntity
8
Geo
100
AcDbLine
10
-37.8208285385500
20
4.54021630743158
30
0.000000000000000
11
-37.7208285385501
21
4.48857321597984
31
0.000000000000000
  0
LINE
  5
F10894
330
F10895
100
AcDbEntity
8
Geo
100
AcDbLine
10
-37.7208285385501
20
4.48857321597984
30
0.000000000000000
11
-37.6208285385501
21
4.43707049352350
31
0.000000000000000
  0
LINE
  5
F10896
330
F10897
100
AcDbEntity
8
Geo
100
AcDbLine
10
-37.6208285385501
20
4.43707049352350
30
0.000000000000000
11
-37.5208285385500
21
4.38570985681522
31
0.000000000000000
  0
LINE
  5
F10898
330
F10899
100
AcDbEntity
8
Geo
100
AcDbLine
10
-37.5208285385500
20
4.38570985681522
30
0.000000000000000
11
-37.4208285385500
21
4.33449301787145
31
0.000000000000000
  0
LINE
  5
F1089A
330
F1089B
100
AcDbEntity
8
Geo
100
AcDbLine
10
-37.4208285385500
20
4.33449301787145
30
0.000000000000000
11
-37.3208285385500
21
4.28342168391544
31
0.000000000000000
  0
LINE
  5
F1089C
330
F1089D
100
AcDbEntity
8
Geo
100
AcDbLine
10
-37.3208285385500
20
4.28342168391544
30
0.000000000000000
11
-37.2208285385501
21
4.23249755732023
31
0.000000000000000
  0
LINE
  5
F1089E
330
F1089F
100
AcDbEntity
8
Geo
100
AcDbLine
10
-37.2208285385501
20
4.23249755732023
30
0.000000000000000
11
-37.1208285385501
21
4.18172233555201
31
0.000000000000000
  0
LINE
  5
F108A0
330
F108A1
100
AcDbEntity
8
Geo
100
AcDbLine
10
-37.1208285385501
20
4.18172233555201
30
0.000000000000000
11
-37.0208285385500
21
4.13109771111346
31
0.000000000000000
  0
LINE
  5
F108A2
330
F108A3
100
AcDbEntity
8
Geo
100
AcDbLine
10
-37.0208285385500
20
4.13109771111346
30
0.000000000000000
11
-36.9208285385501
21
4.08062537148738
31
0.000000000000000
  0
LINE
  5
F108A4
330
F108A5
100
AcDbEntity
8
Geo
100
AcDbLine
10
-36.9208285385501
20
4.08062537148738
30
0.000000000000000
11
-36.8208285385501
21
4.03030699908042
31
0.000000000000000
  0
LINE
  5
F108A6
330
F108A7
100
AcDbEntity
8
Geo
100
AcDbLine
10
-36.8208285385501
20
4.03030699908042
30
0.000000000000000
11
-36.7208285385501
21
3.98014427116700
31
0.000000000000000
  0
LINE
  5
F108A8
330
F108A9
100
AcDbEntity
8
Geo
100
AcDbLine
10
-36.7208285385501
20
3.98014427116700
30
0.000000000000000
11
-36.6208285385501
21
3.93013885983340
31
0.000000000000000
  0
LINE
  5
F108AA
330
F108AB
100
AcDbEntity
8
Geo
100
AcDbLine
10
-36.6208285385501
20
3.93013885983340
30
0.000000000000000
11
-36.5208285385500
21
3.88029243192203
31
0.000000000000000
  0
LINE
  5
F108AC
330
F108AD
100
AcDbEntity
8
Geo
100
AcDbLine
10
-36.5208285385500
20
3.88029243192203
30
0.000000000000000
11
-36.4208285385501
21
3.83060664897589
31
0.000000000000000
  0
LINE
  5
F108AE
330
F108AF
100
AcDbEntity
8
Geo
100
AcDbLine
10
-36.4208285385501
20
3.83060664897589
30
0.000000000000000
11
-36.3208285385501
21
3.78108316718313
31
0.000000000000000
  0
LINE
  5
F108B0
330
F108B1
100
AcDbEntity
8
Geo
100
AcDbLine
10
-36.3208285385501
20
3.78108316718313
30
0.000000000000000
11
-36.2208285385501
21
3.73172363732190
31
0.000000000000000
  0
LINE
  5
F108B2
330
F108B3
100
AcDbEntity
8
Geo
100
AcDbLine
10
-36.2208285385501
20
3.73172363732190
30
0.000000000000000
11
-36.1208285385501
21
3.68252970470528
31
0.000000000000000
  0
LINE
  5
F108B4
330
F108B5
100
AcDbEntity
8
Geo
100
AcDbLine
10
-36.1208285385501
20
3.68252970470528
30
0.000000000000000
11
-36.0208285385501
21
3.63350300912648
31
0.000000000000000
  0
LINE
  5
F108B6
330
F108B7
100
AcDbEntity
8
Geo
100
AcDbLine
10
-36.0208285385501
20
3.63350300912648
30
0.000000000000000
11
-35.9208285385501
21
3.58464518480413
31
0.000000000000000
  0
LINE
  5
F108B8
330
F108B9
100
AcDbEntity
8
Geo
100
AcDbLine
10
-35.9208285385501
20
3.58464518480413
30
0.000000000000000
11
-35.8208285385501
21
3.53595786032787
31
0.000000000000000
  0
LINE
  5
F108BA
330
F108BB
100
AcDbEntity
8
Geo
100
AcDbLine
10
-35.8208285385501
20
3.53595786032787
30
0.000000000000000
11
-35.7208285385501
21
3.48744265860400
31
0.000000000000000
  0
LINE
  5
F108BC
330
F108BD
100
AcDbEntity
8
Geo
100
AcDbLine
10
-35.7208285385501
20
3.48744265860400
30
0.000000000000000
11
-35.6208285385501
21
3.43910119680142
31
0.000000000000000
  0
LINE
  5
F108BE
330
F108BF
100
AcDbEntity
8
Geo
100
AcDbLine
10
-35.6208285385501
20
3.43910119680142
30
0.000000000000000
11
-35.5208285385501
21
3.39093508629771
31
0.000000000000000
  0
LINE
  5
F108C0
330
F108C1
100
AcDbEntity
8
Geo
100
AcDbLine
10
-35.5208285385501
20
3.39093508629771
30
0.000000000000000
11
-35.4208285385501
21
3.34294593262543
31
0.000000000000000
  0
LINE
  5
F108C2
330
F108C3
100
AcDbEntity
8
Geo
100
AcDbLine
10
-35.4208285385501
20
3.34294593262543
30
0.000000000000000
11
-35.3208285385501
21
3.29513533541859
31
0.000000000000000
  0
LINE
  5
F108C4
330
F108C5
100
AcDbEntity
8
Geo
100
AcDbLine
10
-35.3208285385501
20
3.29513533541859
30
0.000000000000000
11
-35.2208285385501
21
3.24750488835934
31
0.000000000000000
  0
LINE
  5
F108C6
330
F108C7
100
AcDbEntity
8
Geo
100
AcDbLine
10
-35.2208285385501
20
3.24750488835934
30
0.000000000000000
11
-35.1208285385501
21
3.20005617912483
31
0.000000000000000
  0
LINE
  5
F108C8
330
F108C9
100
AcDbEntity
8
Geo
100
AcDbLine
10
-35.1208285385501
20
3.20005617912483
30
0.000000000000000
11
-35.0208285385501
21
3.15279078933432
31
0.000000000000000
  0
LINE
  5
F108CA
330
F108CB
100
AcDbEntity
8
Geo
100
AcDbLine
10
-35.0208285385501
20
3.15279078933432
30
0.000000000000000
11
-34.9208285385501
21
3.10571029449643
31
0.000000000000000
  0
LINE
  5
F108CC
330
F108CD
100
AcDbEntity
8
Geo
100
AcDbLine
10
-34.9208285385501
20
3.10571029449643
30
0.000000000000000
11
-34.8208285385501
21
3.05881626395661
31
0.000000000000000
  0
LINE
  5
F108CE
330
F108CF
100
AcDbEntity
8
Geo
100
AcDbLine
10
-34.8208285385501
20
3.05881626395661
30
0.000000000000000
11
-34.7208285385501
21
3.01211026084488
31
0.000000000000000
  0
LINE
  5
F108D0
330
F108D1
100
AcDbEntity
8
Geo
100
AcDbLine
10
-34.7208285385501
20
3.01211026084488
30
0.000000000000000
11
-34.6208285385501
21
2.96559384202368
31
0.000000000000000
  0
LINE
  5
F108D2
330
F108D3
100
AcDbEntity
8
Geo
100
AcDbLine
10
-34.6208285385501
20
2.96559384202368
30
0.000000000000000
11
-34.5208285385501
21
2.91926855803601
31
0.000000000000000
  0
LINE
  5
F108D4
330
F108D5
100
AcDbEntity
8
Geo
100
AcDbLine
10
-34.5208285385501
20
2.91926855803601
30
0.000000000000000
11
-34.4208285385501
21
2.87313595305370
31
0.000000000000000
  0
LINE
  5
F108D6
330
F108D7
100
AcDbEntity
8
Geo
100
AcDbLine
10
-34.4208285385501
20
2.87313595305370
30
0.000000000000000
11
-34.3208285385501
21
2.82719756482598
31
0.000000000000000
  0
LINE
  5
F108D8
330
F108D9
100
AcDbEntity
8
Geo
100
AcDbLine
10
-34.3208285385501
20
2.82719756482598
30
0.000000000000000
11
-34.2208285385501
21
2.78145492462822
31
0.000000000000000
  0
LINE
  5
F108DA
330
F108DB
100
AcDbEntity
8
Geo
100
AcDbLine
10
-34.2208285385501
20
2.78145492462822
30
0.000000000000000
11
-34.1208285385501
21
2.73590955721084
31
0.000000000000000
  0
LINE
  5
F108DC
330
F108DD
100
AcDbEntity
8
Geo
100
AcDbLine
10
-34.1208285385501
20
2.73590955721084
30
0.000000000000000
11
-34.0208285385501
21
2.69056298074853
31
0.000000000000000
  0
LINE
  5
F108DE
330
F108DF
100
AcDbEntity
8
Geo
100
AcDbLine
10
-34.0208285385501
20
2.69056298074853
30
0.000000000000000
11
-33.9208285385501
21
2.64541670678967
31
0.000000000000000
  0
LINE
  5
F108E0
330
F108E1
100
AcDbEntity
8
Geo
100
AcDbLine
10
-33.9208285385501
20
2.64541670678967
30
0.000000000000000
11
-33.8208285385501
21
2.60047224020585
31
0.000000000000000
  0
LINE
  5
F108E2
330
F108E3
100
AcDbEntity
8
Geo
100
AcDbLine
10
-33.8208285385501
20
2.60047224020585
30
0.000000000000000
11
-33.7208285385501
21
2.55573107914180
31
0.000000000000000
  0
LINE
  5
F108E4
330
F108E5
100
AcDbEntity
8
Geo
100
AcDbLine
10
-33.7208285385501
20
2.55573107914180
30
0.000000000000000
11
-33.6208285385501
21
2.51119471496543
31
0.000000000000000
  0
LINE
  5
F108E6
330
F108E7
100
AcDbEntity
8
Geo
100
AcDbLine
10
-33.6208285385501
20
2.51119471496543
30
0.000000000000000
11
-33.5208285385501
21
2.46686463221806
31
0.000000000000000
  0
LINE
  5
F108E8
330
F108E9
100
AcDbEntity
8
Geo
100
AcDbLine
10
-33.5208285385501
20
2.46686463221806
30
0.000000000000000
11
-33.4208285385501
21
2.42274230856504
31
0.000000000000000
  0
LINE
  5
F108EA
330
F108EB
100
AcDbEntity
8
Geo
100
AcDbLine
10
-33.4208285385501
20
2.42274230856504
30
0.000000000000000
11
-33.3208285385501
21
2.37882921474639
31
0.000000000000000
  0
LINE
  5
F108EC
330
F108ED
100
AcDbEntity
8
Geo
100
AcDbLine
10
-33.3208285385501
20
2.37882921474639
30
0.000000000000000
11
-33.2208285385501
21
2.33512681452784
31
0.000000000000000
  0
LINE
  5
F108EE
330
F108EF
100
AcDbEntity
8
Geo
100
AcDbLine
10
-33.2208285385501
20
2.33512681452784
30
0.000000000000000
11
-33.1208285385501
21
2.29163656465202
31
0.000000000000000
  0
LINE
  5
F108F0
330
F108F1
100
AcDbEntity
8
Geo
100
AcDbLine
10
-33.1208285385501
20
2.29163656465202
30
0.000000000000000
11
-33.0208285385501
21
2.24835991478989
31
0.000000000000000
  0
LINE
  5
F108F2
330
F108F3
100
AcDbEntity
8
Geo
100
AcDbLine
10
-33.0208285385501
20
2.24835991478989
30
0.000000000000000
11
-32.9208285385501
21
2.20529830749245
31
0.000000000000000
  0
LINE
  5
F108F4
330
F108F5
100
AcDbEntity
8
Geo
100
AcDbLine
10
-32.9208285385501
20
2.20529830749245
30
0.000000000000000
11
-32.8208285385501
21
2.16245317814263
31
0.000000000000000
  0
LINE
  5
F108F6
330
F108F7
100
AcDbEntity
8
Geo
100
AcDbLine
10
-32.8208285385501
20
2.16245317814263
30
0.000000000000000
11
-32.7208285385501
21
2.11982595490741
31
0.000000000000000
  0
LINE
  5
F108F8
330
F108F9
100
AcDbEntity
8
Geo
100
AcDbLine
10
-32.7208285385501
20
2.11982595490741
30
0.000000000000000
11
-32.6208285385501
21
2.07741805869032
31
0.000000000000000
  0
LINE
  5
F108FA
330
F108FB
100
AcDbEntity
8
Geo
100
AcDbLine
10
-32.6208285385501
20
2.07741805869032
30
0.000000000000000
11
-32.5208285385501
21
2.03523090308395
31
0.000000000000000
  0
LINE
  5
F108FC
330
F108FD
100
AcDbEntity
8
Geo
100
AcDbLine
10
-32.5208285385501
20
2.03523090308395
30
0.000000000000000
11
-32.4208285385501
21
1.99326589432292
31
0.000000000000000
  0
LINE
  5
F108FE
330
F108FF
100
AcDbEntity
8
Geo
100
AcDbLine
10
-32.4208285385501
20
1.99326589432292
30
0.000000000000000
11
-32.3208285385501
21
1.95152443123698
31
0.000000000000000
  0
LINE
  5
F10900
330
F10901
100
AcDbEntity
8
Geo
100
AcDbLine
10
-32.3208285385501
20
1.95152443123698
30
0.000000000000000
11
-32.2208285385501
21
1.91000790520435
31
0.000000000000000
  0
LINE
  5
F10902
330
F10903
100
AcDbEntity
8
Geo
100
AcDbLine
10
-32.2208285385501
20
1.91000790520435
30
0.000000000000000
11
-32.1208285385501
21
1.86871770010540
31
0.000000000000000
  0
LINE
  5
F10904
330
F10905
100
AcDbEntity
8
Geo
100
AcDbLine
10
-32.1208285385501
20
1.86871770010540
30
0.000000000000000
11
-32.0208285385501
21
1.82765519227647
31
0.000000000000000
  0
LINE
  5
F10906
330
F10907
100
AcDbEntity
8
Geo
100
AcDbLine
10
-32.0208285385501
20
1.82765519227647
30
0.000000000000000
11
-31.9208285385501
21
1.78682175046403
31
0.000000000000000
  0
LINE
  5
F10908
330
F10909
100
AcDbEntity
8
Geo
100
AcDbLine
10
-31.9208285385501
20
1.78682175046403
30
0.000000000000000
11
-31.8208285385501
21
1.74621873577901
31
0.000000000000000
  0
LINE
  5
F1090A
330
F1090B
100
AcDbEntity
8
Geo
100
AcDbLine
10
-31.8208285385501
20
1.74621873577901
30
0.000000000000000
11
-31.7208285385501
21
1.70584750165149
31
0.000000000000000
  0
LINE
  5
F1090C
330
F1090D
100
AcDbEntity
8
Geo
100
AcDbLine
10
-31.7208285385501
20
1.70584750165149
30
0.000000000000000
11
-31.6208285385501
21
1.66570939378552
31
0.000000000000000
  0
LINE
  5
F1090E
330
F1090F
100
AcDbEntity
8
Geo
100
AcDbLine
10
-31.6208285385501
20
1.66570939378552
30
0.000000000000000
11
-31.5208285385501
21
1.62580575011432
31
0.000000000000000
  0
LINE
  5
F10910
330
F10911
100
AcDbEntity
8
Geo
100
AcDbLine
10
-31.5208285385501
20
1.62580575011432
30
0.000000000000000
11
-31.4208285385501
21
1.58613790075566
31
0.000000000000000
  0
LINE
  5
F10912
330
F10913
100
AcDbEntity
8
Geo
100
AcDbLine
10
-31.4208285385501
20
1.58613790075566
30
0.000000000000000
11
-31.3208285385501
21
1.54670716796749
31
0.000000000000000
  0
LINE
  5
F10914
330
F10915
100
AcDbEntity
8
Geo
100
AcDbLine
10
-31.3208285385501
20
1.54670716796749
30
0.000000000000000
11
-31.2208285385501
21
1.50751486610394
31
0.000000000000000
  0
LINE
  5
F10916
330
F10917
100
AcDbEntity
8
Geo
100
AcDbLine
10
-31.2208285385501
20
1.50751486610394
30
0.000000000000000
11
-31.1208285385501
21
1.46856230157144
31
0.000000000000000
  0
LINE
  5
F10918
330
F10919
100
AcDbEntity
8
Geo
100
AcDbLine
10
-31.1208285385501
20
1.46856230157144
30
0.000000000000000
11
-31.0208285385501
21
1.42985077278519
31
0.000000000000000
  0
LINE
  5
F1091A
330
F1091B
100
AcDbEntity
8
Geo
100
AcDbLine
10
-31.0208285385501
20
1.42985077278519
30
0.000000000000000
11
-30.9208285385501
21
1.39138157012590
31
0.000000000000000
  0
LINE
  5
F1091C
330
F1091D
100
AcDbEntity
8
Geo
100
AcDbLine
10
-30.9208285385501
20
1.39138157012590
30
0.000000000000000
11
-30.8208285385501
21
1.35315597589678
31
0.000000000000000
  0
LINE
  5
F1091E
330
F1091F
100
AcDbEntity
8
Geo
100
AcDbLine
10
-30.8208285385501
20
1.35315597589678
30
0.000000000000000
11
-30.7208285385501
21
1.31517526428074
31
0.000000000000000
  0
LINE
  5
F10920
330
F10921
100
AcDbEntity
8
Geo
100
AcDbLine
10
-30.7208285385501
20
1.31517526428074
30
0.000000000000000
11
-30.6208285385501
21
1.27744070129801
31
0.000000000000000
  0
LINE
  5
F10922
330
F10923
100
AcDbEntity
8
Geo
100
AcDbLine
10
-30.6208285385501
20
1.27744070129801
30
0.000000000000000
11
-30.5208285385501
21
1.23995354476384
31
0.000000000000000
  0
LINE
  5
F10924
330
F10925
100
AcDbEntity
8
Geo
100
AcDbLine
10
-30.5208285385501
20
1.23995354476384
30
0.000000000000000
11
-30.4208285385501
21
1.20271504424665
31
0.000000000000000
  0
LINE
  5
F10926
330
F10927
100
AcDbEntity
8
Geo
100
AcDbLine
10
-30.4208285385501
20
1.20271504424665
30
0.000000000000000
11
-30.3208285385501
21
1.16572644102635
31
0.000000000000000
  0
LINE
  5
F10928
330
F10929
100
AcDbEntity
8
Geo
100
AcDbLine
10
-30.3208285385501
20
1.16572644102635
30
0.000000000000000
11
-30.2208285385501
21
1.12898896805295
31
0.000000000000000
  0
LINE
  5
F1092A
330
F1092B
100
AcDbEntity
8
Geo
100
AcDbLine
10
-30.2208285385501
20
1.12898896805295
30
0.000000000000000
11
-30.1208285385501
21
1.09250384990548
31
0.000000000000000
  0
LINE
  5
F1092C
330
F1092D
100
AcDbEntity
8
Geo
100
AcDbLine
10
-30.1208285385501
20
1.09250384990548
30
0.000000000000000
11
-30.0208285385501
21
1.05627230275117
31
0.000000000000000
  0
LINE
  5
F1092E
330
F1092F
100
AcDbEntity
8
Geo
100
AcDbLine
10
-30.0208285385501
20
1.05627230275117
30
0.000000000000000
11
-29.9208285385501
21
1.02029553430491
31
0.000000000000000
  0
LINE
  5
F10930
330
F10931
100
AcDbEntity
8
Geo
100
AcDbLine
10
-29.9208285385501
20
1.02029553430491
30
0.000000000000000
11
-29.8208285385501
21
0.984574743788963
31
0.000000000000000
  0
LINE
  5
F10932
330
F10933
100
AcDbEntity
8
Geo
100
AcDbLine
10
-29.8208285385501
20
0.984574743788963
30
0.000000000000000
11
-29.7208285385501
21
0.949111121893057
31
0.000000000000000
  0
LINE
  5
F10934
330
F10935
100
AcDbEntity
8
Geo
100
AcDbLine
10
-29.7208285385501
20
0.949111121893057
30
0.000000000000000
11
-29.6208285385501
21
0.913905850734629
31
0.000000000000000
  0
LINE
  5
F10936
330
F10937
100
AcDbEntity
8
Geo
100
AcDbLine
10
-29.6208285385501
20
0.913905850734629
30
0.000000000000000
11
-29.5208285385501
21
0.878960103819465
31
0.000000000000000
  0
LINE
  5
F10938
330
F10939
100
AcDbEntity
8
Geo
100
AcDbLine
10
-29.5208285385501
20
0.878960103819465
30
0.000000000000000
11
-29.4208285385501
21
0.844275046002557
31
0.000000000000000
  0
LINE
  5
F1093A
330
F1093B
100
AcDbEntity
8
Geo
100
AcDbLine
10
-29.4208285385501
20
0.844275046002557
30
0.000000000000000
11
-29.3208285385501
21
0.809851833449285
31
0.000000000000000
  0
LINE
  5
F1093C
330
F1093D
100
AcDbEntity
8
Geo
100
AcDbLine
10
-29.3208285385501
20
0.809851833449285
30
0.000000000000000
11
-29.2208285385501
21
0.775691613596879
31
0.000000000000000
  0
LINE
  5
F1093E
330
F1093F
100
AcDbEntity
8
Geo
100
AcDbLine
10
-29.2208285385501
20
0.775691613596879
30
0.000000000000000
11
-29.1208285385501
21
0.741795525116180
31
0.000000000000000
  0
LINE
  5
F10940
330
F10941
100
AcDbEntity
8
Geo
100
AcDbLine
10
-29.1208285385501
20
0.741795525116180
30
0.000000000000000
11
-29.0208285385501
21
0.708164697873652
31
0.000000000000000
  0
LINE
  5
F10942
330
F10943
100
AcDbEntity
8
Geo
100
AcDbLine
10
-29.0208285385501
20
0.708164697873652
30
0.000000000000000
11
-28.9208285385501
21
0.674800252893766
31
0.000000000000000
  0
LINE
  5
F10944
330
F10945
100
AcDbEntity
8
Geo
100
AcDbLine
10
-28.9208285385501
20
0.674800252893766
30
0.000000000000000
11
-28.8208285385501
21
0.641703302321599
31
0.000000000000000
  0
LINE
  5
F10946
330
F10947
100
AcDbEntity
8
Geo
100
AcDbLine
10
-28.8208285385501
20
0.641703302321599
30
0.000000000000000
11
-28.7208285385501
21
0.608874949385765
31
0.000000000000000
  0
LINE
  5
F10948
330
F10949
100
AcDbEntity
8
Geo
100
AcDbLine
10
-28.7208285385501
20
0.608874949385765
30
0.000000000000000
11
-28.6208285385501
21
0.576316288361662
31
0.000000000000000
  0
LINE
  5
F1094A
330
F1094B
100
AcDbEntity
8
Geo
100
AcDbLine
10
-28.6208285385501
20
0.576316288361662
30
0.000000000000000
11
-28.5208285385501
21
0.544028404534972
31
0.000000000000000
  0
LINE
  5
F1094C
330
F1094D
100
AcDbEntity
8
Geo
100
AcDbLine
10
-28.5208285385501
20
0.544028404534972
30
0.000000000000000
11
-28.4208285385501
21
0.512012374165501
31
0.000000000000000
  0
LINE
  5
F1094E
330
F1094F
100
AcDbEntity
8
Geo
100
AcDbLine
10
-28.4208285385501
20
0.512012374165501
30
0.000000000000000
11
-28.3208285385501
21
0.480269264451298
31
0.000000000000000
  0
LINE
  5
F10950
330
F10951
100
AcDbEntity
8
Geo
100
AcDbLine
10
-28.3208285385501
20
0.480269264451298
30
0.000000000000000
11
-28.2208285385501
21
0.448800133493078
31
0.000000000000000
  0
LINE
  5
F10952
330
F10953
100
AcDbEntity
8
Geo
100
AcDbLine
10
-28.2208285385501
20
0.448800133493078
30
0.000000000000000
11
-28.1208285385501
21
0.417606030258963
31
0.000000000000000
  0
LINE
  5
F10954
330
F10955
100
AcDbEntity
8
Geo
100
AcDbLine
10
-28.1208285385501
20
0.417606030258963
30
0.000000000000000
11
-28.0208285385501
21
0.386687994549506
31
0.000000000000000
  0
LINE
  5
F10956
330
F10957
100
AcDbEntity
8
Geo
100
AcDbLine
10
-28.0208285385501
20
0.386687994549506
30
0.000000000000000
11
-27.9208285385501
21
0.356047056963028
31
0.000000000000000
  0
LINE
  5
F10958
330
F10959
100
AcDbEntity
8
Geo
100
AcDbLine
10
-27.9208285385501
20
0.356047056963028
30
0.000000000000000
11
-27.8208285385501
21
0.325684238861287
31
0.000000000000000
  0
LINE
  5
F1095A
330
F1095B
100
AcDbEntity
8
Geo
100
AcDbLine
10
-27.8208285385501
20
0.325684238861287
30
0.000000000000000
11
-27.7208285385501
21
0.295600552335403
31
0.000000000000000
  0
LINE
  5
F1095C
330
F1095D
100
AcDbEntity
8
Geo
100
AcDbLine
10
-27.7208285385501
20
0.295600552335403
30
0.000000000000000
11
-27.6208285385501
21
0.265797000172141
31
0.000000000000000
  0
LINE
  5
F1095E
330
F1095F
100
AcDbEntity
8
Geo
100
AcDbLine
10
-27.6208285385501
20
0.265797000172141
30
0.000000000000000
11
-27.5208285385501
21
0.236274575820479
31
0.000000000000000
  0
LINE
  5
F10960
330
F10961
100
AcDbEntity
8
Geo
100
AcDbLine
10
-27.5208285385501
20
0.236274575820479
30
0.000000000000000
11
-27.4208285385501
21
0.207034263358503
31
0.000000000000000
  0
LINE
  5
F10962
330
F10963
100
AcDbEntity
8
Geo
100
AcDbLine
10
-27.4208285385501
20
0.207034263358503
30
0.000000000000000
11
-27.3208285385501
21
0.178077037460579
31
0.000000000000000
  0
LINE
  5
F10964
330
F10965
100
AcDbEntity
8
Geo
100
AcDbLine
10
-27.3208285385501
20
0.178077037460579
30
0.000000000000000
11
-27.2208285385501
21
0.149403863364894
31
0.000000000000000
  0
LINE
  5
F10966
330
F10967
100
AcDbEntity
8
Geo
100
AcDbLine
10
-27.2208285385501
20
0.149403863364894
30
0.000000000000000
11
-27.1208285385501
21
0.121015696841258
31
0.000000000000000
  0
LINE
  5
F10968
330
F10969
100
AcDbEntity
8
Geo
100
AcDbLine
10
-27.1208285385501
20
0.121015696841258
30
0.000000000000000
11
-27.0208285385501
21
0.0929134841592649
31
0.000000000000000
  0
LINE
  5
F1096A
330
F1096B
100
AcDbEntity
8
Geo
100
AcDbLine
10
-27.0208285385501
20
0.0929134841592649
30
0.000000000000000
11
-26.9208285385501
21
0.0650981620567332
31
0.000000000000000
  0
LINE
  5
F1096C
330
F1096D
100
AcDbEntity
8
Geo
100
AcDbLine
10
-26.9208285385501
20
0.0650981620567332
30
0.000000000000000
11
-26.8208285385501
21
0.0375706577084927
31
0.000000000000000
  0
LINE
  5
F1096E
330
F1096F
100
AcDbEntity
8
Geo
100
AcDbLine
10
-26.8208285385501
20
0.0375706577084927
30
0.000000000000000
11
-26.7208285385501
21
0.0103318886954717
31
0.000000000000000
  0
LINE
  5
F10970
330
F10971
100
AcDbEntity
8
Geo
100
AcDbLine
10
-26.7208285385501
20
0.0103318886954717
30
0.000000000000000
11
-26.6208285385501
21
-0.0166172370258835
31
0.000000000000000
  0
LINE
  5
F10972
330
F10973
100
AcDbEntity
8
Geo
100
AcDbLine
10
-26.6208285385501
20
-0.0166172370258835
30
0.000000000000000
11
-26.5208285385501
21
-0.0432758211538840
31
0.000000000000000
  0
LINE
  5
F10974
330
F10975
100
AcDbEntity
8
Geo
100
AcDbLine
10
-26.5208285385501
20
-0.0432758211538840
30
0.000000000000000
11
-26.4208285385501
21
-0.0696429750715204
31
0.000000000000000
  0
LINE
  5
F10976
330
F10977
100
AcDbEntity
8
Geo
100
AcDbLine
10
-26.4208285385501
20
-0.0696429750715204
30
0.000000000000000
11
-26.3208285385501
21
-0.0957178198761053
31
0.000000000000000
  0
LINE
  5
F10978
330
F10979
100
AcDbEntity
8
Geo
100
AcDbLine
10
-26.3208285385501
20
-0.0957178198761053
30
0.000000000000000
11
-26.2208285385501
21
-0.121499486408558
31
0.000000000000000
  0
LINE
  5
F1097A
330
F1097B
100
AcDbEntity
8
Geo
100
AcDbLine
10
-26.2208285385501
20
-0.121499486408558
30
0.000000000000000
11
-26.1208285385501
21
-0.146987115282382
31
0.000000000000000
  0
LINE
  5
F1097C
330
F1097D
100
AcDbEntity
8
Geo
100
AcDbLine
10
-26.1208285385501
20
-0.146987115282382
30
0.000000000000000
11
-26.0208285385501
21
-0.172179856912310
31
0.000000000000000
  0
LINE
  5
F1097E
330
F1097F
100
AcDbEntity
8
Geo
100
AcDbLine
10
-26.0208285385501
20
-0.172179856912310
30
0.000000000000000
11
-25.9208285385501
21
-0.197076871542622
31
0.000000000000000
  0
LINE
  5
F10980
330
F10981
100
AcDbEntity
8
Geo
100
AcDbLine
10
-25.9208285385501
20
-0.197076871542622
30
0.000000000000000
11
-25.8208285385501
21
-0.221677329275130
31
0.000000000000000
  0
LINE
  5
F10982
330
F10983
100
AcDbEntity
8
Geo
100
AcDbLine
10
-25.8208285385501
20
-0.221677329275130
30
0.000000000000000
11
-25.7208285385501
21
-0.245980410096861
31
0.000000000000000
  0
LINE
  5
F10984
330
F10985
100
AcDbEntity
8
Geo
100
AcDbLine
10
-25.7208285385501
20
-0.245980410096861
30
0.000000000000000
11
-25.6208285385501
21
-0.269985303907363
31
0.000000000000000
  0
LINE
  5
F10986
330
F10987
100
AcDbEntity
8
Geo
100
AcDbLine
10
-25.6208285385501
20
-0.269985303907363
30
0.000000000000000
11
-25.5208285385501
21
-0.293691210545736
31
0.000000000000000
  0
LINE
  5
F10988
330
F10989
100
AcDbEntity
8
Geo
100
AcDbLine
10
-25.5208285385501
20
-0.293691210545736
30
0.000000000000000
11
-25.4208285385501
21
-0.317097339817289
31
0.000000000000000
  0
LINE
  5
F1098A
330
F1098B
100
AcDbEntity
8
Geo
100
AcDbLine
10
-25.4208285385501
20
-0.317097339817289
30
0.000000000000000
11
-25.3208285385501
21
-0.340202911519878
31
0.000000000000000
  0
LINE
  5
F1098C
330
F1098D
100
AcDbEntity
8
Geo
100
AcDbLine
10
-25.3208285385501
20
-0.340202911519878
30
0.000000000000000
11
-25.2208285385501
21
-0.363007155469919
31
0.000000000000000
  0
LINE
  5
F1098E
330
F1098F
100
AcDbEntity
8
Geo
100
AcDbLine
10
-25.2208285385501
20
-0.363007155469919
30
0.000000000000000
11
-25.1208285385501
21
-0.385509311528057
31
0.000000000000000
  0
LINE
  5
F10990
330
F10991
100
AcDbEntity
8
Geo
100
AcDbLine
10
-25.1208285385501
20
-0.385509311528057
30
0.000000000000000
11
-25.0208285385500
21
-0.407708629624512
31
0.000000000000000
  0
LINE
  5
F10992
330
F10993
100
AcDbEntity
8
Geo
100
AcDbLine
10
-25.0208285385500
20
-0.407708629624512
30
0.000000000000000
11
-24.9208285385500
21
-0.429604369784062
31
0.000000000000000
  0
LINE
  5
F10994
330
F10995
100
AcDbEntity
8
Geo
100
AcDbLine
10
-24.9208285385500
20
-0.429604369784062
30
0.000000000000000
11
-24.8208285385500
21
-0.451195802150734
31
0.000000000000000
  0
LINE
  5
F10996
330
F10997
100
AcDbEntity
8
Geo
100
AcDbLine
10
-24.8208285385500
20
-0.451195802150734
30
0.000000000000000
11
-24.7208285385500
21
-0.472482207012119
31
0.000000000000000
  0
LINE
  5
F10998
330
F10999
100
AcDbEntity
8
Geo
100
AcDbLine
10
-24.7208285385500
20
-0.472482207012119
30
0.000000000000000
11
-24.6208285385500
21
-0.493462874823349
31
0.000000000000000
  0
LINE
  5
F1099A
330
F1099B
100
AcDbEntity
8
Geo
100
AcDbLine
10
-24.6208285385500
20
-0.493462874823349
30
0.000000000000000
11
-24.5208285385500
21
-0.514137106230782
31
0.000000000000000
  0
LINE
  5
F1099C
330
F1099D
100
AcDbEntity
8
Geo
100
AcDbLine
10
-24.5208285385500
20
-0.514137106230782
30
0.000000000000000
11
-24.4208285385500
21
-0.534504212095278
31
0.000000000000000
  0
LINE
  5
F1099E
330
F1099F
100
AcDbEntity
8
Geo
100
AcDbLine
10
-24.4208285385500
20
-0.534504212095278
30
0.000000000000000
11
-24.3208285385500
21
-0.554563513515202
31
0.000000000000000
  0
LINE
  5
F109A0
330
F109A1
100
AcDbEntity
8
Geo
100
AcDbLine
10
-24.3208285385500
20
-0.554563513515202
30
0.000000000000000
11
-24.2208285385500
21
-0.574314341849023
31
0.000000000000000
  0
LINE
  5
F109A2
330
F109A3
100
AcDbEntity
8
Geo
100
AcDbLine
10
-24.2208285385500
20
-0.574314341849023
30
0.000000000000000
11
-24.1208285385500
21
-0.593756038737629
31
0.000000000000000
  0
LINE
  5
F109A4
330
F109A5
100
AcDbEntity
8
Geo
100
AcDbLine
10
-24.1208285385500
20
-0.593756038737629
30
0.000000000000000
11
-24.0208285385500
21
-0.612887956126258
31
0.000000000000000
  0
LINE
  5
F109A6
330
F109A7
100
AcDbEntity
8
Geo
100
AcDbLine
10
-24.0208285385500
20
-0.612887956126258
30
0.000000000000000
11
-23.9208285385500
21
-0.631709456286098
31
0.000000000000000
  0
LINE
  5
F109A8
330
F109A9
100
AcDbEntity
8
Geo
100
AcDbLine
10
-23.9208285385500
20
-0.631709456286098
30
0.000000000000000
11
-23.8208285385500
21
-0.650219911835560
31
0.000000000000000
  0
LINE
  5
F109AA
330
F109AB
100
AcDbEntity
8
Geo
100
AcDbLine
10
-23.8208285385500
20
-0.650219911835560
30
0.000000000000000
11
-23.7208285385500
21
-0.668418705761171
31
0.000000000000000
  0
LINE
  5
F109AC
330
F109AD
100
AcDbEntity
8
Geo
100
AcDbLine
10
-43.6208285385500
20
18.5260065979372
30
0.000000000000000
11
-43.5208285385500
21
18.5201570672364
31
0.000000000000000
  0
LINE
  5
F109AE
330
F109AF
100
AcDbEntity
8
Geo
100
AcDbLine
10
-43.5208285385500
20
18.5201570672364
30
0.000000000000000
11
-43.4208285385500
21
18.5139801873685
31
0.000000000000000
  0
LINE
  5
F109B0
330
F109B1
100
AcDbEntity
8
Geo
100
AcDbLine
10
-43.4208285385500
20
18.5139801873685
30
0.000000000000000
11
-43.3208285385500
21
18.5074761642290
31
0.000000000000000
  0
LINE
  5
F109B2
330
F109B3
100
AcDbEntity
8
Geo
100
AcDbLine
10
-43.3208285385500
20
18.5074761642290
30
0.000000000000000
11
-43.2208285385500
21
18.5006452146180
31
0.000000000000000
  0
LINE
  5
F109B4
330
F109B5
100
AcDbEntity
8
Geo
100
AcDbLine
10
-43.2208285385500
20
18.5006452146180
30
0.000000000000000
11
-43.1208285385500
21
18.4934875662332
31
0.000000000000000
  0
LINE
  5
F109B6
330
F109B7
100
AcDbEntity
8
Geo
100
AcDbLine
10
-43.1208285385500
20
18.4934875662332
30
0.000000000000000
11
-43.0208285385500
21
18.4860034576621
31
0.000000000000000
  0
LINE
  5
F109B8
330
F109B9
100
AcDbEntity
8
Geo
100
AcDbLine
10
-43.0208285385500
20
18.4860034576621
30
0.000000000000000
11
-42.9208285385500
21
18.4781931383745
31
0.000000000000000
  0
LINE
  5
F109BA
330
F109BB
100
AcDbEntity
8
Geo
100
AcDbLine
10
-42.9208285385500
20
18.4781931383745
30
0.000000000000000
11
-42.8208285385500
21
18.4700568687136
31
0.000000000000000
  0
LINE
  5
F109BC
330
F109BD
100
AcDbEntity
8
Geo
100
AcDbLine
10
-42.8208285385500
20
18.4700568687136
30
0.000000000000000
11
-42.7208285385500
21
18.4615949198875
31
0.000000000000000
  0
LINE
  5
F109BE
330
F109BF
100
AcDbEntity
8
Geo
100
AcDbLine
10
-42.7208285385500
20
18.4615949198875
30
0.000000000000000
11
-42.6208285385500
21
18.4528075739605
31
0.000000000000000
  0
LINE
  5
F109C0
330
F109C1
100
AcDbEntity
8
Geo
100
AcDbLine
10
-42.6208285385500
20
18.4528075739605
30
0.000000000000000
11
-42.5208285385500
21
18.4436951238434
31
0.000000000000000
  0
LINE
  5
F109C2
330
F109C3
100
AcDbEntity
8
Geo
100
AcDbLine
10
-42.5208285385500
20
18.4436951238434
30
0.000000000000000
11
-42.4208285385500
21
18.4342578732834
31
0.000000000000000
  0
LINE
  5
F109C4
330
F109C5
100
AcDbEntity
8
Geo
100
AcDbLine
10
-42.4208285385500
20
18.4342578732834
30
0.000000000000000
11
-42.3208285385500
21
18.4244961368550
31
0.000000000000000
  0
LINE
  5
F109C6
330
F109C7
100
AcDbEntity
8
Geo
100
AcDbLine
10
-42.3208285385500
20
18.4244961368550
30
0.000000000000000
11
-42.2208285385500
21
18.4144102399482
31
0.000000000000000
  0
LINE
  5
F109C8
330
F109C9
100
AcDbEntity
8
Geo
100
AcDbLine
10
-42.2208285385500
20
18.4144102399482
30
0.000000000000000
11
-42.1208285385500
21
18.4040005187589
31
0.000000000000000
  0
LINE
  5
F109CA
330
F109CB
100
AcDbEntity
8
Geo
100
AcDbLine
10
-42.1208285385500
20
18.4040005187589
30
0.000000000000000
11
-42.0208285385500
21
18.3932673202766
31
0.000000000000000
  0
LINE
  5
F109CC
330
F109CD
100
AcDbEntity
8
Geo
100
AcDbLine
10
-42.0208285385500
20
18.3932673202766
30
0.000000000000000
11
-41.9208285385500
21
18.3822110022737
31
0.000000000000000
  0
LINE
  5
F109CE
330
F109CF
100
AcDbEntity
8
Geo
100
AcDbLine
10
-41.9208285385500
20
18.3822110022737
30
0.000000000000000
11
-41.8208285385500
21
18.3708319332932
31
0.000000000000000
  0
LINE
  5
F109D0
330
F109D1
100
AcDbEntity
8
Geo
100
AcDbLine
10
-41.8208285385500
20
18.3708319332932
30
0.000000000000000
11
-41.7208285385500
21
18.3591304926362
31
0.000000000000000
  0
LINE
  5
F109D2
330
F109D3
100
AcDbEntity
8
Geo
100
AcDbLine
10
-41.7208285385500
20
18.3591304926362
30
0.000000000000000
11
-41.6208285385500
21
18.3471070703497
31
0.000000000000000
  0
LINE
  5
F109D4
330
F109D5
100
AcDbEntity
8
Geo
100
AcDbLine
10
-41.6208285385500
20
18.3471070703497
30
0.000000000000000
11
-41.5208285385500
21
18.3347620672133
31
0.000000000000000
  0
LINE
  5
F109D6
330
F109D7
100
AcDbEntity
8
Geo
100
AcDbLine
10
-41.5208285385500
20
18.3347620672133
30
0.000000000000000
11
-41.4208285385500
21
18.3220958947260
31
0.000000000000000
  0
LINE
  5
F109D8
330
F109D9
100
AcDbEntity
8
Geo
100
AcDbLine
10
-41.4208285385500
20
18.3220958947260
30
0.000000000000000
11
-41.3208285385500
21
18.3091089750924
31
0.000000000000000
  0
LINE
  5
F109DA
330
F109DB
100
AcDbEntity
8
Geo
100
AcDbLine
10
-41.3208285385500
20
18.3091089750924
30
0.000000000000000
11
-41.2208285385500
21
18.2958017412086
31
0.000000000000000
  0
LINE
  5
F109DC
330
F109DD
100
AcDbEntity
8
Geo
100
AcDbLine
10
-41.2208285385500
20
18.2958017412086
30
0.000000000000000
11
-41.1208285385500
21
18.2821746366477
31
0.000000000000000
  0
LINE
  5
F109DE
330
F109DF
100
AcDbEntity
8
Geo
100
AcDbLine
10
-41.1208285385500
20
18.2821746366477
30
0.000000000000000
11
-41.0208285385500
21
18.2682281156455
31
0.000000000000000
  0
LINE
  5
F109E0
330
F109E1
100
AcDbEntity
8
Geo
100
AcDbLine
10
-41.0208285385500
20
18.2682281156455
30
0.000000000000000
11
-40.9208285385500
21
18.2539626430845
31
0.000000000000000
  0
LINE
  5
F109E2
330
F109E3
100
AcDbEntity
8
Geo
100
AcDbLine
10
-40.9208285385500
20
18.2539626430845
30
0.000000000000000
11
-40.8208285385500
21
18.2393786944793
31
0.000000000000000
  0
LINE
  5
F109E4
330
F109E5
100
AcDbEntity
8
Geo
100
AcDbLine
10
-40.8208285385500
20
18.2393786944793
30
0.000000000000000
11
-40.7208285385500
21
18.2244767559601
31
0.000000000000000
  0
LINE
  5
F109E6
330
F109E7
100
AcDbEntity
8
Geo
100
AcDbLine
10
-40.7208285385500
20
18.2244767559601
30
0.000000000000000
11
-40.6208285385500
21
18.2092573242568
31
0.000000000000000
  0
LINE
  5
F109E8
330
F109E9
100
AcDbEntity
8
Geo
100
AcDbLine
10
-40.6208285385500
20
18.2092573242568
30
0.000000000000000
11
-40.5208285385500
21
18.1937209066824
31
0.000000000000000
  0
LINE
  5
F109EA
330
F109EB
100
AcDbEntity
8
Geo
100
AcDbLine
10
-40.5208285385500
20
18.1937209066824
30
0.000000000000000
11
-40.4208285385500
21
18.1778680211160
31
0.000000000000000
  0
LINE
  5
F109EC
330
F109ED
100
AcDbEntity
8
Geo
100
AcDbLine
10
-40.4208285385500
20
18.1778680211160
30
0.000000000000000
11
-40.3208285385500
21
18.1616991959858
31
0.000000000000000
  0
LINE
  5
F109EE
330
F109EF
100
AcDbEntity
8
Geo
100
AcDbLine
10
-40.3208285385500
20
18.1616991959858
30
0.000000000000000
11
-40.2208285385500
21
18.1452149702509
31
0.000000000000000
  0
LINE
  5
F109F0
330
F109F1
100
AcDbEntity
8
Geo
100
AcDbLine
10
-40.2208285385500
20
18.1452149702509
30
0.000000000000000
11
-40.1208285385500
21
18.1284158933842
31
0.000000000000000
  0
LINE
  5
F109F2
330
F109F3
100
AcDbEntity
8
Geo
100
AcDbLine
10
-40.1208285385500
20
18.1284158933842
30
0.000000000000000
11
-40.0208285385500
21
18.1113025253533
31
0.000000000000000
  0
LINE
  5
F109F4
330
F109F5
100
AcDbEntity
8
Geo
100
AcDbLine
10
-40.0208285385500
20
18.1113025253533
30
0.000000000000000
11
-39.9208285385500
21
18.0938754366021
31
0.000000000000000
  0
LINE
  5
F109F6
330
F109F7
100
AcDbEntity
8
Geo
100
AcDbLine
10
-39.9208285385500
20
18.0938754366021
30
0.000000000000000
11
-39.8208285385500
21
18.0761352080321
31
0.000000000000000
  0
LINE
  5
F109F8
330
F109F9
100
AcDbEntity
8
Geo
100
AcDbLine
10
-39.8208285385500
20
18.0761352080321
30
0.000000000000000
11
-39.7208285385500
21
18.0580824309825
31
0.000000000000000
  0
LINE
  5
F109FA
330
F109FB
100
AcDbEntity
8
Geo
100
AcDbLine
10
-39.7208285385500
20
18.0580824309825
30
0.000000000000000
11
-39.6208285385500
21
18.0397177072109
31
0.000000000000000
  0
LINE
  5
F109FC
330
F109FD
100
AcDbEntity
8
Geo
100
AcDbLine
10
-39.6208285385500
20
18.0397177072109
30
0.000000000000000
11
-39.5208285385500
21
18.0210416488731
31
0.000000000000000
  0
LINE
  5
F109FE
330
F109FF
100
AcDbEntity
8
Geo
100
AcDbLine
10
-39.5208285385500
20
18.0210416488731
30
0.000000000000000
11
-39.4208285385500
21
18.0020548785026
31
0.000000000000000
  0
LINE
  5
F10A00
330
F10A01
100
AcDbEntity
8
Geo
100
AcDbLine
10
-39.4208285385500
20
18.0020548785026
30
0.000000000000000
11
-39.3208285385500
21
17.9827580289900
31
0.000000000000000
  0
LINE
  5
F10A02
330
F10A03
100
AcDbEntity
8
Geo
100
AcDbLine
10
-39.3208285385500
20
17.9827580289900
30
0.000000000000000
11
-39.2208285385500
21
17.9631517435619
31
0.000000000000000
  0
LINE
  5
F10A04
330
F10A05
100
AcDbEntity
8
Geo
100
AcDbLine
10
-39.2208285385500
20
17.9631517435619
30
0.000000000000000
11
-39.1208285385500
21
17.9432366757592
31
0.000000000000000
  0
LINE
  5
F10A06
330
F10A07
100
AcDbEntity
8
Geo
100
AcDbLine
10
-39.1208285385500
20
17.9432366757592
30
0.000000000000000
11
-39.0208285385500
21
17.9230134894157
31
0.000000000000000
  0
LINE
  5
F10A08
330
F10A09
100
AcDbEntity
8
Geo
100
AcDbLine
10
-39.0208285385500
20
17.9230134894157
30
0.000000000000000
11
-38.9208285385500
21
17.9024828586358
31
0.000000000000000
  0
LINE
  5
F10A0A
330
F10A0B
100
AcDbEntity
8
Geo
100
AcDbLine
10
-38.9208285385500
20
17.9024828586358
30
0.000000000000000
11
-38.8208285385500
21
17.8816454677718
31
0.000000000000000
  0
LINE
  5
F10A0C
330
F10A0D
100
AcDbEntity
8
Geo
100
AcDbLine
10
-38.8208285385500
20
17.8816454677718
30
0.000000000000000
11
-38.7208285385500
21
17.8605020114017
31
0.000000000000000
  0
LINE
  5
F10A0E
330
F10A0F
100
AcDbEntity
8
Geo
100
AcDbLine
10
-38.7208285385500
20
17.8605020114017
30
0.000000000000000
11
-38.6208285385500
21
17.8390531943053
31
0.000000000000000
  0
LINE
  5
F10A10
330
F10A11
100
AcDbEntity
8
Geo
100
AcDbLine
10
-38.6208285385500
20
17.8390531943053
30
0.000000000000000
11
-38.5208285385500
21
17.8172997314411
31
0.000000000000000
  0
LINE
  5
F10A12
330
F10A13
100
AcDbEntity
8
Geo
100
AcDbLine
10
-38.5208285385500
20
17.8172997314411
30
0.000000000000000
11
-38.4208285385500
21
17.7952423479226
31
0.000000000000000
  0
LINE
  5
F10A14
330
F10A15
100
AcDbEntity
8
Geo
100
AcDbLine
10
-38.4208285385500
20
17.7952423479226
30
0.000000000000000
11
-38.3208285385500
21
17.7728817789940
31
0.000000000000000
  0
LINE
  5
F10A16
330
F10A17
100
AcDbEntity
8
Geo
100
AcDbLine
10
-38.3208285385500
20
17.7728817789940
30
0.000000000000000
11
-38.2208285385500
21
17.7502187700053
31
0.000000000000000
  0
LINE
  5
F10A18
330
F10A19
100
AcDbEntity
8
Geo
100
AcDbLine
10
-38.2208285385500
20
17.7502187700053
30
0.000000000000000
11
-38.1208285385500
21
17.7272540763881
31
0.000000000000000
  0
LINE
  5
F10A1A
330
F10A1B
100
AcDbEntity
8
Geo
100
AcDbLine
10
-38.1208285385500
20
17.7272540763881
30
0.000000000000000
11
-38.0208285385500
21
17.7039884636302
31
0.000000000000000
  0
LINE
  5
F10A1C
330
F10A1D
100
AcDbEntity
8
Geo
100
AcDbLine
10
-38.0208285385500
20
17.7039884636302
30
0.000000000000000
11
-37.9208285385500
21
17.6804227072497
31
0.000000000000000
  0
LINE
  5
F10A1E
330
F10A1F
100
AcDbEntity
8
Geo
100
AcDbLine
10
-37.9208285385500
20
17.6804227072497
30
0.000000000000000
11
-37.8208285385500
21
17.6565575927697
31
0.000000000000000
  0
LINE
  5
F10A20
330
F10A21
100
AcDbEntity
8
Geo
100
AcDbLine
10
-37.8208285385500
20
17.6565575927697
30
0.000000000000000
11
-37.7208285385501
21
17.6323939156918
31
0.000000000000000
  0
LINE
  5
F10A22
330
F10A23
100
AcDbEntity
8
Geo
100
AcDbLine
10
-37.7208285385501
20
17.6323939156918
30
0.000000000000000
11
-37.6208285385501
21
17.6079324814697
31
0.000000000000000
  0
LINE
  5
F10A24
330
F10A25
100
AcDbEntity
8
Geo
100
AcDbLine
10
-37.6208285385501
20
17.6079324814697
30
0.000000000000000
11
-37.5208285385500
21
17.5831741054822
31
0.000000000000000
  0
LINE
  5
F10A26
330
F10A27
100
AcDbEntity
8
Geo
100
AcDbLine
10
-37.5208285385500
20
17.5831741054822
30
0.000000000000000
11
-37.4208285385500
21
17.5581196130063
31
0.000000000000000
  0
LINE
  5
F10A28
330
F10A29
100
AcDbEntity
8
Geo
100
AcDbLine
10
-37.4208285385500
20
17.5581196130063
30
0.000000000000000
11
-37.3208285385500
21
17.5327698391893
31
0.000000000000000
  0
LINE
  5
F10A2A
330
F10A2B
100
AcDbEntity
8
Geo
100
AcDbLine
10
-37.3208285385500
20
17.5327698391893
30
0.000000000000000
11
-37.2208285385501
21
17.5071256290215
31
0.000000000000000
  0
LINE
  5
F10A2C
330
F10A2D
100
AcDbEntity
8
Geo
100
AcDbLine
10
-37.2208285385501
20
17.5071256290215
30
0.000000000000000
11
-37.1208285385501
21
17.4811878373073
31
0.000000000000000
  0
LINE
  5
F10A2E
330
F10A2F
100
AcDbEntity
8
Geo
100
AcDbLine
10
-37.1208285385501
20
17.4811878373073
30
0.000000000000000
11
-37.0208285385500
21
17.4549573286376
31
0.000000000000000
  0
LINE
  5
F10A30
330
F10A31
100
AcDbEntity
8
Geo
100
AcDbLine
10
-37.0208285385500
20
17.4549573286376
30
0.000000000000000
11
-36.9208285385501
21
17.4284349773601
31
0.000000000000000
  0
LINE
  5
F10A32
330
F10A33
100
AcDbEntity
8
Geo
100
AcDbLine
10
-36.9208285385501
20
17.4284349773601
30
0.000000000000000
11
-36.8208285385501
21
17.4016216675507
31
0.000000000000000
  0
LINE
  5
F10A34
330
F10A35
100
AcDbEntity
8
Geo
100
AcDbLine
10
-36.8208285385501
20
17.4016216675507
30
0.000000000000000
11
-36.7208285385501
21
17.3745182929841
31
0.000000000000000
  0
LINE
  5
F10A36
330
F10A37
100
AcDbEntity
8
Geo
100
AcDbLine
10
-36.7208285385501
20
17.3745182929841
30
0.000000000000000
11
-36.6208285385501
21
17.3471257571034
31
0.000000000000000
  0
LINE
  5
F10A38
330
F10A39
100
AcDbEntity
8
Geo
100
AcDbLine
10
-36.6208285385501
20
17.3471257571034
30
0.000000000000000
11
-36.5208285385500
21
17.3194449729907
31
0.000000000000000
  0
LINE
  5
F10A3A
330
F10A3B
100
AcDbEntity
8
Geo
100
AcDbLine
10
-36.5208285385500
20
17.3194449729907
30
0.000000000000000
11
-36.4208285385501
21
17.2914768633362
31
0.000000000000000
  0
LINE
  5
F10A3C
330
F10A3D
100
AcDbEntity
8
Geo
100
AcDbLine
10
-36.4208285385501
20
17.2914768633362
30
0.000000000000000
11
-36.3208285385501
21
17.2632223604076
31
0.000000000000000
  0
LINE
  5
F10A3E
330
F10A3F
100
AcDbEntity
8
Geo
100
AcDbLine
10
-36.3208285385501
20
17.2632223604076
30
0.000000000000000
11
-36.2208285385501
21
17.2346824060191
31
0.000000000000000
  0
LINE
  5
F10A40
330
F10A41
100
AcDbEntity
8
Geo
100
AcDbLine
10
-36.2208285385501
20
17.2346824060191
30
0.000000000000000
11
-36.1208285385501
21
17.2058579514999
31
0.000000000000000
  0
LINE
  5
F10A42
330
F10A43
100
AcDbEntity
8
Geo
100
AcDbLine
10
-36.1208285385501
20
17.2058579514999
30
0.000000000000000
11
-36.0208285385501
21
17.1767499576625
31
0.000000000000000
  0
LINE
  5
F10A44
330
F10A45
100
AcDbEntity
8
Geo
100
AcDbLine
10
-36.0208285385501
20
17.1767499576625
30
0.000000000000000
11
-35.9208285385501
21
17.1473593947706
31
0.000000000000000
  0
LINE
  5
F10A46
330
F10A47
100
AcDbEntity
8
Geo
100
AcDbLine
10
-35.9208285385501
20
17.1473593947706
30
0.000000000000000
11
-35.8208285385501
21
17.1176872425068
31
0.000000000000000
  0
LINE
  5
F10A48
330
F10A49
100
AcDbEntity
8
Geo
100
AcDbLine
10
-35.8208285385501
20
17.1176872425068
30
0.000000000000000
11
-35.7208285385501
21
17.0877344899403
31
0.000000000000000
  0
LINE
  5
F10A4A
330
F10A4B
100
AcDbEntity
8
Geo
100
AcDbLine
10
-35.7208285385501
20
17.0877344899403
30
0.000000000000000
11
-35.6208285385501
21
17.0575021354934
31
0.000000000000000
  0
LINE
  5
F10A4C
330
F10A4D
100
AcDbEntity
8
Geo
100
AcDbLine
10
-35.6208285385501
20
17.0575021354934
30
0.000000000000000
11
-35.5208285385501
21
17.0269911869083
31
0.000000000000000
  0
LINE
  5
F10A4E
330
F10A4F
100
AcDbEntity
8
Geo
100
AcDbLine
10
-35.5208285385501
20
17.0269911869083
30
0.000000000000000
11
-35.4208285385501
21
16.9962026612139
31
0.000000000000000
  0
LINE
  5
F10A50
330
F10A51
100
AcDbEntity
8
Geo
100
AcDbLine
10
-35.4208285385501
20
16.9962026612139
30
0.000000000000000
11
-35.3208285385501
21
16.9651375846915
31
0.000000000000000
  0
LINE
  5
F10A52
330
F10A53
100
AcDbEntity
8
Geo
100
AcDbLine
10
-35.3208285385501
20
16.9651375846915
30
0.000000000000000
11
-35.2208285385501
21
16.9337969928407
31
0.000000000000000
  0
LINE
  5
F10A54
330
F10A55
100
AcDbEntity
8
Geo
100
AcDbLine
10
-35.2208285385501
20
16.9337969928407
30
0.000000000000000
11
-35.1208285385501
21
16.9021819303452
31
0.000000000000000
  0
LINE
  5
F10A56
330
F10A57
100
AcDbEntity
8
Geo
100
AcDbLine
10
-35.1208285385501
20
16.9021819303452
30
0.000000000000000
11
-35.0208285385501
21
16.8702934510373
31
0.000000000000000
  0
LINE
  5
F10A58
330
F10A59
100
AcDbEntity
8
Geo
100
AcDbLine
10
-35.0208285385501
20
16.8702934510373
30
0.000000000000000
11
-34.9208285385501
21
16.8381326178635
31
0.000000000000000
  0
LINE
  5
F10A5A
330
F10A5B
100
AcDbEntity
8
Geo
100
AcDbLine
10
-34.9208285385501
20
16.8381326178635
30
0.000000000000000
11
-34.8208285385501
21
16.8057005028485
31
0.000000000000000
  0
LINE
  5
F10A5C
330
F10A5D
100
AcDbEntity
8
Geo
100
AcDbLine
10
-34.8208285385501
20
16.8057005028485
30
0.000000000000000
11
-34.7208285385501
21
16.7729981870597
31
0.000000000000000
  0
LINE
  5
F10A5E
330
F10A5F
100
AcDbEntity
8
Geo
100
AcDbLine
10
-34.7208285385501
20
16.7729981870597
30
0.000000000000000
11
-34.6208285385501
21
16.7400267605715
31
0.000000000000000
  0
LINE
  5
F10A60
330
F10A61
100
AcDbEntity
8
Geo
100
AcDbLine
10
-34.6208285385501
20
16.7400267605715
30
0.000000000000000
11
-34.5208285385501
21
16.7067873224283
31
0.000000000000000
  0
LINE
  5
F10A62
330
F10A63
100
AcDbEntity
8
Geo
100
AcDbLine
10
-34.5208285385501
20
16.7067873224283
30
0.000000000000000
11
-34.4208285385501
21
16.6732809806082
31
0.000000000000000
  0
LINE
  5
F10A64
330
F10A65
100
AcDbEntity
8
Geo
100
AcDbLine
10
-34.4208285385501
20
16.6732809806082
30
0.000000000000000
11
-34.3208285385501
21
16.6395088519862
31
0.000000000000000
  0
LINE
  5
F10A66
330
F10A67
100
AcDbEntity
8
Geo
100
AcDbLine
10
-34.3208285385501
20
16.6395088519862
30
0.000000000000000
11
-34.2208285385501
21
16.6054720622969
31
0.000000000000000
  0
LINE
  5
F10A68
330
F10A69
100
AcDbEntity
8
Geo
100
AcDbLine
10
-34.2208285385501
20
16.6054720622969
30
0.000000000000000
11
-34.1208285385501
21
16.5711717460967
31
0.000000000000000
  0
LINE
  5
F10A6A
330
F10A6B
100
AcDbEntity
8
Geo
100
AcDbLine
10
-34.1208285385501
20
16.5711717460967
30
0.000000000000000
11
-34.0208285385501
21
16.5366090467264
31
0.000000000000000
  0
LINE
  5
F10A6C
330
F10A6D
100
AcDbEntity
8
Geo
100
AcDbLine
10
-34.0208285385501
20
16.5366090467264
30
0.000000000000000
11
-33.9208285385501
21
16.5017851162726
31
0.000000000000000
  0
LINE
  5
F10A6E
330
F10A6F
100
AcDbEntity
8
Geo
100
AcDbLine
10
-33.9208285385501
20
16.5017851162726
30
0.000000000000000
11
-33.8208285385501
21
16.4667011155299
31
0.000000000000000
  0
LINE
  5
F10A70
330
F10A71
100
AcDbEntity
8
Geo
100
AcDbLine
10
-33.8208285385501
20
16.4667011155299
30
0.000000000000000
11
-33.7208285385501
21
16.4313582139617
31
0.000000000000000
  0
LINE
  5
F10A72
330
F10A73
100
AcDbEntity
8
Geo
100
AcDbLine
10
-33.7208285385501
20
16.4313582139617
30
0.000000000000000
11
-33.6208285385501
21
16.3957575896615
31
0.000000000000000
  0
LINE
  5
F10A74
330
F10A75
100
AcDbEntity
8
Geo
100
AcDbLine
10
-33.6208285385501
20
16.3957575896615
30
0.000000000000000
11
-33.5208285385501
21
16.3599004293134
31
0.000000000000000
  0
LINE
  5
F10A76
330
F10A77
100
AcDbEntity
8
Geo
100
AcDbLine
10
-33.5208285385501
20
16.3599004293134
30
0.000000000000000
11
-33.4208285385501
21
16.3237879281528
31
0.000000000000000
  0
LINE
  5
F10A78
330
F10A79
100
AcDbEntity
8
Geo
100
AcDbLine
10
-33.4208285385501
20
16.3237879281528
30
0.000000000000000
11
-33.3208285385501
21
16.2874212899263
31
0.000000000000000
  0
LINE
  5
F10A7A
330
F10A7B
100
AcDbEntity
8
Geo
100
AcDbLine
10
-33.3208285385501
20
16.2874212899263
30
0.000000000000000
11
-33.2208285385501
21
16.2508017268520
31
0.000000000000000
  0
LINE
  5
F10A7C
330
F10A7D
100
AcDbEntity
8
Geo
100
AcDbLine
10
-33.2208285385501
20
16.2508017268520
30
0.000000000000000
11
-33.1208285385501
21
16.2139304595785
31
0.000000000000000
  0
LINE
  5
F10A7E
330
F10A7F
100
AcDbEntity
8
Geo
100
AcDbLine
10
-33.1208285385501
20
16.2139304595785
30
0.000000000000000
11
-33.0208285385501
21
16.1768087171446
31
0.000000000000000
  0
LINE
  5
F10A80
330
F10A81
100
AcDbEntity
8
Geo
100
AcDbLine
10
-33.0208285385501
20
16.1768087171446
30
0.000000000000000
11
-32.9208285385501
21
16.1394377369383
31
0.000000000000000
  0
LINE
  5
F10A82
330
F10A83
100
AcDbEntity
8
Geo
100
AcDbLine
10
-32.9208285385501
20
16.1394377369383
30
0.000000000000000
11
-32.8208285385501
21
16.1018187646555
31
0.000000000000000
  0
LINE
  5
F10A84
330
F10A85
100
AcDbEntity
8
Geo
100
AcDbLine
10
-32.8208285385501
20
16.1018187646555
30
0.000000000000000
11
-32.7208285385501
21
16.0639530542584
31
0.000000000000000
  0
LINE
  5
F10A86
330
F10A87
100
AcDbEntity
8
Geo
100
AcDbLine
10
-32.7208285385501
20
16.0639530542584
30
0.000000000000000
11
-32.6208285385501
21
16.0258418679340
31
0.000000000000000
  0
LINE
  5
F10A88
330
F10A89
100
AcDbEntity
8
Geo
100
AcDbLine
10
-32.6208285385501
20
16.0258418679340
30
0.000000000000000
11
-32.5208285385501
21
15.9874864760514
31
0.000000000000000
  0
LINE
  5
F10A8A
330
F10A8B
100
AcDbEntity
8
Geo
100
AcDbLine
10
-32.5208285385501
20
15.9874864760514
30
0.000000000000000
11
-32.4208285385501
21
15.9488881571204
31
0.000000000000000
  0
LINE
  5
F10A8C
330
F10A8D
100
AcDbEntity
8
Geo
100
AcDbLine
10
-32.4208285385501
20
15.9488881571204
30
0.000000000000000
11
-32.3208285385501
21
15.9100481977478
31
0.000000000000000
  0
LINE
  5
F10A8E
330
F10A8F
100
AcDbEntity
8
Geo
100
AcDbLine
10
-32.3208285385501
20
15.9100481977478
30
0.000000000000000
11
-32.2208285385501
21
15.8709678925955
31
0.000000000000000
  0
LINE
  5
F10A90
330
F10A91
100
AcDbEntity
8
Geo
100
AcDbLine
10
-32.2208285385501
20
15.8709678925955
30
0.000000000000000
11
-32.1208285385501
21
15.8316485443366
31
0.000000000000000
  0
LINE
  5
F10A92
330
F10A93
100
AcDbEntity
8
Geo
100
AcDbLine
10
-32.1208285385501
20
15.8316485443366
30
0.000000000000000
11
-32.0208285385501
21
15.7920914636124
31
0.000000000000000
  0
LINE
  5
F10A94
330
F10A95
100
AcDbEntity
8
Geo
100
AcDbLine
10
-32.0208285385501
20
15.7920914636124
30
0.000000000000000
11
-31.9208285385501
21
15.7522979689887
31
0.000000000000000
  0
LINE
  5
F10A96
330
F10A97
100
AcDbEntity
8
Geo
100
AcDbLine
10
-31.9208285385501
20
15.7522979689887
30
0.000000000000000
11
-31.8208285385501
21
15.7122693869116
31
0.000000000000000
  0
LINE
  5
F10A98
330
F10A99
100
AcDbEntity
8
Geo
100
AcDbLine
10
-31.8208285385501
20
15.7122693869116
30
0.000000000000000
11
-31.7208285385501
21
15.6720070516634
31
0.000000000000000
  0
LINE
  5
F10A9A
330
F10A9B
100
AcDbEntity
8
Geo
100
AcDbLine
10
-31.7208285385501
20
15.6720070516634
30
0.000000000000000
11
-31.6208285385501
21
15.6315123053183
31
0.000000000000000
  0
LINE
  5
F10A9C
330
F10A9D
100
AcDbEntity
8
Geo
100
AcDbLine
10
-31.6208285385501
20
15.6315123053183
30
0.000000000000000
11
-31.5208285385501
21
15.5907864976973
31
0.000000000000000
  0
LINE
  5
F10A9E
330
F10A9F
100
AcDbEntity
8
Geo
100
AcDbLine
10
-31.5208285385501
20
15.5907864976973
30
0.000000000000000
11
-31.4208285385501
21
15.5498309863237
31
0.000000000000000
  0
LINE
  5
F10AA0
330
F10AA1
100
AcDbEntity
8
Geo
100
AcDbLine
10
-31.4208285385501
20
15.5498309863237
30
0.000000000000000
11
-31.3208285385501
21
15.5086471363773
31
0.000000000000000
  0
LINE
  5
F10AA2
330
F10AA3
100
AcDbEntity
8
Geo
100
AcDbLine
10
-31.3208285385501
20
15.5086471363773
30
0.000000000000000
11
-31.2208285385501
21
15.4672363206493
31
0.000000000000000
  0
LINE
  5
F10AA4
330
F10AA5
100
AcDbEntity
8
Geo
100
AcDbLine
10
-31.2208285385501
20
15.4672363206493
30
0.000000000000000
11
-31.1208285385501
21
15.4255999194965
31
0.000000000000000
  0
LINE
  5
F10AA6
330
F10AA7
100
AcDbEntity
8
Geo
100
AcDbLine
10
-31.1208285385501
20
15.4255999194965
30
0.000000000000000
11
-31.0208285385501
21
15.3837393207950
31
0.000000000000000
  0
LINE
  5
F10AA8
330
F10AA9
100
AcDbEntity
8
Geo
100
AcDbLine
10
-31.0208285385501
20
15.3837393207950
30
0.000000000000000
11
-30.9208285385501
21
15.3416559198942
31
0.000000000000000
  0
LINE
  5
F10AAA
330
F10AAB
100
AcDbEntity
8
Geo
100
AcDbLine
10
-30.9208285385501
20
15.3416559198942
30
0.000000000000000
11
-30.8208285385501
21
15.2993511195703
31
0.000000000000000
  0
LINE
  5
F10AAC
330
F10AAD
100
AcDbEntity
8
Geo
100
AcDbLine
10
-30.8208285385501
20
15.2993511195703
30
0.000000000000000
11
-30.7208285385501
21
15.2568263299793
31
0.000000000000000
  0
LINE
  5
F10AAE
330
F10AAF
100
AcDbEntity
8
Geo
100
AcDbLine
10
-30.7208285385501
20
15.2568263299793
30
0.000000000000000
11
-30.6208285385501
21
15.2140829686103
31
0.000000000000000
  0
LINE
  5
F10AB0
330
F10AB1
100
AcDbEntity
8
Geo
100
AcDbLine
10
-30.6208285385501
20
15.2140829686103
30
0.000000000000000
11
-30.5208285385501
21
15.1711224602381
31
0.000000000000000
  0
LINE
  5
F10AB2
330
F10AB3
100
AcDbEntity
8
Geo
100
AcDbLine
10
-30.5208285385501
20
15.1711224602381
30
0.000000000000000
11
-30.4208285385501
21
15.1279462368756
31
0.000000000000000
  0
LINE
  5
F10AB4
330
F10AB5
100
AcDbEntity
8
Geo
100
AcDbLine
10
-30.4208285385501
20
15.1279462368756
30
0.000000000000000
11
-30.3208285385501
21
15.0845557377262
31
0.000000000000000
  0
LINE
  5
F10AB6
330
F10AB7
100
AcDbEntity
8
Geo
100
AcDbLine
10
-30.3208285385501
20
15.0845557377262
30
0.000000000000000
11
-30.2208285385501
21
15.0409524091360
31
0.000000000000000
  0
LINE
  5
F10AB8
330
F10AB9
100
AcDbEntity
8
Geo
100
AcDbLine
10
-30.2208285385501
20
15.0409524091360
30
0.000000000000000
11
-30.1208285385501
21
14.9971377045452
31
0.000000000000000
  0
LINE
  5
F10ABA
330
F10ABB
100
AcDbEntity
8
Geo
100
AcDbLine
10
-30.1208285385501
20
14.9971377045452
30
0.000000000000000
11
-30.0208285385501
21
14.9531130844398
31
0.000000000000000
  0
LINE
  5
F10ABC
330
F10ABD
100
AcDbEntity
8
Geo
100
AcDbLine
10
-30.0208285385501
20
14.9531130844398
30
0.000000000000000
11
-29.9208285385501
21
14.9088800163032
31
0.000000000000000
  0
LINE
  5
F10ABE
330
F10ABF
100
AcDbEntity
8
Geo
100
AcDbLine
10
-29.9208285385501
20
14.9088800163032
30
0.000000000000000
11
-29.8208285385501
21
14.8644399745667
31
0.000000000000000
  0
LINE
  5
F10AC0
330
F10AC1
100
AcDbEntity
8
Geo
100
AcDbLine
10
-29.8208285385501
20
14.8644399745667
30
0.000000000000000
11
-29.7208285385501
21
14.8197944405612
31
0.000000000000000
  0
LINE
  5
F10AC2
330
F10AC3
100
AcDbEntity
8
Geo
100
AcDbLine
10
-29.7208285385501
20
14.8197944405612
30
0.000000000000000
11
-29.6208285385501
21
14.7749449024668
31
0.000000000000000
  0
LINE
  5
F10AC4
330
F10AC5
100
AcDbEntity
8
Geo
100
AcDbLine
10
-29.6208285385501
20
14.7749449024668
30
0.000000000000000
11
-29.5208285385501
21
14.7298928552641
31
0.000000000000000
  0
LINE
  5
F10AC6
330
F10AC7
100
AcDbEntity
8
Geo
100
AcDbLine
10
-29.5208285385501
20
14.7298928552641
30
0.000000000000000
11
-29.4208285385501
21
14.6846398006837
31
0.000000000000000
  0
LINE
  5
F10AC8
330
F10AC9
100
AcDbEntity
8
Geo
100
AcDbLine
10
-29.4208285385501
20
14.6846398006837
30
0.000000000000000
11
-29.3208285385501
21
14.6391872471566
31
0.000000000000000
  0
LINE
  5
F10ACA
330
F10ACB
100
AcDbEntity
8
Geo
100
AcDbLine
10
-29.3208285385501
20
14.6391872471566
30
0.000000000000000
11
-29.2208285385501
21
14.5935367097638
31
0.000000000000000
  0
LINE
  5
F10ACC
330
F10ACD
100
AcDbEntity
8
Geo
100
AcDbLine
10
-29.2208285385501
20
14.5935367097638
30
0.000000000000000
11
-29.1208285385501
21
14.5476897101856
31
0.000000000000000
  0
LINE
  5
F10ACE
330
F10ACF
100
AcDbEntity
8
Geo
100
AcDbLine
10
-29.1208285385501
20
14.5476897101856
30
0.000000000000000
11
-29.0208285385501
21
14.5016477766510
31
0.000000000000000
  0
LINE
  5
F10AD0
330
F10AD1
100
AcDbEntity
8
Geo
100
AcDbLine
10
-29.0208285385501
20
14.5016477766510
30
0.000000000000000
11
-28.9208285385501
21
14.4554124438870
31
0.000000000000000
  0
LINE
  5
F10AD2
330
F10AD3
100
AcDbEntity
8
Geo
100
AcDbLine
10
-28.9208285385501
20
14.4554124438870
30
0.000000000000000
11
-28.8208285385501
21
14.4089852530669
31
0.000000000000000
  0
LINE
  5
F10AD4
330
F10AD5
100
AcDbEntity
8
Geo
100
AcDbLine
10
-28.8208285385501
20
14.4089852530669
30
0.000000000000000
11
-28.7208285385501
21
14.3623677517596
31
0.000000000000000
  0
LINE
  5
F10AD6
330
F10AD7
100
AcDbEntity
8
Geo
100
AcDbLine
10
-28.7208285385501
20
14.3623677517596
30
0.000000000000000
11
-28.6208285385501
21
14.3155614938774
31
0.000000000000000
  0
LINE
  5
F10AD8
330
F10AD9
100
AcDbEntity
8
Geo
100
AcDbLine
10
-28.6208285385501
20
14.3155614938774
30
0.000000000000000
11
-28.5208285385501
21
14.2685680396246
31
0.000000000000000
  0
LINE
  5
F10ADA
330
F10ADB
100
AcDbEntity
8
Geo
100
AcDbLine
10
-28.5208285385501
20
14.2685680396246
30
0.000000000000000
11
-28.4208285385501
21
14.2213889554453
31
0.000000000000000
  0
LINE
  5
F10ADC
330
F10ADD
100
AcDbEntity
8
Geo
100
AcDbLine
10
-28.4208285385501
20
14.2213889554453
30
0.000000000000000
11
-28.3208285385501
21
14.1740258139712
31
0.000000000000000
  0
LINE
  5
F10ADE
330
F10ADF
100
AcDbEntity
8
Geo
100
AcDbLine
10
-28.3208285385501
20
14.1740258139712
30
0.000000000000000
11
-28.2208285385501
21
14.1264801939695
31
0.000000000000000
  0
LINE
  5
F10AE0
330
F10AE1
100
AcDbEntity
8
Geo
100
AcDbLine
10
-28.2208285385501
20
14.1264801939695
30
0.000000000000000
11
-28.1208285385501
21
14.0787536802896
31
0.000000000000000
  0
LINE
  5
F10AE2
330
F10AE3
100
AcDbEntity
8
Geo
100
AcDbLine
10
-28.1208285385501
20
14.0787536802896
30
0.000000000000000
11
-28.0208285385501
21
14.0308478638109
31
0.000000000000000
  0
LINE
  5
F10AE4
330
F10AE5
100
AcDbEntity
8
Geo
100
AcDbLine
10
-28.0208285385501
20
14.0308478638109
30
0.000000000000000
11
-27.9208285385501
21
13.9827643413896
31
0.000000000000000
  0
LINE
  5
F10AE6
330
F10AE7
100
AcDbEntity
8
Geo
100
AcDbLine
10
-27.9208285385501
20
13.9827643413896
30
0.000000000000000
11
-27.8208285385501
21
13.9345047158053
31
0.000000000000000
  0
LINE
  5
F10AE8
330
F10AE9
100
AcDbEntity
8
Geo
100
AcDbLine
10
-27.8208285385501
20
13.9345047158053
30
0.000000000000000
11
-27.7208285385501
21
13.8860705957077
31
0.000000000000000
  0
LINE
  5
F10AEA
330
F10AEB
100
AcDbEntity
8
Geo
100
AcDbLine
10
-27.7208285385501
20
13.8860705957077
30
0.000000000000000
11
-27.6208285385501
21
13.8374635955630
31
0.000000000000000
  0
LINE
  5
F10AEC
330
F10AED
100
AcDbEntity
8
Geo
100
AcDbLine
10
-27.6208285385501
20
13.8374635955630
30
0.000000000000000
11
-27.5208285385501
21
13.7886853356000
31
0.000000000000000
  0
LINE
  5
F10AEE
330
F10AEF
100
AcDbEntity
8
Geo
100
AcDbLine
10
-27.5208285385501
20
13.7886853356000
30
0.000000000000000
11
-27.4208285385501
21
13.7397374417562
31
0.000000000000000
  0
LINE
  5
F10AF0
330
F10AF1
100
AcDbEntity
8
Geo
100
AcDbLine
10
-27.4208285385501
20
13.7397374417562
30
0.000000000000000
11
-27.3208285385501
21
13.6906215456235
31
0.000000000000000
  0
LINE
  5
F10AF2
330
F10AF3
100
AcDbEntity
8
Geo
100
AcDbLine
10
-27.3208285385501
20
13.6906215456235
30
0.000000000000000
11
-27.2208285385501
21
13.6413392843940
31
0.000000000000000
  0
LINE
  5
F10AF4
330
F10AF5
100
AcDbEntity
8
Geo
100
AcDbLine
10
-27.2208285385501
20
13.6413392843940
30
0.000000000000000
11
-27.1208285385501
21
13.5918923008051
31
0.000000000000000
  0
LINE
  5
F10AF6
330
F10AF7
100
AcDbEntity
8
Geo
100
AcDbLine
10
-27.1208285385501
20
13.5918923008051
30
0.000000000000000
11
-27.0208285385501
21
13.5422822430849
31
0.000000000000000
  0
LINE
  5
F10AF8
330
F10AF9
100
AcDbEntity
8
Geo
100
AcDbLine
10
-27.0208285385501
20
13.5422822430849
30
0.000000000000000
11
-26.9208285385501
21
13.4925107648976
31
0.000000000000000
  0
LINE
  5
F10AFA
330
F10AFB
100
AcDbEntity
8
Geo
100
AcDbLine
10
-26.9208285385501
20
13.4925107648976
30
0.000000000000000
11
-26.8208285385501
21
13.4425795252878
31
0.000000000000000
  0
LINE
  5
F10AFC
330
F10AFD
100
AcDbEntity
8
Geo
100
AcDbLine
10
-26.8208285385501
20
13.4425795252878
30
0.000000000000000
11
-26.7208285385501
21
13.3924901886254
31
0.000000000000000
  0
LINE
  5
F10AFE
330
F10AFF
100
AcDbEntity
8
Geo
100
AcDbLine
10
-26.7208285385501
20
13.3924901886254
30
0.000000000000000
11
-26.6208285385501
21
13.3422444245505
31
0.000000000000000
  0
LINE
  5
F10B00
330
F10B01
100
AcDbEntity
8
Geo
100
AcDbLine
10
-26.6208285385501
20
13.3422444245505
30
0.000000000000000
11
-26.5208285385501
21
13.2918439079172
31
0.000000000000000
  0
LINE
  5
F10B02
330
F10B03
100
AcDbEntity
8
Geo
100
AcDbLine
10
-26.5208285385501
20
13.2918439079172
30
0.000000000000000
11
-26.4208285385501
21
13.2412903187380
31
0.000000000000000
  0
LINE
  5
F10B04
330
F10B05
100
AcDbEntity
8
Geo
100
AcDbLine
10
-26.4208285385501
20
13.2412903187380
30
0.000000000000000
11
-26.3208285385501
21
13.1905853421278
31
0.000000000000000
  0
LINE
  5
F10B06
330
F10B07
100
AcDbEntity
8
Geo
100
AcDbLine
10
-26.3208285385501
20
13.1905853421278
30
0.000000000000000
11
-26.2208285385501
21
13.1397306682480
31
0.000000000000000
  0
LINE
  5
F10B08
330
F10B09
100
AcDbEntity
8
Geo
100
AcDbLine
10
-26.2208285385501
20
13.1397306682480
30
0.000000000000000
11
-26.1208285385501
21
13.0887279922495
31
0.000000000000000
  0
LINE
  5
F10B0A
330
F10B0B
100
AcDbEntity
8
Geo
100
AcDbLine
10
-26.1208285385501
20
13.0887279922495
30
0.000000000000000
11
-26.0208285385501
21
13.0375790142168
31
0.000000000000000
  0
LINE
  5
F10B0C
330
F10B0D
100
AcDbEntity
8
Geo
100
AcDbLine
10
-26.0208285385501
20
13.0375790142168
30
0.000000000000000
11
-25.9208285385501
21
12.9862854391112
31
0.000000000000000
  0
LINE
  5
F10B0E
330
F10B0F
100
AcDbEntity
8
Geo
100
AcDbLine
10
-25.9208285385501
20
12.9862854391112
30
0.000000000000000
11
-25.8208285385501
21
12.9348489767137
31
0.000000000000000
  0
LINE
  5
F10B10
330
F10B11
100
AcDbEntity
8
Geo
100
AcDbLine
10
-25.8208285385501
20
12.9348489767137
30
0.000000000000000
11
-25.7208285385501
21
12.8832713415683
31
0.000000000000000
  0
LINE
  5
F10B12
330
F10B13
100
AcDbEntity
8
Geo
100
AcDbLine
10
-25.7208285385501
20
12.8832713415683
30
0.000000000000000
11
-25.6208285385501
21
12.8315542529248
31
0.000000000000000
  0
LINE
  5
F10B14
330
F10B15
100
AcDbEntity
8
Geo
100
AcDbLine
10
-25.6208285385501
20
12.8315542529248
30
0.000000000000000
11
-25.5208285385501
21
12.7796994346812
31
0.000000000000000
  0
LINE
  5
F10B16
330
F10B17
100
AcDbEntity
8
Geo
100
AcDbLine
10
-25.5208285385501
20
12.7796994346812
30
0.000000000000000
11
-25.4208285385501
21
12.7277086153268
31
0.000000000000000
  0
LINE
  5
F10B18
330
F10B19
100
AcDbEntity
8
Geo
100
AcDbLine
10
-25.4208285385501
20
12.7277086153268
30
0.000000000000000
11
-25.3208285385501
21
12.6755835278841
31
0.000000000000000
  0
LINE
  5
F10B1A
330
F10B1B
100
AcDbEntity
8
Geo
100
AcDbLine
10
-25.3208285385501
20
12.6755835278841
30
0.000000000000000
11
-25.2208285385501
21
12.6233259098511
31
0.000000000000000
  0
LINE
  5
F10B1C
330
F10B1D
100
AcDbEntity
8
Geo
100
AcDbLine
10
-25.2208285385501
20
12.6233259098511
30
0.000000000000000
11
-25.1208285385501
21
12.5709375031435
31
0.000000000000000
  0
LINE
  5
F10B1E
330
F10B1F
100
AcDbEntity
8
Geo
100
AcDbLine
10
-25.1208285385501
20
12.5709375031435
30
0.000000000000000
11
-25.0208285385500
21
12.5184200540369
31
0.000000000000000
  0
LINE
  5
F10B20
330
F10B21
100
AcDbEntity
8
Geo
100
AcDbLine
10
-25.0208285385500
20
12.5184200540369
30
0.000000000000000
11
-24.9208285385500
21
12.4657753131079
31
0.000000000000000
  0
LINE
  5
F10B22
330
F10B23
100
AcDbEntity
8
Geo
100
AcDbLine
10
-24.9208285385500
20
12.4657753131079
30
0.000000000000000
11
-24.8208285385500
21
12.4130050351763
31
0.000000000000000
  0
LINE
  5
F10B24
330
F10B25
100
AcDbEntity
8
Geo
100
AcDbLine
10
-24.8208285385500
20
12.4130050351763
30
0.000000000000000
11
-24.7208285385500
21
12.3601109792466
31
0.000000000000000
  0
LINE
  5
F10B26
330
F10B27
100
AcDbEntity
8
Geo
100
AcDbLine
10
-24.7208285385500
20
12.3601109792466
30
0.000000000000000
11
-24.6208285385500
21
12.3070949084491
31
0.000000000000000
  0
LINE
  5
F10B28
330
F10B29
100
AcDbEntity
8
Geo
100
AcDbLine
10
-24.6208285385500
20
12.3070949084491
30
0.000000000000000
11
-24.5208285385500
21
12.2539585899811
31
0.000000000000000
  0
LINE
  5
F10B2A
330
F10B2B
100
AcDbEntity
8
Geo
100
AcDbLine
10
-24.5208285385500
20
12.2539585899811
30
0.000000000000000
11
-24.4208285385500
21
12.2007037950484
31
0.000000000000000
  0
LINE
  5
F10B2C
330
F10B2D
100
AcDbEntity
8
Geo
100
AcDbLine
10
-24.4208285385500
20
12.2007037950484
30
0.000000000000000
11
-24.3208285385500
21
12.1473322988059
31
0.000000000000000
  0
LINE
  5
F10B2E
330
F10B2F
100
AcDbEntity
8
Geo
100
AcDbLine
10
-24.3208285385500
20
12.1473322988059
30
0.000000000000000
11
-24.2208285385500
21
12.0938458802985
31
0.000000000000000
  0
LINE
  5
F10B30
330
F10B31
100
AcDbEntity
8
Geo
100
AcDbLine
10
-24.2208285385500
20
12.0938458802985
30
0.000000000000000
11
-24.1208285385500
21
12.0402463224020
31
0.000000000000000
  0
LINE
  5
F10B32
330
F10B33
100
AcDbEntity
8
Geo
100
AcDbLine
10
-24.1208285385500
20
12.0402463224020
30
0.000000000000000
11
-24.0208285385500
21
11.9865354117631
31
0.000000000000000
  0
LINE
  5
F10B34
330
F10B35
100
AcDbEntity
8
Geo
100
AcDbLine
10
-24.0208285385500
20
11.9865354117631
30
0.000000000000000
11
-23.9208285385500
21
11.9327149387408
31
0.000000000000000
  0
LINE
  5
F10B36
330
F10B37
100
AcDbEntity
8
Geo
100
AcDbLine
10
-23.9208285385500
20
11.9327149387408
30
0.000000000000000
11
-23.8208285385500
21
11.8787866973457
31
0.000000000000000
  0
LINE
  5
F10B38
330
F10B39
100
AcDbEntity
8
Geo
100
AcDbLine
10
-23.8208285385500
20
11.8787866973457
30
0.000000000000000
11
-23.7208285385500
21
11.8247524851809
31
0.000000000000000
  0
LINE
  5
F10B3A
330
F10B3B
100
AcDbEntity
8
Geo
100
AcDbLine
10
49.3791714614500
20
17.6996547756041
30
0.000000000000000
11
49.3791714614500
21
8.69965477560415
31
0.000000000000000
  0
LINE
  5
F10B3C
330
F10B3D
100
AcDbEntity
8
Geo
100
AcDbLine
10
-43.6208285385500
20
8.69965477560415
30
0.000000000000000
11
-43.6208285385500
21
-1.30034522439585
31
0.000000000000000
  0
LINE
  5
F10B3E
330
F10B3F
100
AcDbEntity
8
Geo
100
AcDbLine
10
-43.6208285385500
20
-1.30034522439585
30
0.000000000000000
11
-18.6208285385500
21
-1.30034522439585
31
0.000000000000000
  0
LINE
  5
F10B40
330
F10B41
100
AcDbEntity
8
Geo
100
AcDbLine
10
-18.6208285385500
20
-1.30034522439585
30
0.000000000000000
11
48.3791714614500
21
-1.30034522439585
31
0.000000000000000
  0
LINE
  5
F10B42
330
F10B43
100
AcDbEntity
8
Geo
100
AcDbLine
10
48.3791714614500
20
-1.30034522439585
30
0.000000000000000
11
49.3791714614500
21
-0.300345224395855
31
0.000000000000000
  0
LINE
  5
F10B44
330
F10B45
100
AcDbEntity
8
Geo
100
AcDbLine
10
-43.6208285385500
20
18.6996547756041
30
0.000000000000000
11
-43.6208285385500
21
-1.30034522439585
31
0.000000000000000
  0
LINE
  5
F10B46
330
F10B47
100
AcDbEntity
8
Geo
100
AcDbLine
10
-18.6208285385500
20
18.6996547756041
30
0.000000000000000
11
-18.6208285385500
21
-1.30034522439585
31
0.000000000000000
  0
LINE
  5
F10B48
330
F10B49
100
AcDbEntity
8
Geo
100
AcDbLine
10
-18.6208285385500
20
18.6996547756041
30
0.000000000000000
11
-18.6208285385500
21
-1.30034522439585
31
0.000000000000000
  0
LINE
  5
F10B4A
330
F10B4B
100
AcDbEntity
8
Geo
100
AcDbLine
10
48.3791714614500
20
18.6996547756041
30
0.000000000000000
11
48.3791714614500
21
-1.30034522439585
31
0.000000000000000
  0
LINE
  5
F10B4C
330
F10B4D
100
AcDbEntity
8
Geo
100
AcDbLine
10
49.3791714614500
20
17.6996547756041
30
0.000000000000000
11
49.3791714614500
21
-0.300345224395855
31
0.000000000000000
  0
LINE
  5
F10B4E
330
F10B4F
100
AcDbEntity
8
Geo
 6
Dashdot
100
AcDbLine
10
-43.6208285385500
20
8.69965477560415
30
0.000000000000000
11
49.3791714614500
21
8.69965477560415
31
0.000000000000000
  0
LWPOLYLINE
  5
F10B50
330
F10B51
100
AcDbEntity
8
Rahmen
100
AcDbPolyline
90
   4
70
   1
43
   0.0
 10
-134.602991944764
 20
99.9252013808976
 10
143.302646720368
 20
99.9252013808976
 10
143.302646720368
 20
-100.166858457998
 10
-134.602991944764
 20
-100.166858457998
  0
TEXT
  5
F10B52
330
F10B53
 100
AcDbEntity
8
Text
100
AcDbText
10
-133.636363636364
20
-99.6668584579977
30
0.000000000000000
40
1.00000000000000
1
ISBESketcher - ©ISBE GmbH      lizensiert für: Schmid Werkzeuge
100
AcDbText
  0
LWPOLYLINE
  5
F10B54
330
F10B55
100
AcDbEntity
8
Rahmen
100
AcDbPolyline
90
   4
70
   1
43
   0.0
 10
103.429228998849
 20
-97.0253164556962
 10
143.302646720368
 20
-97.0253164556962
 10
143.302646720368
 20
-100.166858457998
 10
103.429228998849
 20
-100.166858457998
  0
TEXT
  5
F10B56
330
F10B57
 100
AcDbEntity
8
Text
100
AcDbText
10
104.500000000000
20
-99.4499424626007
30
0.000000000000000
40
1.50000000000000
1
Ers. durch:
100
AcDbText
  0
TEXT
  5
F10B58
330
F10B59
 100
AcDbEntity
8
Text
100
AcDbText
10
0.000000000000000
20
0.500000000000000
30
0.000000000000000
40
1.50000000000000
1

100
AcDbText
  0
LWPOLYLINE
  5
F10B5A
330
F10B5B
100
AcDbEntity
8
Rahmen
100
AcDbPolyline
90
   4
70
   1
43
   0.0
 10
63.3141542002302
 20
-97.0253164556962
 10
103.429228998849
 20
-97.0253164556962
 10
103.429228998849
 20
-100.166858457998
 10
63.3141542002302
 20
-100.166858457998
  0
TEXT
  5
F10B5C
330
F10B5D
 100
AcDbEntity
8
Text
100
AcDbText
10
64.5000000000000
20
-99.4499424626007
30
0.000000000000000
40
1.50000000000000
1
Ers. für:
100
AcDbText
  0
TEXT
  5
F10B5E
330
F10B5F
 100
AcDbEntity
8
Text
100
AcDbText
10
0.000000000000000
20
0.500000000000000
30
0.000000000000000
40
1.50000000000000
1

100
AcDbText
  0
LWPOLYLINE
  5
F10B60
330
F10B61
100
AcDbEntity
8
Rahmen
100
AcDbPolyline
90
   4
70
   1
43
   0.0
 10
130.011507479862
 20
-94.1254315304948
 10
143.302646720368
 20
-94.1254315304948
 10
143.302646720368
 20
-97.0253164556962
 10
130.011507479862
 20
-97.0253164556962
  0
TEXT
  5
F10B62
330
F10B63
 100
AcDbEntity
8
Text
100
AcDbText
10
131.166666666667
20
-96.4499424626007
30
0.000000000000000
40
1.50000000000000
1
Blätter
100
AcDbText
  0
TEXT
  5
F10B64
330
F10B65
 100
AcDbEntity
8
Text
100
AcDbText
10
0.000000000000000
20
0.500000000000000
30
0.000000000000000
40
1.50000000000000
1

100
AcDbText
  0
LWPOLYLINE
  5
F10B66
330
F10B67
100
AcDbEntity
8
Rahmen
100
AcDbPolyline
90
   4
70
   1
43
   0.0
 10
130.011507479862
 20
-91.2255466052934
 10
143.302646720368
 20
-91.2255466052934
 10
143.302646720368
 20
-94.1254315304948
 10
130.011507479862
 20
-94.1254315304948
  0
TEXT
  5
F10B68
330
F10B69
 100
AcDbEntity
8
Text
100
AcDbText
10
131.166666666667
20
-93.4499424626007
30
0.000000000000000
40
1.50000000000000
1
Blatt
100
AcDbText
  0
TEXT
  5
F10B6A
330
F10B6B
 100
AcDbEntity
8
Text
100
AcDbText
10
0.000000000000000
20
0.500000000000000
30
0.000000000000000
40
1.50000000000000
1

100
AcDbText
  0
LWPOLYLINE
  5
F10B6C
330
F10B6D
100
AcDbEntity
8
Rahmen
100
AcDbPolyline
90
   4
70
   1
43
   0.0
 10
63.3141542002302
 20
-91.2255466052934
 10
130.011507479862
 20
-91.2255466052934
 10
130.011507479862
 20
-97.0253164556962
 10
63.3141542002302
 20
-97.0253164556962
  0
TEXT
  5
F10B6E
330
F10B6F
 100
AcDbEntity
8
Text
100
AcDbText
10
64.5000000000000
20
-93.4499424626007
30
0.000000000000000
40
1.50000000000000
1
Datum:
100
AcDbText
  0
TEXT
  5
F10B70
330
F10B71
 100
AcDbEntity
8
Text
100
AcDbText
10
91.1543920214806
20
-96.4499424626007
30
0.000000000000000
40
1.50000000000000
1
14.05.2019
100
AcDbText
  0
LWPOLYLINE
  5
F10B72
330
F10B73
100
AcDbEntity
8
Rahmen
100
AcDbPolyline
90
   4
70
   1
43
   0.0
 10
63.3141542002302
 20
-85.1841196777906
 10
143.302646720368
 20
-85.1841196777906
 10
143.302646720368
 20
-91.2255466052934
 10
63.3141542002302
 20
-91.2255466052934
  0
TEXT
  5
F10B74
330
F10B75
 100
AcDbEntity
8
Text
100
AcDbText
10
0.000000000000000
20
0.500000000000000
30
0.000000000000000
40
1.50000000000000
1

100
AcDbText
  0
TEXT
  5
F10B76
330
F10B77
 100
AcDbEntity
8
Text
100
AcDbText
10
74.2594936708861
20
-89.7040659762179
30
0.000000000000000
40
2.50000000000000
1
VHM-Schlichtfräser 0140-20-b
100
AcDbText
  0
LWPOLYLINE
  5
F10B78
330
F10B79
100
AcDbEntity
8
Rahmen
100
AcDbPolyline
90
   4
70
   1
43
   0.0
 10
103.429228998849
 20
-79.1426927502877
 10
143.302646720368
 20
-79.1426927502877
 10
143.302646720368
 20
-85.1841196777906
 10
103.429228998849
 20
-85.1841196777906
  0
TEXT
  5
F10B7A
330
F10B7B
 100
AcDbEntity
8
Text
100
AcDbText
10
104.500000000000
20
-81.4499424626007
30
0.000000000000000
40
1.50000000000000
1
Zu bearb. Material:
100
AcDbText
  0
TEXT
  5
F10B7C
330
F10B7D
 100
AcDbEntity
8
Text
100
AcDbText
10
0.000000000000000
20
0.500000000000000
30
0.000000000000000
40
1.50000000000000
1

100
AcDbText
  0
LWPOLYLINE
  5
F10B7E
330
F10B7F
100
AcDbEntity
8
Rahmen
100
AcDbPolyline
90
   4
70
   1
43
   0.0
 10
63.3141542002302
 20
-79.1426927502877
 10
103.429228998849
 20
-79.1426927502877
 10
103.429228998849
 20
-85.1841196777906
 10
63.3141542002302
 20
-85.1841196777906
  0
TEXT
  5
F10B80
330
F10B81
 100
AcDbEntity
8
Text
100
AcDbText
10
64.5000000000000
20
-81.4499424626007
30
0.000000000000000
40
1.50000000000000
1
Werkstoff:
100
AcDbText
  0
TEXT
  5
F10B82
330
F10B83
 100
AcDbEntity
8
Text
100
AcDbText
10
80.9626006904488
20
-84.4499424626007
30
0.000000000000000
40
1.50000000000000
1
VHM
100
AcDbText
  0
LWPOLYLINE
  5
F10B84
330
F10B85
100
AcDbEntity
8
Rahmen
100
AcDbPolyline
90
   4
70
   1
43
   0.0
 10
103.429228998849
 20
-76.0011507479862
 10
143.302646720368
 20
-76.0011507479862
 10
143.302646720368
 20
-79.1426927502877
 10
103.429228998849
 20
-79.1426927502877
  0
TEXT
  5
F10B86
330
F10B87
 100
AcDbEntity
8
Text
100
AcDbText
10
0.000000000000000
20
0.500000000000000
30
0.000000000000000
40
1.50000000000000
1

100
AcDbText
  0
TEXT
  5
F10B88
330
F10B89
 100
AcDbEntity
8
Text
100
AcDbText
10
0.000000000000000
20
0.500000000000000
30
0.000000000000000
40
1.50000000000000
1

100
AcDbText
  0
LWPOLYLINE
  5
F10B8A
330
F10B8B
100
AcDbEntity
8
Rahmen
100
AcDbPolyline
90
   4
70
   1
43
   0.0
 10
63.3141542002302
 20
-76.0011507479862
 10
103.429228998849
 20
-76.0011507479862
 10
103.429228998849
 20
-79.1426927502877
 10
63.3141542002302
 20
-79.1426927502877
  0
TEXT
  5
F10B8C
330
F10B8D
 100
AcDbEntity
8
Text
100
AcDbText
10
64.5000000000000
20
-78.4499424626007
30
0.000000000000000
40
1.50000000000000
1
Maßstab:
100
AcDbText
  0
TEXT
  5
F10B8E
330
F10B8F
 100
AcDbEntity
8
Text
100
AcDbText
10
89.0834292289989
20
-78.4499424626007
30
0.000000000000000
40
1.50000000000000
1
1 : 1
100
AcDbText
0
VIEWPORT
5
294
102
{ACAD_XDICTIONARY
360
58A
102
}
330
25D
100
AcDbEntity
67
1
8
0
60
1
100
AcDbViewport
10
0.0
20
0.0
30
0.0
40
10.0
41
10.0
68
-1
69
1
12
0.0
22
0.0
13
0.0
23
0.0
14
1.0
24
1.0
15
0.0
25
0.0
16
0.0
26
0.0
36
1.0
17
0.0
27
0.0
37
0.0
42
0.0
43
0.0
44
0.0
45
10.0
50
0.0
51
0.0000000000007958
72
100
90
32800
1

281
0
71
0
74
0
110
0.0
120
0.0
130
0.0
111
1.0
121
0.0
131
0.0
112
0.0
122
1.0
132
0.0
79
0
146
0.0
1001
VD_INVISIBLE_NOT_FOR_READ
1000
VD_INVISIBLE_NOT_FOR_READ
0
VIEWPORT
5
295
102
{ACAD_XDICTIONARY
360
58C
102
}
330
25D
100
AcDbEntity
67
1
8
0
60
1
100
AcDbViewport
10
0.0
20
0.0
30
0.0
40
10.0
41
10.0
68
0
69
2
12
0.0
22
0.0
13
0.0
23
0.0
14
1.0
24
1.0
15
0.0
25
0.0
16
0.0
26
0.0
36
1.0
17
0.0
27
0.0
37
0.0
42
0.0
43
0.0
44
0.0
45
10.0
50
0.0
51
0.0000000000007958
72
100
90
163872
1

281
0
71
0
74
0
110
0.0
120
0.0
130
0.0
111
1.0
121
0.0
131
0.0
112
0.0
122
1.0
132
0.0
79
0
146
0.0
1001
VD_INVISIBLE_NOT_FOR_READ
1000
VD_INVISIBLE_NOT_FOR_READ
0
ENDSEC
0
SECTION
2
OBJECTS
0
DICTIONARY
5
13
330
0
100
AcDbDictionary
281
1
3
ACAD_COLOR
350
FA7
3
ACAD_GROUP
350
14
3
ACAD_LAYOUT
350
FCF
3
ACAD_MATERIAL
350
F7A
3
ACAD_MLEADERSTYLE
350
FCD
3
ACAD_MLINESTYLE
350
16
3
ACAD_PLOTSETTINGS
350
17
3
ACAD_PLOTSTYLENAME
350
18
3
ACAD_SCALELIST
350
FAB
3
ACAD_TABLESTYLE
350
FA8
3
ACAD_VISUALSTYLE
350
F93
3
ACDB_RECOMPOSE_DATA
350
107E
3
AcDbVariableDictionary
350
FF0
3
DWGPROPS
350
107F
0
DICTIONARY
5
F1000F
330
F1000E
100
AcDbDictionary
280
1
281
1
3
ACAD_MTEXT_2008_RT
360
F10010
0
DICTIONARY
5
F10014
330
F10013
100
AcDbDictionary
280
1
281
1
3
ACAD_MTEXT_2008_RT
360
F10015
0
DICTIONARY
5
F10005
330
F10004
100
AcDbDictionary
280
1
281
1
3
ACAD_MTEXT_2008_RT
360
F10006
0
DICTIONARY
5
F1000A
330
F10009
100
AcDbDictionary
280
1
281
1
3
ACAD_MTEXT_2008_RT
360
F1000B
0
DICTIONARY
5
FA7
102
{ACAD_REACTORS
330
13
102
}
330
13
100
AcDbDictionary
281
1
0
DICTIONARY
5
14
330
13
100
AcDbDictionary
281
1
0
DICTIONARY
5
FCF
102
{ACAD_REACTORS
330
13
102
}
330
13
100
AcDbDictionary
281
1
3
Layout1
350
FD1
3
Model
350
FD0
0
DICTIONARY
5
F7A
102
{ACAD_REACTORS
330
13
102
}
330
13
100
AcDbDictionary
281
1
3
ByBlock
350
F83
3
ByLayer
350
F7B
3
Global
350
F8B
0
DICTIONARY
5
FCD
102
{ACAD_REACTORS
330
13
102
}
330
13
100
AcDbDictionary
281
1
3
Standard
350
FCE
0
DICTIONARY
5
16
330
13
100
AcDbDictionary
281
1
3
Standard
350
FAA
0
DICTIONARY
5
17
102
{ACAD_REACTORS
330
13
102
}
330
13
100
AcDbDictionary
281
1
0
ACDBDICTIONARYWDFLT
5
18
102
{ACAD_REACTORS
330
13
102
}
330
13
100
AcDbDictionary
281
1
3
Normal
350
19
100
AcDbDictionaryWithDefault
340
19
0
DICTIONARY
5
FAB
102
{ACAD_REACTORS
330
13
102
}
330
13
100
AcDbDictionary
281
1
3
A0
350
FAC
3
A1
350
FAD
3
A2
350
FAE
3
A3
350
FAF
3
A4
350
FB0
3
A5
350
FB1
3
A6
350
FB2
3
A7
350
FB3
3
A8
350
FB4
3
A9
350
FB5
3
B0
350
FB6
3
B1
350
FB7
3
B2
350
FB8
3
B3
350
FB9
3
B4
350
FBA
3
B5
350
FBB
3
B6
350
FBC
3
B7
350
FBD
3
B8
350
FBE
3
B9
350
FBF
3
C0
350
FC0
3
C1
350
FC1
3
C2
350
FC2
3
C3
350
FC3
3
C4
350
FC4
3
C5
350
FC5
3
C6
350
FC6
3
C7
350
FC7
3
C8
350
FC8
3
C9
350
FC9
3
D0
350
FCA
3
D1
350
FCB
3
D2
350
FCC
0
DICTIONARY
5
FA8
102
{ACAD_REACTORS
330
13
102
}
330
13
100
AcDbDictionary
281
1
3
Standard
350
FA9
0
DICTIONARY
5
F93
102
{ACAD_REACTORS
330
13
102
}
330
13
100
AcDbDictionary
281
1
3
2dWireframe
350
F99
3
3D Hidden
350
F9B
3
3dWireframe
350
F9A
3
Basic
350
F98
3
Brighten
350
F9F
3
ColorChange
350
FA3
3
Conceptual
350
F9C
3
Dim
350
F9E
3
EdgeColorOff
350
FA6
3
Facepattern
350
FA2
3
Flat
350
F94
3
FlatWithEdges
350
F95
3
Gouraud
350
F96
3
GouraudWithEdges
350
F97
3
JitterOff
350
FA4
3
Linepattern
350
FA1
3
OverhangOff
350
FA5
3
Realistic
350
F9D
3
Thicken
350
FA0
0
XRECORD
5
107E
102
{ACAD_REACTORS
330
13
102
}
330
13
100
AcDbXrecord
280
1
90
1
330
FA9
330
F1000E
330
F10013
330
F10004
330
F10009
0
DICTIONARY
5
FF0
102
{ACAD_REACTORS
330
13
102
}
330
13
100
AcDbDictionary
281
1
3
CANNOSCALE
350
FF3
3
CMLEADERSTYLE
350
FF2
3
CTABLESTYLE
350
FF1
3
DIMASSOC
350
FF6
3
INDEXCTL
350
FF5
3
SORTENTS
350
FF4
3
XCLIPFRAME
350
1078
0
XRECORD
5
107F
102
{ACAD_REACTORS
330
13
102
}
330
13
100
AcDbXrecord
280
1
1
DWGPROPS COOKIE
2

3

4

6

7

8

9

300
=
301
=
302
=
303
=
304
=
305
=
306
=
307
=
308
=
309
=
40
0.0
41
0.0
42
0.0
1

90
0
0
XRECORD
5
F10010
102
{ACAD_REACTORS
330
F1000F
102
}
330
F1000F
100
AcDbXrecord
280
1
40
48458.0
1
25
0
XRECORD
5
F10015
102
{ACAD_REACTORS
330
F10014
102
}
330
F10014
100
AcDbXrecord
280
1
40
48458.0
1
93
0
XRECORD
5
F10006
102
{ACAD_REACTORS
330
F10005
102
}
330
F10005
100
AcDbXrecord
280
1
40
48458.0
1
Ø20
0
LAYOUT
5
FD1
102
{ACAD_XDICTIONARY
360
10A9
102
}
102
{ACAD_REACTORS
330
FCF
102
}
330
FCF
100
AcDbPlotSettings
1

2
Microsoft XPS Document Writer
4

6

40
0.0
41
0.0
42
0.0
43
0.0
44
0.0
45
0.0
46
0.0
47
0.0
48
0.0
49
0.0
140
0.0
141
0.0
142
1.0
143
1.0
70
688
72
0
73
0
74
5
7

75
16
147
1.0
148
0.0
149
0.0
100
AcDbLayout
1
Layout1
70
1
71
1
10
0.0
20
0.0
11
12.0
21
9.0
12
0.0
22
0.0
32
0.0
14
1.000000000000000E+20
24
1.000000000000000E+20
34
1.000000000000000E+20
15
-1.000000000000000E+20
25
-1.000000000000000E+20
35
-1.000000000000000E+20
146
0.0
13
0.0
23
0.0
33
0.0
16
1.0
26
0.0
36
0.0
17
0.0
27
1.0
37
0.0
76
0
330
25D
0
LAYOUT
5
FD0
102
{ACAD_XDICTIONARY
360
10A7
102
}
102
{ACAD_REACTORS
330
FCF
102
}
330
FCF
100
AcDbPlotSettings
1

2
Microsoft XPS Document Writer
4

6

40
0.0
41
0.0
42
0.0
43
0.0
44
0.0
45
0.0
46
0.0
47
0.0
48
0.0
49
0.0
140
0.0
141
0.0
142
1.0
143
1.0
70
1712
72
0
73
0
74
0
7

75
0
147
1.0
148
0.0
149
0.0
100
AcDbLayout
1
Model
70
1
71
0
10
0.0
20
0.0
11
12.0
21
9.0
12
0.0
22
0.0
32
0.0
14
0.0
24
0.0
34
0.0
15
0.0
25
0.0
35
0.0
146
0.0
13
0.0
23
0.0
33
0.0
16
1.0
26
0.0
36
0.0
17
0.0
27
1.0
37
0.0
76
0
330
261
331
26B
0
MATERIAL
5
F83
102
{ACAD_XDICTIONARY
360
F84
102
}
102
{ACAD_REACTORS
330
F7A
102
}
330
F7A
100
AcDbMaterial
1
ByBlock
72
0
43
0.0208333333333333
43
0.0
43
0.0
43
0.0
43
0.0
43
0.0208333333333333
43
0.0
43
0.0
43
0.0
43
0.0
43
1.0
43
0.0
43
0.0
43
0.0
43
0.0
43
1.0
77
0
47
0.0208333333333333
47
0.0
47
0.0
47
0.0
47
0.0
47
0.0208333333333333
47
0.0
47
0.0
47
0.0
47
0.0
47
1.0
47
0.0
47
0.0
47
0.0
47
0.0
47
1.0
171
0
49
0.0208333333333333
49
0.0
49
0.0
49
0.0
49
0.0
49
0.0208333333333333
49
0.0
49
0.0
49
0.0
49
0.0
49
1.0
49
0.0
49
0.0
49
0.0
49
0.0
49
1.0
175
0
142
0.0208333333333333
142
0.0
142
0.0
142
0.0
142
0.0
142
0.0208333333333333
142
0.0
142
0.0
142
0.0
142
0.0
142
1.0
142
0.0
142
0.0
142
0.0
142
0.0
142
1.0
179
0
144
0.0208333333333333
144
0.0
144
0.0
144
0.0
144
0.0
144
0.0208333333333333
144
0.0
144
0.0
144
0.0
144
0.0
144
1.0
144
0.0
144
0.0
144
0.0
144
0.0
144
1.0
147
0.0208333333333333
147
0.0
147
0.0
147
0.0
147
0.0
147
0.0208333333333333
147
0.0
147
0.0
147
0.0
147
0.0
147
1.0
147
0.0
147
0.0
147
0.0
147
0.0
147
1.0
0
MATERIAL
5
F7B
102
{ACAD_XDICTIONARY
360
F7C
102
}
102
{ACAD_REACTORS
330
F7A
102
}
330
F7A
100
AcDbMaterial
1
ByLayer
72
0
43
0.0208333333333333
43
0.0
43
0.0
43
0.0
43
0.0
43
0.0208333333333333
43
0.0
43
0.0
43
0.0
43
0.0
43
1.0
43
0.0
43
0.0
43
0.0
43
0.0
43
1.0
77
0
47
0.0208333333333333
47
0.0
47
0.0
47
0.0
47
0.0
47
0.0208333333333333
47
0.0
47
0.0
47
0.0
47
0.0
47
1.0
47
0.0
47
0.0
47
0.0
47
0.0
47
1.0
171
0
49
0.0208333333333333
49
0.0
49
0.0
49
0.0
49
0.0
49
0.0208333333333333
49
0.0
49
0.0
49
0.0
49
0.0
49
1.0
49
0.0
49
0.0
49
0.0
49
0.0
49
1.0
175
0
142
0.0208333333333333
142
0.0
142
0.0
142
0.0
142
0.0
142
0.0208333333333333
142
0.0
142
0.0
142
0.0
142
0.0
142
1.0
142
0.0
142
0.0
142
0.0
142
0.0
142
1.0
179
0
144
0.0208333333333333
144
0.0
144
0.0
144
0.0
144
0.0
144
0.0208333333333333
144
0.0
144
0.0
144
0.0
144
0.0
144
1.0
144
0.0
144
0.0
144
0.0
144
0.0
144
1.0
147
0.0208333333333333
147
0.0
147
0.0
147
0.0
147
0.0
147
0.0208333333333333
147
0.0
147
0.0
147
0.0
147
0.0
147
1.0
147
0.0
147
0.0
147
0.0
147
0.0
147
1.0
0
MATERIAL
5
F8B
102
{ACAD_XDICTIONARY
360
F8C
102
}
102
{ACAD_REACTORS
330
F7A
102
}
330
F7A
100
AcDbMaterial
1
Global
72
0
43
0.0208333333333333
43
0.0
43
0.0
43
0.0
43
0.0
43
0.0208333333333333
43
0.0
43
0.0
43
0.0
43
0.0
43
1.0
43
0.0
43
0.0
43
0.0
43
0.0
43
1.0
77
0
47
0.0208333333333333
47
0.0
47
0.0
47
0.0
47
0.0
47
0.0208333333333333
47
0.0
47
0.0
47
0.0
47
0.0
47
1.0
47
0.0
47
0.0
47
0.0
47
0.0
47
1.0
171
0
49
0.0208333333333333
49
0.0
49
0.0
49
0.0
49
0.0
49
0.0208333333333333
49
0.0
49
0.0
49
0.0
49
0.0
49
1.0
49
0.0
49
0.0
49
0.0
49
0.0
49
1.0
175
0
142
0.0208333333333333
142
0.0
142
0.0
142
0.0
142
0.0
142
0.0208333333333333
142
0.0
142
0.0
142
0.0
142
0.0
142
1.0
142
0.0
142
0.0
142
0.0
142
0.0
142
1.0
179
0
144
0.0208333333333333
144
0.0
144
0.0
144
0.0
144
0.0
144
0.0208333333333333
144
0.0
144
0.0
144
0.0
144
0.0
144
1.0
144
0.0
144
0.0
144
0.0
144
0.0
144
1.0
147
0.0208333333333333
147
0.0
147
0.0
147
0.0
147
0.0
147
0.0208333333333333
147
0.0
147
0.0
147
0.0
147
0.0
147
1.0
147
0.0
147
0.0
147
0.0
147
0.0
147
1.0
0
MLEADERSTYLE
5
FCE
102
{ACAD_REACTORS
330
FCD
102
}
330
FCD
100
AcDbMLeaderStyle
170
2
171
1
172
0
90
2
40
0.0
41
0.0
173
1
91
-1056964608
340
256
92
-2
290
1
42
0.09
291
1
43
0.36
3
Standard
44
0.18
300

342
253
174
1
178
6
175
1
176
0
93
-1056964608
45
0.18
292
0
297
0
46
0.18
94
-1056964608
47
1.0
49
1.0
140
1.0
293
1
141
0.0
294
1
177
0
142
1.0
295
0
296
0
143
0.125
1001
ACAD_MLEADERVER
1070
2
0
MLINESTYLE
5
FAA
102
{ACAD_REACTORS
330
16
102
}
330
16
100
AcDbMlineStyle
2
STANDARD
70
0
3

62
256
51
90.0
52
90.0
71
2
49
0.5
62
256
6
BYLAYER
49
-0.5
62
256
6
BYLAYER
0
ACDBPLACEHOLDER
5
19
102
{ACAD_REACTORS
330
18
102
}
330
18
0
SCALE
5
FAC
102
{ACAD_REACTORS
330
FAB
102
}
330
FAB
100
AcDbScale
70
0
300
1:1
140
1.0
141
1.0
290
1
0
SCALE
5
FAD
102
{ACAD_REACTORS
330
FAB
102
}
330
FAB
100
AcDbScale
70
0
300
1:2
140
1.0
141
2.0
290
0
0
SCALE
5
FAE
102
{ACAD_REACTORS
330
FAB
102
}
330
FAB
100
AcDbScale
70
0
300
1:4
140
1.0
141
4.0
290
0
0
SCALE
5
FAF
102
{ACAD_REACTORS
330
FAB
102
}
330
FAB
100
AcDbScale
70
0
300
1:5
140
1.0
141
5.0
290
0
0
SCALE
5
FB0
102
{ACAD_REACTORS
330
FAB
102
}
330
FAB
100
AcDbScale
70
0
300
1:8
140
1.0
141
8.0
290
0
0
SCALE
5
FB1
102
{ACAD_REACTORS
330
FAB
102
}
330
FAB
100
AcDbScale
70
0
300
1:10
140
1.0
141
10.0
290
0
0
SCALE
5
FB2
102
{ACAD_REACTORS
330
FAB
102
}
330
FAB
100
AcDbScale
70
0
300
1:16
140
1.0
141
16.0
290
0
0
SCALE
5
FB3
102
{ACAD_REACTORS
330
FAB
102
}
330
FAB
100
AcDbScale
70
0
300
1:20
140
1.0
141
20.0
290
0
0
SCALE
5
FB4
102
{ACAD_REACTORS
330
FAB
102
}
330
FAB
100
AcDbScale
70
0
300
1:30
140
1.0
141
30.0
290
0
0
SCALE
5
FB5
102
{ACAD_REACTORS
330
FAB
102
}
330
FAB
100
AcDbScale
70
0
300
1:40
140
1.0
141
40.0
290
0
0
SCALE
5
FB6
102
{ACAD_REACTORS
330
FAB
102
}
330
FAB
100
AcDbScale
70
0
300
1:50
140
1.0
141
50.0
290
0
0
SCALE
5
FB7
102
{ACAD_REACTORS
330
FAB
102
}
330
FAB
100
AcDbScale
70
0
300
1:100
140
1.0
141
100.0
290
0
0
SCALE
5
FB8
102
{ACAD_REACTORS
330
FAB
102
}
330
FAB
100
AcDbScale
70
0
300
2:1
140
2.0
141
1.0
290
0
0
SCALE
5
FB9
102
{ACAD_REACTORS
330
FAB
102
}
330
FAB
100
AcDbScale
70
0
300
4:1
140
4.0
141
1.0
290
0
0
SCALE
5
FBA
102
{ACAD_REACTORS
330
FAB
102
}
330
FAB
100
AcDbScale
70
0
300
8:1
140
8.0
141
1.0
290
0
0
SCALE
5
FBB
102
{ACAD_REACTORS
330
FAB
102
}
330
FAB
100
AcDbScale
70
0
300
10:1
140
10.0
141
1.0
290
0
0
SCALE
5
FBC
102
{ACAD_REACTORS
330
FAB
102
}
330
FAB
100
AcDbScale
70
0
300
100:1
140
100.0
141
1.0
290
0
0
SCALE
5
FBD
102
{ACAD_REACTORS
330
FAB
102
}
330
FAB
100
AcDbScale
70
0
300
1/128" = 1'-0"
140
0.0078125
141
12.0
290
0
0
SCALE
5
FBE
102
{ACAD_REACTORS
330
FAB
102
}
330
FAB
100
AcDbScale
70
0
300
1/64" = 1'-0"
140
0.015625
141
12.0
290
0
0
SCALE
5
FBF
102
{ACAD_REACTORS
330
FAB
102
}
330
FAB
100
AcDbScale
70
0
300
1/32" = 1'-0"
140
0.03125
141
12.0
290
0
0
SCALE
5
FC0
102
{ACAD_REACTORS
330
FAB
102
}
330
FAB
100
AcDbScale
70
0
300
1/16" = 1'-0"
140
0.0625
141
12.0
290
0
0
SCALE
5
FC1
102
{ACAD_REACTORS
330
FAB
102
}
330
FAB
100
AcDbScale
70
0
300
3/32" = 1'-0"
140
0.09375
141
12.0
290
0
0
SCALE
5
FC2
102
{ACAD_REACTORS
330
FAB
102
}
330
FAB
100
AcDbScale
70
0
300
1/8" = 1'-0"
140
0.125
141
12.0
290
0
0
SCALE
5
FC3
102
{ACAD_REACTORS
330
FAB
102
}
330
FAB
100
AcDbScale
70
0
300
3/16" = 1'-0"
140
0.1875
141
12.0
290
0
0
SCALE
5
FC4
102
{ACAD_REACTORS
330
FAB
102
}
330
FAB
100
AcDbScale
70
0
300
1/4" = 1'-0"
140
0.25
141
12.0
290
0
0
SCALE
5
FC5
102
{ACAD_REACTORS
330
FAB
102
}
330
FAB
100
AcDbScale
70
0
300
3/8" = 1'-0"
140
0.375
141
12.0
290
0
0
SCALE
5
FC6
102
{ACAD_REACTORS
330
FAB
102
}
330
FAB
100
AcDbScale
70
0
300
1/2" = 1'-0"
140
0.5
141
12.0
290
0
0
SCALE
5
FC7
102
{ACAD_REACTORS
330
FAB
102
}
330
FAB
100
AcDbScale
70
0
300
3/4" = 1'-0"
140
0.75
141
12.0
290
0
0
SCALE
5
FC8
102
{ACAD_REACTORS
330
FAB
102
}
330
FAB
100
AcDbScale
70
0
300
1" = 1'-0"
140
1.0
141
12.0
290
0
0
SCALE
5
FC9
102
{ACAD_REACTORS
330
FAB
102
}
330
FAB
100
AcDbScale
70
0
300
1-1/2" = 1'-0"
140
1.5
141
12.0
290
0
0
SCALE
5
FCA
102
{ACAD_REACTORS
330
FAB
102
}
330
FAB
100
AcDbScale
70
0
300
3" = 1'-0"
140
3.0
141
12.0
290
0
0
SCALE
5
FCB
102
{ACAD_REACTORS
330
FAB
102
}
330
FAB
100
AcDbScale
70
0
300
6" = 1'-0"
140
6.0
141
12.0
290
0
0
SCALE
5
FCC
102
{ACAD_REACTORS
330
FAB
102
}
330
FAB
100
AcDbScale
70
0
300
1'-0" = 1'-0"
140
12.0
141
12.0
290
0
0
TABLESTYLE
5
FA9
102
{ACAD_XDICTIONARY
360
FF8
102
}
102
{ACAD_REACTORS
330
FA8
102
}
330
FA8
100
AcDbTableStyle
3
Standard
70
0
71
0
40
0.06
41
0.06
280
0
281
0
7
Standard
140
0.18
170
2
62
0
63
7
283
0
274
-2
284
1
64
0
275
-2
285
1
65
0
276
-2
286
1
66
0
277
-2
287
1
67
0
278
-2
288
1
68
0
279
-2
289
1
69
0
7
Standard
140
0.25
170
5
62
0
63
7
283
0
274
-2
284
1
64
0
275
-2
285
1
65
0
276
-2
286
1
66
0
277
-2
287
1
67
0
278
-2
288
1
68
0
279
-2
289
1
69
0
7
Standard
140
0.18
170
5
62
0
63
7
283
0
274
-2
284
1
64
0
275
-2
285
1
65
0
276
-2
286
1
66
0
277
-2
287
1
67
0
278
-2
288
1
68
0
279
-2
289
1
69
0
0
VISUALSTYLE
5
F99
102
{ACAD_XDICTIONARY
360
108A
102
}
102
{ACAD_REACTORS
330
F93
102
}
330
F93
100
AcDbVisualStyle
2

70
4
71
0
72
2
73
0
90
0
40
-0.6
41
-30.0
62
5
63
7
74
1
91
4
64
7
65
257
75
1
175
1
42
1.0
92
0
66
257
43
1.0
76
1
77
6
78
2
67
7
79
5
170
0
171
0
290
0
174
0
93
1
44
0.0
173
0
291
0
45
0.0
1001
ACAD
1000
AcDbSavedByObjectVersion
1070
0
0
VISUALSTYLE
5
F9B
102
{ACAD_XDICTIONARY
360
108E
102
}
102
{ACAD_REACTORS
330
F93
102
}
330
F93
100
AcDbVisualStyle
2

70
6
71
1
72
2
73
2
90
0
40
-0.6
41
-30.0
62
5
63
7
74
2
91
2
64
7
65
257
75
2
175
1
42
179.0
92
0
66
257
43
1.0
76
1
77
6
78
2
67
7
79
3
170
0
171
0
290
0
174
0
93
1
44
0.0
173
0
291
0
45
0.0
1001
ACAD
1000
AcDbSavedByObjectVersion
1070
0
0
VISUALSTYLE
5
F9A
102
{ACAD_XDICTIONARY
360
108C
102
}
102
{ACAD_REACTORS
330
F93
102
}
330
F93
100
AcDbVisualStyle
2

70
5
71
0
72
2
73
0
90
0
40
-0.6
41
-30.0
62
5
63
7
74
1
91
4
64
7
65
257
75
1
175
1
42
1.0
92
0
66
257
43
1.0
76
1
77
6
78
2
67
7
79
5
170
0
171
0
290
0
174
0
93
1
44
0.0
173
0
291
0
45
0.0
1001
ACAD
1000
AcDbSavedByObjectVersion
1070
0
0
VISUALSTYLE
5
F98
102
{ACAD_XDICTIONARY
360
1088
102
}
102
{ACAD_REACTORS
330
F93
102
}
330
F93
100
AcDbVisualStyle
2

70
7
71
1
72
0
73
1
90
0
40
-0.6
41
-30.0
62
5
63
7
74
0
91
4
64
7
65
257
75
1
175
1
42
1.0
92
8
66
7
43
1.0
76
1
77
6
78
2
67
7
79
5
170
0
171
0
290
0
174
0
93
1
44
0.0
173
0
291
1
45
0.0
1001
ACAD
1000
AcDbSavedByObjectVersion
1070
0
0
VISUALSTYLE
5
F9F
102
{ACAD_XDICTIONARY
360
1096
102
}
102
{ACAD_REACTORS
330
F93
102
}
330
F93
100
AcDbVisualStyle
2

70
12
71
2
72
2
73
0
90
0
40
-0.6
41
-30.0
62
5
63
7
74
1
91
4
64
7
65
257
75
1
175
1
42
1.0
92
8
66
7
43
1.0
76
1
77
6
78
2
67
7
79
5
170
0
171
0
290
0
174
0
93
1
44
50.0
173
0
291
1
45
0.0
1001
ACAD
1000
AcDbSavedByObjectVersion
1070
0
0
VISUALSTYLE
5
FA3
102
{ACAD_XDICTIONARY
360
109E
102
}
102
{ACAD_REACTORS
330
F93
102
}
330
F93
100
AcDbVisualStyle
2

70
16
71
2
72
2
73
3
90
0
40
-0.6
41
-30.0
62
5
63
8
74
1
91
4
64
7
65
257
75
1
175
1
42
1.0
92
8
66
8
43
1.0
76
1
77
6
78
2
67
7
79
5
170
0
171
0
290
0
174
0
93
1
44
0.0
173
0
291
1
45
0.0
1001
ACAD
1000
AcDbSavedByObjectVersion
1070
0
0
VISUALSTYLE
5
F9C
102
{ACAD_XDICTIONARY
360
1090
102
}
102
{ACAD_REACTORS
330
F93
102
}
330
F93
100
AcDbVisualStyle
2

70
9
71
3
72
2
73
0
90
0
40
-0.6
41
-30.0
62
5
63
7
74
2
91
2
64
7
65
257
75
1
175
1
42
179.0
92
8
66
7
43
1.0
76
1
77
6
78
2
67
7
79
3
170
0
171
0
290
0
174
0
93
1
44
0.0
173
0
291
0
45
0.0
1001
ACAD
1000
AcDbSavedByObjectVersion
1070
0
0
VISUALSTYLE
5
F9E
102
{ACAD_XDICTIONARY
360
1094
102
}
102
{ACAD_REACTORS
330
F93
102
}
330
F93
100
AcDbVisualStyle
2

70
11
71
2
72
2
73
0
90
0
40
-0.6
41
-30.0
62
5
63
7
74
1
91
4
64
7
65
257
75
1
175
1
42
1.0
92
8
66
7
43
1.0
76
1
77
6
78
2
67
7
79
5
170
0
171
0
290
0
174
0
93
1
44
-50.0
173
0
291
1
45
0.0
1001
ACAD
1000
AcDbSavedByObjectVersion
1070
0
0
VISUALSTYLE
5
FA6
102
{ACAD_XDICTIONARY
360
10A4
102
}
102
{ACAD_REACTORS
330
F93
102
}
330
F93
100
AcDbVisualStyle
2

70
22
71
2
72
2
73
0
90
0
40
-0.6
41
-30.0
62
5
63
7
74
1
91
4
64
7
65
257
75
1
175
1
42
1.0
92
8
66
7
43
1.0
76
1
77
6
78
2
67
7
79
5
170
0
171
0
290
0
174
0
93
1
44
0.0
173
0
291
1
45
0.0
1001
ACAD
1000
AcDbSavedByObjectVersion
1070
0
0
VISUALSTYLE
5
FA2
102
{ACAD_XDICTIONARY
360
109C
102
}
102
{ACAD_REACTORS
330
F93
102
}
330
F93
100
AcDbVisualStyle
2

70
15
71
2
72
2
73
0
90
0
40
-0.6
41
-30.0
62
5
63
7
74
1
91
4
64
7
65
257
75
1
175
1
42
1.0
92
8
66
7
43
1.0
76
1
77
6
78
2
67
7
79
5
170
0
171
0
290
0
174
0
93
1
44
0.0
173
0
291
1
45
0.0
1001
ACAD
1000
AcDbSavedByObjectVersion
1070
0
0
VISUALSTYLE
5
F94
102
{ACAD_XDICTIONARY
360
1080
102
}
102
{ACAD_REACTORS
330
F93
102
}
330
F93
100
AcDbVisualStyle
2

70
0
71
2
72
1
73
1
90
2
40
-0.6
41
30.0
62
5
63
7
74
0
91
4
64
7
65
257
75
1
175
1
42
1.0
92
8
66
7
43
1.0
76
1
77
6
78
2
67
7
79
5
170
0
171
0
290
0
174
0
93
13
44
0.0
173
0
291
1
45
0.0
1001
ACAD
1000
AcDbSavedByObjectVersion
1070
0
0
VISUALSTYLE
5
F95
102
{ACAD_XDICTIONARY
360
1082
102
}
102
{ACAD_REACTORS
330
F93
102
}
330
F93
100
AcDbVisualStyle
2

70
1
71
2
72
1
73
1
90
2
40
-0.6
41
30.0
62
5
63
7
74
1
91
4
64
7
65
257
75
1
175
1
42
1.0
92
0
66
257
43
1.0
76
1
77
6
78
2
67
7
79
5
170
0
171
0
290
0
174
0
93
13
44
0.0
173
0
291
1
45
0.0
1001
ACAD
1000
AcDbSavedByObjectVersion
1070
0
0
VISUALSTYLE
5
F96
102
{ACAD_XDICTIONARY
360
1084
102
}
102
{ACAD_REACTORS
330
F93
102
}
330
F93
100
AcDbVisualStyle
2

70
2
71
2
72
2
73
1
90
2
40
-0.6
41
30.0
62
5
63
7
74
0
91
4
64
7
65
257
75
1
175
1
42
1.0
92
0
66
7
43
1.0
76
1
77
6
78
2
67
7
79
5
170
0
171
0
290
0
174
0
93
13
44
0.0
173
0
291
1
45
0.0
1001
ACAD
1000
AcDbSavedByObjectVersion
1070
0
0
VISUALSTYLE
5
F97
102
{ACAD_XDICTIONARY
360
1086
102
}
102
{ACAD_REACTORS
330
F93
102
}
330
F93
100
AcDbVisualStyle
2

70
3
71
2
72
2
73
1
90
2
40
-0.6
41
30.0
62
5
63
7
74
1
91
4
64
7
65
257
75
1
175
1
42
1.0
92
0
66
257
43
1.0
76
1
77
6
78
2
67
7
79
5
170
0
171
0
290
0
174
0
93
13
44
0.0
173
0
291
1
45
0.0
1001
ACAD
1000
AcDbSavedByObjectVersion
1070
0
0
VISUALSTYLE
5
FA4
102
{ACAD_XDICTIONARY
360
10A0
102
}
102
{ACAD_REACTORS
330
F93
102
}
330
F93
100
AcDbVisualStyle
2

70
20
71
2
72
2
73
0
90
0
40
-0.6
41
-30.0
62
5
63
7
74
1
91
4
64
7
65
257
75
1
175
1
42
1.0
92
10
66
7
43
1.0
76
1
77
6
78
2
67
7
79
5
170
0
171
0
290
0
174
0
93
1
44
0.0
173
0
291
1
45
0.0
1001
ACAD
1000
AcDbSavedByObjectVersion
1070
0
0
VISUALSTYLE
5
FA1
102
{ACAD_XDICTIONARY
360
109A
102
}
102
{ACAD_REACTORS
330
F93
102
}
330
F93
100
AcDbVisualStyle
2

70
14
71
2
72
2
73
0
90
0
40
-0.6
41
-30.0
62
5
63
7
74
1
91
4
64
7
65
257
75
7
175
7
42
1.0
92
8
66
7
43
1.0
76
1
77
6
78
2
67
7
79
5
170
0
171
0
290
0
174
0
93
1
44
0.0
173
0
291
1
45
0.0
1001
ACAD
1000
AcDbSavedByObjectVersion
1070
0
0
VISUALSTYLE
5
FA5
102
{ACAD_XDICTIONARY
360
10A2
102
}
102
{ACAD_REACTORS
330
F93
102
}
330
F93
100
AcDbVisualStyle
2

70
21
71
2
72
2
73
0
90
0
40
-0.6
41
-30.0
62
5
63
7
74
1
91
4
64
7
65
257
75
1
175
1
42
1.0
92
9
66
7
43
1.0
76
1
77
6
78
2
67
7
79
5
170
0
171
0
290
0
174
0
93
1
44
0.0
173
0
291
1
45
0.0
1001
ACAD
1000
AcDbSavedByObjectVersion
1070
0
0
VISUALSTYLE
5
F9D
102
{ACAD_XDICTIONARY
360
1092
102
}
102
{ACAD_REACTORS
330
F93
102
}
330
F93
100
AcDbVisualStyle
2

70
8
71
2
72
2
73
0
90
0
40
-0.6
41
-30.0
62
5
63
7
74
1
91
0
64
7
65
257
75
1
175
1
42
1.0
92
8
66
8
43
1.0
76
1
77
6
78
2
67
7
79
5
170
0
171
0
290
0
174
0
93
13
44
0.0
173
0
291
0
45
0.0
1001
ACAD
1000
AcDbSavedByObjectVersion
1070
0
0
VISUALSTYLE
5
FA0
102
{ACAD_XDICTIONARY
360
1098
102
}
102
{ACAD_REACTORS
330
F93
102
}
330
F93
100
AcDbVisualStyle
2

70
13
71
2
72
2
73
0
90
0
40
-0.6
41
-30.0
62
5
63
7
74
1
91
4
64
7
65
257
75
1
175
1
42
1.0
92
12
66
7
43
1.0
76
1
77
6
78
2
67
7
79
5
170
0
171
0
290
0
174
0
93
1
44
0.0
173
0
291
1
45
0.0
1001
ACAD
1000
AcDbSavedByObjectVersion
1070
0
0
DICTIONARYVAR
5
FF3
102
{ACAD_REACTORS
330
FF0
102
}
330
FF0
100
DictionaryVariables
280
0
1
1:1
0
DICTIONARYVAR
5
FF2
102
{ACAD_REACTORS
330
FF0
102
}
330
FF0
100
DictionaryVariables
280
0
1
STANDARD
0
DICTIONARYVAR
5
FF1
102
{ACAD_REACTORS
330
FF0
102
}
330
FF0
100
DictionaryVariables
280
0
1
STANDARD
0
DICTIONARYVAR
5
FF6
102
{ACAD_REACTORS
330
FF0
102
}
330
FF0
100
DictionaryVariables
280
0
1
1
0
DICTIONARYVAR
5
FF5
102
{ACAD_REACTORS
330
FF0
102
}
330
FF0
100
DictionaryVariables
280
0
1
0
0
DICTIONARYVAR
5
FF4
102
{ACAD_REACTORS
330
FF0
102
}
330
FF0
100
DictionaryVariables
280
0
1
127
0
DICTIONARYVAR
5
1078
102
{ACAD_REACTORS
330
FF0
102
}
330
FF0
100
DictionaryVariables
280
0
1
2
0
DICTIONARY
5
10A9
330
FD1
100
AcDbDictionary
280
1
281
1
3
ACAD_XREC_ROUNDTRIP
360
10AA
0
DICTIONARY
5
10A7
330
FD0
100
AcDbDictionary
280
1
281
1
3
ACAD_XREC_ROUNDTRIP
360
10A8
0
DICTIONARY
5
F84
330
F83
100
AcDbDictionary
280
1
281
1
3
ACAD_XREC_ROUNDTRIP
360
FFF
3
BUMPTILE
360
F86
3
DIFFUSETILE
360
F85
3
OPACITYTILE
360
F89
3
REFLECTIONTILE
360
F88
3
REFRACTIONTILE
360
F8A
3
SPECULARTILE
360
F87
0
DICTIONARY
5
F7C
330
F7B
100
AcDbDictionary
280
1
281
1
3
ACAD_XREC_ROUNDTRIP
360
FFE
3
BUMPTILE
360
F7E
3
DIFFUSETILE
360
F7D
3
OPACITYTILE
360
F81
3
REFLECTIONTILE
360
F80
3
REFRACTIONTILE
360
F82
3
SPECULARTILE
360
F7F
0
DICTIONARY
5
F8C
330
F8B
100
AcDbDictionary
280
1
281
1
3
ACAD_XREC_ROUNDTRIP
360
1000
3
BUMPTILE
360
F8E
3
DIFFUSETILE
360
F8D
3
OPACITYTILE
360
F91
3
REFLECTIONTILE
360
F90
3
REFRACTIONTILE
360
F92
3
SPECULARTILE
360
F8F
0
DICTIONARY
5
FF8
330
FA9
100
AcDbDictionary
280
1
281
1
3
ACAD_ROUNDTRIP_2008_TABLESTYLE_CELLSTYLEMAP
360
1079
3
ACAD_XREC_ROUNDTRIP
360
10A6
0
DICTIONARY
5
108A
330
F99
100
AcDbDictionary
280
1
281
1
3
ACAD_XREC_ROUNDTRIP
360
108B
0
DICTIONARY
5
108E
330
F9B
100
AcDbDictionary
280
1
281
1
3
ACAD_XREC_ROUNDTRIP
360
108F
0
DICTIONARY
5
108C
330
F9A
100
AcDbDictionary
280
1
281
1
3
ACAD_XREC_ROUNDTRIP
360
108D
0
DICTIONARY
5
1088
330
F98
100
AcDbDictionary
280
1
281
1
3
ACAD_XREC_ROUNDTRIP
360
1089
0
DICTIONARY
5
1096
330
F9F
100
AcDbDictionary
280
1
281
1
3
ACAD_XREC_ROUNDTRIP
360
1097
0
DICTIONARY
5
109E
330
FA3
100
AcDbDictionary
280
1
281
1
3
ACAD_XREC_ROUNDTRIP
360
109F
0
DICTIONARY
5
1090
330
F9C
100
AcDbDictionary
280
1
281
1
3
ACAD_XREC_ROUNDTRIP
360
1091
0
DICTIONARY
5
1094
330
F9E
100
AcDbDictionary
280
1
281
1
3
ACAD_XREC_ROUNDTRIP
360
1095
0
DICTIONARY
5
10A4
330
FA6
100
AcDbDictionary
280
1
281
1
3
ACAD_XREC_ROUNDTRIP
360
10A5
0
DICTIONARY
5
109C
330
FA2
100
AcDbDictionary
280
1
281
1
3
ACAD_XREC_ROUNDTRIP
360
109D
0
DICTIONARY
5
1080
330
F94
100
AcDbDictionary
280
1
281
1
3
ACAD_XREC_ROUNDTRIP
360
1081
0
DICTIONARY
5
1082
330
F95
100
AcDbDictionary
280
1
281
1
3
ACAD_XREC_ROUNDTRIP
360
1083
0
DICTIONARY
5
1084
330
F96
100
AcDbDictionary
280
1
281
1
3
ACAD_XREC_ROUNDTRIP
360
1085
0
DICTIONARY
5
1086
330
F97
100
AcDbDictionary
280
1
281
1
3
ACAD_XREC_ROUNDTRIP
360
1087
0
DICTIONARY
5
10A0
330
FA4
100
AcDbDictionary
280
1
281
1
3
ACAD_XREC_ROUNDTRIP
360
10A1
0
DICTIONARY
5
109A
330
FA1
100
AcDbDictionary
280
1
281
1
3
ACAD_XREC_ROUNDTRIP
360
109B
0
DICTIONARY
5
10A2
330
FA5
100
AcDbDictionary
280
1
281
1
3
ACAD_XREC_ROUNDTRIP
360
10A3
0
DICTIONARY
5
1092
330
F9D
100
AcDbDictionary
280
1
281
1
3
ACAD_XREC_ROUNDTRIP
360
1093
0
DICTIONARY
5
1098
330
FA0
100
AcDbDictionary
280
1
281
1
3
ACAD_XREC_ROUNDTRIP
360
1099
0
XRECORD
5
10AA
102
{ACAD_REACTORS
330
10A9
102
}
330
10A9
100
AcDbXrecord
280
1
102
SHADEPLOT
70
0
102
SHADEPLOTRESLEVEL
70
2
102
SHADEPLOTCUSTOMDPI
70
300
0
XRECORD
5
10A8
102
{ACAD_REACTORS
330
10A7
102
}
330
10A7
100
AcDbXrecord
280
1
102
SHADEPLOT
70
0
102
SHADEPLOTRESLEVEL
70
2
102
SHADEPLOTCUSTOMDPI
70
300
0
XRECORD
5
FFF
102
{ACAD_REACTORS
330
F84
102
}
330
F84
100
AcDbXrecord
280
1
102
MATERIAL
148
0.0
149
0.0
149
0.0
93
0
94
127
282
0
72
0
77
0
171
0
175
0
179
0
273
0
0
XRECORD
5
F86
102
{ACAD_REACTORS
330
F84
102
}
330
F84
100
AcDbXrecord
280
1
270
1
271
1
0
XRECORD
5
F85
102
{ACAD_REACTORS
330
F84
102
}
330
F84
100
AcDbXrecord
280
1
270
1
271
1
0
XRECORD
5
F89
102
{ACAD_REACTORS
330
F84
102
}
330
F84
100
AcDbXrecord
280
1
270
1
271
1
0
XRECORD
5
F88
102
{ACAD_REACTORS
330
F84
102
}
330
F84
100
AcDbXrecord
280
1
270
1
271
1
0
XRECORD
5
F8A
102
{ACAD_REACTORS
330
F84
102
}
330
F84
100
AcDbXrecord
280
1
270
1
271
1
0
XRECORD
5
F87
102
{ACAD_REACTORS
330
F84
102
}
330
F84
100
AcDbXrecord
280
1
270
1
271
1
0
XRECORD
5
FFE
102
{ACAD_REACTORS
330
F7C
102
}
330
F7C
100
AcDbXrecord
280
1
102
MATERIAL
148
0.0
149
0.0
149
0.0
93
0
94
127
282
0
72
0
77
0
171
0
175
0
179
0
273
0
0
XRECORD
5
F7E
102
{ACAD_REACTORS
330
F7C
102
}
330
F7C
100
AcDbXrecord
280
1
270
1
271
1
0
XRECORD
5
F7D
102
{ACAD_REACTORS
330
F7C
102
}
330
F7C
100
AcDbXrecord
280
1
270
1
271
1
0
XRECORD
5
F81
102
{ACAD_REACTORS
330
F7C
102
}
330
F7C
100
AcDbXrecord
280
1
270
1
271
1
0
XRECORD
5
F80
102
{ACAD_REACTORS
330
F7C
102
}
330
F7C
100
AcDbXrecord
280
1
270
1
271
1
0
XRECORD
5
F82
102
{ACAD_REACTORS
330
F7C
102
}
330
F7C
100
AcDbXrecord
280
1
270
1
271
1
0
XRECORD
5
F7F
102
{ACAD_REACTORS
330
F7C
102
}
330
F7C
100
AcDbXrecord
280
1
270
1
271
1
0
XRECORD
5
1000
102
{ACAD_REACTORS
330
F8C
102
}
330
F8C
100
AcDbXrecord
280
1
102
MATERIAL
148
0.0
149
0.0
149
0.0
93
0
94
127
282
0
72
0
77
0
171
0
175
0
179
0
273
0
0
XRECORD
5
F8E
102
{ACAD_REACTORS
330
F8C
102
}
330
F8C
100
AcDbXrecord
280
1
270
1
271
1
0
XRECORD
5
F8D
102
{ACAD_REACTORS
330
F8C
102
}
330
F8C
100
AcDbXrecord
280
1
270
1
271
1
0
XRECORD
5
F91
102
{ACAD_REACTORS
330
F8C
102
}
330
F8C
100
AcDbXrecord
280
1
270
1
271
1
0
XRECORD
5
F90
102
{ACAD_REACTORS
330
F8C
102
}
330
F8C
100
AcDbXrecord
280
1
270
1
271
1
0
XRECORD
5
F92
102
{ACAD_REACTORS
330
F8C
102
}
330
F8C
100
AcDbXrecord
280
1
270
1
271
1
0
XRECORD
5
F8F
102
{ACAD_REACTORS
330
F8C
102
}
330
F8C
100
AcDbXrecord
280
1
270
1
271
1
0
CELLSTYLEMAP
5
1079
102
{ACAD_REACTORS
330
FF8
102
}
330
FF8
100
AcDbCellStyleMap
90
3
300
CELLSTYLE
1
TABLEFORMAT_BEGIN
90
5
170
1
91
0
92
32768
62
257
93
1
300
CONTENTFORMAT
1
CONTENTFORMAT_BEGIN
90
0
91
0
92
512
93
0
300

40
0.0
140
1.0
94
5
62
0
340
253
144
0.25
309
CONTENTFORMAT_END
171
1
301
MARGIN
1
CELLMARGIN_BEGIN
40
0.06
40
0.06
40
0.06
40
0.06
40
0.18
40
0.18
309
CELLMARGIN_END
94
6
95
1
302
GRIDFORMAT
1
GRIDFORMAT_BEGIN
90
0
91
1
62
0
92
-2
340
0
93
0
40
0.045
309
GRIDFORMAT_END
95
2
302
GRIDFORMAT
1
GRIDFORMAT_BEGIN
90
0
91
1
62
0
92
-2
340
0
93
0
40
0.045
309
GRIDFORMAT_END
95
4
302
GRIDFORMAT
1
GRIDFORMAT_BEGIN
90
0
91
1
62
0
92
-2
340
0
93
0
40
0.045
309
GRIDFORMAT_END
95
8
302
GRIDFORMAT
1
GRIDFORMAT_BEGIN
90
0
91
1
62
0
92
-2
340
0
93
0
40
0.045
309
GRIDFORMAT_END
95
16
302
GRIDFORMAT
1
GRIDFORMAT_BEGIN
90
0
91
1
62
0
92
-2
340
0
93
0
40
0.045
309
GRIDFORMAT_END
95
32
302
GRIDFORMAT
1
GRIDFORMAT_BEGIN
90
0
91
1
62
0
92
-2
340
0
93
0
40
0.045
309
GRIDFORMAT_END
309
TABLEFORMAT_END
1
CELLSTYLE_BEGIN
90
1
91
1
300
_TITLE
309
CELLSTYLE_END
300
CELLSTYLE
1
TABLEFORMAT_BEGIN
90
5
170
1
91
0
92
0
62
257
93
1
300
CONTENTFORMAT
1
CONTENTFORMAT_BEGIN
90
0
91
0
92
512
93
0
300

40
0.0
140
1.0
94
5
62
0
340
253
144
0.18
309
CONTENTFORMAT_END
171
1
301
MARGIN
1
CELLMARGIN_BEGIN
40
0.06
40
0.06
40
0.06
40
0.06
40
0.18
40
0.18
309
CELLMARGIN_END
94
6
95
1
302
GRIDFORMAT
1
GRIDFORMAT_BEGIN
90
0
91
1
62
0
92
-2
340
0
93
0
40
0.045
309
GRIDFORMAT_END
95
2
302
GRIDFORMAT
1
GRIDFORMAT_BEGIN
90
0
91
1
62
0
92
-2
340
0
93
0
40
0.045
309
GRIDFORMAT_END
95
4
302
GRIDFORMAT
1
GRIDFORMAT_BEGIN
90
0
91
1
62
0
92
-2
340
0
93
0
40
0.045
309
GRIDFORMAT_END
95
8
302
GRIDFORMAT
1
GRIDFORMAT_BEGIN
90
0
91
1
62
0
92
-2
340
0
93
0
40
0.045
309
GRIDFORMAT_END
95
16
302
GRIDFORMAT
1
GRIDFORMAT_BEGIN
90
0
91
1
62
0
92
-2
340
0
93
0
40
0.045
309
GRIDFORMAT_END
95
32
302
GRIDFORMAT
1
GRIDFORMAT_BEGIN
90
0
91
1
62
0
92
-2
340
0
93
0
40
0.045
309
GRIDFORMAT_END
309
TABLEFORMAT_END
1
CELLSTYLE_BEGIN
90
2
91
1
300
_HEADER
309
CELLSTYLE_END
300
CELLSTYLE
1
TABLEFORMAT_BEGIN
90
5
170
1
91
0
92
0
62
257
93
1
300
CONTENTFORMAT
1
CONTENTFORMAT_BEGIN
90
0
91
0
92
512
93
0
300

40
0.0
140
1.0
94
2
62
0
340
253
144
0.18
309
CONTENTFORMAT_END
171
1
301
MARGIN
1
CELLMARGIN_BEGIN
40
0.06
40
0.06
40
0.06
40
0.06
40
0.18
40
0.18
309
CELLMARGIN_END
94
6
95
1
302
GRIDFORMAT
1
GRIDFORMAT_BEGIN
90
0
91
1
62
0
92
-2
340
0
93
0
40
0.045
309
GRIDFORMAT_END
95
2
302
GRIDFORMAT
1
GRIDFORMAT_BEGIN
90
0
91
1
62
0
92
-2
340
0
93
0
40
0.045
309
GRIDFORMAT_END
95
4
302
GRIDFORMAT
1
GRIDFORMAT_BEGIN
90
0
91
1
62
0
92
-2
340
0
93
0
40
0.045
309
GRIDFORMAT_END
95
8
302
GRIDFORMAT
1
GRIDFORMAT_BEGIN
90
0
91
1
62
0
92
-2
340
0
93
0
40
0.045
309
GRIDFORMAT_END
95
16
302
GRIDFORMAT
1
GRIDFORMAT_BEGIN
90
0
91
1
62
0
92
-2
340
0
93
0
40
0.045
309
GRIDFORMAT_END
95
32
302
GRIDFORMAT
1
GRIDFORMAT_BEGIN
90
0
91
1
62
0
92
-2
340
0
93
0
40
0.045
309
GRIDFORMAT_END
309
TABLEFORMAT_END
1
CELLSTYLE_BEGIN
90
3
91
2
300
_DATA
309
CELLSTYLE_END
0
XRECORD
5
10A6
102
{ACAD_REACTORS
330
FF8
102
}
330
FF8
100
AcDbXrecord
280
1
102
ACAD_ROUNDTRIP_PRE2007_TABLESTYLE
90
512
91
0
1

92
512
93
0
2

94
512
95
0
3

0
XRECORD
5
108B
102
{ACAD_REACTORS
330
108A
102
}
330
108A
100
AcDbXrecord
280
1
102
RTVSPropertyOp0
70
1
102
RTVSPropertyOp1
70
1
102
RTVSPropertyOp2
70
1
102
RTVSPropertyOp3
70
1
102
RTVSPropertyOp4
70
1
102
RTVSPropertyOp5
70
1
102
RTVSPropertyOp6
70
1
102
RTVSPropertyOp7
70
1
102
RTVSPropertyOp8
70
1
102
RTVSPropertyOp9
70
1
102
RTVSPropertyOp10
70
1
102
RTVSPropertyOp11
70
1
102
RTVSPropertyOp12
70
1
102
RTVSPropertyOp13
70
1
102
RTVSPropertyOp14
70
1
102
RTVSPropertyOp15
70
1
102
RTVSPropertyOp16
70
1
102
RTVSPropertyOp17
70
1
102
RTVSPropertyOp18
70
1
102
RTVSPropertyOp19
70
1
102
RTVSPropertyOp20
70
1
102
RTVSPropertyOp21
70
1
102
RTVSPropertyOp22
70
1
102
RTVSPropertyOp23
70
1
102
RTVSPropertyOp24
70
1
102
RTVSPropertyOp25
70
1
102
RTVSPropertyOp26
70
1
102
RTVSPropertyOp27
70
1
0
XRECORD
5
108F
102
{ACAD_REACTORS
330
108E
102
}
330
108E
100
AcDbXrecord
280
1
102
RTVSPropertyOp0
70
1
102
RTVSPropertyOp1
70
1
102
RTVSPropertyOp2
70
1
102
RTVSPropertyOp3
70
1
102
RTVSPropertyOp4
70
1
102
RTVSPropertyOp5
70
1
102
RTVSPropertyOp6
70
1
102
RTVSPropertyOp7
70
1
102
RTVSPropertyOp8
70
1
102
RTVSPropertyOp9
70
1
102
RTVSPropertyOp10
70
1
102
RTVSPropertyOp11
70
1
102
RTVSPropertyOp12
70
1
102
RTVSPropertyOp13
70
1
102
RTVSPropertyOp14
70
1
102
RTVSPropertyOp15
70
1
102
RTVSPropertyOp16
70
1
102
RTVSPropertyOp17
70
1
102
RTVSPropertyOp18
70
1
102
RTVSPropertyOp19
70
1
102
RTVSPropertyOp20
70
1
102
RTVSPropertyOp21
70
1
102
RTVSPropertyOp22
70
1
102
RTVSPropertyOp23
70
1
102
RTVSPropertyOp24
70
1
102
RTVSPropertyOp25
70
1
102
RTVSPropertyOp26
70
1
102
RTVSPropertyOp27
70
1
0
XRECORD
5
108D
102
{ACAD_REACTORS
330
108C
102
}
330
108C
100
AcDbXrecord
280
1
102
RTVSPropertyOp0
70
1
102
RTVSPropertyOp1
70
1
102
RTVSPropertyOp2
70
1
102
RTVSPropertyOp3
70
1
102
RTVSPropertyOp4
70
1
102
RTVSPropertyOp5
70
1
102
RTVSPropertyOp6
70
1
102
RTVSPropertyOp7
70
1
102
RTVSPropertyOp8
70
1
102
RTVSPropertyOp9
70
1
102
RTVSPropertyOp10
70
1
102
RTVSPropertyOp11
70
1
102
RTVSPropertyOp12
70
1
102
RTVSPropertyOp13
70
1
102
RTVSPropertyOp14
70
1
102
RTVSPropertyOp15
70
1
102
RTVSPropertyOp16
70
1
102
RTVSPropertyOp17
70
1
102
RTVSPropertyOp18
70
1
102
RTVSPropertyOp19
70
1
102
RTVSPropertyOp20
70
1
102
RTVSPropertyOp21
70
1
102
RTVSPropertyOp22
70
1
102
RTVSPropertyOp23
70
1
102
RTVSPropertyOp24
70
1
102
RTVSPropertyOp25
70
1
102
RTVSPropertyOp26
70
1
102
RTVSPropertyOp27
70
1
0
XRECORD
5
1089
102
{ACAD_REACTORS
330
1088
102
}
330
1088
100
AcDbXrecord
280
1
102
RTVSPropertyOp0
70
1
102
RTVSPropertyOp1
70
1
102
RTVSPropertyOp2
70
1
102
RTVSPropertyOp3
70
1
102
RTVSPropertyOp4
70
1
102
RTVSPropertyOp5
70
1
102
RTVSPropertyOp6
70
1
102
RTVSPropertyOp7
70
1
102
RTVSPropertyOp8
70
1
102
RTVSPropertyOp9
70
1
102
RTVSPropertyOp10
70
1
102
RTVSPropertyOp11
70
1
102
RTVSPropertyOp12
70
1
102
RTVSPropertyOp13
70
1
102
RTVSPropertyOp14
70
1
102
RTVSPropertyOp15
70
1
102
RTVSPropertyOp16
70
1
102
RTVSPropertyOp17
70
1
102
RTVSPropertyOp18
70
1
102
RTVSPropertyOp19
70
1
102
RTVSPropertyOp20
70
1
102
RTVSPropertyOp21
70
1
102
RTVSPropertyOp22
70
1
102
RTVSPropertyOp23
70
1
102
RTVSPropertyOp24
70
1
102
RTVSPropertyOp25
70
1
102
RTVSPropertyOp26
70
1
102
RTVSPropertyOp27
70
1
0
XRECORD
5
1097
102
{ACAD_REACTORS
330
1096
102
}
330
1096
100
AcDbXrecord
280
1
102
RTVSPropertyOp0
70
1
102
RTVSPropertyOp1
70
1
102
RTVSPropertyOp2
70
1
102
RTVSPropertyOp3
70
1
102
RTVSPropertyOp4
70
1
102
RTVSPropertyOp5
70
1
102
RTVSPropertyOp6
70
1
102
RTVSPropertyOp7
70
1
102
RTVSPropertyOp8
70
1
102
RTVSPropertyOp9
70
1
102
RTVSPropertyOp10
70
1
102
RTVSPropertyOp11
70
1
102
RTVSPropertyOp12
70
1
102
RTVSPropertyOp13
70
1
102
RTVSPropertyOp14
70
1
102
RTVSPropertyOp15
70
1
102
RTVSPropertyOp16
70
1
102
RTVSPropertyOp17
70
1
102
RTVSPropertyOp18
70
1
102
RTVSPropertyOp19
70
1
102
RTVSPropertyOp20
70
1
102
RTVSPropertyOp21
70
1
102
RTVSPropertyOp22
70
1
102
RTVSPropertyOp23
70
1
102
RTVSPropertyOp24
70
1
102
RTVSPropertyOp25
70
1
102
RTVSPropertyOp26
70
1
102
RTVSPropertyOp27
70
1
0
XRECORD
5
109F
102
{ACAD_REACTORS
330
109E
102
}
330
109E
100
AcDbXrecord
280
1
102
RTVSPropertyOp0
70
1
102
RTVSPropertyOp1
70
1
102
RTVSPropertyOp2
70
1
102
RTVSPropertyOp3
70
1
102
RTVSPropertyOp4
70
1
102
RTVSPropertyOp5
70
1
102
RTVSPropertyOp6
70
1
102
RTVSPropertyOp7
70
1
102
RTVSPropertyOp8
70
1
102
RTVSPropertyOp9
70
1
102
RTVSPropertyOp10
70
1
102
RTVSPropertyOp11
70
1
102
RTVSPropertyOp12
70
1
102
RTVSPropertyOp13
70
1
102
RTVSPropertyOp14
70
1
102
RTVSPropertyOp15
70
1
102
RTVSPropertyOp16
70
1
102
RTVSPropertyOp17
70
1
102
RTVSPropertyOp18
70
1
102
RTVSPropertyOp19
70
1
102
RTVSPropertyOp20
70
1
102
RTVSPropertyOp21
70
1
102
RTVSPropertyOp22
70
1
102
RTVSPropertyOp23
70
1
102
RTVSPropertyOp24
70
1
102
RTVSPropertyOp25
70
1
102
RTVSPropertyOp26
70
1
102
RTVSPropertyOp27
70
1
0
XRECORD
5
1091
102
{ACAD_REACTORS
330
1090
102
}
330
1090
100
AcDbXrecord
280
1
102
RTVSPropertyOp0
70
1
102
RTVSPropertyOp1
70
1
102
RTVSPropertyOp2
70
1
102
RTVSPropertyOp3
70
1
102
RTVSPropertyOp4
70
1
102
RTVSPropertyOp5
70
1
102
RTVSPropertyOp6
70
1
102
RTVSPropertyOp7
70
1
102
RTVSPropertyOp8
70
1
102
RTVSPropertyOp9
70
1
102
RTVSPropertyOp10
70
1
102
RTVSPropertyOp11
70
1
102
RTVSPropertyOp12
70
1
102
RTVSPropertyOp13
70
1
102
RTVSPropertyOp14
70
1
102
RTVSPropertyOp15
70
1
102
RTVSPropertyOp16
70
1
102
RTVSPropertyOp17
70
1
102
RTVSPropertyOp18
70
1
102
RTVSPropertyOp19
70
1
102
RTVSPropertyOp20
70
1
102
RTVSPropertyOp21
70
1
102
RTVSPropertyOp22
70
1
102
RTVSPropertyOp23
70
1
102
RTVSPropertyOp24
70
1
102
RTVSPropertyOp25
70
1
102
RTVSPropertyOp26
70
1
102
RTVSPropertyOp27
70
1
0
XRECORD
5
1095
102
{ACAD_REACTORS
330
1094
102
}
330
1094
100
AcDbXrecord
280
1
102
RTVSPropertyOp0
70
1
102
RTVSPropertyOp1
70
1
102
RTVSPropertyOp2
70
1
102
RTVSPropertyOp3
70
1
102
RTVSPropertyOp4
70
1
102
RTVSPropertyOp5
70
1
102
RTVSPropertyOp6
70
1
102
RTVSPropertyOp7
70
1
102
RTVSPropertyOp8
70
1
102
RTVSPropertyOp9
70
1
102
RTVSPropertyOp10
70
1
102
RTVSPropertyOp11
70
1
102
RTVSPropertyOp12
70
1
102
RTVSPropertyOp13
70
1
102
RTVSPropertyOp14
70
1
102
RTVSPropertyOp15
70
1
102
RTVSPropertyOp16
70
1
102
RTVSPropertyOp17
70
1
102
RTVSPropertyOp18
70
1
102
RTVSPropertyOp19
70
1
102
RTVSPropertyOp20
70
1
102
RTVSPropertyOp21
70
1
102
RTVSPropertyOp22
70
1
102
RTVSPropertyOp23
70
1
102
RTVSPropertyOp24
70
1
102
RTVSPropertyOp25
70
1
102
RTVSPropertyOp26
70
1
102
RTVSPropertyOp27
70
1
0
XRECORD
5
10A5
102
{ACAD_REACTORS
330
10A4
102
}
330
10A4
100
AcDbXrecord
280
1
102
RTVSPropertyOp0
70
0
102
RTVSPropertyOp1
70
0
102
RTVSPropertyOp2
70
0
102
RTVSPropertyOp3
70
0
102
RTVSPropertyOp4
70
0
102
RTVSPropertyOp5
70
0
102
RTVSPropertyOp6
70
0
102
RTVSPropertyOp7
70
0
102
RTVSPropertyOp8
70
0
102
RTVSPropertyOp9
70
0
102
RTVSPropertyOp10
70
0
102
RTVSPropertyOp11
70
0
102
RTVSPropertyOp12
70
0
102
RTVSPropertyOp13
70
0
102
RTVSPropertyOp14
70
2
102
RTVSPropertyOp15
70
0
102
RTVSPropertyOp16
70
0
102
RTVSPropertyOp17
70
0
102
RTVSPropertyOp18
70
0
102
RTVSPropertyOp19
70
0
102
RTVSPropertyOp20
70
0
102
RTVSPropertyOp21
70
0
102
RTVSPropertyOp22
70
0
102
RTVSPropertyOp23
70
0
102
RTVSPropertyOp24
70
0
102
RTVSPropertyOp25
70
0
102
RTVSPropertyOp26
70
0
102
RTVSPropertyOp27
70
0
0
XRECORD
5
109D
102
{ACAD_REACTORS
330
109C
102
}
330
109C
100
AcDbXrecord
280
1
102
RTVSPropertyOp0
70
1
102
RTVSPropertyOp1
70
1
102
RTVSPropertyOp2
70
1
102
RTVSPropertyOp3
70
1
102
RTVSPropertyOp4
70
1
102
RTVSPropertyOp5
70
1
102
RTVSPropertyOp6
70
1
102
RTVSPropertyOp7
70
1
102
RTVSPropertyOp8
70
1
102
RTVSPropertyOp9
70
1
102
RTVSPropertyOp10
70
1
102
RTVSPropertyOp11
70
1
102
RTVSPropertyOp12
70
1
102
RTVSPropertyOp13
70
1
102
RTVSPropertyOp14
70
1
102
RTVSPropertyOp15
70
1
102
RTVSPropertyOp16
70
1
102
RTVSPropertyOp17
70
1
102
RTVSPropertyOp18
70
1
102
RTVSPropertyOp19
70
1
102
RTVSPropertyOp20
70
1
102
RTVSPropertyOp21
70
1
102
RTVSPropertyOp22
70
1
102
RTVSPropertyOp23
70
1
102
RTVSPropertyOp24
70
1
102
RTVSPropertyOp25
70
1
102
RTVSPropertyOp26
70
1
102
RTVSPropertyOp27
70
1
0
XRECORD
5
1081
102
{ACAD_REACTORS
330
1080
102
}
330
1080
100
AcDbXrecord
280
1
102
RTVSPropertyOp0
70
1
102
RTVSPropertyOp1
70
1
102
RTVSPropertyOp2
70
1
102
RTVSPropertyOp3
70
1
102
RTVSPropertyOp4
70
1
102
RTVSPropertyOp5
70
1
102
RTVSPropertyOp6
70
1
102
RTVSPropertyOp7
70
1
102
RTVSPropertyOp8
70
1
102
RTVSPropertyOp9
70
1
102
RTVSPropertyOp10
70
1
102
RTVSPropertyOp11
70
1
102
RTVSPropertyOp12
70
1
102
RTVSPropertyOp13
70
1
102
RTVSPropertyOp14
70
1
102
RTVSPropertyOp15
70
1
102
RTVSPropertyOp16
70
1
102
RTVSPropertyOp17
70
1
102
RTVSPropertyOp18
70
1
102
RTVSPropertyOp19
70
1
102
RTVSPropertyOp20
70
1
102
RTVSPropertyOp21
70
1
102
RTVSPropertyOp22
70
1
102
RTVSPropertyOp23
70
1
102
RTVSPropertyOp24
70
1
102
RTVSPropertyOp25
70
1
102
RTVSPropertyOp26
70
1
102
RTVSPropertyOp27
70
1
0
XRECORD
5
1083
102
{ACAD_REACTORS
330
1082
102
}
330
1082
100
AcDbXrecord
280
1
102
RTVSPropertyOp0
70
1
102
RTVSPropertyOp1
70
1
102
RTVSPropertyOp2
70
1
102
RTVSPropertyOp3
70
1
102
RTVSPropertyOp4
70
1
102
RTVSPropertyOp5
70
1
102
RTVSPropertyOp6
70
1
102
RTVSPropertyOp7
70
1
102
RTVSPropertyOp8
70
1
102
RTVSPropertyOp9
70
1
102
RTVSPropertyOp10
70
1
102
RTVSPropertyOp11
70
1
102
RTVSPropertyOp12
70
1
102
RTVSPropertyOp13
70
1
102
RTVSPropertyOp14
70
1
102
RTVSPropertyOp15
70
1
102
RTVSPropertyOp16
70
1
102
RTVSPropertyOp17
70
1
102
RTVSPropertyOp18
70
1
102
RTVSPropertyOp19
70
1
102
RTVSPropertyOp20
70
1
102
RTVSPropertyOp21
70
1
102
RTVSPropertyOp22
70
1
102
RTVSPropertyOp23
70
1
102
RTVSPropertyOp24
70
1
102
RTVSPropertyOp25
70
1
102
RTVSPropertyOp26
70
1
102
RTVSPropertyOp27
70
1
0
XRECORD
5
1085
102
{ACAD_REACTORS
330
1084
102
}
330
1084
100
AcDbXrecord
280
1
102
RTVSPropertyOp0
70
1
102
RTVSPropertyOp1
70
1
102
RTVSPropertyOp2
70
1
102
RTVSPropertyOp3
70
1
102
RTVSPropertyOp4
70
1
102
RTVSPropertyOp5
70
1
102
RTVSPropertyOp6
70
1
102
RTVSPropertyOp7
70
1
102
RTVSPropertyOp8
70
1
102
RTVSPropertyOp9
70
1
102
RTVSPropertyOp10
70
1
102
RTVSPropertyOp11
70
1
102
RTVSPropertyOp12
70
1
102
RTVSPropertyOp13
70
1
102
RTVSPropertyOp14
70
1
102
RTVSPropertyOp15
70
1
102
RTVSPropertyOp16
70
1
102
RTVSPropertyOp17
70
1
102
RTVSPropertyOp18
70
1
102
RTVSPropertyOp19
70
1
102
RTVSPropertyOp20
70
1
102
RTVSPropertyOp21
70
1
102
RTVSPropertyOp22
70
1
102
RTVSPropertyOp23
70
1
102
RTVSPropertyOp24
70
1
102
RTVSPropertyOp25
70
1
102
RTVSPropertyOp26
70
1
102
RTVSPropertyOp27
70
1
0
XRECORD
5
1087
102
{ACAD_REACTORS
330
1086
102
}
330
1086
100
AcDbXrecord
280
1
102
RTVSPropertyOp0
70
1
102
RTVSPropertyOp1
70
1
102
RTVSPropertyOp2
70
1
102
RTVSPropertyOp3
70
1
102
RTVSPropertyOp4
70
1
102
RTVSPropertyOp5
70
1
102
RTVSPropertyOp6
70
1
102
RTVSPropertyOp7
70
1
102
RTVSPropertyOp8
70
1
102
RTVSPropertyOp9
70
1
102
RTVSPropertyOp10
70
1
102
RTVSPropertyOp11
70
1
102
RTVSPropertyOp12
70
1
102
RTVSPropertyOp13
70
1
102
RTVSPropertyOp14
70
1
102
RTVSPropertyOp15
70
1
102
RTVSPropertyOp16
70
1
102
RTVSPropertyOp17
70
1
102
RTVSPropertyOp18
70
1
102
RTVSPropertyOp19
70
1
102
RTVSPropertyOp20
70
1
102
RTVSPropertyOp21
70
1
102
RTVSPropertyOp22
70
1
102
RTVSPropertyOp23
70
1
102
RTVSPropertyOp24
70
1
102
RTVSPropertyOp25
70
1
102
RTVSPropertyOp26
70
1
102
RTVSPropertyOp27
70
1
0
XRECORD
5
10A1
102
{ACAD_REACTORS
330
10A0
102
}
330
10A0
100
AcDbXrecord
280
1
102
RTVSPropertyOp0
70
0
102
RTVSPropertyOp1
70
0
102
RTVSPropertyOp2
70
0
102
RTVSPropertyOp3
70
0
102
RTVSPropertyOp4
70
0
102
RTVSPropertyOp5
70
0
102
RTVSPropertyOp6
70
0
102
RTVSPropertyOp7
70
0
102
RTVSPropertyOp8
70
0
102
RTVSPropertyOp9
70
0
102
RTVSPropertyOp10
70
0
102
RTVSPropertyOp11
70
0
102
RTVSPropertyOp12
70
0
102
RTVSPropertyOp13
70
0
102
RTVSPropertyOp14
70
2
102
RTVSPropertyOp15
70
0
102
RTVSPropertyOp16
70
0
102
RTVSPropertyOp17
70
0
102
RTVSPropertyOp18
70
0
102
RTVSPropertyOp19
70
0
102
RTVSPropertyOp20
70
0
102
RTVSPropertyOp21
70
0
102
RTVSPropertyOp22
70
0
102
RTVSPropertyOp23
70
0
102
RTVSPropertyOp24
70
0
102
RTVSPropertyOp25
70
0
102
RTVSPropertyOp26
70
0
102
RTVSPropertyOp27
70
0
0
XRECORD
5
109B
102
{ACAD_REACTORS
330
109A
102
}
330
109A
100
AcDbXrecord
280
1
102
RTVSPropertyOp0
70
1
102
RTVSPropertyOp1
70
1
102
RTVSPropertyOp2
70
1
102
RTVSPropertyOp3
70
1
102
RTVSPropertyOp4
70
1
102
RTVSPropertyOp5
70
1
102
RTVSPropertyOp6
70
1
102
RTVSPropertyOp7
70
1
102
RTVSPropertyOp8
70
1
102
RTVSPropertyOp9
70
1
102
RTVSPropertyOp10
70
1
102
RTVSPropertyOp11
70
1
102
RTVSPropertyOp12
70
1
102
RTVSPropertyOp13
70
1
102
RTVSPropertyOp14
70
1
102
RTVSPropertyOp15
70
1
102
RTVSPropertyOp16
70
1
102
RTVSPropertyOp17
70
1
102
RTVSPropertyOp18
70
1
102
RTVSPropertyOp19
70
1
102
RTVSPropertyOp20
70
1
102
RTVSPropertyOp21
70
1
102
RTVSPropertyOp22
70
1
102
RTVSPropertyOp23
70
1
102
RTVSPropertyOp24
70
1
102
RTVSPropertyOp25
70
1
102
RTVSPropertyOp26
70
1
102
RTVSPropertyOp27
70
1
0
XRECORD
5
10A3
102
{ACAD_REACTORS
330
10A2
102
}
330
10A2
100
AcDbXrecord
280
1
102
RTVSPropertyOp0
70
0
102
RTVSPropertyOp1
70
0
102
RTVSPropertyOp2
70
0
102
RTVSPropertyOp3
70
0
102
RTVSPropertyOp4
70
0
102
RTVSPropertyOp5
70
0
102
RTVSPropertyOp6
70
0
102
RTVSPropertyOp7
70
0
102
RTVSPropertyOp8
70
0
102
RTVSPropertyOp9
70
0
102
RTVSPropertyOp10
70
0
102
RTVSPropertyOp11
70
0
102
RTVSPropertyOp12
70
0
102
RTVSPropertyOp13
70
0
102
RTVSPropertyOp14
70
2
102
RTVSPropertyOp15
70
0
102
RTVSPropertyOp16
70
0
102
RTVSPropertyOp17
70
0
102
RTVSPropertyOp18
70
0
102
RTVSPropertyOp19
70
0
102
RTVSPropertyOp20
70
0
102
RTVSPropertyOp21
70
0
102
RTVSPropertyOp22
70
0
102
RTVSPropertyOp23
70
0
102
RTVSPropertyOp24
70
0
102
RTVSPropertyOp25
70
0
102
RTVSPropertyOp26
70
0
102
RTVSPropertyOp27
70
0
0
XRECORD
5
1093
102
{ACAD_REACTORS
330
1092
102
}
330
1092
100
AcDbXrecord
280
1
102
RTVSPropertyOp0
70
1
102
RTVSPropertyOp1
70
1
102
RTVSPropertyOp2
70
1
102
RTVSPropertyOp3
70
1
102
RTVSPropertyOp4
70
1
102
RTVSPropertyOp5
70
1
102
RTVSPropertyOp6
70
1
102
RTVSPropertyOp7
70
1
102
RTVSPropertyOp8
70
1
102
RTVSPropertyOp9
70
1
102
RTVSPropertyOp10
70
1
102
RTVSPropertyOp11
70
1
102
RTVSPropertyOp12
70
1
102
RTVSPropertyOp13
70
1
102
RTVSPropertyOp14
70
1
102
RTVSPropertyOp15
70
1
102
RTVSPropertyOp16
70
1
102
RTVSPropertyOp17
70
1
102
RTVSPropertyOp18
70
1
102
RTVSPropertyOp19
70
1
102
RTVSPropertyOp20
70
1
102
RTVSPropertyOp21
70
1
102
RTVSPropertyOp22
70
1
102
RTVSPropertyOp23
70
1
102
RTVSPropertyOp24
70
1
102
RTVSPropertyOp25
70
1
102
RTVSPropertyOp26
70
1
102
RTVSPropertyOp27
70
1
0
XRECORD
5
1099
102
{ACAD_REACTORS
330
1098
102
}
330
1098
100
AcDbXrecord
280
1
102
RTVSPropertyOp0
70
1
102
RTVSPropertyOp1
70
1
102
RTVSPropertyOp2
70
1
102
RTVSPropertyOp3
70
1
102
RTVSPropertyOp4
70
1
102
RTVSPropertyOp5
70
1
102
RTVSPropertyOp6
70
1
102
RTVSPropertyOp7
70
1
102
RTVSPropertyOp8
70
1
102
RTVSPropertyOp9
70
1
102
RTVSPropertyOp10
70
1
102
RTVSPropertyOp11
70
1
102
RTVSPropertyOp12
70
1
102
RTVSPropertyOp13
70
1
102
RTVSPropertyOp14
70
1
102
RTVSPropertyOp15
70
1
102
RTVSPropertyOp16
70
1
102
RTVSPropertyOp17
70
1
102
RTVSPropertyOp18
70
1
102
RTVSPropertyOp19
70
1
102
RTVSPropertyOp20
70
1
102
RTVSPropertyOp21
70
1
102
RTVSPropertyOp22
70
1
102
RTVSPropertyOp23
70
1
102
RTVSPropertyOp24
70
1
102
RTVSPropertyOp25
70
1
102
RTVSPropertyOp26
70
1
102
RTVSPropertyOp27
70
1
0
ENDSEC
0
EOF
