0
SECTION
2
HEADER
9
$ACADVER
1
AC1015
9
$ACADMAINTVER
70
20
9
$DWGCODEPAGE
3
ANSI_1252
9
$INSBASE
10
0.0
20
0.0
30
0.0
9
$EXTMIN
10
-150.000000000000
20
-105.000000000000
30
0.0
9
$EXTMAX
10
150.000000000000
20
105.000000000000
30
0.0
9
$LIMMIN
10
0.0
20
0.0
9
$LIMMAX
10
12.0
20
9.0
9
$ORTHOMODE
70
0
9
$REGENMODE
70
1
9
$FILLMODE
70
1
9
$QTEXTMODE
70
0
9
$MIRRTEXT
70
1
9
$LTSCALE
40
1.0
9
$ATTMODE
70
1
9
$TEXTSIZE
40
0.2
9
$TRACEWID
40
0.05
9
$TEXTSTYLE
7
Standard
9
$CLAYER
8
0
9
$CELTYPE
6
ByLayer
9
$CECOLOR
62
256
9
$CELTSCALE
40
1.0
9
$DISPSILH
70
0
9
$DIMSCALE
40
1.0
9
$DIMASZ
40
2.5
9
$DIMEXO
40
0.625
9
$DIMDLI
40
0.38
9
$DIMRND
40
0.0
9
$DIMDLE
40
0.0
9
$DIMEXE
40
1.25
9
$DIMTP
40
0.0
9
$DIMTM
40
0.000000001
9
$DIMTXT
40
2.5
9
$DIMCEN
40
0.09
9
$DIMTSZ
40
0.0
9
$DIMTOL
70
1
9
$DIMLIM
70
0
9
$DIMTIH
70
0
9
$DIMTOH
70
0
9
$DIMSE1
70
0
9
$DIMSE2
70
0
9
$DIMTAD
70
1
9
$DIMZIN
70
0
9
$DIMBLK
1
VDDIM_DEFAULT
9
$DIMASO
70
1
9
$DIMSHO
70
1
9
$DIMPOST
1

9
$DIMAPOST
1

9
$DIMALT
70
0
9
$DIMALTD
70
2
9
$DIMALTF
40
25.4
9
$DIMLFAC
40
1.00000000000000
9
$DIMTOFL
70
0
9
$DIMTVP
40
0.0
9
$DIMTIX
70
0
9
$DIMSOXD
70
0
9
$DIMSAH
70
0
9
$DIMBLK1
1

9
$DIMBLK2
1

9
$DIMSTYLE
2
BEM-ISBE
9
$DIMCLRD
70
0
9
$DIMCLRE
70
0
9
$DIMCLRT
70
0
9
$DIMTFAC
40
0.5
9
$DIMGAP
40
0.625
9
$DIMJUST
70
0
9
$DIMSD1
70
0
9
$DIMSD2
70
0
9
$DIMTOLJ
70
1
9
$DIMTZIN
70
0
9
$DIMALTZ
70
0
9
$DIMALTTZ
70
0
9
$DIMUPT
70
0
9
$DIMDEC
70
3
9
$DIMTDEC
70
3
9
$DIMALTU
70
2
9
$DIMALTTD
70
2
9
$DIMTXSTY
7
Standard
9
$DIMAUNIT
70
0
9
$DIMADEC
70
3
9
$DIMALTRND
40
0.0
9
$DIMAZIN
70
0
9
$DIMDSEP
70
46
9
$DIMATFIT
70
3
9
$DIMFRAC
70
0
9
$DIMLDRBLK
1

9
$DIMLUNIT
70
2
9
$DIMLWD
70
-2
9
$DIMLWE
70
-2
9
$DIMTMOVE
70
0
9
$LUNITS
70
2
9
$LUPREC
70
4
9
$SKETCHINC
40
0.1
9
$FILLETRAD
40
0.5
9
$AUNITS
70
0
9
$AUPREC
70
0
9
$MENU
1
.
9
$ELEVATION
40
0.0
9
$PELEVATION
40
0.0
9
$THICKNESS
40
0.0
9
$LIMCHECK
70
0
9
$CHAMFERA
40
0.5
9
$CHAMFERB
40
0.5
9
$CHAMFERC
40
1.0
9
$CHAMFERD
40
0.0
9
$SKPOLY
70
0
9
$TDCREATE
40
0.0
9
$TDUCREATE
40
0.0
9
$TDUPDATE
40
0.0
9
$TDUUPDATE
40
0.0
9
$TDINDWG
40
0.0
9
$TDUSRTIMER
40
0.0
9
$USRTIMER
70
1
9
$ANGBASE
50
0.0
9
$ANGDIR
70
0
9
$PDMODE
70
0
9
$PDSIZE
40
0.0
9
$PLINEWID
40
0.0
9
$SPLFRAME
70
0
9
$SPLINETYPE
70
6
9
$SPLINESEGS
70
8
9
$HANDSEED
5
10AB
9
$SURFTAB1
70
6
9
$SURFTAB2
70
6
9
$SURFTYPE
70
6
9
$SURFU
70
6
9
$SURFV
70
6
9
$UCSBASE
2

9
$UCSNAME
2

9
$UCSORG
10
0.0
20
0.0
30
0.0
9
$UCSXDIR
10
1.0
20
0.0
30
0.0
9
$UCSYDIR
10
0.0
20
1.0
30
0.0
9
$UCSORTHOREF
2

9
$UCSORTHOVIEW
70
0
9
$UCSORGTOP
10
0.0
20
0.0
30
0.0
9
$UCSORGBOTTOM
10
0.0
20
0.0
30
0.0
9
$UCSORGLEFT
10
0.0
20
0.0
30
0.0
9
$UCSORGRIGHT
10
0.0
20
0.0
30
0.0
9
$UCSORGFRONT
10
0.0
20
0.0
30
0.0
9
$UCSORGBACK
10
0.0
20
0.0
30
0.0
9
$PUCSBASE
2

9
$PUCSNAME
2

9
$PUCSORG
10
0.0
20
0.0
30
0.0
9
$PUCSXDIR
10
1.0
20
0.0
30
0.0
9
$PUCSYDIR
10
0.0
20
1.0
30
0.0
9
$PUCSORTHOREF
2

9
$PUCSORTHOVIEW
70
0
9
$PUCSORGTOP
10
0.0
20
0.0
30
0.0
9
$PUCSORGBOTTOM
10
0.0
20
0.0
30
0.0
9
$PUCSORGLEFT
10
0.0
20
0.0
30
0.0
9
$PUCSORGRIGHT
10
0.0
20
0.0
30
0.0
9
$PUCSORGFRONT
10
0.0
20
0.0
30
0.0
9
$PUCSORGBACK
10
0.0
20
0.0
30
0.0
9
$USERI1
70
0
9
$USERI2
70
0
9
$USERI3
70
0
9
$USERI4
70
0
9
$USERI5
70
0
9
$USERR1
40
0.0
9
$USERR2
40
0.0
9
$USERR3
40
0.0
9
$USERR4
40
0.0
9
$USERR5
40
0.0
9
$WORLDVIEW
70
1
9
$SHADEDGE
70
3
9
$SHADEDIF
70
70
9
$TILEMODE
70
1
9
$MAXACTVP
70
64
9
$PINSBASE
10
0.0
20
0.0
30
0.0
9
$PLIMCHECK
70
0
9
$PEXTMIN
10
1.000000000000000E+20
20
1.000000000000000E+20
30
1.000000000000000E+20
9
$PEXTMAX
10
-1.000000000000000E+20
20
-1.000000000000000E+20
30
-1.000000000000000E+20
9
$PLIMMIN
10
0.0
20
0.0
9
$PLIMMAX
10
12.0
20
9.0
9
$UNITMODE
70
0
9
$VISRETAIN
70
1
9
$PLINEGEN
70
0
9
$PSLTSCALE
70
1
9
$TREEDEPTH
70
3020
9
$CMLSTYLE
2
Standard
9
$CMLJUST
70
0
9
$CMLSCALE
40
1.0
9
$PROXYGRAPHICS
70
1
9
$MEASUREMENT
70
0
9
$CELWEIGHT
370
-1
9
$ENDCAPS
280
0
9
$JOINSTYLE
280
0
9
$LWDISPLAY
290
0
9
$INSUNITS
70
4
9
$HYPERLINKBASE
1

9
$STYLESHEET
1

9
$XEDIT
290
1
9
$CEPSNTYPE
380
0
9
$PSTYLEMODE
290
0
9
$FINGERPRINTGUID
2
{FAEB1C30-E019-11D5-929B-00C0DF256EC4}
9
$VERSIONGUID
2
{04C5C4E4-4947-4D90-8812-D401569E61F7}
9
$EXTNAMES
290
1
9
$PSVPSCALE
40
0.0
9
$OLESTARTUP
290
0
0
ENDSEC
0
SECTION
2
CLASSES
0
CLASS
1
ACDBDICTIONARYWDFLT
2
AcDbDictionaryWithDefault
3
ObjectDBX Classes
90
0
280
0
281
0
0
CLASS
1
ACDBPLACEHOLDER
2
AcDbPlaceHolder
3
ObjectDBX Classes
90
0
280
0
281
0
0
CLASS
1
LAYOUT
2
AcDbLayout
3
ObjectDBX Classes
90
0
280
0
281
0
0
CLASS
1
MATERIAL
2
AcDbMaterial
3
ObjectDBX Classes
90
1153
280
0
281
0
0
CLASS
1
VISUALSTYLE
2
AcDbVisualStyle
3
ObjectDBX Classes
90
4095
280
0
281
0
0
CLASS
1
TABLESTYLE
2
AcDbTableStyle
3
ObjectDBX Classes
90
4095
280
0
281
0
0
CLASS
1
SCALE
2
AcDbScale
3
ObjectDBX Classes
90
1153
280
0
281
0
0
CLASS
1
MLEADERSTYLE
2
AcDbMLeaderStyle
3
ACDB_MLEADERSTYLE_CLASS
90
4095
280
0
281
0
0
CLASS
1
DICTIONARYVAR
2
AcDbDictionaryVar
3
ObjectDBX Classes
90
0
280
0
281
0
0
CLASS
1
CELLSTYLEMAP
2
AcDbCellStyleMap
3
ObjectDBX Classes
90
1152
280
0
281
0
0
ENDSEC
0
SECTION
2
TABLES
0
TABLE
2
VPORT
5
24A
330
0
100
AcDbSymbolTable
70
1
0
VPORT
5
26B
330
24A
100
AcDbSymbolTableRecord
100
AcDbViewportTableRecord
2
*Active
70
0
10
0.0
20
0.0
11
1.0
21
1.0
12
0.000000000000000
22
0.000000000000000
13
0.0
23
0.0
14
10.0
24
10.0
15
10.0
25
10.0
16
0.0
26
0.0
36
1.0
17
0.0
27
0.0
37
0.0
40
210.000000000000
41
1.42857142857143
42
1.0
43
0.0
44
0.0
50
0.0
51
0.0000000000007958
71
0
72
100
73
1
74
3
75
0
76
0
77
0
78
1
281
0
65
1
110
0.0
120
0.0
130
0.0
111
1.0
121
0.0
131
0.0
112
0.0
122
1.0
132
0.0
79
0
146
0.0
0
ENDTAB
0
TABLE
2
LTYPE
5
247
330
0
100
AcDbSymbolTable
70
25
0
LTYPE
5
256
330
247
100
AcDbSymbolTableRecord
100
AcDbLinetypeTableRecord
2
ByBlock
70
0
3

72
65
73
0
40
0.0
0
LTYPE
5
257
330
247
100
AcDbSymbolTableRecord
100
AcDbLinetypeTableRecord
2
ByLayer
70
0
3

72
65
73
0
40
0.0
0
LTYPE
5
258
330
247
100
AcDbSymbolTableRecord
100
AcDbLinetypeTableRecord
2
Continuous
70
0
3
Solid line
72
65
73
0
40
0.0
0
LTYPE
5
273
330
247
100
AcDbSymbolTableRecord
100
AcDbLinetypeTableRecord
2
CENTER
70
0
3
Center ____ _ ____ _ ____ _ ____ _ ____ _ ____
72
65
73
4
40
2.0
49
1.25
74
0
49
-0.25
74
0
49
0.25
74
0
49
-0.25
74
0
0
LTYPE
5
274
330
247
100
AcDbSymbolTableRecord
100
AcDbLinetypeTableRecord
2
DASHDOT
70
0
3
Dashdot __ . __ . __ . __ . __ . __ . __ . __
72
65
73
4
40
1.0
49
0.5
74
0
49
-0.25
74
0
49
0.0
74
0
49
-0.25
74
0
0
LTYPE
5
275
330
247
100
AcDbSymbolTableRecord
100
AcDbLinetypeTableRecord
2
DASHED
70
0
3
Dashed __ __ __ __ __ __ __ __ __ __ __ __ __ _
72
65
73
2
40
0.75
49
0.5
74
0
49
-0.25
74
0
0
LTYPE
5
276
330
247
100
AcDbSymbolTableRecord
100
AcDbLinetypeTableRecord
2
HIDDEN
70
0
3
Hidden __ __ __ __ __ __ __ __ __ __ __ __ __ __
72
65
73
2
40
0.375
49
0.25
74
0
49
-0.125
74
0
0
LTYPE
5
277
330
247
100
AcDbSymbolTableRecord
100
AcDbLinetypeTableRecord
2
HIDDEN2
70
0
3
Hidden2 _ _ _ _ _ _ _ _ _ _ _ _ _ _ _ _ _
72
65
73
2
40
0.1875
49
0.125
74
0
49
-0.0625
74
0
0
LTYPE
5
278
330
247
100
AcDbSymbolTableRecord
100
AcDbLinetypeTableRecord
2
BORDER
70
0
3
Border __ __ . __ __ . __ __ . __ __ . __ __ .
72
65
73
6
40
1.75
49
0.5
74
0
49
-0.25
74
0
49
0.5
74
0
49
-0.25
74
0
49
0.0
74
0
49
-0.25
74
0
0
LTYPE
5
279
330
247
100
AcDbSymbolTableRecord
100
AcDbLinetypeTableRecord
2
BORDER2
70
0
3
Border2 __.__.__.__.__.__.__.__.__.__.__.
72
65
73
6
40
0.875
49
0.25
74
0
49
-0.125
74
0
49
0.25
74
0
49
-0.125
74
0
49
0.0
74
0
49
-0.125
74
0
0
LTYPE
5
27A
330
247
100
AcDbSymbolTableRecord
100
AcDbLinetypeTableRecord
2
BORDERX2
70
0
3
Borderx2  ____  ____  .  ____  ____  .  ___
72
65
73
6
40
3.5
49
1.0
74
0
49
-0.5
74
0
49
1.0
74
0
49
-0.5
74
0
49
0.0
74
0
49
-0.5
74
0
0
LTYPE
5
27B
330
247
100
AcDbSymbolTableRecord
100
AcDbLinetypeTableRecord
2
CENTER2
70
0
3
Center2  ___ _ ___ _ ___ _ ___ _ ___ _ ___
72
65
73
4
40
1.125
49
0.75
74
0
49
-0.125
74
0
49
0.125
74
0
49
-0.125
74
0
0
LTYPE
5
27C
330
247
100
AcDbSymbolTableRecord
100
AcDbLinetypeTableRecord
2
CENTERX2
70
0
3
Centerx2  ________  __  ________  __  _____
72
65
73
4
40
4.0
49
2.5
74
0
49
-0.5
74
0
49
0.5
74
0
49
-0.5
74
0
0
LTYPE
5
27D
330
247
100
AcDbSymbolTableRecord
100
AcDbLinetypeTableRecord
2
DASHDOT2
70
0
3
Dashdot2  _._._._._._._._._._._._._._._.
72
65
73
4
40
0.5
49
0.25
74
0
49
-0.125
74
0
49
0.0
74
0
49
-0.125
74
0
0
LTYPE
5
27E
330
247
100
AcDbSymbolTableRecord
100
AcDbLinetypeTableRecord
2
DASHDOTX2
70
0
3
Dashdotx2 ____  .  ____  .  ____  .  ___
72
65
73
4
40
2.0
49
1.0
74
0
49
-0.5
74
0
49
0.0
74
0
49
-0.5
74
0
0
LTYPE
5
27F
330
247
100
AcDbSymbolTableRecord
100
AcDbLinetypeTableRecord
2
DASHED2
70
0
3
Dashed2 _ _ _ _ _ _ _ _ _ _ _ _ _ _ _ _ _
72
65
73
2
40
0.375
49
0.25
74
0
49
-0.125
74
0
0
LTYPE
5
280
330
247
100
AcDbSymbolTableRecord
100
AcDbLinetypeTableRecord
2
DASHEDX2
70
0
3
Dashedx2 ____  ____  ____  ____  ____  ___
72
65
73
2
40
1.5
49
1.0
74
0
49
-0.5
74
0
0
LTYPE
5
281
330
247
100
AcDbSymbolTableRecord
100
AcDbLinetypeTableRecord
2
DIVIDE
70
0
3
Divide ____ . . ____ . . ____ . . ____ . . ____
72
65
73
6
40
1.25
49
0.5
74
0
49
-0.25
74
0
49
0.0
74
0
49
-0.25
74
0
49
0.0
74
0
49
-0.25
74
0
0
LTYPE
5
282
330
247
100
AcDbSymbolTableRecord
100
AcDbLinetypeTableRecord
2
DIVIDE2
70
0
3
Divide2 __..__..__..__..__..__..__..__.._
72
65
73
6
40
0.625
49
0.25
74
0
49
-0.125
74
0
49
0.0
74
0
49
-0.125
74
0
49
0.0
74
0
49
-0.125
74
0
0
LTYPE
5
283
330
247
100
AcDbSymbolTableRecord
100
AcDbLinetypeTableRecord
2
DIVIDEX2
70
0
3
Dividex2 ________  .  .  ________  .  .  _
72
65
73
6
40
2.5
49
1.0
74
0
49
-0.5
74
0
49
0.0
74
0
49
-0.5
74
0
49
0.0
74
0
49
-0.5
74
0
0
LTYPE
5
284
330
247
100
AcDbSymbolTableRecord
100
AcDbLinetypeTableRecord
2
DOT
70
0
3
Dot . . . . . . . . . . . . . . . . . . . . . . . .
72
65
73
2
40
0.25
49
0.0
74
0
49
-0.25
74
0
0
LTYPE
5
285
330
247
100
AcDbSymbolTableRecord
100
AcDbLinetypeTableRecord
2
DOT2
70
0
3
Dot2 ........................................
72
65
73
2
40
0.125
49
0.0
74
0
49
-0.125
74
0
0
LTYPE
5
286
330
247
100
AcDbSymbolTableRecord
100
AcDbLinetypeTableRecord
2
DOTX2
70
0
3
Dotx2 .  .  .  .  .  .  .  .  .  .  .  .  .  .
72
65
73
2
40
0.5
49
0.0
74
0
49
-0.5
74
0
0
LTYPE
5
287
330
247
100
AcDbSymbolTableRecord
100
AcDbLinetypeTableRecord
2
HIDDENX2
70
0
3
Hiddenx2 ____ ____ ____ ____ ____ ____ ____
72
65
73
2
40
0.75
49
0.5
74
0
49
-0.25
74
0
0
LTYPE
5
288
330
247
100
AcDbSymbolTableRecord
100
AcDbLinetypeTableRecord
2
PHANTOM
70
0
3
Phantom ______  __  __  ______  __  __  ______
72
65
73
6
40
2.5
49
1.25
74
0
49
-0.25
74
0
49
0.25
74
0
49
-0.25
74
0
49
0.25
74
0
49
-0.25
74
0
0
LTYPE
5
289
330
247
100
AcDbSymbolTableRecord
100
AcDbLinetypeTableRecord
2
PHANTOM2
70
0
3
Phantom2 ___ _ _ ___ _ _ ___ _ _ ___ _ _
72
65
73
6
40
1.25
49
0.625
74
0
49
-0.125
74
0
49
0.125
74
0
49
-0.125
74
0
49
0.125
74
0
49
-0.125
74
0
0
LTYPE
5
28A
330
247
100
AcDbSymbolTableRecord
100
AcDbLinetypeTableRecord
2
PHANTOMX2
70
0
3
Phantomx2 ____________    ____    ____   _
72
65
73
6
40
5.0
49
2.5
74
0
49
-0.5
74
0
49
0.5
74
0
49
-0.5
74
0
49
0.5
74
0
49
-0.5
74
0
0
ENDTAB
0
TABLE
2
LAYER
5
244
330
0
100
AcDbSymbolTable
70
6
0
LAYER
5
252
330
244
100
AcDbSymbolTableRecord
100
AcDbLayerTableRecord
2
0
70
0
62
7
6
Continuous
370
0
390
251
0
LAYER
5
23F
330
244
100
AcDbSymbolTableRecord
100
AcDbLayerTableRecord
2
Bemassung
70
0
 62
   7
6
Continuous
370
0
390
251
0
LAYER
5
240
330
244
100
AcDbSymbolTableRecord
100
AcDbLayerTableRecord
2
Rahmen
70
0
 62
   7
6
Continuous
370
0
390
251
0
LAYER
5
241
330
244
100
AcDbSymbolTableRecord
100
AcDbLayerTableRecord
2
Geo
70
0
 62
   7
6
Continuous
370
0
390
251
0
LAYER
5
33A
330
244
100
AcDbSymbolTableRecord
100
AcDbLayerTableRecord
2
Defpoints
70
0
62
7
6
Continuous
290
0
370
-3
390
251
0
LAYER
5
57E
330
244
100
AcDbSymbolTableRecord
100
AcDbLayerTableRecord
2
Text
70
0
 62
   7
6
Continuous
370
0
390
251
1001
AcAecLayerStandard
1000

1000

0
ENDTAB
0
TABLE
2
STYLE
5
245
330
0
100
AcDbSymbolTable
70
2
0
STYLE
5
253
330
245
100
AcDbSymbolTableRecord
100
AcDbTextStyleTableRecord
2
Standard
70
0
40
0.0
41
1.0
50
0.0
71
0
42
0.2
3
Arial
4

1001
ACAD
1000
Arial
1071
0
0
STYLE
5
132
330
245
100
AcDbSymbolTableRecord
100
AcDbTextStyleTableRecord
2
Beschriftung
70
0
40
0.0
41
1.0
50
0.0
71
0
42
0.2
3
Arial
4

1001
ACAD
1000
Arial
1071
0
1001
AcadAnnotative
1000
AnnotativeData
1070
1
1070
1
0
ENDTAB
0
TABLE
2
VIEW
5
248
330
0
100
AcDbSymbolTable
70
0
0
ENDTAB
0
TABLE
2
UCS
5
249
330
0
100
AcDbSymbolTable
70
0
0
ENDTAB
0
TABLE
2
APPID
5
24B
330
0
100
AcDbSymbolTable
70
13
0
APPID
5
254
330
24B
100
AcDbSymbolTableRecord
100
AcDbRegAppTableRecord
2
ACAD
70
0
0
APPID
5
26C
330
24B
100
AcDbSymbolTableRecord
100
AcDbRegAppTableRecord
2
VD_INVISIBLE_NOT_FOR_READ
70
0
0
APPID
5
26D
330
24B
100
AcDbSymbolTableRecord
100
AcDbRegAppTableRecord
2
VD_TEMPHATCH
70
0
0
APPID
5
26E
330
24B
100
AcDbSymbolTableRecord
100
AcDbRegAppTableRecord
2
VDEXTRAPARAM
70
0
0
APPID
5
26F
330
24B
100
AcDbSymbolTableRecord
100
AcDbRegAppTableRecord
2
PE_URL
70
0
0
APPID
5
270
330
24B
100
AcDbSymbolTableRecord
100
AcDbRegAppTableRecord
2
VD_UNKNOWN
70
0
0
APPID
5
28F
330
24B
100
AcDbSymbolTableRecord
100
AcDbRegAppTableRecord
2
AcadAnnotative
70
0
0
APPID
5
290
330
24B
100
AcDbSymbolTableRecord
100
AcDbRegAppTableRecord
2
ACAD_DSTYLE_DIMJAG
70
0
0
APPID
5
291
330
24B
100
AcDbSymbolTableRecord
100
AcDbRegAppTableRecord
2
ACAD_DSTYLE_DIMTALN
70
0
0
APPID
5
293
330
24B
100
AcDbSymbolTableRecord
100
AcDbRegAppTableRecord
2
ACAD_PSEXT
70
0
0
APPID
5
42A
330
24B
100
AcDbSymbolTableRecord
100
AcDbRegAppTableRecord
2
ACAD_MLEADERVER
70
0
0
APPID
5
532
330
24B
100
AcDbSymbolTableRecord
100
AcDbRegAppTableRecord
2
ACAD_EXEMPT_FROM_CAD_STANDARDS
70
0
0
APPID
5
57F
330
24B
100
AcDbSymbolTableRecord
100
AcDbRegAppTableRecord
2
AcAecLayerStandard
70
0
0
ENDTAB
0
TABLE
2
DIMSTYLE
5
24C
330
0
100
AcDbSymbolTable
70
3
100
AcDbDimStyleTable
71
2
340
27
340
269
0
DIMSTYLE
105
269
330
24C
100
AcDbSymbolTableRecord
100
AcDbDimStyleTableRecord
2
Standard
70
0
172
1
174
1
288
1
340
253
342
23C
0
DIMSTYLE
105
137
330
24C
100
AcDbSymbolTableRecord
100
AcDbDimStyleTableRecord
2
Beschriftung
70
0
41
2.5
42
0.625
44
1.25
73
0
74
0
77
1
140
2.5
147
0.625
172
1
174
1
271
2
288
1
340
253
342
23C
1001
AcadAnnotative
1000
AnnotativeData
1070
1
1070
1
1001
ACAD_DSTYLE_DIMJAG
1070
388
1040
1.5
1001
ACAD_DSTYLE_DIMTALN
1070
392
1070
0
0
DIMSTYLE
105
27
102
{ACAD_REACTORS
330
F1000D
330
F10012
330
F10003
330
F10008
102
}
330
24C
100
AcDbSymbolTableRecord
100
AcDbDimStyleTableRecord
2
BEM-ISBE
70
0
41
2.5
42
0.625
44
1.25
48
0.000000001
71
1
73
0
74
0
77
1
140
2.5
144
1.00000000000000
146
0.5
147
0.625
171
 3
172
 1
179
 3
271
 3
272
 3
274
 3
340
253
342
23C
1001
ACAD_DSTYLE_DIMJAG
1070
388
1040
1.5
1001
ACAD_DSTYLE_DIMTALN
1070
392
1070
1
0
ENDTAB
0
TABLE
2
BLOCK_RECORD
5
243
330
0
100
AcDbSymbolTable
70
5
0
BLOCK_RECORD
5
261
330
243
100
AcDbSymbolTableRecord
100
AcDbBlockTableRecord
2
*Model_Space
340
FD0
0
BLOCK_RECORD
5
25D
330
243
100
AcDbSymbolTableRecord
100
AcDbBlockTableRecord
2
*Paper_Space
340
FD1
0
BLOCK_RECORD
5
265
330
243
100
AcDbSymbolTableRecord
100
AcDbBlockTableRecord
2
*Paper_Space0
340
0
0
BLOCK_RECORD
5
23C
330
243
100
AcDbSymbolTableRecord
100
AcDbBlockTableRecord
2
VDDIM_DEFAULT
340
0
102
{BLKREFS
102
}
0
BLOCK_RECORD
5
23E
330
243
100
AcDbSymbolTableRecord
100
AcDbBlockTableRecord
2
VDDIM_NONE
340
0
0
BLOCK_RECORD
5
F1000C
330
243
100
AcDbSymbolTableRecord
100
AcDbBlockTableRecord
2
*D5
340
0
0
BLOCK_RECORD
5
F10011
330
243
100
AcDbSymbolTableRecord
100
AcDbBlockTableRecord
2
*D6
340
0
0
BLOCK_RECORD
5
F10002
330
243
100
AcDbSymbolTableRecord
100
AcDbBlockTableRecord
2
*D3
340
0
0
BLOCK_RECORD
5
F10007
330
243
100
AcDbSymbolTableRecord
100
AcDbBlockTableRecord
2
*D4
340
0
0
ENDTAB
0
ENDSEC
0
SECTION
2
BLOCKS
0
BLOCK
5
262
330
261
100
AcDbEntity
8
0
100
AcDbBlockBegin
2
*Model_Space
70
0
10
0.0
20
0.0
30
0.0
3
*Model_Space
1

0
ENDBLK
5
263
330
261
100
AcDbEntity
8
0
100
AcDbBlockEnd
0
BLOCK
5
25E
330
25D
100
AcDbEntity
67
1
8
0
100
AcDbBlockBegin
2
*Paper_Space
70
0
10
0.0
20
0.0
30
0.0
3
*Paper_Space
1

0
ENDBLK
5
25F
330
25D
100
AcDbEntity
67
1
8
0
100
AcDbBlockEnd
0
BLOCK
5
266
330
265
100
AcDbEntity
8
0
100
AcDbBlockBegin
2
*Paper_Space0
70
0
10
0.0
20
0.0
30
0.0
3
*Paper_Space0
1

0
VIEWPORT
5
296
102
{ACAD_XDICTIONARY
360
58E
102
}
330
265
100
AcDbEntity
8
0
60
1
100
AcDbViewport
10
0.0
20
0.0
30
0.0
40
10.0
41
10.0
69
0
12
0.0
22
0.0
13
0.0
23
0.0
14
1.0
24
1.0
15
0.0
25
0.0
16
0.0
26
0.0
36
1.0
17
0.0
27
0.0
37
0.0
42
0.0
43
0.0
44
0.0
45
10.0
50
0.0
51
0.0000000000007958
72
100
90
163872
1

281
0
71
0
74
0
110
0.0
120
0.0
130
0.0
111
1.0
121
0.0
131
0.0
112
0.0
122
1.0
132
0.0
79
0
146
0.0
1001
VD_INVISIBLE_NOT_FOR_READ
1000
VD_INVISIBLE_NOT_FOR_READ
0
VIEWPORT
5
297
102
{ACAD_XDICTIONARY
360
590
102
}
330
265
100
AcDbEntity
8
0
60
1
100
AcDbViewport
10
0.0
20
0.0
30
0.0
40
10.0
41
10.0
69
0
12
0.0
22
0.0
13
0.0
23
0.0
14
1.0
24
1.0
15
0.0
25
0.0
16
0.0
26
0.0
36
1.0
17
0.0
27
0.0
37
0.0
42
0.0
43
0.0
44
0.0
45
10.0
50
0.0
51
0.0000000000007958
72
100
90
163872
1

281
0
71
0
74
0
110
0.0
120
0.0
130
0.0
111
1.0
121
0.0
131
0.0
112
0.0
122
1.0
132
0.0
79
0
146
0.0
1001
VD_INVISIBLE_NOT_FOR_READ
1000
VD_INVISIBLE_NOT_FOR_READ
0
ENDBLK
5
267
330
265
100
AcDbEntity
8
0
100
AcDbBlockEnd
0
BLOCK
5
28B
330
23C
100
AcDbEntity
8
0
100
AcDbBlockBegin
2
VDDIM_DEFAULT
70
0
10
0.0
20
0.0
30
0.0
3
VDDIM_DEFAULT
1

0
LWPOLYLINE
5
23D
330
23C
100
AcDbEntity
8
0
6
Continuous
62
0
100
AcDbPolyline
90
4
70
0
43
0.0
10
0.0
20
0.0
10
-1.0
20
-0.1665
10
-1.0
20
0.1665
10
0.0
20
0.0
1001
VDEXTRAPARAM
1071
1
1071
0
1071
0
1040
1.0
1000

1000

1040
0.0
1040
0.0
0
HATCH
5
292
330
23C
100
AcDbEntity
8
0
6
Continuous
62
0
100
AcDbHatch
10
0.0
20
0.0
30
0.0
210
0.0
220
0.0
230
1.0
2
SOLID
70
1
71
0
91
1
92
2
72
0
73
1
93
3
10
0.0
20
0.0
10
-1.0
20
-0.1665
10
-1.0
20
0.1665
97
0
75
0
76
1
98
1
10
0.0
20
0.0
1001
VDEXTRAPARAM
1071
1
1071
0
1071
0
1040
1.0
1000

1000

1040
0.0
1040
0.0
1001
VD_TEMPHATCH
1000
VD_TEMPHATCH
0
ENDBLK
5
28C
330
23C
100
AcDbEntity
8
0
100
AcDbBlockEnd
0
BLOCK
5
28D
330
23E
100
AcDbEntity
8
0
100
AcDbBlockBegin
2
VDDIM_NONE
70
0
10
0.0
20
0.0
30
0.0
3
VDDIM_NONE
1

0
ENDBLK
5
28E
330
23E
100
AcDbEntity
8
0
100
AcDbBlockEnd
  0
BLOCK
  5
F10016
330
F1000C
100
AcDbEntity
  8
0
100
AcDbBlockBegin
  2
*D5
 70
     1
 10
0.0
 20
0.0
 30
0.0
  3
*D5
  1

  0
LINE
  5
F10017
330
F1000C
100
AcDbEntity
  8
Bemassung
 62
     0
370
    -2
100
AcDbLine
10
-18.7876869965477
20
-5.85845799769849
30
0.000000000000000
11
-18.7876869965477
21
-12.8584579976985
31
0.000000000000000
  0
LINE
  5
F10018
330
F1000C
100
AcDbEntity
  8
Bemassung
 62
     0
370
    -2
100
AcDbLine
10
-38.7876869965477
20
-12.8584579976985
30
0.000000000000000
11
-38.7876869965477
21
24.1415420023015
31
0.000000000000000
  0
LINE
  5
F10019
330
F1000C
100
AcDbEntity
  8
Bemassung
 62
     0
370
    -2
100
AcDbLine
10
-18.7876869965477
20
-10.8584579976985
30
0.000000000000000
11
-38.7876869965477
21
-10.8584579976985
31
0.000000000000000
  0
INSERT
  5
F1001A
330
F1000C
100
AcDbEntity
  8
Bemassung
 62
     0
370
    -2
100
AcDbBlockReference
  2
VDDIM_DEFAULT
10
-18.7876869965477
20
-10.8584579976985
30
0.000000000000000
 41
2.50000000000000
 42
2.50000000000000
 43
2.50000000000000
  0
INSERT
  5
F1001B
330
F1000C
100
AcDbEntity
  8
Bemassung
 62
     0
370
    -2
100
AcDbBlockReference
  2
VDDIM_DEFAULT
10
-38.7876869965477
20
-10.8584579976985
30
0.000000000000000
 41
2.50000000000000
 42
2.50000000000000
 43
2.50000000000000
 50
180.000000000000
  0
MTEXT
  5
F1001C
330
F1000C
100
AcDbEntity
  8
Bemassung
 62
     0
100
AcDbMText
10
-28.7876869965477
20
-10.1917913310318
30
0.000000000000000
 40
2.50000000000000
 41
0.0
 71
     8
 72
     1
  1
20
 11
1.00000000000000
 21
0.000000000000000
 31
0.0
 73
     1
 44
1.0
1001
ACAD
1000
MTEXTBEGIN
1070
73
1070
1
1070
44
1040
1.0
1070
74
1070
0
1000
MTEXTEND
  0
POINT
  5
F1001D
330
F1000C
100
AcDbEntity
  8
Bemassung
 62
     0
100
AcDbPoint
10
-18.7876869965477
20
-5.85845799769849
30
0.000000000000000
  0
POINT
  5
F1001E
330
F1000C
100
AcDbEntity
  8
Bemassung
 62
     0
100
AcDbPoint
10
-38.7876869965477
20
-12.8584579976985
30
0.000000000000000
  0
ENDBLK
  5
F1001F
330
F1000C
100
AcDbEntity
  8
0
100
AcDbBlockEnd
  0
BLOCK
  5
F10020
330
F10011
100
AcDbEntity
  8
0
100
AcDbBlockBegin
  2
*D6
 70
     1
 10
0.0
 20
0.0
 30
0.0
  3
*D6
  1

  0
LINE
  5
F10021
330
F10011
100
AcDbEntity
  8
Bemassung
 62
     0
370
    -2
100
AcDbLine
10
44.2123130034523
20
11.1415420023015
30
0.000000000000000
11
44.2123130034523
21
24.1415420023015
31
0.000000000000000
  0
LINE
  5
F10022
330
F10011
100
AcDbEntity
  8
Bemassung
 62
     0
370
    -2
100
AcDbLine
10
-38.7876869965477
20
-12.8584579976985
30
0.000000000000000
11
-38.7876869965477
21
24.1415420023015
31
0.000000000000000
  0
LINE
  5
F10023
330
F10011
100
AcDbEntity
  8
Bemassung
 62
     0
370
    -2
100
AcDbLine
10
44.2123130034523
20
22.1415420023015
30
0.000000000000000
11
-38.7876869965477
21
22.1415420023015
31
0.000000000000000
  0
INSERT
  5
F10024
330
F10011
100
AcDbEntity
  8
Bemassung
 62
     0
370
    -2
100
AcDbBlockReference
  2
VDDIM_DEFAULT
10
44.2123130034523
20
22.1415420023015
30
0.000000000000000
 41
2.50000000000000
 42
2.50000000000000
 43
2.50000000000000
  0
INSERT
  5
F10025
330
F10011
100
AcDbEntity
  8
Bemassung
 62
     0
370
    -2
100
AcDbBlockReference
  2
VDDIM_DEFAULT
10
-38.7876869965477
20
22.1415420023015
30
0.000000000000000
 41
2.50000000000000
 42
2.50000000000000
 43
2.50000000000000
 50
180.000000000000
  0
MTEXT
  5
F10026
330
F10011
100
AcDbEntity
  8
Bemassung
 62
     0
100
AcDbMText
10
2.71231300345227
20
22.8082086689682
30
0.000000000000000
 40
2.50000000000000
 41
0.0
 71
     8
 72
     1
  1
83
 11
1.00000000000000
 21
0.000000000000000
 31
0.0
 73
     1
 44
1.0
1001
ACAD
1000
MTEXTBEGIN
1070
73
1070
1
1070
44
1040
1.0
1070
74
1070
0
1000
MTEXTEND
  0
POINT
  5
F10027
330
F10011
100
AcDbEntity
  8
Bemassung
 62
     0
100
AcDbPoint
10
44.2123130034523
20
11.1415420023015
30
0.000000000000000
  0
POINT
  5
F10028
330
F10011
100
AcDbEntity
  8
Bemassung
 62
     0
100
AcDbPoint
10
-38.7876869965477
20
-12.8584579976985
30
0.000000000000000
  0
ENDBLK
  5
F10029
330
F10011
100
AcDbEntity
  8
0
100
AcDbBlockEnd
  0
BLOCK
  5
F1002A
330
F10002
100
AcDbEntity
  8
0
100
AcDbBlockBegin
  2
*D3
 70
     1
 10
0.0
 20
0.0
 30
0.0
  3
*D3
  1

  0
LINE
  5
F1002B
330
F10002
100
AcDbEntity
  8
Bemassung
 62
     0
370
    -2
100
AcDbLine
10
-38.7876869965477
20
-5.85845799769849
30
0.000000000000000
11
-50.7876869965477
21
-5.85845799769849
31
0.000000000000000
  0
LINE
  5
F1002C
330
F10002
100
AcDbEntity
  8
Bemassung
 62
     0
370
    -2
100
AcDbLine
10
-38.7876869965477
20
12.1415420023015
30
0.000000000000000
11
-50.7876869965477
21
12.1415420023015
31
0.000000000000000
  0
LINE
  5
F1002D
330
F10002
100
AcDbEntity
  8
Bemassung
 62
     0
370
    -2
100
AcDbLine
10
-48.7876869965477
20
-5.85845799769849
30
0.000000000000000
11
-48.7876869965477
21
12.1415420023015
31
0.000000000000000
  0
INSERT
  5
F1002E
330
F10002
100
AcDbEntity
  8
Bemassung
 62
     0
370
    -2
100
AcDbBlockReference
  2
VDDIM_DEFAULT
10
-48.7876869965477
20
-5.85845799769849
30
0.000000000000000
 41
2.50000000000000
 42
2.50000000000000
 43
2.50000000000000
 50
270.000000000000
  0
INSERT
  5
F1002F
330
F10002
100
AcDbEntity
  8
Bemassung
 62
     0
370
    -2
100
AcDbBlockReference
  2
VDDIM_DEFAULT
10
-48.7876869965477
20
12.1415420023015
30
0.000000000000000
 41
2.50000000000000
 42
2.50000000000000
 43
2.50000000000000
 50
90.0000000000000
  0
MTEXT
  5
F10030
330
F10002
100
AcDbEntity
  8
Bemassung
 62
     0
100
AcDbMText
10
-49.4543536632144
20
3.14154200230151
30
0.000000000000000
 40
2.50000000000000
 41
0.0
 71
     8
 72
     1
  1
Ø18
 11
6.12323399573677e-17
 21
1.00000000000000
 31
0.0
 73
     1
 44
1.0
1001
ACAD
1000
MTEXTBEGIN
1070
73
1070
1
1070
44
1040
1.0
1070
74
1070
0
1000
MTEXTEND
  0
POINT
  5
F10031
330
F10002
100
AcDbEntity
  8
Bemassung
 62
     0
100
AcDbPoint
10
-38.7876869965477
20
-5.85845799769849
30
0.000000000000000
  0
POINT
  5
F10032
330
F10002
100
AcDbEntity
  8
Bemassung
 62
     0
100
AcDbPoint
10
-38.7876869965477
20
12.1415420023015
30
0.000000000000000
  0
ENDBLK
  5
F10033
330
F10002
100
AcDbEntity
  8
0
100
AcDbBlockEnd
  0
BLOCK
  5
F10034
330
F10007
100
AcDbEntity
  8
0
100
AcDbBlockBegin
  2
*D4
 70
     1
 10
0.0
 20
0.0
 30
0.0
  3
*D4
  1

  0
LINE
  5
F10035
330
F10007
100
AcDbEntity
  8
Bemassung
 62
     0
370
    -2
100
AcDbLine
10
43.2123130034523
20
-5.85845799769849
30
0.000000000000000
11
56.2123130034523
21
-5.85845799769849
31
0.000000000000000
  0
LINE
  5
F10036
330
F10007
100
AcDbEntity
  8
Bemassung
 62
     0
370
    -2
100
AcDbLine
10
43.2123130034523
20
12.1415420023015
30
0.000000000000000
11
56.2123130034523
21
12.1415420023015
31
0.000000000000000
  0
LINE
  5
F10037
330
F10007
100
AcDbEntity
  8
Bemassung
 62
     0
370
    -2
100
AcDbLine
10
54.2123130034523
20
-5.85845799769849
30
0.000000000000000
11
54.2123130034523
21
12.1415420023015
31
0.000000000000000
  0
INSERT
  5
F10038
330
F10007
100
AcDbEntity
  8
Bemassung
 62
     0
370
    -2
100
AcDbBlockReference
  2
VDDIM_DEFAULT
10
54.2123130034523
20
-5.85845799769849
30
0.000000000000000
 41
2.50000000000000
 42
2.50000000000000
 43
2.50000000000000
 50
270.000000000000
  0
INSERT
  5
F10039
330
F10007
100
AcDbEntity
  8
Bemassung
 62
     0
370
    -2
100
AcDbBlockReference
  2
VDDIM_DEFAULT
10
54.2123130034523
20
12.1415420023015
30
0.000000000000000
 41
2.50000000000000
 42
2.50000000000000
 43
2.50000000000000
 50
90.0000000000000
  0
MTEXT
  5
F1003A
330
F10007
100
AcDbEntity
  8
Bemassung
 62
     0
100
AcDbMText
10
53.5456463367856
20
3.14154200230151
30
0.000000000000000
 40
2.50000000000000
 41
0.0
 71
     8
 72
     1
  1
Ø18h6
 11
6.12323399573677e-17
 21
1.00000000000000
 31
0.0
 73
     1
 44
1.0
  0
POINT
  5
F1003B
330
F10007
100
AcDbEntity
  8
Bemassung
 62
     0
100
AcDbPoint
10
43.2123130034523
20
-5.85845799769849
30
0.000000000000000
  0
POINT
  5
F1003C
330
F10007
100
AcDbEntity
  8
Bemassung
 62
     0
100
AcDbPoint
10
43.2123130034523
20
12.1415420023015
30
0.000000000000000
  0
ENDBLK
  5
F1003D
330
F10007
100
AcDbEntity
  8
0
100
AcDbBlockEnd
0
ENDSEC
0
SECTION
2
ENTITIES
  0
DIMENSION
  5
F1000D
330
261
100
AcDbEntity
  8
Bemassung
100
AcDbDimension
  2
*D5
10
-38.7876869965477
20
-10.8584579976985
30
0.000000000000000
11
-28.7876869965477
21
-10.1917913310318
31
0.000000000000000
 70
32
 1
20
 71
     8
  3
BEM-ISBE
100
AcDbAlignedDimension
13
-18.7876869965477
23
-5.85845799769849
33
0.000000000000000
14
-38.7876869965477
24
-12.8584579976985
34
0.000000000000000
100
AcDbRotatedDimension
1001
ACAD
1000
DSTYLE
1002
{
1070
284
1070
8
1070
78
1070
8
1070
144
1040
1.00000000000000
1070
147
1040
0.625
1070
 72
1070
 0
1070
 71
1070
 0
1002
}
  0
DIMENSION
  5
F10012
330
261
100
AcDbEntity
  8
Bemassung
100
AcDbDimension
  2
*D6
10
-38.7876869965477
20
22.1415420023015
30
0.000000000000000
11
2.71231300345227
21
22.8082086689682
31
0.000000000000000
 70
32
 1
83
 71
     8
  3
BEM-ISBE
100
AcDbAlignedDimension
13
44.2123130034523
23
11.1415420023015
33
0.000000000000000
14
-38.7876869965477
24
-12.8584579976985
34
0.000000000000000
100
AcDbRotatedDimension
1001
ACAD
1000
DSTYLE
1002
{
1070
284
1070
8
1070
78
1070
8
1070
144
1040
1.00000000000000
1070
147
1040
0.625
1070
 72
1070
 0
1070
 71
1070
 0
1002
}
  0
DIMENSION
  5
F10003
330
261
100
AcDbEntity
  8
Bemassung
100
AcDbDimension
  2
*D3
10
-48.7876869965477
20
12.1415420023015
30
0.000000000000000
11
-49.4543536632144
21
3.14154200230151
31
0.000000000000000
 70
32
 1
Ø18
 71
     8
  3
BEM-ISBE
100
AcDbAlignedDimension
13
-38.7876869965477
23
-5.85845799769849
33
0.000000000000000
14
-38.7876869965477
24
12.1415420023015
34
0.000000000000000
50
90.0000000000000
100
AcDbRotatedDimension
1001
ACAD
1000
DSTYLE
1002
{
1070
284
1070
8
1070
78
1070
8
1070
144
1040
1.00000000000000
1070
147
1040
0.625
1070
 72
1070
 0
1070
 71
1070
 0
1002
}
  0
DIMENSION
  5
F10008
330
261
100
AcDbEntity
  8
Bemassung
100
AcDbDimension
  2
*D4
10
54.2123130034523
20
12.1415420023015
30
0.000000000000000
11
53.5456463367856
21
3.14154200230151
31
0.000000000000000
 70
32
 1
Ø18h6
 71
     8
  3
BEM-ISBE
100
AcDbAlignedDimension
13
43.2123130034523
23
-5.85845799769849
33
0.000000000000000
14
43.2123130034523
24
12.1415420023015
34
0.000000000000000
50
90.0000000000000
100
AcDbRotatedDimension
1001
ACAD
1000
DSTYLE
1002
{
1070
284
1070
8
1070
78
1070
8
1070
144
1040
1.00000000000000
1070
147
1040
0.625
1070
 72
1070
 0
1070
 71
1070
 0
1002
}
  0
LINE
  5
F1003E
330
F1003F
100
AcDbEntity
8
Geo
100
AcDbLine
10
-38.7876869965477
20
3.14154200230151
30
0.000000000000000
11
-38.7876869965477
21
12.1415420023015
31
0.000000000000000
  0
LINE
  5
F10040
330
F10041
100
AcDbEntity
8
Geo
100
AcDbLine
10
-38.7876869965477
20
12.1415420023015
30
0.000000000000000
11
-18.7876869965477
21
12.1415420023015
31
0.000000000000000
  0
LINE
  5
F10042
330
F10043
100
AcDbEntity
8
Geo
100
AcDbLine
10
-18.7876869965477
20
12.1415420023015
30
0.000000000000000
11
9.91231300345227
21
12.1415420023015
31
0.000000000000000
  0
LINE
  5
F10044
330
F10045
100
AcDbEntity
8
Geo
100
AcDbLine
10
9.91231300345227
20
12.1415420023015
30
0.000000000000000
11
13.7123130034523
21
8.34154200230151
31
0.000000000000000
  0
LINE
  5
F10046
330
F10047
100
AcDbEntity
8
Geo
100
AcDbLine
10
13.7123130034523
20
8.34154200230151
30
0.000000000000000
11
24.7123130034523
21
8.34154200230151
31
0.000000000000000
  0
LINE
  5
F10048
330
F10049
100
AcDbEntity
8
Geo
100
AcDbLine
10
24.7123130034523
20
8.34154200230151
30
0.000000000000000
11
28.5123130034523
21
12.1415420023015
31
0.000000000000000
  0
LINE
  5
F1004A
330
F1004B
100
AcDbEntity
8
Geo
100
AcDbLine
10
28.5123130034523
20
12.1415420023015
30
0.000000000000000
11
43.2123130034523
21
12.1415420023015
31
0.000000000000000
  0
LINE
  5
F1004C
330
F1004D
100
AcDbEntity
8
Geo
100
AcDbLine
10
43.2123130034523
20
12.1415420023015
30
0.000000000000000
11
44.2123130034523
21
11.1415420023015
31
0.000000000000000
  0
LINE
  5
F1004E
330
F1004F
100
AcDbEntity
8
Geo
100
AcDbLine
10
-38.7876869965477
20
12.1415420023015
30
0.000000000000000
11
-38.6876869965477
21
12.1413568177514
31
0.000000000000000
  0
LINE
  5
F10050
330
F10051
100
AcDbEntity
8
Geo
100
AcDbLine
10
-38.6876869965477
20
12.1413568177514
30
0.000000000000000
11
-38.5876869965477
21
12.1408012717218
31
0.000000000000000
  0
LINE
  5
F10052
330
F10053
100
AcDbEntity
8
Geo
100
AcDbLine
10
-38.5876869965477
20
12.1408012717218
30
0.000000000000000
11
-38.4876869965477
21
12.1398753870745
31
0.000000000000000
  0
LINE
  5
F10054
330
F10055
100
AcDbEntity
8
Geo
100
AcDbLine
10
-38.4876869965477
20
12.1398753870745
30
0.000000000000000
11
-38.3876869965477
21
12.1385792019118
31
0.000000000000000
  0
LINE
  5
F10056
330
F10057
100
AcDbEntity
8
Geo
100
AcDbLine
10
-38.3876869965477
20
12.1385792019118
30
0.000000000000000
11
-38.2876869965477
21
12.1369127695744
31
0.000000000000000
  0
LINE
  5
F10058
330
F10059
100
AcDbEntity
8
Geo
100
AcDbLine
10
-38.2876869965477
20
12.1369127695744
30
0.000000000000000
11
-38.1876869965477
21
12.1348761586395
31
0.000000000000000
  0
LINE
  5
F1005A
330
F1005B
100
AcDbEntity
8
Geo
100
AcDbLine
10
-38.1876869965477
20
12.1348761586395
30
0.000000000000000
11
-38.0876869965477
21
12.1324694529179
31
0.000000000000000
  0
LINE
  5
F1005C
330
F1005D
100
AcDbEntity
8
Geo
100
AcDbLine
10
-38.0876869965477
20
12.1324694529179
30
0.000000000000000
11
-37.9876869965477
21
12.1296927514508
31
0.000000000000000
  0
LINE
  5
F1005E
330
F1005F
100
AcDbEntity
8
Geo
100
AcDbLine
10
-37.9876869965477
20
12.1296927514508
30
0.000000000000000
11
-37.8876869965477
21
12.1265461685052
31
0.000000000000000
  0
LINE
  5
F10060
330
F10061
100
AcDbEntity
8
Geo
100
AcDbLine
10
-37.8876869965477
20
12.1265461685052
30
0.000000000000000
11
-37.7876869965477
21
12.1230298335698
31
0.000000000000000
  0
LINE
  5
F10062
330
F10063
100
AcDbEntity
8
Geo
100
AcDbLine
10
-37.7876869965477
20
12.1230298335698
30
0.000000000000000
11
-37.6876869965477
21
12.1191438913492
31
0.000000000000000
  0
LINE
  5
F10064
330
F10065
100
AcDbEntity
8
Geo
100
AcDbLine
10
-37.6876869965477
20
12.1191438913492
30
0.000000000000000
11
-37.5876869965477
21
12.1148885017582
31
0.000000000000000
  0
LINE
  5
F10066
330
F10067
100
AcDbEntity
8
Geo
100
AcDbLine
10
-37.5876869965477
20
12.1148885017582
30
0.000000000000000
11
-37.4876869965477
21
12.1102638399150
31
0.000000000000000
  0
LINE
  5
F10068
330
F10069
100
AcDbEntity
8
Geo
100
AcDbLine
10
-37.4876869965477
20
12.1102638399150
30
0.000000000000000
11
-37.3876869965477
21
12.1052700961343
31
0.000000000000000
  0
LINE
  5
F1006A
330
F1006B
100
AcDbEntity
8
Geo
100
AcDbLine
10
-37.3876869965477
20
12.1052700961343
30
0.000000000000000
11
-37.2876869965477
21
12.0999074759193
31
0.000000000000000
  0
LINE
  5
F1006C
330
F1006D
100
AcDbEntity
8
Geo
100
AcDbLine
10
-37.2876869965477
20
12.0999074759193
30
0.000000000000000
11
-37.1876869965477
21
12.0941761999532
31
0.000000000000000
  0
LINE
  5
F1006E
330
F1006F
100
AcDbEntity
8
Geo
100
AcDbLine
10
-37.1876869965477
20
12.0941761999532
30
0.000000000000000
11
-37.0876869965477
21
12.0880765040902
31
0.000000000000000
  0
LINE
  5
F10070
330
F10071
100
AcDbEntity
8
Geo
100
AcDbLine
10
-37.0876869965477
20
12.0880765040902
30
0.000000000000000
11
-36.9876869965477
21
12.0816086393456
31
0.000000000000000
  0
LINE
  5
F10072
330
F10073
100
AcDbEntity
8
Geo
100
AcDbLine
10
-36.9876869965477
20
12.0816086393456
30
0.000000000000000
11
-36.8876869965477
21
12.0747728718859
31
0.000000000000000
  0
LINE
  5
F10074
330
F10075
100
AcDbEntity
8
Geo
100
AcDbLine
10
-36.8876869965477
20
12.0747728718859
30
0.000000000000000
11
-36.7876869965477
21
12.0675694830173
31
0.000000000000000
  0
LINE
  5
F10076
330
F10077
100
AcDbEntity
8
Geo
100
AcDbLine
10
-36.7876869965477
20
12.0675694830173
30
0.000000000000000
11
-36.6876869965477
21
12.0599987691746
31
0.000000000000000
  0
LINE
  5
F10078
330
F10079
100
AcDbEntity
8
Geo
100
AcDbLine
10
-36.6876869965477
20
12.0599987691746
30
0.000000000000000
11
-36.5876869965477
21
12.0520610419089
31
0.000000000000000
  0
LINE
  5
F1007A
330
F1007B
100
AcDbEntity
8
Geo
100
AcDbLine
10
-36.5876869965477
20
12.0520610419089
30
0.000000000000000
11
-36.4876869965477
21
12.0437566278742
31
0.000000000000000
  0
LINE
  5
F1007C
330
F1007D
100
AcDbEntity
8
Geo
100
AcDbLine
10
-36.4876869965477
20
12.0437566278742
30
0.000000000000000
11
-36.3876869965477
21
12.0350858688151
31
0.000000000000000
  0
LINE
  5
F1007E
330
F1007F
100
AcDbEntity
8
Geo
100
AcDbLine
10
-36.3876869965477
20
12.0350858688151
30
0.000000000000000
11
-36.2876869965477
21
12.0260491215515
31
0.000000000000000
  0
LINE
  5
F10080
330
F10081
100
AcDbEntity
8
Geo
100
AcDbLine
10
-36.2876869965477
20
12.0260491215515
30
0.000000000000000
11
-36.1876869965477
21
12.0166467579648
31
0.000000000000000
  0
LINE
  5
F10082
330
F10083
100
AcDbEntity
8
Geo
100
AcDbLine
10
-36.1876869965477
20
12.0166467579648
30
0.000000000000000
11
-36.0876869965477
21
12.0068791649822
31
0.000000000000000
  0
LINE
  5
F10084
330
F10085
100
AcDbEntity
8
Geo
100
AcDbLine
10
-36.0876869965477
20
12.0068791649822
30
0.000000000000000
11
-35.9876869965477
21
11.9967467445610
31
0.000000000000000
  0
LINE
  5
F10086
330
F10087
100
AcDbEntity
8
Geo
100
AcDbLine
10
-35.9876869965477
20
11.9967467445610
30
0.000000000000000
11
-35.8876869965477
21
11.9862499136716
31
0.000000000000000
  0
LINE
  5
F10088
330
F10089
100
AcDbEntity
8
Geo
100
AcDbLine
10
-35.8876869965477
20
11.9862499136716
30
0.000000000000000
11
-35.7876869965477
21
11.9753891042811
31
0.000000000000000
  0
LINE
  5
F1008A
330
F1008B
100
AcDbEntity
8
Geo
100
AcDbLine
10
-35.7876869965477
20
11.9753891042811
30
0.000000000000000
11
-35.6876869965477
21
11.9641647633346
31
0.000000000000000
  0
LINE
  5
F1008C
330
F1008D
100
AcDbEntity
8
Geo
100
AcDbLine
10
-35.6876869965477
20
11.9641647633346
30
0.000000000000000
11
-35.5876869965477
21
11.9525773527378
31
0.000000000000000
  0
LINE
  5
F1008E
330
F1008F
100
AcDbEntity
8
Geo
100
AcDbLine
10
-35.5876869965477
20
11.9525773527378
30
0.000000000000000
11
-35.4876869965477
21
11.9406273493370
31
0.000000000000000
  0
LINE
  5
F10090
330
F10091
100
AcDbEntity
8
Geo
100
AcDbLine
10
-35.4876869965477
20
11.9406273493370
30
0.000000000000000
11
-35.3876869965477
21
11.9283152449004
31
0.000000000000000
  0
LINE
  5
F10092
330
F10093
100
AcDbEntity
8
Geo
100
AcDbLine
10
-35.3876869965477
20
11.9283152449004
30
0.000000000000000
11
-35.2876869965477
21
11.9156415460971
31
0.000000000000000
  0
LINE
  5
F10094
330
F10095
100
AcDbEntity
8
Geo
100
AcDbLine
10
-35.2876869965477
20
11.9156415460971
30
0.000000000000000
11
-35.1876869965477
21
11.9026067744768
31
0.000000000000000
  0
LINE
  5
F10096
330
F10097
100
AcDbEntity
8
Geo
100
AcDbLine
10
-35.1876869965477
20
11.9026067744768
30
0.000000000000000
11
-35.0876869965477
21
11.8892114664479
31
0.000000000000000
  0
LINE
  5
F10098
330
F10099
100
AcDbEntity
8
Geo
100
AcDbLine
10
-35.0876869965477
20
11.8892114664479
30
0.000000000000000
11
-34.9876869965477
21
11.8754561732559
31
0.000000000000000
  0
LINE
  5
F1009A
330
F1009B
100
AcDbEntity
8
Geo
100
AcDbLine
10
-34.9876869965477
20
11.8754561732559
30
0.000000000000000
11
-34.8876869965477
21
11.8613414609602
31
0.000000000000000
  0
LINE
  5
F1009C
330
F1009D
100
AcDbEntity
8
Geo
100
AcDbLine
10
-34.8876869965477
20
11.8613414609602
30
0.000000000000000
11
-34.7876869965477
21
11.8468679104112
31
0.000000000000000
  0
LINE
  5
F1009E
330
F1009F
100
AcDbEntity
8
Geo
100
AcDbLine
10
-34.7876869965477
20
11.8468679104112
30
0.000000000000000
11
-34.6876869965477
21
11.8320361172261
31
0.000000000000000
  0
LINE
  5
F100A0
330
F100A1
100
AcDbEntity
8
Geo
100
AcDbLine
10
-34.6876869965477
20
11.8320361172261
30
0.000000000000000
11
-34.5876869965477
21
11.8168466917649
31
0.000000000000000
  0
LINE
  5
F100A2
330
F100A3
100
AcDbEntity
8
Geo
100
AcDbLine
10
-34.5876869965477
20
11.8168466917649
30
0.000000000000000
11
-34.4876869965477
21
11.8013002591045
31
0.000000000000000
  0
LINE
  5
F100A4
330
F100A5
100
AcDbEntity
8
Geo
100
AcDbLine
10
-34.4876869965477
20
11.8013002591045
30
0.000000000000000
11
-34.3876869965477
21
11.7853974590137
31
0.000000000000000
  0
LINE
  5
F100A6
330
F100A7
100
AcDbEntity
8
Geo
100
AcDbLine
10
-34.3876869965477
20
11.7853974590137
30
0.000000000000000
11
-34.2876869965477
21
11.7691389459265
31
0.000000000000000
  0
LINE
  5
F100A8
330
F100A9
100
AcDbEntity
8
Geo
100
AcDbLine
10
-34.2876869965477
20
11.7691389459265
30
0.000000000000000
11
-34.1876869965477
21
11.7525253889151
31
0.000000000000000
  0
LINE
  5
F100AA
330
F100AB
100
AcDbEntity
8
Geo
100
AcDbLine
10
-34.1876869965477
20
11.7525253889151
30
0.000000000000000
11
-34.0876869965477
21
11.7355574716627
31
0.000000000000000
  0
LINE
  5
F100AC
330
F100AD
100
AcDbEntity
8
Geo
100
AcDbLine
10
-34.0876869965477
20
11.7355574716627
30
0.000000000000000
11
-33.9876869965477
21
11.7182358924351
31
0.000000000000000
  0
LINE
  5
F100AE
330
F100AF
100
AcDbEntity
8
Geo
100
AcDbLine
10
-33.9876869965477
20
11.7182358924351
30
0.000000000000000
11
-33.8876869965477
21
11.7005613640520
31
0.000000000000000
  0
LINE
  5
F100B0
330
F100B1
100
AcDbEntity
8
Geo
100
AcDbLine
10
-33.8876869965477
20
11.7005613640520
30
0.000000000000000
11
-33.7876869965477
21
11.6825346138579
31
0.000000000000000
  0
LINE
  5
F100B2
330
F100B3
100
AcDbEntity
8
Geo
100
AcDbLine
10
-33.7876869965477
20
11.6825346138579
30
0.000000000000000
11
-33.6876869965477
21
11.6641563836916
31
0.000000000000000
  0
LINE
  5
F100B4
330
F100B5
100
AcDbEntity
8
Geo
100
AcDbLine
10
-33.6876869965477
20
11.6641563836916
30
0.000000000000000
11
-33.5876869965477
21
11.6454274298565
31
0.000000000000000
  0
LINE
  5
F100B6
330
F100B7
100
AcDbEntity
8
Geo
100
AcDbLine
10
-33.5876869965477
20
11.6454274298565
30
0.000000000000000
11
-33.4876869965477
21
11.6263485230886
31
0.000000000000000
  0
LINE
  5
F100B8
330
F100B9
100
AcDbEntity
8
Geo
100
AcDbLine
10
-33.4876869965477
20
11.6263485230886
30
0.000000000000000
11
-33.3876869965477
21
11.6069204485256
31
0.000000000000000
  0
LINE
  5
F100BA
330
F100BB
100
AcDbEntity
8
Geo
100
AcDbLine
10
-33.3876869965477
20
11.6069204485256
30
0.000000000000000
11
-33.2876869965477
21
11.5871440056738
31
0.000000000000000
  0
LINE
  5
F100BC
330
F100BD
100
AcDbEntity
8
Geo
100
AcDbLine
10
-33.2876869965477
20
11.5871440056738
30
0.000000000000000
11
-33.1876869965477
21
11.5670200083759
31
0.000000000000000
  0
LINE
  5
F100BE
330
F100BF
100
AcDbEntity
8
Geo
100
AcDbLine
10
-33.1876869965477
20
11.5670200083759
30
0.000000000000000
11
-33.0876869965477
21
11.5465492847772
31
0.000000000000000
  0
LINE
  5
F100C0
330
F100C1
100
AcDbEntity
8
Geo
100
AcDbLine
10
-33.0876869965477
20
11.5465492847772
30
0.000000000000000
11
-32.9876869965477
21
11.5257326772912
31
0.000000000000000
  0
LINE
  5
F100C2
330
F100C3
100
AcDbEntity
8
Geo
100
AcDbLine
10
-32.9876869965477
20
11.5257326772912
30
0.000000000000000
11
-32.8876869965477
21
11.5045710425656
31
0.000000000000000
  0
LINE
  5
F100C4
330
F100C5
100
AcDbEntity
8
Geo
100
AcDbLine
10
-32.8876869965477
20
11.5045710425656
30
0.000000000000000
11
-32.7876869965477
21
11.4830652514466
31
0.000000000000000
  0
LINE
  5
F100C6
330
F100C7
100
AcDbEntity
8
Geo
100
AcDbLine
10
-32.7876869965477
20
11.4830652514466
30
0.000000000000000
11
-32.6876869965477
21
11.4612161889431
31
0.000000000000000
  0
LINE
  5
F100C8
330
F100C9
100
AcDbEntity
8
Geo
100
AcDbLine
10
-32.6876869965477
20
11.4612161889431
30
0.000000000000000
11
-32.5876869965477
21
11.4390247541903
31
0.000000000000000
  0
LINE
  5
F100CA
330
F100CB
100
AcDbEntity
8
Geo
100
AcDbLine
10
-32.5876869965477
20
11.4390247541903
30
0.000000000000000
11
-32.4876869965477
21
11.4164918604131
31
0.000000000000000
  0
LINE
  5
F100CC
330
F100CD
100
AcDbEntity
8
Geo
100
AcDbLine
10
-32.4876869965477
20
11.4164918604131
30
0.000000000000000
11
-32.3876869965477
21
11.3936184348876
31
0.000000000000000
  0
LINE
  5
F100CE
330
F100CF
100
AcDbEntity
8
Geo
100
AcDbLine
10
-32.3876869965477
20
11.3936184348876
30
0.000000000000000
11
-32.2876869965477
21
11.3704054189040
31
0.000000000000000
  0
LINE
  5
F100D0
330
F100D1
100
AcDbEntity
8
Geo
100
AcDbLine
10
-32.2876869965477
20
11.3704054189040
30
0.000000000000000
11
-32.1876869965477
21
11.3468537677271
31
0.000000000000000
  0
LINE
  5
F100D2
330
F100D3
100
AcDbEntity
8
Geo
100
AcDbLine
10
-32.1876869965477
20
11.3468537677271
30
0.000000000000000
11
-32.0876869965477
21
11.3229644505573
31
0.000000000000000
  0
LINE
  5
F100D4
330
F100D5
100
AcDbEntity
8
Geo
100
AcDbLine
10
-32.0876869965477
20
11.3229644505573
30
0.000000000000000
11
-31.9876869965477
21
11.2987384504908
31
0.000000000000000
  0
LINE
  5
F100D6
330
F100D7
100
AcDbEntity
8
Geo
100
AcDbLine
10
-31.9876869965477
20
11.2987384504908
30
0.000000000000000
11
-31.8876869965477
21
11.2741767644789
31
0.000000000000000
  0
LINE
  5
F100D8
330
F100D9
100
AcDbEntity
8
Geo
100
AcDbLine
10
-31.8876869965477
20
11.2741767644789
30
0.000000000000000
11
-31.7876869965477
21
11.2492804032870
31
0.000000000000000
  0
LINE
  5
F100DA
330
F100DB
100
AcDbEntity
8
Geo
100
AcDbLine
10
-31.7876869965477
20
11.2492804032870
30
0.000000000000000
11
-31.6876869965477
21
11.2240503914532
31
0.000000000000000
  0
LINE
  5
F100DC
330
F100DD
100
AcDbEntity
8
Geo
100
AcDbLine
10
-31.6876869965477
20
11.2240503914532
30
0.000000000000000
11
-31.5876869965477
21
11.1984877672462
31
0.000000000000000
  0
LINE
  5
F100DE
330
F100DF
100
AcDbEntity
8
Geo
100
AcDbLine
10
-31.5876869965477
20
11.1984877672462
30
0.000000000000000
11
-31.4876869965477
21
11.1725935826220
31
0.000000000000000
  0
LINE
  5
F100E0
330
F100E1
100
AcDbEntity
8
Geo
100
AcDbLine
10
-31.4876869965477
20
11.1725935826220
30
0.000000000000000
11
-31.3876869965477
21
11.1463689031815
31
0.000000000000000
  0
LINE
  5
F100E2
330
F100E3
100
AcDbEntity
8
Geo
100
AcDbLine
10
-31.3876869965477
20
11.1463689031815
30
0.000000000000000
11
-31.2876869965477
21
11.1198148081258
31
0.000000000000000
  0
LINE
  5
F100E4
330
F100E5
100
AcDbEntity
8
Geo
100
AcDbLine
10
-31.2876869965477
20
11.1198148081258
30
0.000000000000000
11
-31.1876869965477
21
11.0929323902122
31
0.000000000000000
  0
LINE
  5
F100E6
330
F100E7
100
AcDbEntity
8
Geo
100
AcDbLine
10
-31.1876869965477
20
11.0929323902122
30
0.000000000000000
11
-31.0876869965477
21
11.0657227557093
31
0.000000000000000
  0
LINE
  5
F100E8
330
F100E9
100
AcDbEntity
8
Geo
100
AcDbLine
10
-31.0876869965477
20
11.0657227557093
30
0.000000000000000
11
-30.9876869965477
21
11.0381870243513
31
0.000000000000000
  0
LINE
  5
F100EA
330
F100EB
100
AcDbEntity
8
Geo
100
AcDbLine
10
-30.9876869965477
20
11.0381870243513
30
0.000000000000000
11
-30.8876869965477
21
11.0103263292920
31
0.000000000000000
  0
LINE
  5
F100EC
330
F100ED
100
AcDbEntity
8
Geo
100
AcDbLine
10
-30.8876869965477
20
11.0103263292920
30
0.000000000000000
11
-30.7876869965477
21
10.9821418170582
31
0.000000000000000
  0
LINE
  5
F100EE
330
F100EF
100
AcDbEntity
8
Geo
100
AcDbLine
10
-30.7876869965477
20
10.9821418170582
30
0.000000000000000
11
-30.6876869965477
21
10.9536346475022
31
0.000000000000000
  0
LINE
  5
F100F0
330
F100F1
100
AcDbEntity
8
Geo
100
AcDbLine
10
-30.6876869965477
20
10.9536346475022
30
0.000000000000000
11
-30.5876869965477
21
10.9248059937548
31
0.000000000000000
  0
LINE
  5
F100F2
330
F100F3
100
AcDbEntity
8
Geo
100
AcDbLine
10
-30.5876869965477
20
10.9248059937548
30
0.000000000000000
11
-30.4876869965477
21
10.8956570421760
31
0.000000000000000
  0
LINE
  5
F100F4
330
F100F5
100
AcDbEntity
8
Geo
100
AcDbLine
10
-30.4876869965477
20
10.8956570421760
30
0.000000000000000
11
-30.3876869965477
21
10.8661889923072
31
0.000000000000000
  0
LINE
  5
F100F6
330
F100F7
100
AcDbEntity
8
Geo
100
AcDbLine
10
-30.3876869965477
20
10.8661889923072
30
0.000000000000000
11
-30.2876869965477
21
10.8364030568211
31
0.000000000000000
  0
LINE
  5
F100F8
330
F100F9
100
AcDbEntity
8
Geo
100
AcDbLine
10
-30.2876869965477
20
10.8364030568211
30
0.000000000000000
11
-30.1876869965477
21
10.8063004614722
31
0.000000000000000
  0
LINE
  5
F100FA
330
F100FB
100
AcDbEntity
8
Geo
100
AcDbLine
10
-30.1876869965477
20
10.8063004614722
30
0.000000000000000
11
-30.0876869965477
21
10.7758824450462
31
0.000000000000000
  0
LINE
  5
F100FC
330
F100FD
100
AcDbEntity
8
Geo
100
AcDbLine
10
-30.0876869965477
20
10.7758824450462
30
0.000000000000000
11
-29.9876869965478
21
10.7451502593090
31
0.000000000000000
  0
LINE
  5
F100FE
330
F100FF
100
AcDbEntity
8
Geo
100
AcDbLine
10
-29.9876869965478
20
10.7451502593090
30
0.000000000000000
11
-29.8876869965477
21
10.7141051689553
31
0.000000000000000
  0
LINE
  5
F10100
330
F10101
100
AcDbEntity
8
Geo
100
AcDbLine
10
-29.8876869965477
20
10.7141051689553
30
0.000000000000000
11
-29.7876869965477
21
10.6827484515564
31
0.000000000000000
  0
LINE
  5
F10102
330
F10103
100
AcDbEntity
8
Geo
100
AcDbLine
10
-29.7876869965477
20
10.6827484515564
30
0.000000000000000
11
-29.6876869965478
21
10.6510813975079
31
0.000000000000000
  0
LINE
  5
F10104
330
F10105
100
AcDbEntity
8
Geo
100
AcDbLine
10
-29.6876869965478
20
10.6510813975079
30
0.000000000000000
11
-29.5876869965478
21
10.6191053099760
31
0.000000000000000
  0
LINE
  5
F10106
330
F10107
100
AcDbEntity
8
Geo
100
AcDbLine
10
-29.5876869965478
20
10.6191053099760
30
0.000000000000000
11
-29.4876869965478
21
10.5868215048449
31
0.000000000000000
  0
LINE
  5
F10108
330
F10109
100
AcDbEntity
8
Geo
100
AcDbLine
10
-29.4876869965478
20
10.5868215048449
30
0.000000000000000
11
-29.3876869965477
21
10.5542313106614
31
0.000000000000000
  0
LINE
  5
F1010A
330
F1010B
100
AcDbEntity
8
Geo
100
AcDbLine
10
-29.3876869965477
20
10.5542313106614
30
0.000000000000000
11
-29.2876869965478
21
10.5213360685814
31
0.000000000000000
  0
LINE
  5
F1010C
330
F1010D
100
AcDbEntity
8
Geo
100
AcDbLine
10
-29.2876869965478
20
10.5213360685814
30
0.000000000000000
11
-29.1876869965478
21
10.4881371323137
31
0.000000000000000
  0
LINE
  5
F1010E
330
F1010F
100
AcDbEntity
8
Geo
100
AcDbLine
10
-29.1876869965478
20
10.4881371323137
30
0.000000000000000
11
-29.0876869965478
21
10.4546358680652
31
0.000000000000000
  0
LINE
  5
F10110
330
F10111
100
AcDbEntity
8
Geo
100
AcDbLine
10
-29.0876869965478
20
10.4546358680652
30
0.000000000000000
11
-28.9876869965478
21
10.4208336544838
31
0.000000000000000
  0
LINE
  5
F10112
330
F10113
100
AcDbEntity
8
Geo
100
AcDbLine
10
-28.9876869965478
20
10.4208336544838
30
0.000000000000000
11
-28.8876869965478
21
10.3867318826026
31
0.000000000000000
  0
LINE
  5
F10114
330
F10115
100
AcDbEntity
8
Geo
100
AcDbLine
10
-28.8876869965478
20
10.3867318826026
30
0.000000000000000
11
-28.7876869965478
21
10.3523319557816
31
0.000000000000000
  0
LINE
  5
F10116
330
F10117
100
AcDbEntity
8
Geo
100
AcDbLine
10
-28.7876869965478
20
10.3523319557816
30
0.000000000000000
11
-28.6876869965478
21
10.3176352896510
31
0.000000000000000
  0
LINE
  5
F10118
330
F10119
100
AcDbEntity
8
Geo
100
AcDbLine
10
-28.6876869965478
20
10.3176352896510
30
0.000000000000000
11
-28.5876869965478
21
10.2826433120521
31
0.000000000000000
  0
LINE
  5
F1011A
330
F1011B
100
AcDbEntity
8
Geo
100
AcDbLine
10
-28.5876869965478
20
10.2826433120521
30
0.000000000000000
11
-28.4876869965478
21
10.2473574629791
31
0.000000000000000
  0
LINE
  5
F1011C
330
F1011D
100
AcDbEntity
8
Geo
100
AcDbLine
10
-28.4876869965478
20
10.2473574629791
30
0.000000000000000
11
-28.3876869965478
21
10.2117791945197
31
0.000000000000000
  0
LINE
  5
F1011E
330
F1011F
100
AcDbEntity
8
Geo
100
AcDbLine
10
-28.3876869965478
20
10.2117791945197
30
0.000000000000000
11
-28.2876869965478
21
10.1759099707949
31
0.000000000000000
  0
LINE
  5
F10120
330
F10121
100
AcDbEntity
8
Geo
100
AcDbLine
10
-28.2876869965478
20
10.1759099707949
30
0.000000000000000
11
-28.1876869965478
21
10.1397512678996
31
0.000000000000000
  0
LINE
  5
F10122
330
F10123
100
AcDbEntity
8
Geo
100
AcDbLine
10
-28.1876869965478
20
10.1397512678996
30
0.000000000000000
11
-28.0876869965478
21
10.1033045738411
31
0.000000000000000
  0
LINE
  5
F10124
330
F10125
100
AcDbEntity
8
Geo
100
AcDbLine
10
-28.0876869965478
20
10.1033045738411
30
0.000000000000000
11
-27.9876869965478
21
10.0665713884781
31
0.000000000000000
  0
LINE
  5
F10126
330
F10127
100
AcDbEntity
8
Geo
100
AcDbLine
10
-27.9876869965478
20
10.0665713884781
30
0.000000000000000
11
-27.8876869965478
21
10.0295532234593
31
0.000000000000000
  0
LINE
  5
F10128
330
F10129
100
AcDbEntity
8
Geo
100
AcDbLine
10
-27.8876869965478
20
10.0295532234593
30
0.000000000000000
11
-27.7876869965478
21
9.99225160216065
31
0.000000000000000
  0
LINE
  5
F1012A
330
F1012B
100
AcDbEntity
8
Geo
100
AcDbLine
10
-27.7876869965478
20
9.99225160216065
30
0.000000000000000
11
-27.6876869965478
21
9.95466805962305
31
0.000000000000000
  0
LINE
  5
F1012C
330
F1012D
100
AcDbEntity
8
Geo
100
AcDbLine
10
-27.6876869965478
20
9.95466805962305
30
0.000000000000000
11
-27.5876869965478
21
9.91680414248904
31
0.000000000000000
  0
LINE
  5
F1012E
330
F1012F
100
AcDbEntity
8
Geo
100
AcDbLine
10
-27.5876869965478
20
9.91680414248904
30
0.000000000000000
11
-27.4876869965478
21
9.87866140893917
31
0.000000000000000
  0
LINE
  5
F10130
330
F10131
100
AcDbEntity
8
Geo
100
AcDbLine
10
-27.4876869965478
20
9.87866140893917
30
0.000000000000000
11
-27.3876869965478
21
9.84024142862787
31
0.000000000000000
  0
LINE
  5
F10132
330
F10133
100
AcDbEntity
8
Geo
100
AcDbLine
10
-27.3876869965478
20
9.84024142862787
30
0.000000000000000
11
-27.2876869965478
21
9.80154578261887
31
0.000000000000000
  0
LINE
  5
F10134
330
F10135
100
AcDbEntity
8
Geo
100
AcDbLine
10
-27.2876869965478
20
9.80154578261887
30
0.000000000000000
11
-27.1876869965478
21
9.76257606332013
31
0.000000000000000
  0
LINE
  5
F10136
330
F10137
100
AcDbEntity
8
Geo
100
AcDbLine
10
-27.1876869965478
20
9.76257606332013
30
0.000000000000000
11
-27.0876869965478
21
9.72333387441829
31
0.000000000000000
  0
LINE
  5
F10138
330
F10139
100
AcDbEntity
8
Geo
100
AcDbLine
10
-27.0876869965478
20
9.72333387441829
30
0.000000000000000
11
-26.9876869965478
21
9.68382083081271
31
0.000000000000000
  0
LINE
  5
F1013A
330
F1013B
100
AcDbEntity
8
Geo
100
AcDbLine
10
-26.9876869965478
20
9.68382083081271
30
0.000000000000000
11
-26.8876869965478
21
9.64403855854900
31
0.000000000000000
  0
LINE
  5
F1013C
330
F1013D
100
AcDbEntity
8
Geo
100
AcDbLine
10
-26.8876869965478
20
9.64403855854900
30
0.000000000000000
11
-26.7876869965478
21
9.60398869475208
31
0.000000000000000
  0
LINE
  5
F1013E
330
F1013F
100
AcDbEntity
8
Geo
100
AcDbLine
10
-26.7876869965478
20
9.60398869475208
30
0.000000000000000
11
-26.6876869965478
21
9.56367288755884
31
0.000000000000000
  0
LINE
  5
F10140
330
F10141
100
AcDbEntity
8
Geo
100
AcDbLine
10
-26.6876869965478
20
9.56367288755884
30
0.000000000000000
11
-26.5876869965478
21
9.52309279605032
31
0.000000000000000
  0
LINE
  5
F10142
330
F10143
100
AcDbEntity
8
Geo
100
AcDbLine
10
-26.5876869965478
20
9.52309279605032
30
0.000000000000000
11
-26.4876869965478
21
9.48225009018339
31
0.000000000000000
  0
LINE
  5
F10144
330
F10145
100
AcDbEntity
8
Geo
100
AcDbLine
10
-26.4876869965478
20
9.48225009018339
30
0.000000000000000
11
-26.3876869965478
21
9.44114645072209
31
0.000000000000000
  0
LINE
  5
F10146
330
F10147
100
AcDbEntity
8
Geo
100
AcDbLine
10
-26.3876869965478
20
9.44114645072209
30
0.000000000000000
11
-26.2876869965478
21
9.39978356916840
31
0.000000000000000
  0
LINE
  5
F10148
330
F10149
100
AcDbEntity
8
Geo
100
AcDbLine
10
-26.2876869965478
20
9.39978356916840
30
0.000000000000000
11
-26.1876869965478
21
9.35816314769269
31
0.000000000000000
  0
LINE
  5
F1014A
330
F1014B
100
AcDbEntity
8
Geo
100
AcDbLine
10
-26.1876869965478
20
9.35816314769269
30
0.000000000000000
11
-26.0876869965478
21
9.31628689906363
31
0.000000000000000
  0
LINE
  5
F1014C
330
F1014D
100
AcDbEntity
8
Geo
100
AcDbLine
10
-26.0876869965478
20
9.31628689906363
30
0.000000000000000
11
-25.9876869965478
21
9.27415654657772
31
0.000000000000000
  0
LINE
  5
F1014E
330
F1014F
100
AcDbEntity
8
Geo
100
AcDbLine
10
-25.9876869965478
20
9.27415654657772
30
0.000000000000000
11
-25.8876869965478
21
9.23177382398839
31
0.000000000000000
  0
LINE
  5
F10150
330
F10151
100
AcDbEntity
8
Geo
100
AcDbLine
10
-25.8876869965478
20
9.23177382398839
30
0.000000000000000
11
-25.7876869965478
21
9.18914047543460
31
0.000000000000000
  0
LINE
  5
F10152
330
F10153
100
AcDbEntity
8
Geo
100
AcDbLine
10
-25.7876869965478
20
9.18914047543460
30
0.000000000000000
11
-25.6876869965478
21
9.14625825536913
31
0.000000000000000
  0
LINE
  5
F10154
330
F10155
100
AcDbEntity
8
Geo
100
AcDbLine
10
-25.6876869965478
20
9.14625825536913
30
0.000000000000000
11
-25.5876869965478
21
9.10312892848635
31
0.000000000000000
  0
LINE
  5
F10156
330
F10157
100
AcDbEntity
8
Geo
100
AcDbLine
10
-25.5876869965478
20
9.10312892848635
30
0.000000000000000
11
-25.4876869965478
21
9.05975426964958
31
0.000000000000000
  0
LINE
  5
F10158
330
F10159
100
AcDbEntity
8
Geo
100
AcDbLine
10
-25.4876869965478
20
9.05975426964958
30
0.000000000000000
11
-25.3876869965478
21
9.01613606381809
31
0.000000000000000
  0
LINE
  5
F1015A
330
F1015B
100
AcDbEntity
8
Geo
100
AcDbLine
10
-25.3876869965478
20
9.01613606381809
30
0.000000000000000
11
-25.2876869965478
21
8.97227610597362
31
0.000000000000000
  0
LINE
  5
F1015C
330
F1015D
100
AcDbEntity
8
Geo
100
AcDbLine
10
-25.2876869965478
20
8.97227610597362
30
0.000000000000000
11
-25.1876869965478
21
8.92817620104651
31
0.000000000000000
  0
LINE
  5
F1015E
330
F1015F
100
AcDbEntity
8
Geo
100
AcDbLine
10
-25.1876869965478
20
8.92817620104651
30
0.000000000000000
11
-25.0876869965478
21
8.88383816384144
31
0.000000000000000
  0
LINE
  5
F10160
330
F10161
100
AcDbEntity
8
Geo
100
AcDbLine
10
-25.0876869965478
20
8.88383816384144
30
0.000000000000000
11
-24.9876869965478
21
8.83926381896275
31
0.000000000000000
  0
LINE
  5
F10162
330
F10163
100
AcDbEntity
8
Geo
100
AcDbLine
10
-24.9876869965478
20
8.83926381896275
30
0.000000000000000
11
-24.8876869965478
21
8.79445500073932
31
0.000000000000000
  0
LINE
  5
F10164
330
F10165
100
AcDbEntity
8
Geo
100
AcDbLine
10
-24.8876869965478
20
8.79445500073932
30
0.000000000000000
11
-24.7876869965478
21
8.74941355314911
31
0.000000000000000
  0
LINE
  5
F10166
330
F10167
100
AcDbEntity
8
Geo
100
AcDbLine
10
-24.7876869965478
20
8.74941355314911
30
0.000000000000000
11
-24.6876869965478
21
8.70414132974329
31
0.000000000000000
  0
LINE
  5
F10168
330
F10169
100
AcDbEntity
8
Geo
100
AcDbLine
10
-24.6876869965478
20
8.70414132974329
30
0.000000000000000
11
-24.5876869965478
21
8.65864019356992
31
0.000000000000000
  0
LINE
  5
F1016A
330
F1016B
100
AcDbEntity
8
Geo
100
AcDbLine
10
-24.5876869965478
20
8.65864019356992
30
0.000000000000000
11
-24.4876869965478
21
8.61291201709732
31
0.000000000000000
  0
LINE
  5
F1016C
330
F1016D
100
AcDbEntity
8
Geo
100
AcDbLine
10
-24.4876869965478
20
8.61291201709732
30
0.000000000000000
11
-24.3876869965478
21
8.56695868213701
31
0.000000000000000
  0
LINE
  5
F1016E
330
F1016F
100
AcDbEntity
8
Geo
100
AcDbLine
10
-24.3876869965478
20
8.56695868213701
30
0.000000000000000
11
-24.2876869965478
21
8.52078207976623
31
0.000000000000000
  0
LINE
  5
F10170
330
F10171
100
AcDbEntity
8
Geo
100
AcDbLine
10
-24.2876869965478
20
8.52078207976623
30
0.000000000000000
11
-24.1876869965478
21
8.47438411025018
31
0.000000000000000
  0
LINE
  5
F10172
330
F10173
100
AcDbEntity
8
Geo
100
AcDbLine
10
-24.1876869965478
20
8.47438411025018
30
0.000000000000000
11
-24.0876869965478
21
8.42776668296377
31
0.000000000000000
  0
LINE
  5
F10174
330
F10175
100
AcDbEntity
8
Geo
100
AcDbLine
10
-24.0876869965478
20
8.42776668296377
30
0.000000000000000
11
-23.9876869965478
21
8.38093171631307
31
0.000000000000000
  0
LINE
  5
F10176
330
F10177
100
AcDbEntity
8
Geo
100
AcDbLine
10
-23.9876869965478
20
8.38093171631307
30
0.000000000000000
11
-23.8876869965478
21
8.33388113765635
31
0.000000000000000
  0
LINE
  5
F10178
330
F10179
100
AcDbEntity
8
Geo
100
AcDbLine
10
-23.8876869965478
20
8.33388113765635
30
0.000000000000000
11
-23.7876869965478
21
8.28661688322477
31
0.000000000000000
  0
LINE
  5
F1017A
330
F1017B
100
AcDbEntity
8
Geo
100
AcDbLine
10
-38.7876869965477
20
3.14154200230151
30
0.000000000000000
11
-38.6876869965477
21
3.08380737136954
31
0.000000000000000
  0
LINE
  5
F1017C
330
F1017D
100
AcDbEntity
8
Geo
100
AcDbLine
10
-38.6876869965477
20
3.08380737136954
30
0.000000000000000
11
-38.5876869965477
21
3.02607511634019
31
0.000000000000000
  0
LINE
  5
F1017E
330
F1017F
100
AcDbEntity
8
Geo
100
AcDbLine
10
-38.5876869965477
20
3.02607511634019
30
0.000000000000000
11
-38.4876869965477
21
2.96834761301825
31
0.000000000000000
  0
LINE
  5
F10180
330
F10181
100
AcDbEntity
8
Geo
100
AcDbLine
10
-38.4876869965477
20
2.96834761301825
30
0.000000000000000
11
-38.3876869965477
21
2.91062723701299
31
0.000000000000000
  0
LINE
  5
F10182
330
F10183
100
AcDbEntity
8
Geo
100
AcDbLine
10
-38.3876869965477
20
2.91062723701299
30
0.000000000000000
11
-38.2876869965477
21
2.85291636364037
31
0.000000000000000
  0
LINE
  5
F10184
330
F10185
100
AcDbEntity
8
Geo
100
AcDbLine
10
-38.2876869965477
20
2.85291636364037
30
0.000000000000000
11
-38.1876869965477
21
2.79521736782533
31
0.000000000000000
  0
LINE
  5
F10186
330
F10187
100
AcDbEntity
8
Geo
100
AcDbLine
10
-38.1876869965477
20
2.79521736782533
30
0.000000000000000
11
-38.0876869965477
21
2.73753262400398
31
0.000000000000000
  0
LINE
  5
F10188
330
F10189
100
AcDbEntity
8
Geo
100
AcDbLine
10
-38.0876869965477
20
2.73753262400398
30
0.000000000000000
11
-37.9876869965477
21
2.67986450602596
31
0.000000000000000
  0
LINE
  5
F1018A
330
F1018B
100
AcDbEntity
8
Geo
100
AcDbLine
10
-37.9876869965477
20
2.67986450602596
30
0.000000000000000
11
-37.8876869965477
21
2.62221538705670
31
0.000000000000000
  0
LINE
  5
F1018C
330
F1018D
100
AcDbEntity
8
Geo
100
AcDbLine
10
-37.8876869965477
20
2.62221538705670
30
0.000000000000000
11
-37.7876869965477
21
2.56458763947980
31
0.000000000000000
  0
LINE
  5
F1018E
330
F1018F
100
AcDbEntity
8
Geo
100
AcDbLine
10
-37.7876869965477
20
2.56458763947980
30
0.000000000000000
11
-37.6876869965477
21
2.50698363479937
31
0.000000000000000
  0
LINE
  5
F10190
330
F10191
100
AcDbEntity
8
Geo
100
AcDbLine
10
-37.6876869965477
20
2.50698363479937
30
0.000000000000000
11
-37.5876869965477
21
2.44940574354246
31
0.000000000000000
  0
LINE
  5
F10192
330
F10193
100
AcDbEntity
8
Geo
100
AcDbLine
10
-37.5876869965477
20
2.44940574354246
30
0.000000000000000
11
-37.4876869965477
21
2.39185633516148
31
0.000000000000000
  0
LINE
  5
F10194
330
F10195
100
AcDbEntity
8
Geo
100
AcDbLine
10
-37.4876869965477
20
2.39185633516148
30
0.000000000000000
11
-37.3876869965477
21
2.33433777793672
31
0.000000000000000
  0
LINE
  5
F10196
330
F10197
100
AcDbEntity
8
Geo
100
AcDbLine
10
-37.3876869965477
20
2.33433777793672
30
0.000000000000000
11
-37.2876869965477
21
2.27685243887888
31
0.000000000000000
  0
LINE
  5
F10198
330
F10199
100
AcDbEntity
8
Geo
100
AcDbLine
10
-37.2876869965477
20
2.27685243887888
30
0.000000000000000
11
-37.1876869965477
21
2.21940268363167
31
0.000000000000000
  0
LINE
  5
F1019A
330
F1019B
100
AcDbEntity
8
Geo
100
AcDbLine
10
-37.1876869965477
20
2.21940268363167
30
0.000000000000000
11
-37.0876869965477
21
2.16199087637442
31
0.000000000000000
  0
LINE
  5
F1019C
330
F1019D
100
AcDbEntity
8
Geo
100
AcDbLine
10
-37.0876869965477
20
2.16199087637442
30
0.000000000000000
11
-36.9876869965477
21
2.10461937972486
31
0.000000000000000
  0
LINE
  5
F1019E
330
F1019F
100
AcDbEntity
8
Geo
100
AcDbLine
10
-36.9876869965477
20
2.10461937972486
30
0.000000000000000
11
-36.8876869965477
21
2.04729055464183
31
0.000000000000000
  0
LINE
  5
F101A0
330
F101A1
100
AcDbEntity
8
Geo
100
AcDbLine
10
-36.8876869965477
20
2.04729055464183
30
0.000000000000000
11
-36.7876869965477
21
1.99000676032814
31
0.000000000000000
  0
LINE
  5
F101A2
330
F101A3
100
AcDbEntity
8
Geo
100
AcDbLine
10
-36.7876869965477
20
1.99000676032814
30
0.000000000000000
11
-36.6876869965477
21
1.93277035413350
31
0.000000000000000
  0
LINE
  5
F101A4
330
F101A5
100
AcDbEntity
8
Geo
100
AcDbLine
10
-36.6876869965477
20
1.93277035413350
30
0.000000000000000
11
-36.5876869965477
21
1.87558369145750
31
0.000000000000000
  0
LINE
  5
F101A6
330
F101A7
100
AcDbEntity
8
Geo
100
AcDbLine
10
-36.5876869965477
20
1.87558369145750
30
0.000000000000000
11
-36.4876869965477
21
1.81844912565267
31
0.000000000000000
  0
LINE
  5
F101A8
330
F101A9
100
AcDbEntity
8
Geo
100
AcDbLine
10
-36.4876869965477
20
1.81844912565267
30
0.000000000000000
11
-36.3876869965477
21
1.76136900792765
31
0.000000000000000
  0
LINE
  5
F101AA
330
F101AB
100
AcDbEntity
8
Geo
100
AcDbLine
10
-36.3876869965477
20
1.76136900792765
30
0.000000000000000
11
-36.2876869965477
21
1.70434568725041
31
0.000000000000000
  0
LINE
  5
F101AC
330
F101AD
100
AcDbEntity
8
Geo
100
AcDbLine
10
-36.2876869965477
20
1.70434568725041
30
0.000000000000000
11
-36.1876869965477
21
1.64738151025163
31
0.000000000000000
  0
LINE
  5
F101AE
330
F101AF
100
AcDbEntity
8
Geo
100
AcDbLine
10
-36.1876869965477
20
1.64738151025163
30
0.000000000000000
11
-36.0876869965477
21
1.59047882112807
31
0.000000000000000
  0
LINE
  5
F101B0
330
F101B1
100
AcDbEntity
8
Geo
100
AcDbLine
10
-36.0876869965477
20
1.59047882112807
30
0.000000000000000
11
-35.9876869965477
21
1.53363996154617
31
0.000000000000000
  0
LINE
  5
F101B2
330
F101B3
100
AcDbEntity
8
Geo
100
AcDbLine
10
-35.9876869965477
20
1.53363996154617
30
0.000000000000000
11
-35.8876869965477
21
1.47686727054561
31
0.000000000000000
  0
LINE
  5
F101B4
330
F101B5
100
AcDbEntity
8
Geo
100
AcDbLine
10
-35.8876869965477
20
1.47686727054561
30
0.000000000000000
11
-35.7876869965477
21
1.42016308444311
31
0.000000000000000
  0
LINE
  5
F101B6
330
F101B7
100
AcDbEntity
8
Geo
100
AcDbLine
10
-35.7876869965477
20
1.42016308444311
30
0.000000000000000
11
-35.6876869965477
21
1.36352973673628
31
0.000000000000000
  0
LINE
  5
F101B8
330
F101B9
100
AcDbEntity
8
Geo
100
AcDbLine
10
-35.6876869965477
20
1.36352973673628
30
0.000000000000000
11
-35.5876869965477
21
1.30696955800756
31
0.000000000000000
  0
LINE
  5
F101BA
330
F101BB
100
AcDbEntity
8
Geo
100
AcDbLine
10
-35.5876869965477
20
1.30696955800756
30
0.000000000000000
11
-35.4876869965477
21
1.25048487582835
31
0.000000000000000
  0
LINE
  5
F101BC
330
F101BD
100
AcDbEntity
8
Geo
100
AcDbLine
10
-35.4876869965477
20
1.25048487582835
30
0.000000000000000
11
-35.3876869965477
21
1.19407801466318
31
0.000000000000000
  0
LINE
  5
F101BE
330
F101BF
100
AcDbEntity
8
Geo
100
AcDbLine
10
-35.3876869965477
20
1.19407801466318
30
0.000000000000000
11
-35.2876869965477
21
1.13775129577411
31
0.000000000000000
  0
LINE
  5
F101C0
330
F101C1
100
AcDbEntity
8
Geo
100
AcDbLine
10
-35.2876869965477
20
1.13775129577411
30
0.000000000000000
11
-35.1876869965477
21
1.08150703712515
31
0.000000000000000
  0
LINE
  5
F101C2
330
F101C3
100
AcDbEntity
8
Geo
100
AcDbLine
10
-35.1876869965477
20
1.08150703712515
30
0.000000000000000
11
-35.0876869965477
21
1.02534755328692
31
0.000000000000000
  0
LINE
  5
F101C4
330
F101C5
100
AcDbEntity
8
Geo
100
AcDbLine
10
-35.0876869965477
20
1.02534755328692
30
0.000000000000000
11
-34.9876869965477
21
0.969275155341357
31
0.000000000000000
  0
LINE
  5
F101C6
330
F101C7
100
AcDbEntity
8
Geo
100
AcDbLine
10
-34.9876869965477
20
0.969275155341357
30
0.000000000000000
11
-34.8876869965477
21
0.913292150786636
31
0.000000000000000
  0
LINE
  5
F101C8
330
F101C9
100
AcDbEntity
8
Geo
100
AcDbLine
10
-34.8876869965477
20
0.913292150786636
30
0.000000000000000
11
-34.7876869965477
21
0.857400843442207
31
0.000000000000000
  0
LINE
  5
F101CA
330
F101CB
100
AcDbEntity
8
Geo
100
AcDbLine
10
-34.7876869965477
20
0.857400843442207
30
0.000000000000000
11
-34.6876869965477
21
0.801603533353981
31
0.000000000000000
  0
LINE
  5
F101CC
330
F101CD
100
AcDbEntity
8
Geo
100
AcDbLine
10
-34.6876869965477
20
0.801603533353981
30
0.000000000000000
11
-34.5876869965477
21
0.745902516699684
31
0.000000000000000
  0
LINE
  5
F101CE
330
F101CF
100
AcDbEntity
8
Geo
100
AcDbLine
10
-34.5876869965477
20
0.745902516699684
30
0.000000000000000
11
-34.4876869965477
21
0.690300085694362
31
0.000000000000000
  0
LINE
  5
F101D0
330
F101D1
100
AcDbEntity
8
Geo
100
AcDbLine
10
-34.4876869965477
20
0.690300085694362
30
0.000000000000000
11
-34.3876869965477
21
0.634798528496054
31
0.000000000000000
  0
LINE
  5
F101D2
330
F101D3
100
AcDbEntity
8
Geo
100
AcDbLine
10
-34.3876869965477
20
0.634798528496054
30
0.000000000000000
11
-34.2876869965477
21
0.579400129111628
31
0.000000000000000
  0
LINE
  5
F101D4
330
F101D5
100
AcDbEntity
8
Geo
100
AcDbLine
10
-34.2876869965477
20
0.579400129111628
30
0.000000000000000
11
-34.1876869965477
21
0.524107167302786
31
0.000000000000000
  0
LINE
  5
F101D6
330
F101D7
100
AcDbEntity
8
Geo
100
AcDbLine
10
-34.1876869965477
20
0.524107167302786
30
0.000000000000000
11
-34.0876869965477
21
0.468921918492252
31
0.000000000000000
  0
LINE
  5
F101D8
330
F101D9
100
AcDbEntity
8
Geo
100
AcDbLine
10
-34.0876869965477
20
0.468921918492252
30
0.000000000000000
11
-33.9876869965477
21
0.413846653670134
31
0.000000000000000
  0
LINE
  5
F101DA
330
F101DB
100
AcDbEntity
8
Geo
100
AcDbLine
10
-33.9876869965477
20
0.413846653670134
30
0.000000000000000
11
-33.8876869965477
21
0.358883639300459
31
0.000000000000000
  0
LINE
  5
F101DC
330
F101DD
100
AcDbEntity
8
Geo
100
AcDbLine
10
-33.8876869965477
20
0.358883639300459
30
0.000000000000000
11
-33.7876869965477
21
0.304035137227915
31
0.000000000000000
  0
LINE
  5
F101DE
330
F101DF
100
AcDbEntity
8
Geo
100
AcDbLine
10
-33.7876869965477
20
0.304035137227915
30
0.000000000000000
11
-33.6876869965477
21
0.249303404584766
31
0.000000000000000
  0
LINE
  5
F101E0
330
F101E1
100
AcDbEntity
8
Geo
100
AcDbLine
10
-33.6876869965477
20
0.249303404584766
30
0.000000000000000
11
-33.5876869965477
21
0.194690693697962
31
0.000000000000000
  0
LINE
  5
F101E2
330
F101E3
100
AcDbEntity
8
Geo
100
AcDbLine
10
-33.5876869965477
20
0.194690693697962
30
0.000000000000000
11
-33.4876869965477
21
0.140199251996460
31
0.000000000000000
  0
LINE
  5
F101E4
330
F101E5
100
AcDbEntity
8
Geo
100
AcDbLine
10
-33.4876869965477
20
0.140199251996460
30
0.000000000000000
11
-33.3876869965477
21
0.0858313219187288
31
0.000000000000000
  0
LINE
  5
F101E6
330
F101E7
100
AcDbEntity
8
Geo
100
AcDbLine
10
-33.3876869965477
20
0.0858313219187288
30
0.000000000000000
11
-33.2876869965477
21
0.0315891408204751
31
0.000000000000000
  0
LINE
  5
F101E8
330
F101E9
100
AcDbEntity
8
Geo
100
AcDbLine
10
-33.2876869965477
20
0.0315891408204751
30
0.000000000000000
11
-33.1876869965477
21
-0.0225250591174349
31
0.000000000000000
  0
LINE
  5
F101EA
330
F101EB
100
AcDbEntity
8
Geo
100
AcDbLine
10
-33.1876869965477
20
-0.0225250591174349
30
0.000000000000000
11
-33.0876869965477
21
-0.0765090509808299
31
0.000000000000000
  0
LINE
  5
F101EC
330
F101ED
100
AcDbEntity
8
Geo
100
AcDbLine
10
-33.0876869965477
20
-0.0765090509808299
30
0.000000000000000
11
-32.9876869965477
21
-0.130360613213876
31
0.000000000000000
  0
LINE
  5
F101EE
330
F101EF
100
AcDbEntity
8
Geo
100
AcDbLine
10
-32.9876869965477
20
-0.130360613213876
30
0.000000000000000
11
-32.8876869965477
21
-0.184077529710503
31
0.000000000000000
  0
LINE
  5
F101F0
330
F101F1
100
AcDbEntity
8
Geo
100
AcDbLine
10
-32.8876869965477
20
-0.184077529710503
30
0.000000000000000
11
-32.7876869965477
21
-0.237657589905594
31
0.000000000000000
  0
LINE
  5
F101F2
330
F101F3
100
AcDbEntity
8
Geo
100
AcDbLine
10
-32.7876869965477
20
-0.237657589905594
30
0.000000000000000
11
-32.6876869965477
21
-0.291098588865963
31
0.000000000000000
  0
LINE
  5
F101F4
330
F101F5
100
AcDbEntity
8
Geo
100
AcDbLine
10
-32.6876869965477
20
-0.291098588865963
30
0.000000000000000
11
-32.5876869965477
21
-0.344398327381088
31
0.000000000000000
  0
LINE
  5
F101F6
330
F101F7
100
AcDbEntity
8
Geo
100
AcDbLine
10
-32.5876869965477
20
-0.344398327381088
30
0.000000000000000
11
-32.4876869965477
21
-0.397554612053614
31
0.000000000000000
  0
LINE
  5
F101F8
330
F101F9
100
AcDbEntity
8
Geo
100
AcDbLine
10
-32.4876869965477
20
-0.397554612053614
30
0.000000000000000
11
-32.3876869965477
21
-0.450565255389614
31
0.000000000000000
  0
LINE
  5
F101FA
330
F101FB
100
AcDbEntity
8
Geo
100
AcDbLine
10
-32.3876869965477
20
-0.450565255389614
30
0.000000000000000
11
-32.2876869965477
21
-0.503428075888615
31
0.000000000000000
  0
LINE
  5
F101FC
330
F101FD
100
AcDbEntity
8
Geo
100
AcDbLine
10
-32.2876869965477
20
-0.503428075888615
30
0.000000000000000
11
-32.1876869965477
21
-0.556140898133364
31
0.000000000000000
  0
LINE
  5
F101FE
330
F101FF
100
AcDbEntity
8
Geo
100
AcDbLine
10
-32.1876869965477
20
-0.556140898133364
30
0.000000000000000
11
-32.0876869965477
21
-0.608701552879356
31
0.000000000000000
  0
LINE
  5
F10200
330
F10201
100
AcDbEntity
8
Geo
100
AcDbLine
10
-32.0876869965477
20
-0.608701552879356
30
0.000000000000000
11
-31.9876869965477
21
-0.661107877144103
31
0.000000000000000
  0
LINE
  5
F10202
330
F10203
100
AcDbEntity
8
Geo
100
AcDbLine
10
-31.9876869965477
20
-0.661107877144103
30
0.000000000000000
11
-31.8876869965477
21
-0.713357714296141
31
0.000000000000000
  0
LINE
  5
F10204
330
F10205
100
AcDbEntity
8
Geo
100
AcDbLine
10
-31.8876869965477
20
-0.713357714296141
30
0.000000000000000
11
-31.7876869965477
21
-0.765448914143783
31
0.000000000000000
  0
LINE
  5
F10206
330
F10207
100
AcDbEntity
8
Geo
100
AcDbLine
10
-31.7876869965477
20
-0.765448914143783
30
0.000000000000000
11
-31.6876869965477
21
-0.817379333023608
31
0.000000000000000
  0
LINE
  5
F10208
330
F10209
100
AcDbEntity
8
Geo
100
AcDbLine
10
-31.6876869965477
20
-0.817379333023608
30
0.000000000000000
11
-31.5876869965477
21
-0.869146833888665
31
0.000000000000000
  0
LINE
  5
F1020A
330
F1020B
100
AcDbEntity
8
Geo
100
AcDbLine
10
-31.5876869965477
20
-0.869146833888665
30
0.000000000000000
11
-31.4876869965477
21
-0.920749286396435
31
0.000000000000000
  0
LINE
  5
F1020C
330
F1020D
100
AcDbEntity
8
Geo
100
AcDbLine
10
-31.4876869965477
20
-0.920749286396435
30
0.000000000000000
11
-31.3876869965477
21
-0.972184566996480
31
0.000000000000000
  0
LINE
  5
F1020E
330
F1020F
100
AcDbEntity
8
Geo
100
AcDbLine
10
-31.3876869965477
20
-0.972184566996480
30
0.000000000000000
11
-31.2876869965477
21
-1.02345055901785
31
0.000000000000000
  0
LINE
  5
F10210
330
F10211
100
AcDbEntity
8
Geo
100
AcDbLine
10
-31.2876869965477
20
-1.02345055901785
30
0.000000000000000
11
-31.1876869965477
21
-1.07454515275616
31
0.000000000000000
  0
LINE
  5
F10212
330
F10213
100
AcDbEntity
8
Geo
100
AcDbLine
10
-31.1876869965477
20
-1.07454515275616
30
0.000000000000000
11
-31.0876869965477
21
-1.12546624556047
31
0.000000000000000
  0
LINE
  5
F10214
330
F10215
100
AcDbEntity
8
Geo
100
AcDbLine
10
-31.0876869965477
20
-1.12546624556047
30
0.000000000000000
11
-30.9876869965477
21
-1.17621174191971
31
0.000000000000000
  0
LINE
  5
F10216
330
F10217
100
AcDbEntity
8
Geo
100
AcDbLine
10
-30.9876869965477
20
-1.17621174191971
30
0.000000000000000
11
-30.8876869965477
21
-1.22677955354904
31
0.000000000000000
  0
LINE
  5
F10218
330
F10219
100
AcDbEntity
8
Geo
100
AcDbLine
10
-30.8876869965477
20
-1.22677955354904
30
0.000000000000000
11
-30.7876869965477
21
-1.27716759947567
31
0.000000000000000
  0
LINE
  5
F1021A
330
F1021B
100
AcDbEntity
8
Geo
100
AcDbLine
10
-30.7876869965477
20
-1.27716759947567
30
0.000000000000000
11
-30.6876869965477
21
-1.32737380612459
31
0.000000000000000
  0
LINE
  5
F1021C
330
F1021D
100
AcDbEntity
8
Geo
100
AcDbLine
10
-30.6876869965477
20
-1.32737380612459
30
0.000000000000000
11
-30.5876869965477
21
-1.37739610740385
31
0.000000000000000
  0
LINE
  5
F1021E
330
F1021F
100
AcDbEntity
8
Geo
100
AcDbLine
10
-30.5876869965477
20
-1.37739610740385
30
0.000000000000000
11
-30.4876869965477
21
-1.42723244478957
31
0.000000000000000
  0
LINE
  5
F10220
330
F10221
100
AcDbEntity
8
Geo
100
AcDbLine
10
-30.4876869965477
20
-1.42723244478957
30
0.000000000000000
11
-30.3876869965477
21
-1.47688076741072
31
0.000000000000000
  0
LINE
  5
F10222
330
F10223
100
AcDbEntity
8
Geo
100
AcDbLine
10
-30.3876869965477
20
-1.47688076741072
30
0.000000000000000
11
-30.2876869965477
21
-1.52633903213346
31
0.000000000000000
  0
LINE
  5
F10224
330
F10225
100
AcDbEntity
8
Geo
100
AcDbLine
10
-30.2876869965477
20
-1.52633903213346
30
0.000000000000000
11
-30.1876869965477
21
-1.57560520364522
31
0.000000000000000
  0
LINE
  5
F10226
330
F10227
100
AcDbEntity
8
Geo
100
AcDbLine
10
-30.1876869965477
20
-1.57560520364522
30
0.000000000000000
11
-30.0876869965477
21
-1.62467725453850
31
0.000000000000000
  0
LINE
  5
F10228
330
F10229
100
AcDbEntity
8
Geo
100
AcDbLine
10
-30.0876869965477
20
-1.62467725453850
30
0.000000000000000
11
-29.9876869965478
21
-1.67355316539425
31
0.000000000000000
  0
LINE
  5
F1022A
330
F1022B
100
AcDbEntity
8
Geo
100
AcDbLine
10
-29.9876869965478
20
-1.67355316539425
30
0.000000000000000
11
-29.8876869965477
21
-1.72223092486502
31
0.000000000000000
  0
LINE
  5
F1022C
330
F1022D
100
AcDbEntity
8
Geo
100
AcDbLine
10
-29.8876869965477
20
-1.72223092486502
30
0.000000000000000
11
-29.7876869965477
21
-1.77070852975771
31
0.000000000000000
  0
LINE
  5
F1022E
330
F1022F
100
AcDbEntity
8
Geo
100
AcDbLine
10
-29.7876869965477
20
-1.77070852975771
30
0.000000000000000
11
-29.6876869965478
21
-1.81898398511597
31
0.000000000000000
  0
LINE
  5
F10230
330
F10231
100
AcDbEntity
8
Geo
100
AcDbLine
10
-29.6876869965478
20
-1.81898398511597
30
0.000000000000000
11
-29.5876869965478
21
-1.86705530430239
31
0.000000000000000
  0
LINE
  5
F10232
330
F10233
100
AcDbEntity
8
Geo
100
AcDbLine
10
-29.5876869965478
20
-1.86705530430239
30
0.000000000000000
11
-29.4876869965478
21
-1.91492050908015
31
0.000000000000000
  0
LINE
  5
F10234
330
F10235
100
AcDbEntity
8
Geo
100
AcDbLine
10
-29.4876869965478
20
-1.91492050908015
30
0.000000000000000
11
-29.3876869965477
21
-1.96257762969449
31
0.000000000000000
  0
LINE
  5
F10236
330
F10237
100
AcDbEntity
8
Geo
100
AcDbLine
10
-29.3876869965477
20
-1.96257762969449
30
0.000000000000000
11
-29.2876869965478
21
-2.01002470495377
31
0.000000000000000
  0
LINE
  5
F10238
330
F10239
100
AcDbEntity
8
Geo
100
AcDbLine
10
-29.2876869965478
20
-2.01002470495377
30
0.000000000000000
11
-29.1876869965478
21
-2.05725978231013
31
0.000000000000000
  0
LINE
  5
F1023A
330
F1023B
100
AcDbEntity
8
Geo
100
AcDbLine
10
-29.1876869965478
20
-2.05725978231013
30
0.000000000000000
11
-29.0876869965478
21
-2.10428091793991
31
0.000000000000000
  0
LINE
  5
F1023C
330
F1023D
100
AcDbEntity
8
Geo
100
AcDbLine
10
-29.0876869965478
20
-2.10428091793991
30
0.000000000000000
11
-28.9876869965478
21
-2.15108617682358
31
0.000000000000000
  0
LINE
  5
F1023E
330
F1023F
100
AcDbEntity
8
Geo
100
AcDbLine
10
-28.9876869965478
20
-2.15108617682358
30
0.000000000000000
11
-28.8876869965478
21
-2.19767363282540
31
0.000000000000000
  0
LINE
  5
F10240
330
F10241
100
AcDbEntity
8
Geo
100
AcDbLine
10
-28.8876869965478
20
-2.19767363282540
30
0.000000000000000
11
-28.7876869965478
21
-2.24404136877268
31
0.000000000000000
  0
LINE
  5
F10242
330
F10243
100
AcDbEntity
8
Geo
100
AcDbLine
10
-28.7876869965478
20
-2.24404136877268
30
0.000000000000000
11
-28.6876869965478
21
-2.29018747653471
31
0.000000000000000
  0
LINE
  5
F10244
330
F10245
100
AcDbEntity
8
Geo
100
AcDbLine
10
-28.6876869965478
20
-2.29018747653471
30
0.000000000000000
11
-28.5876869965478
21
-2.33611005710119
31
0.000000000000000
  0
LINE
  5
F10246
330
F10247
100
AcDbEntity
8
Geo
100
AcDbLine
10
-28.5876869965478
20
-2.33611005710119
30
0.000000000000000
11
-28.4876869965478
21
-2.38180722066049
31
0.000000000000000
  0
LINE
  5
F10248
330
F10249
100
AcDbEntity
8
Geo
100
AcDbLine
10
-28.4876869965478
20
-2.38180722066049
30
0.000000000000000
11
-28.3876869965478
21
-2.42727708667734
31
0.000000000000000
  0
LINE
  5
F1024A
330
F1024B
100
AcDbEntity
8
Geo
100
AcDbLine
10
-28.3876869965478
20
-2.42727708667734
30
0.000000000000000
11
-28.2876869965478
21
-2.47251778397027
31
0.000000000000000
  0
LINE
  5
F1024C
330
F1024D
100
AcDbEntity
8
Geo
100
AcDbLine
10
-28.2876869965478
20
-2.47251778397027
30
0.000000000000000
11
-28.1876869965478
21
-2.51752745078855
31
0.000000000000000
  0
LINE
  5
F1024E
330
F1024F
100
AcDbEntity
8
Geo
100
AcDbLine
10
-28.1876869965478
20
-2.51752745078855
30
0.000000000000000
11
-28.0876869965478
21
-2.56230423488888
31
0.000000000000000
  0
LINE
  5
F10250
330
F10251
100
AcDbEntity
8
Geo
100
AcDbLine
10
-28.0876869965478
20
-2.56230423488888
30
0.000000000000000
11
-27.9876869965478
21
-2.60684629361157
31
0.000000000000000
  0
LINE
  5
F10252
330
F10253
100
AcDbEntity
8
Geo
100
AcDbLine
10
-27.9876869965478
20
-2.60684629361157
30
0.000000000000000
11
-27.8876869965478
21
-2.65115179395638
31
0.000000000000000
  0
LINE
  5
F10254
330
F10255
100
AcDbEntity
8
Geo
100
AcDbLine
10
-27.8876869965478
20
-2.65115179395638
30
0.000000000000000
11
-27.7876869965478
21
-2.69521891265793
31
0.000000000000000
  0
LINE
  5
F10256
330
F10257
100
AcDbEntity
8
Geo
100
AcDbLine
10
-27.7876869965478
20
-2.69521891265793
30
0.000000000000000
11
-27.6876869965478
21
-2.73904583626077
31
0.000000000000000
  0
LINE
  5
F10258
330
F10259
100
AcDbEntity
8
Geo
100
AcDbLine
10
-27.6876869965478
20
-2.73904583626077
30
0.000000000000000
11
-27.5876869965478
21
-2.78263076119398
31
0.000000000000000
  0
LINE
  5
F1025A
330
F1025B
100
AcDbEntity
8
Geo
100
AcDbLine
10
-27.5876869965478
20
-2.78263076119398
30
0.000000000000000
11
-27.4876869965478
21
-2.82597189384540
31
0.000000000000000
  0
LINE
  5
F1025C
330
F1025D
100
AcDbEntity
8
Geo
100
AcDbLine
10
-27.4876869965478
20
-2.82597189384540
30
0.000000000000000
11
-27.3876869965478
21
-2.86906745063545
31
0.000000000000000
  0
LINE
  5
F1025E
330
F1025F
100
AcDbEntity
8
Geo
100
AcDbLine
10
-27.3876869965478
20
-2.86906745063545
30
0.000000000000000
11
-27.2876869965478
21
-2.91191565809050
31
0.000000000000000
  0
LINE
  5
F10260
330
F10261
100
AcDbEntity
8
Geo
100
AcDbLine
10
-27.2876869965478
20
-2.91191565809050
30
0.000000000000000
11
-27.1876869965478
21
-2.95451475291588
31
0.000000000000000
  0
LINE
  5
F10262
330
F10263
100
AcDbEntity
8
Geo
100
AcDbLine
10
-27.1876869965478
20
-2.95451475291588
30
0.000000000000000
11
-27.0876869965478
21
-2.99686298206844
31
0.000000000000000
  0
LINE
  5
F10264
330
F10265
100
AcDbEntity
8
Geo
100
AcDbLine
10
-27.0876869965478
20
-2.99686298206844
30
0.000000000000000
11
-26.9876869965478
21
-3.03895860282866
31
0.000000000000000
  0
LINE
  5
F10266
330
F10267
100
AcDbEntity
8
Geo
100
AcDbLine
10
-26.9876869965478
20
-3.03895860282866
30
0.000000000000000
11
-26.8876869965478
21
-3.08079988287242
31
0.000000000000000
  0
LINE
  5
F10268
330
F10269
100
AcDbEntity
8
Geo
100
AcDbLine
10
-26.8876869965478
20
-3.08079988287242
30
0.000000000000000
11
-26.7876869965478
21
-3.12238510034225
31
0.000000000000000
  0
LINE
  5
F1026A
330
F1026B
100
AcDbEntity
8
Geo
100
AcDbLine
10
-26.7876869965478
20
-3.12238510034225
30
0.000000000000000
11
-26.6876869965478
21
-3.16371254391819
31
0.000000000000000
  0
LINE
  5
F1026C
330
F1026D
100
AcDbEntity
8
Geo
100
AcDbLine
10
-26.6876869965478
20
-3.16371254391819
30
0.000000000000000
11
-26.5876869965478
21
-3.20478051288823
31
0.000000000000000
  0
LINE
  5
F1026E
330
F1026F
100
AcDbEntity
8
Geo
100
AcDbLine
10
-26.5876869965478
20
-3.20478051288823
30
0.000000000000000
11
-26.4876869965478
21
-3.24558731721830
31
0.000000000000000
  0
LINE
  5
F10270
330
F10271
100
AcDbEntity
8
Geo
100
AcDbLine
10
-26.4876869965478
20
-3.24558731721830
30
0.000000000000000
11
-26.3876869965478
21
-3.28613127762179
31
0.000000000000000
  0
LINE
  5
F10272
330
F10273
100
AcDbEntity
8
Geo
100
AcDbLine
10
-26.3876869965478
20
-3.28613127762179
30
0.000000000000000
11
-26.2876869965478
21
-3.32641072562869
31
0.000000000000000
  0
LINE
  5
F10274
330
F10275
100
AcDbEntity
8
Geo
100
AcDbLine
10
-26.2876869965478
20
-3.32641072562869
30
0.000000000000000
11
-26.1876869965478
21
-3.36642400365423
31
0.000000000000000
  0
LINE
  5
F10276
330
F10277
100
AcDbEntity
8
Geo
100
AcDbLine
10
-26.1876869965478
20
-3.36642400365423
30
0.000000000000000
11
-26.0876869965478
21
-3.40616946506710
31
0.000000000000000
  0
LINE
  5
F10278
330
F10279
100
AcDbEntity
8
Geo
100
AcDbLine
10
-26.0876869965478
20
-3.40616946506710
30
0.000000000000000
11
-25.9876869965478
21
-3.44564547425721
31
0.000000000000000
  0
LINE
  5
F1027A
330
F1027B
100
AcDbEntity
8
Geo
100
AcDbLine
10
-25.9876869965478
20
-3.44564547425721
30
0.000000000000000
11
-25.8876869965478
21
-3.48485040670302
31
0.000000000000000
  0
LINE
  5
F1027C
330
F1027D
100
AcDbEntity
8
Geo
100
AcDbLine
10
-25.8876869965478
20
-3.48485040670302
30
0.000000000000000
11
-25.7876869965478
21
-3.52378264903833
31
0.000000000000000
  0
LINE
  5
F1027E
330
F1027F
100
AcDbEntity
8
Geo
100
AcDbLine
10
-25.7876869965478
20
-3.52378264903833
30
0.000000000000000
11
-25.6876869965478
21
-3.56244059911877
31
0.000000000000000
  0
LINE
  5
F10280
330
F10281
100
AcDbEntity
8
Geo
100
AcDbLine
10
-25.6876869965478
20
-3.56244059911877
30
0.000000000000000
11
-25.5876869965478
21
-3.60082266608764
31
0.000000000000000
  0
LINE
  5
F10282
330
F10283
100
AcDbEntity
8
Geo
100
AcDbLine
10
-25.5876869965478
20
-3.60082266608764
30
0.000000000000000
11
-25.4876869965478
21
-3.63892727044143
31
0.000000000000000
  0
LINE
  5
F10284
330
F10285
100
AcDbEntity
8
Geo
100
AcDbLine
10
-25.4876869965478
20
-3.63892727044143
30
0.000000000000000
11
-25.3876869965478
21
-3.67675284409480
31
0.000000000000000
  0
LINE
  5
F10286
330
F10287
100
AcDbEntity
8
Geo
100
AcDbLine
10
-25.3876869965478
20
-3.67675284409480
30
0.000000000000000
11
-25.2876869965478
21
-3.71429783044512
31
0.000000000000000
  0
LINE
  5
F10288
330
F10289
100
AcDbEntity
8
Geo
100
AcDbLine
10
-25.2876869965478
20
-3.71429783044512
30
0.000000000000000
11
-25.1876869965478
21
-3.75156068443652
31
0.000000000000000
  0
LINE
  5
F1028A
330
F1028B
100
AcDbEntity
8
Geo
100
AcDbLine
10
-25.1876869965478
20
-3.75156068443652
30
0.000000000000000
11
-25.0876869965478
21
-3.78853987262349
31
0.000000000000000
  0
LINE
  5
F1028C
330
F1028D
100
AcDbEntity
8
Geo
100
AcDbLine
10
-25.0876869965478
20
-3.78853987262349
30
0.000000000000000
11
-24.9876869965478
21
-3.82523387323394
31
0.000000000000000
  0
LINE
  5
F1028E
330
F1028F
100
AcDbEntity
8
Geo
100
AcDbLine
10
-24.9876869965478
20
-3.82523387323394
30
0.000000000000000
11
-24.8876869965478
21
-3.86164117623189
31
0.000000000000000
  0
LINE
  5
F10290
330
F10291
100
AcDbEntity
8
Geo
100
AcDbLine
10
-24.8876869965478
20
-3.86164117623189
30
0.000000000000000
11
-24.7876869965478
21
-3.89776028337954
31
0.000000000000000
  0
LINE
  5
F10292
330
F10293
100
AcDbEntity
8
Geo
100
AcDbLine
10
-24.7876869965478
20
-3.89776028337954
30
0.000000000000000
11
-24.6876869965478
21
-3.93358970829898
31
0.000000000000000
  0
LINE
  5
F10294
330
F10295
100
AcDbEntity
8
Geo
100
AcDbLine
10
-24.6876869965478
20
-3.93358970829898
30
0.000000000000000
11
-24.5876869965478
21
-3.96912797653334
31
0.000000000000000
  0
LINE
  5
F10296
330
F10297
100
AcDbEntity
8
Geo
100
AcDbLine
10
-24.5876869965478
20
-3.96912797653334
30
0.000000000000000
11
-24.4876869965478
21
-4.00437362560745
31
0.000000000000000
  0
LINE
  5
F10298
330
F10299
100
AcDbEntity
8
Geo
100
AcDbLine
10
-24.4876869965478
20
-4.00437362560745
30
0.000000000000000
11
-24.3876869965478
21
-4.03932520508807
31
0.000000000000000
  0
LINE
  5
F1029A
330
F1029B
100
AcDbEntity
8
Geo
100
AcDbLine
10
-24.3876869965478
20
-4.03932520508807
30
0.000000000000000
11
-24.2876869965478
21
-4.07398127664352
31
0.000000000000000
  0
LINE
  5
F1029C
330
F1029D
100
AcDbEntity
8
Geo
100
AcDbLine
10
-24.2876869965478
20
-4.07398127664352
30
0.000000000000000
11
-24.1876869965478
21
-4.10834041410290
31
0.000000000000000
  0
LINE
  5
F1029E
330
F1029F
100
AcDbEntity
8
Geo
100
AcDbLine
10
-24.1876869965478
20
-4.10834041410290
30
0.000000000000000
11
-24.0876869965478
21
-4.14240120351479
31
0.000000000000000
  0
LINE
  5
F102A0
330
F102A1
100
AcDbEntity
8
Geo
100
AcDbLine
10
-24.0876869965478
20
-4.14240120351479
30
0.000000000000000
11
-23.9876869965478
21
-4.17616224320542
31
0.000000000000000
  0
LINE
  5
F102A2
330
F102A3
100
AcDbEntity
8
Geo
100
AcDbLine
10
-23.9876869965478
20
-4.17616224320542
30
0.000000000000000
11
-23.8876869965478
21
-4.20962214383636
31
0.000000000000000
  0
LINE
  5
F102A4
330
F102A5
100
AcDbEntity
8
Geo
100
AcDbLine
10
-23.8876869965478
20
-4.20962214383636
30
0.000000000000000
11
-23.7876869965478
21
-4.24277952846168
31
0.000000000000000
  0
LINE
  5
F102A6
330
F102A7
100
AcDbEntity
8
Geo
100
AcDbLine
10
-38.7876869965477
20
-5.85845799769849
30
0.000000000000000
11
-38.7876869965477
21
-5.85845799769849
31
0.000000000000000
  0
LINE
  5
F102A8
330
F102A9
100
AcDbEntity
8
Geo
100
AcDbLine
10
-38.7876869965477
20
11.7010506489579
30
0.000000000000000
11
-38.6876869965477
21
11.6830335458628
31
0.000000000000000
  0
LINE
  5
F102AA
330
F102AB
100
AcDbEntity
8
Geo
100
AcDbLine
10
-38.6876869965477
20
11.6830335458628
30
0.000000000000000
11
-38.5876869965477
21
11.6646649422636
31
0.000000000000000
  0
LINE
  5
F102AC
330
F102AD
100
AcDbEntity
8
Geo
100
AcDbLine
10
-38.5876869965477
20
11.6646649422636
30
0.000000000000000
11
-38.4876869965477
21
11.6459455940672
31
0.000000000000000
  0
LINE
  5
F102AE
330
F102AF
100
AcDbEntity
8
Geo
100
AcDbLine
10
-38.4876869965477
20
11.6459455940672
30
0.000000000000000
11
-38.3876869965477
21
11.6268762716145
31
0.000000000000000
  0
LINE
  5
F102B0
330
F102B1
100
AcDbEntity
8
Geo
100
AcDbLine
10
-38.3876869965477
20
11.6268762716145
30
0.000000000000000
11
-38.2876869965477
21
11.6074577596487
31
0.000000000000000
  0
LINE
  5
F102B2
330
F102B3
100
AcDbEntity
8
Geo
100
AcDbLine
10
-38.2876869965477
20
11.6074577596487
30
0.000000000000000
11
-38.1876869965477
21
11.5876908572827
31
0.000000000000000
  0
LINE
  5
F102B4
330
F102B5
100
AcDbEntity
8
Geo
100
AcDbLine
10
-38.1876869965477
20
11.5876908572827
30
0.000000000000000
11
-38.0876869965477
21
11.5675763779664
31
0.000000000000000
  0
LINE
  5
F102B6
330
F102B7
100
AcDbEntity
8
Geo
100
AcDbLine
10
-38.0876869965477
20
11.5675763779664
30
0.000000000000000
11
-37.9876869965477
21
11.5471151494535
31
0.000000000000000
  0
LINE
  5
F102B8
330
F102B9
100
AcDbEntity
8
Geo
100
AcDbLine
10
-37.9876869965477
20
11.5471151494535
30
0.000000000000000
11
-37.8876869965477
21
11.5263080137668
31
0.000000000000000
  0
LINE
  5
F102BA
330
F102BB
100
AcDbEntity
8
Geo
100
AcDbLine
10
-37.8876869965477
20
11.5263080137668
30
0.000000000000000
11
-37.7876869965477
21
11.5051558271642
31
0.000000000000000
  0
LINE
  5
F102BC
330
F102BD
100
AcDbEntity
8
Geo
100
AcDbLine
10
-37.7876869965477
20
11.5051558271642
30
0.000000000000000
11
-37.6876869965477
21
11.4836594601030
31
0.000000000000000
  0
LINE
  5
F102BE
330
F102BF
100
AcDbEntity
8
Geo
100
AcDbLine
10
-37.6876869965477
20
11.4836594601030
30
0.000000000000000
11
-37.5876869965477
21
11.4618197972044
31
0.000000000000000
  0
LINE
  5
F102C0
330
F102C1
100
AcDbEntity
8
Geo
100
AcDbLine
10
-37.5876869965477
20
11.4618197972044
30
0.000000000000000
11
-37.4876869965477
21
11.4396377372169
31
0.000000000000000
  0
LINE
  5
F102C2
330
F102C3
100
AcDbEntity
8
Geo
100
AcDbLine
10
-37.4876869965477
20
11.4396377372169
30
0.000000000000000
11
-37.3876869965477
21
11.4171141929792
31
0.000000000000000
  0
LINE
  5
F102C4
330
F102C5
100
AcDbEntity
8
Geo
100
AcDbLine
10
-37.3876869965477
20
11.4171141929792
30
0.000000000000000
11
-37.2876869965477
21
11.3942500913830
31
0.000000000000000
  0
LINE
  5
F102C6
330
F102C7
100
AcDbEntity
8
Geo
100
AcDbLine
10
-37.2876869965477
20
11.3942500913830
30
0.000000000000000
11
-37.1876869965477
21
11.3710463733347
31
0.000000000000000
  0
LINE
  5
F102C8
330
F102C9
100
AcDbEntity
8
Geo
100
AcDbLine
10
-37.1876869965477
20
11.3710463733347
30
0.000000000000000
11
-37.0876869965477
21
11.3475039937164
31
0.000000000000000
  0
LINE
  5
F102CA
330
F102CB
100
AcDbEntity
8
Geo
100
AcDbLine
10
-37.0876869965477
20
11.3475039937164
30
0.000000000000000
11
-36.9876869965477
21
11.3236239213472
31
0.000000000000000
  0
LINE
  5
F102CC
330
F102CD
100
AcDbEntity
8
Geo
100
AcDbLine
10
-36.9876869965477
20
11.3236239213472
30
0.000000000000000
11
-36.8876869965477
21
11.2994071389425
31
0.000000000000000
  0
LINE
  5
F102CE
330
F102CF
100
AcDbEntity
8
Geo
100
AcDbLine
10
-36.8876869965477
20
11.2994071389425
30
0.000000000000000
11
-36.7876869965477
21
11.2748546430744
31
0.000000000000000
  0
LINE
  5
F102D0
330
F102D1
100
AcDbEntity
8
Geo
100
AcDbLine
10
-36.7876869965477
20
11.2748546430744
30
0.000000000000000
11
-36.6876869965477
21
11.2499674441303
31
0.000000000000000
  0
LINE
  5
F102D2
330
F102D3
100
AcDbEntity
8
Geo
100
AcDbLine
10
-36.6876869965477
20
11.2499674441303
30
0.000000000000000
11
-36.5876869965477
21
11.2247465662711
31
0.000000000000000
  0
LINE
  5
F102D4
330
F102D5
100
AcDbEntity
8
Geo
100
AcDbLine
10
-36.5876869965477
20
11.2247465662711
30
0.000000000000000
11
-36.4876869965477
21
11.1991930473895
31
0.000000000000000
  0
LINE
  5
F102D6
330
F102D7
100
AcDbEntity
8
Geo
100
AcDbLine
10
-36.4876869965477
20
11.1991930473895
30
0.000000000000000
11
-36.3876869965477
21
11.1733079390671
31
0.000000000000000
  0
LINE
  5
F102D8
330
F102D9
100
AcDbEntity
8
Geo
100
AcDbLine
10
-36.3876869965477
20
11.1733079390671
30
0.000000000000000
11
-36.2876869965477
21
11.1470923065310
31
0.000000000000000
  0
LINE
  5
F102DA
330
F102DB
100
AcDbEntity
8
Geo
100
AcDbLine
10
-36.2876869965477
20
11.1470923065310
30
0.000000000000000
11
-36.1876869965477
21
11.1205472286101
31
0.000000000000000
  0
LINE
  5
F102DC
330
F102DD
100
AcDbEntity
8
Geo
100
AcDbLine
10
-36.1876869965477
20
11.1205472286101
30
0.000000000000000
11
-36.0876869965477
21
11.0936737976907
31
0.000000000000000
  0
LINE
  5
F102DE
330
F102DF
100
AcDbEntity
8
Geo
100
AcDbLine
10
-36.0876869965477
20
11.0936737976907
30
0.000000000000000
11
-35.9876869965477
21
11.0664731196716
31
0.000000000000000
  0
LINE
  5
F102E0
330
F102E1
100
AcDbEntity
8
Geo
100
AcDbLine
10
-35.9876869965477
20
11.0664731196716
30
0.000000000000000
11
-35.8876869965477
21
11.0389463139182
31
0.000000000000000
  0
LINE
  5
F102E2
330
F102E3
100
AcDbEntity
8
Geo
100
AcDbLine
10
-35.8876869965477
20
11.0389463139182
30
0.000000000000000
11
-35.7876869965477
21
11.0110945132172
31
0.000000000000000
  0
LINE
  5
F102E4
330
F102E5
100
AcDbEntity
8
Geo
100
AcDbLine
10
-35.7876869965477
20
11.0110945132172
30
0.000000000000000
11
-35.6876869965477
21
10.9829188637292
31
0.000000000000000
  0
LINE
  5
F102E6
330
F102E7
100
AcDbEntity
8
Geo
100
AcDbLine
10
-35.6876869965477
20
10.9829188637292
30
0.000000000000000
11
-35.5876869965477
21
10.9544205249420
31
0.000000000000000
  0
LINE
  5
F102E8
330
F102E9
100
AcDbEntity
8
Geo
100
AcDbLine
10
-35.5876869965477
20
10.9544205249420
30
0.000000000000000
11
-35.4876869965477
21
10.9256006696228
31
0.000000000000000
  0
LINE
  5
F102EA
330
F102EB
100
AcDbEntity
8
Geo
100
AcDbLine
10
-35.4876869965477
20
10.9256006696228
30
0.000000000000000
11
-35.3876869965477
21
10.8964604837696
31
0.000000000000000
  0
LINE
  5
F102EC
330
F102ED
100
AcDbEntity
8
Geo
100
AcDbLine
10
-35.3876869965477
20
10.8964604837696
30
0.000000000000000
11
-35.2876869965477
21
10.8670011665631
31
0.000000000000000
  0
LINE
  5
F102EE
330
F102EF
100
AcDbEntity
8
Geo
100
AcDbLine
10
-35.2876869965477
20
10.8670011665631
30
0.000000000000000
11
-35.1876869965477
21
10.8372239303166
31
0.000000000000000
  0
LINE
  5
F102F0
330
F102F1
100
AcDbEntity
8
Geo
100
AcDbLine
10
-35.1876869965477
20
10.8372239303166
30
0.000000000000000
11
-35.0876869965477
21
10.8071300004267
31
0.000000000000000
  0
LINE
  5
F102F2
330
F102F3
100
AcDbEntity
8
Geo
100
AcDbLine
10
-35.0876869965477
20
10.8071300004267
30
0.000000000000000
11
-34.9876869965477
21
10.7767206153223
31
0.000000000000000
  0
LINE
  5
F102F4
330
F102F5
100
AcDbEntity
8
Geo
100
AcDbLine
10
-34.9876869965477
20
10.7767206153223
30
0.000000000000000
11
-34.8876869965477
21
10.7459970264142
31
0.000000000000000
  0
LINE
  5
F102F6
330
F102F7
100
AcDbEntity
8
Geo
100
AcDbLine
10
-34.8876869965477
20
10.7459970264142
30
0.000000000000000
11
-34.7876869965477
21
10.7149604980434
31
0.000000000000000
  0
LINE
  5
F102F8
330
F102F9
100
AcDbEntity
8
Geo
100
AcDbLine
10
-34.7876869965477
20
10.7149604980434
30
0.000000000000000
11
-34.6876869965477
21
10.6836123074288
31
0.000000000000000
  0
LINE
  5
F102FA
330
F102FB
100
AcDbEntity
8
Geo
100
AcDbLine
10
-34.6876869965477
20
10.6836123074288
30
0.000000000000000
11
-34.5876869965477
21
10.6519537446149
31
0.000000000000000
  0
LINE
  5
F102FC
330
F102FD
100
AcDbEntity
8
Geo
100
AcDbLine
10
-34.5876869965477
20
10.6519537446149
30
0.000000000000000
11
-34.4876869965477
21
10.6199861124190
31
0.000000000000000
  0
LINE
  5
F102FE
330
F102FF
100
AcDbEntity
8
Geo
100
AcDbLine
10
-34.4876869965477
20
10.6199861124190
30
0.000000000000000
11
-34.3876869965477
21
10.5877107263767
31
0.000000000000000
  0
LINE
  5
F10300
330
F10301
100
AcDbEntity
8
Geo
100
AcDbLine
10
-34.3876869965477
20
10.5877107263767
30
0.000000000000000
11
-34.2876869965477
21
10.5551289146889
31
0.000000000000000
  0
LINE
  5
F10302
330
F10303
100
AcDbEntity
8
Geo
100
AcDbLine
10
-34.2876869965477
20
10.5551289146889
30
0.000000000000000
11
-34.1876869965477
21
10.5222420181661
31
0.000000000000000
  0
LINE
  5
F10304
330
F10305
100
AcDbEntity
8
Geo
100
AcDbLine
10
-34.1876869965477
20
10.5222420181661
30
0.000000000000000
11
-34.0876869965477
21
10.4890513901740
31
0.000000000000000
  0
LINE
  5
F10306
330
F10307
100
AcDbEntity
8
Geo
100
AcDbLine
10
-34.0876869965477
20
10.4890513901740
30
0.000000000000000
11
-33.9876869965477
21
10.4555583965773
31
0.000000000000000
  0
LINE
  5
F10308
330
F10309
100
AcDbEntity
8
Geo
100
AcDbLine
10
-33.9876869965477
20
10.4555583965773
30
0.000000000000000
11
-33.8876869965477
21
10.4217644156838
31
0.000000000000000
  0
LINE
  5
F1030A
330
F1030B
100
AcDbEntity
8
Geo
100
AcDbLine
10
-33.8876869965477
20
10.4217644156838
30
0.000000000000000
11
-33.7876869965477
21
10.3876708381876
31
0.000000000000000
  0
LINE
  5
F1030C
330
F1030D
100
AcDbEntity
8
Geo
100
AcDbLine
10
-33.7876869965477
20
10.3876708381876
30
0.000000000000000
11
-33.6876869965477
21
10.3532790671117
31
0.000000000000000
  0
LINE
  5
F1030E
330
F1030F
100
AcDbEntity
8
Geo
100
AcDbLine
10
-33.6876869965477
20
10.3532790671117
30
0.000000000000000
11
-33.5876869965477
21
10.3185905177505
31
0.000000000000000
  0
LINE
  5
F10310
330
F10311
100
AcDbEntity
8
Geo
100
AcDbLine
10
-33.5876869965477
20
10.3185905177505
30
0.000000000000000
11
-33.4876869965477
21
10.2836066176114
31
0.000000000000000
  0
LINE
  5
F10312
330
F10313
100
AcDbEntity
8
Geo
100
AcDbLine
10
-33.4876869965477
20
10.2836066176114
30
0.000000000000000
11
-33.3876869965477
21
10.2483288063561
31
0.000000000000000
  0
LINE
  5
F10314
330
F10315
100
AcDbEntity
8
Geo
100
AcDbLine
10
-33.3876869965477
20
10.2483288063561
30
0.000000000000000
11
-33.2876869965477
21
10.2127585357415
31
0.000000000000000
  0
LINE
  5
F10316
330
F10317
100
AcDbEntity
8
Geo
100
AcDbLine
10
-33.2876869965477
20
10.2127585357415
30
0.000000000000000
11
-33.1876869965477
21
10.1768972695596
31
0.000000000000000
  0
LINE
  5
F10318
330
F10319
100
AcDbEntity
8
Geo
100
AcDbLine
10
-33.1876869965477
20
10.1768972695596
30
0.000000000000000
11
-33.0876869965477
21
10.1407464835777
31
0.000000000000000
  0
LINE
  5
F1031A
330
F1031B
100
AcDbEntity
8
Geo
100
AcDbLine
10
-33.0876869965477
20
10.1407464835777
30
0.000000000000000
11
-32.9876869965477
21
10.1043076654774
31
0.000000000000000
  0
LINE
  5
F1031C
330
F1031D
100
AcDbEntity
8
Geo
100
AcDbLine
10
-32.9876869965477
20
10.1043076654774
30
0.000000000000000
11
-32.8876869965477
21
10.0675823147933
31
0.000000000000000
  0
LINE
  5
F1031E
330
F1031F
100
AcDbEntity
8
Geo
100
AcDbLine
10
-32.8876869965477
20
10.0675823147933
30
0.000000000000000
11
-32.7876869965477
21
10.0305719428515
31
0.000000000000000
  0
LINE
  5
F10320
330
F10321
100
AcDbEntity
8
Geo
100
AcDbLine
10
-32.7876869965477
20
10.0305719428515
30
0.000000000000000
11
-32.6876869965477
21
9.99327807270750
31
0.000000000000000
  0
LINE
  5
F10322
330
F10323
100
AcDbEntity
8
Geo
100
AcDbLine
10
-32.6876869965477
20
9.99327807270750
30
0.000000000000000
11
-32.5876869965477
21
9.95570223908308
31
0.000000000000000
  0
LINE
  5
F10324
330
F10325
100
AcDbEntity
8
Geo
100
AcDbLine
10
-32.5876869965477
20
9.95570223908308
30
0.000000000000000
11
-32.4876869965477
21
9.91784598830357
31
0.000000000000000
  0
LINE
  5
F10326
330
F10327
100
AcDbEntity
8
Geo
100
AcDbLine
10
-32.4876869965477
20
9.91784598830357
30
0.000000000000000
11
-32.3876869965477
21
9.87971087823403
31
0.000000000000000
  0
LINE
  5
F10328
330
F10329
100
AcDbEntity
8
Geo
100
AcDbLine
10
-32.3876869965477
20
9.87971087823403
30
0.000000000000000
11
-32.2876869965477
21
9.84129847821517
31
0.000000000000000
  0
LINE
  5
F1032A
330
F1032B
100
AcDbEntity
8
Geo
100
AcDbLine
10
-32.2876869965477
20
9.84129847821517
30
0.000000000000000
11
-32.1876869965477
21
9.80261036899878
31
0.000000000000000
  0
LINE
  5
F1032C
330
F1032D
100
AcDbEntity
8
Geo
100
AcDbLine
10
-32.1876869965477
20
9.80261036899878
30
0.000000000000000
11
-32.0876869965477
21
9.76364814268265
31
0.000000000000000
  0
LINE
  5
F1032E
330
F1032F
100
AcDbEntity
8
Geo
100
AcDbLine
10
-32.0876869965477
20
9.76364814268265
30
0.000000000000000
11
-31.9876869965477
21
9.72441340264509
31
0.000000000000000
  0
LINE
  5
F10330
330
F10331
100
AcDbEntity
8
Geo
100
AcDbLine
10
-31.9876869965477
20
9.72441340264509
30
0.000000000000000
11
-31.8876869965477
21
9.68490776347891
31
0.000000000000000
  0
LINE
  5
F10332
330
F10333
100
AcDbEntity
8
Geo
100
AcDbLine
10
-31.8876869965477
20
9.68490776347891
30
0.000000000000000
11
-31.7876869965477
21
9.64513285092502
31
0.000000000000000
  0
LINE
  5
F10334
330
F10335
100
AcDbEntity
8
Geo
100
AcDbLine
10
-31.7876869965477
20
9.64513285092502
30
0.000000000000000
11
-31.6876869965477
21
9.60509030180545
31
0.000000000000000
  0
LINE
  5
F10336
330
F10337
100
AcDbEntity
8
Geo
100
AcDbLine
10
-31.6876869965477
20
9.60509030180545
30
0.000000000000000
11
-31.5876869965477
21
9.56478176395611
31
0.000000000000000
  0
LINE
  5
F10338
330
F10339
100
AcDbEntity
8
Geo
100
AcDbLine
10
-31.5876869965477
20
9.56478176395611
30
0.000000000000000
11
-31.4876869965477
21
9.52420889615886
31
0.000000000000000
  0
LINE
  5
F1033A
330
F1033B
100
AcDbEntity
8
Geo
100
AcDbLine
10
-31.4876869965477
20
9.52420889615886
30
0.000000000000000
11
-31.3876869965477
21
9.48337336807332
31
0.000000000000000
  0
LINE
  5
F1033C
330
F1033D
100
AcDbEntity
8
Geo
100
AcDbLine
10
-31.3876869965477
20
9.48337336807332
30
0.000000000000000
11
-31.2876869965477
21
9.44227686016814
31
0.000000000000000
  0
LINE
  5
F1033E
330
F1033F
100
AcDbEntity
8
Geo
100
AcDbLine
10
-31.2876869965477
20
9.44227686016814
30
0.000000000000000
11
-31.1876869965477
21
9.40092106365183
31
0.000000000000000
  0
LINE
  5
F10340
330
F10341
100
AcDbEntity
8
Geo
100
AcDbLine
10
-31.1876869965477
20
9.40092106365183
30
0.000000000000000
11
-31.0876869965477
21
9.35930768040317
31
0.000000000000000
  0
LINE
  5
F10342
330
F10343
100
AcDbEntity
8
Geo
100
AcDbLine
10
-31.0876869965477
20
9.35930768040317
30
0.000000000000000
11
-30.9876869965477
21
9.31743842290122
31
0.000000000000000
  0
LINE
  5
F10344
330
F10345
100
AcDbEntity
8
Geo
100
AcDbLine
10
-30.9876869965477
20
9.31743842290122
30
0.000000000000000
11
-30.8876869965477
21
9.27531501415477
31
0.000000000000000
  0
LINE
  5
F10346
330
F10347
100
AcDbEntity
8
Geo
100
AcDbLine
10
-30.8876869965477
20
9.27531501415477
30
0.000000000000000
11
-30.7876869965477
21
9.23293918763149
31
0.000000000000000
  0
LINE
  5
F10348
330
F10349
100
AcDbEntity
8
Geo
100
AcDbLine
10
-30.7876869965477
20
9.23293918763149
30
0.000000000000000
11
-30.6876869965477
21
9.19031268718658
31
0.000000000000000
  0
LINE
  5
F1034A
330
F1034B
100
AcDbEntity
8
Geo
100
AcDbLine
10
-30.6876869965477
20
9.19031268718658
30
0.000000000000000
11
-30.5876869965477
21
9.14743726699098
31
0.000000000000000
  0
LINE
  5
F1034C
330
F1034D
100
AcDbEntity
8
Geo
100
AcDbLine
10
-30.5876869965477
20
9.14743726699098
30
0.000000000000000
11
-30.4876869965477
21
9.10431469145924
31
0.000000000000000
  0
LINE
  5
F1034E
330
F1034F
100
AcDbEntity
8
Geo
100
AcDbLine
10
-30.4876869965477
20
9.10431469145924
30
0.000000000000000
11
-30.3876869965477
21
9.06094673517685
31
0.000000000000000
  0
LINE
  5
F10350
330
F10351
100
AcDbEntity
8
Geo
100
AcDbLine
10
-30.3876869965477
20
9.06094673517685
30
0.000000000000000
11
-30.2876869965477
21
9.01733518282725
31
0.000000000000000
  0
LINE
  5
F10352
330
F10353
100
AcDbEntity
8
Geo
100
AcDbLine
10
-30.2876869965477
20
9.01733518282725
30
0.000000000000000
11
-30.1876869965477
21
8.97348182911837
31
0.000000000000000
  0
LINE
  5
F10354
330
F10355
100
AcDbEntity
8
Geo
100
AcDbLine
10
-30.1876869965477
20
8.97348182911837
30
0.000000000000000
11
-30.0876869965477
21
8.92938847870880
31
0.000000000000000
  0
LINE
  5
F10356
330
F10357
100
AcDbEntity
8
Geo
100
AcDbLine
10
-30.0876869965477
20
8.92938847870880
30
0.000000000000000
11
-29.9876869965478
21
8.88505694613347
31
0.000000000000000
  0
LINE
  5
F10358
330
F10359
100
AcDbEntity
8
Geo
100
AcDbLine
10
-29.9876869965478
20
8.88505694613347
30
0.000000000000000
11
-29.8876869965477
21
8.84048905572903
31
0.000000000000000
  0
LINE
  5
F1035A
330
F1035B
100
AcDbEntity
8
Geo
100
AcDbLine
10
-29.8876869965477
20
8.84048905572903
30
0.000000000000000
11
-29.7876869965477
21
8.79568664155876
31
0.000000000000000
  0
LINE
  5
F1035C
330
F1035D
100
AcDbEntity
8
Geo
100
AcDbLine
10
-29.7876869965477
20
8.79568664155876
30
0.000000000000000
11
-29.6876869965478
21
8.75065154733708
31
0.000000000000000
  0
LINE
  5
F1035E
330
F1035F
100
AcDbEntity
8
Geo
100
AcDbLine
10
-29.6876869965478
20
8.75065154733708
30
0.000000000000000
11
-29.5876869965478
21
8.70538562635370
31
0.000000000000000
  0
LINE
  5
F10360
330
F10361
100
AcDbEntity
8
Geo
100
AcDbLine
10
-29.5876869965478
20
8.70538562635370
30
0.000000000000000
11
-29.4876869965478
21
8.65989074139732
31
0.000000000000000
  0
LINE
  5
F10362
330
F10363
100
AcDbEntity
8
Geo
100
AcDbLine
10
-29.4876869965478
20
8.65989074139732
30
0.000000000000000
11
-29.3876869965477
21
8.61416876467903
31
0.000000000000000
  0
LINE
  5
F10364
330
F10365
100
AcDbEntity
8
Geo
100
AcDbLine
10
-29.3876869965477
20
8.61416876467903
30
0.000000000000000
11
-29.2876869965478
21
8.56822157775518
31
0.000000000000000
  0
LINE
  5
F10366
330
F10367
100
AcDbEntity
8
Geo
100
AcDbLine
10
-29.2876869965478
20
8.56822157775518
30
0.000000000000000
11
-29.1876869965478
21
8.52205107145004
31
0.000000000000000
  0
LINE
  5
F10368
330
F10369
100
AcDbEntity
8
Geo
100
AcDbLine
10
-29.1876869965478
20
8.52205107145004
30
0.000000000000000
11
-29.0876869965478
21
8.47565914577792
31
0.000000000000000
  0
LINE
  5
F1036A
330
F1036B
100
AcDbEntity
8
Geo
100
AcDbLine
10
-29.0876869965478
20
8.47565914577792
30
0.000000000000000
11
-28.9876869965478
21
8.42904770986502
31
0.000000000000000
  0
LINE
  5
F1036C
330
F1036D
100
AcDbEntity
8
Geo
100
AcDbLine
10
-28.9876869965478
20
8.42904770986502
30
0.000000000000000
11
-28.8876869965478
21
8.38221868187086
31
0.000000000000000
  0
LINE
  5
F1036E
330
F1036F
100
AcDbEntity
8
Geo
100
AcDbLine
10
-28.8876869965478
20
8.38221868187086
30
0.000000000000000
11
-28.7876869965478
21
8.33517398890931
31
0.000000000000000
  0
LINE
  5
F10370
330
F10371
100
AcDbEntity
8
Geo
100
AcDbLine
10
-28.7876869965478
20
8.33517398890931
30
0.000000000000000
11
-28.6876869965478
21
8.28791556696933
31
0.000000000000000
  0
LINE
  5
F10372
330
F10373
100
AcDbEntity
8
Geo
100
AcDbLine
10
-28.6876869965478
20
8.28791556696933
30
0.000000000000000
11
-28.5876869965478
21
8.24044536083528
31
0.000000000000000
  0
LINE
  5
F10374
330
F10375
100
AcDbEntity
8
Geo
100
AcDbLine
10
-28.5876869965478
20
8.24044536083528
30
0.000000000000000
11
-28.4876869965478
21
8.19276532400688
31
0.000000000000000
  0
LINE
  5
F10376
330
F10377
100
AcDbEntity
8
Geo
100
AcDbLine
10
-28.4876869965478
20
8.19276532400688
30
0.000000000000000
11
-28.3876869965478
21
8.14487741861885
31
0.000000000000000
  0
LINE
  5
F10378
330
F10379
100
AcDbEntity
8
Geo
100
AcDbLine
10
-28.3876869965478
20
8.14487741861885
30
0.000000000000000
11
-28.2876869965478
21
8.09678361536011
31
0.000000000000000
  0
LINE
  5
F1037A
330
F1037B
100
AcDbEntity
8
Geo
100
AcDbLine
10
-28.2876869965478
20
8.09678361536011
30
0.000000000000000
11
-28.1876869965478
21
8.04848589339273
31
0.000000000000000
  0
LINE
  5
F1037C
330
F1037D
100
AcDbEntity
8
Geo
100
AcDbLine
10
-28.1876869965478
20
8.04848589339273
30
0.000000000000000
11
-28.0876869965478
21
7.99998624027048
31
0.000000000000000
  0
LINE
  5
F1037E
330
F1037F
100
AcDbEntity
8
Geo
100
AcDbLine
10
-28.0876869965478
20
7.99998624027048
30
0.000000000000000
11
-27.9876869965478
21
7.95128665185701
31
0.000000000000000
  0
LINE
  5
F10380
330
F10381
100
AcDbEntity
8
Geo
100
AcDbLine
10
-27.9876869965478
20
7.95128665185701
30
0.000000000000000
11
-27.8876869965478
21
7.90238913224373
31
0.000000000000000
  0
LINE
  5
F10382
330
F10383
100
AcDbEntity
8
Geo
100
AcDbLine
10
-27.8876869965478
20
7.90238913224373
30
0.000000000000000
11
-27.7876869965478
21
7.85329569366735
31
0.000000000000000
  0
LINE
  5
F10384
330
F10385
100
AcDbEntity
8
Geo
100
AcDbLine
10
-27.7876869965478
20
7.85329569366735
30
0.000000000000000
11
-27.6876869965478
21
7.80400835642706
31
0.000000000000000
  0
LINE
  5
F10386
330
F10387
100
AcDbEntity
8
Geo
100
AcDbLine
10
-27.6876869965478
20
7.80400835642706
30
0.000000000000000
11
-27.5876869965478
21
7.75452914880139
31
0.000000000000000
  0
LINE
  5
F10388
330
F10389
100
AcDbEntity
8
Geo
100
AcDbLine
10
-27.5876869965478
20
7.75452914880139
30
0.000000000000000
11
-27.4876869965478
21
7.70486010696472
31
0.000000000000000
  0
LINE
  5
F1038A
330
F1038B
100
AcDbEntity
8
Geo
100
AcDbLine
10
-27.4876869965478
20
7.70486010696472
30
0.000000000000000
11
-27.3876869965478
21
7.65500327490355
31
0.000000000000000
  0
LINE
  5
F1038C
330
F1038D
100
AcDbEntity
8
Geo
100
AcDbLine
10
-27.3876869965478
20
7.65500327490355
30
0.000000000000000
11
-27.2876869965478
21
7.60496070433233
31
0.000000000000000
  0
LINE
  5
F1038E
330
F1038F
100
AcDbEntity
8
Geo
100
AcDbLine
10
-27.2876869965478
20
7.60496070433233
30
0.000000000000000
11
-27.1876869965478
21
7.55473445460904
31
0.000000000000000
  0
LINE
  5
F10390
330
F10391
100
AcDbEntity
8
Geo
100
AcDbLine
10
-27.1876869965478
20
7.55473445460904
30
0.000000000000000
11
-27.0876869965478
21
7.50432659265043
31
0.000000000000000
  0
LINE
  5
F10392
330
F10393
100
AcDbEntity
8
Geo
100
AcDbLine
10
-27.0876869965478
20
7.50432659265043
30
0.000000000000000
11
-26.9876869965478
21
7.45373919284702
31
0.000000000000000
  0
LINE
  5
F10394
330
F10395
100
AcDbEntity
8
Geo
100
AcDbLine
10
-26.9876869965478
20
7.45373919284702
30
0.000000000000000
11
-26.8876869965478
21
7.40297433697767
31
0.000000000000000
  0
LINE
  5
F10396
330
F10397
100
AcDbEntity
8
Geo
100
AcDbLine
10
-26.8876869965478
20
7.40297433697767
30
0.000000000000000
11
-26.7876869965478
21
7.35203411412392
31
0.000000000000000
  0
LINE
  5
F10398
330
F10399
100
AcDbEntity
8
Geo
100
AcDbLine
10
-26.7876869965478
20
7.35203411412392
30
0.000000000000000
11
-26.6876869965478
21
7.30092062058405
31
0.000000000000000
  0
LINE
  5
F1039A
330
F1039B
100
AcDbEntity
8
Geo
100
AcDbLine
10
-26.6876869965478
20
7.30092062058405
30
0.000000000000000
11
-26.5876869965478
21
7.24963595978681
31
0.000000000000000
  0
LINE
  5
F1039C
330
F1039D
100
AcDbEntity
8
Geo
100
AcDbLine
10
-26.5876869965478
20
7.24963595978681
30
0.000000000000000
11
-26.4876869965478
21
7.19818224220482
31
0.000000000000000
  0
LINE
  5
F1039E
330
F1039F
100
AcDbEntity
8
Geo
100
AcDbLine
10
-26.4876869965478
20
7.19818224220482
30
0.000000000000000
11
-26.3876869965478
21
7.14656158526776
31
0.000000000000000
  0
LINE
  5
F103A0
330
F103A1
100
AcDbEntity
8
Geo
100
AcDbLine
10
-26.3876869965478
20
7.14656158526776
30
0.000000000000000
11
-26.2876869965478
21
7.09477611327520
31
0.000000000000000
  0
LINE
  5
F103A2
330
F103A3
100
AcDbEntity
8
Geo
100
AcDbLine
10
-26.2876869965478
20
7.09477611327520
30
0.000000000000000
11
-26.1876869965478
21
7.04282795730924
31
0.000000000000000
  0
LINE
  5
F103A4
330
F103A5
100
AcDbEntity
8
Geo
100
AcDbLine
10
-26.1876869965478
20
7.04282795730924
30
0.000000000000000
11
-26.0876869965478
21
6.99071925514673
31
0.000000000000000
  0
LINE
  5
F103A6
330
F103A7
100
AcDbEntity
8
Geo
100
AcDbLine
10
-26.0876869965478
20
6.99071925514673
30
0.000000000000000
11
-25.9876869965478
21
6.93845215117135
31
0.000000000000000
  0
LINE
  5
F103A8
330
F103A9
100
AcDbEntity
8
Geo
100
AcDbLine
10
-25.9876869965478
20
6.93845215117135
30
0.000000000000000
11
-25.8876869965478
21
6.88602879628535
31
0.000000000000000
  0
LINE
  5
F103AA
330
F103AB
100
AcDbEntity
8
Geo
100
AcDbLine
10
-25.8876869965478
20
6.88602879628535
30
0.000000000000000
11
-25.7876869965478
21
6.83345134782105
31
0.000000000000000
  0
LINE
  5
F103AC
330
F103AD
100
AcDbEntity
8
Geo
100
AcDbLine
10
-25.7876869965478
20
6.83345134782105
30
0.000000000000000
11
-25.6876869965478
21
6.78072196945203
31
0.000000000000000
  0
LINE
  5
F103AE
330
F103AF
100
AcDbEntity
8
Geo
100
AcDbLine
10
-25.6876869965478
20
6.78072196945203
30
0.000000000000000
11
-25.5876869965478
21
6.72784283110412
31
0.000000000000000
  0
LINE
  5
F103B0
330
F103B1
100
AcDbEntity
8
Geo
100
AcDbLine
10
-25.5876869965478
20
6.72784283110412
30
0.000000000000000
11
-25.4876869965478
21
6.67481610886608
31
0.000000000000000
  0
LINE
  5
F103B2
330
F103B3
100
AcDbEntity
8
Geo
100
AcDbLine
10
-25.4876869965478
20
6.67481610886608
30
0.000000000000000
11
-25.3876869965478
21
6.62164398490006
31
0.000000000000000
  0
LINE
  5
F103B4
330
F103B5
100
AcDbEntity
8
Geo
100
AcDbLine
10
-25.3876869965478
20
6.62164398490006
30
0.000000000000000
11
-25.2876869965478
21
6.56832864735182
31
0.000000000000000
  0
LINE
  5
F103B6
330
F103B7
100
AcDbEntity
8
Geo
100
AcDbLine
10
-25.2876869965478
20
6.56832864735182
30
0.000000000000000
11
-25.1876869965478
21
6.51487229026064
31
0.000000000000000
  0
LINE
  5
F103B8
330
F103B9
100
AcDbEntity
8
Geo
100
AcDbLine
10
-25.1876869965478
20
6.51487229026064
30
0.000000000000000
11
-25.0876869965478
21
6.46127711346907
31
0.000000000000000
  0
LINE
  5
F103BA
330
F103BB
100
AcDbEntity
8
Geo
100
AcDbLine
10
-25.0876869965478
20
6.46127711346907
30
0.000000000000000
11
-24.9876869965478
21
6.40754532253236
31
0.000000000000000
  0
LINE
  5
F103BC
330
F103BD
100
AcDbEntity
8
Geo
100
AcDbLine
10
-24.9876869965478
20
6.40754532253236
30
0.000000000000000
11
-24.8876869965478
21
6.35367912862776
31
0.000000000000000
  0
LINE
  5
F103BE
330
F103BF
100
AcDbEntity
8
Geo
100
AcDbLine
10
-24.8876869965478
20
6.35367912862776
30
0.000000000000000
11
-24.7876869965478
21
6.29968074846345
31
0.000000000000000
  0
LINE
  5
F103C0
330
F103C1
100
AcDbEntity
8
Geo
100
AcDbLine
10
-24.7876869965478
20
6.29968074846345
30
0.000000000000000
11
-24.6876869965478
21
6.24555240418738
31
0.000000000000000
  0
LINE
  5
F103C2
330
F103C3
100
AcDbEntity
8
Geo
100
AcDbLine
10
-24.6876869965478
20
6.24555240418738
30
0.000000000000000
11
-24.5876869965478
21
6.19129632329579
31
0.000000000000000
  0
LINE
  5
F103C4
330
F103C5
100
AcDbEntity
8
Geo
100
AcDbLine
10
-24.5876869965478
20
6.19129632329579
30
0.000000000000000
11
-24.4876869965478
21
6.13691473854156
31
0.000000000000000
  0
LINE
  5
F103C6
330
F103C7
100
AcDbEntity
8
Geo
100
AcDbLine
10
-24.4876869965478
20
6.13691473854156
30
0.000000000000000
11
-24.3876869965478
21
6.08240988784230
31
0.000000000000000
  0
LINE
  5
F103C8
330
F103C9
100
AcDbEntity
8
Geo
100
AcDbLine
10
-24.3876869965478
20
6.08240988784230
30
0.000000000000000
11
-24.2876869965478
21
6.02778401418830
31
0.000000000000000
  0
LINE
  5
F103CA
330
F103CB
100
AcDbEntity
8
Geo
100
AcDbLine
10
-24.2876869965478
20
6.02778401418830
30
0.000000000000000
11
-24.1876869965478
21
5.97303936555018
31
0.000000000000000
  0
LINE
  5
F103CC
330
F103CD
100
AcDbEntity
8
Geo
100
AcDbLine
10
-24.1876869965478
20
5.97303936555018
30
0.000000000000000
11
-24.0876869965478
21
5.91817819478643
31
0.000000000000000
  0
LINE
  5
F103CE
330
F103CF
100
AcDbEntity
8
Geo
100
AcDbLine
10
-24.0876869965478
20
5.91817819478643
30
0.000000000000000
11
-23.9876869965478
21
5.86320275955064
31
0.000000000000000
  0
LINE
  5
F103D0
330
F103D1
100
AcDbEntity
8
Geo
100
AcDbLine
10
-23.9876869965478
20
5.86320275955064
30
0.000000000000000
11
-23.8876869965478
21
5.80811532219865
31
0.000000000000000
  0
LINE
  5
F103D2
330
F103D3
100
AcDbEntity
8
Geo
100
AcDbLine
10
-23.8876869965478
20
5.80811532219865
30
0.000000000000000
11
-23.7876869965478
21
5.75291814969541
31
0.000000000000000
  0
LINE
  5
F103D4
330
F103D5
100
AcDbEntity
8
Geo
100
AcDbLine
10
-38.7876869965477
20
0.360389052927007
30
0.000000000000000
11
-38.6876869965477
21
0.305537381136374
31
0.000000000000000
  0
LINE
  5
F103D6
330
F103D7
100
AcDbEntity
8
Geo
100
AcDbLine
10
-38.6876869965477
20
0.305537381136374
30
0.000000000000000
11
-38.5876869965477
21
0.250802416954610
31
0.000000000000000
  0
LINE
  5
F103D8
330
F103D9
100
AcDbEntity
8
Geo
100
AcDbLine
10
-38.5876869965477
20
0.250802416954610
30
0.000000000000000
11
-38.4876869965477
21
0.196186412841652
31
0.000000000000000
  0
LINE
  5
F103DA
330
F103DB
100
AcDbEntity
8
Geo
100
AcDbLine
10
-38.4876869965477
20
0.196186412841652
30
0.000000000000000
11
-38.3876869965477
21
0.141691616361978
31
0.000000000000000
  0
LINE
  5
F103DC
330
F103DD
100
AcDbEntity
8
Geo
100
AcDbLine
10
-38.3876869965477
20
0.141691616361978
30
0.000000000000000
11
-38.2876869965477
21
0.0873202700921141
31
0.000000000000000
  0
LINE
  5
F103DE
330
F103DF
100
AcDbEntity
8
Geo
100
AcDbLine
10
-38.2876869965477
20
0.0873202700921141
30
0.000000000000000
11
-38.1876869965477
21
0.0330746115283498
31
0.000000000000000
  0
LINE
  5
F103E0
330
F103E1
100
AcDbEntity
8
Geo
100
AcDbLine
10
-38.1876869965477
20
0.0330746115283498
30
0.000000000000000
11
-38.0876869965477
21
-0.0210431270053419
31
0.000000000000000
  0
LINE
  5
F103E2
330
F103E3
100
AcDbEntity
8
Geo
100
AcDbLine
10
-38.0876869965477
20
-0.0210431270053419
30
0.000000000000000
11
-37.9876869965477
21
-0.0750307184491708
31
0.000000000000000
  0
LINE
  5
F103E4
330
F103E5
100
AcDbEntity
8
Geo
100
AcDbLine
10
-37.9876869965477
20
-0.0750307184491708
30
0.000000000000000
11
-37.8876869965477
21
-0.128885941099171
31
0.000000000000000
  0
LINE
  5
F103E6
330
F103E7
100
AcDbEntity
8
Geo
100
AcDbLine
10
-37.8876869965477
20
-0.128885941099171
30
0.000000000000000
11
-37.7876869965477
21
-0.182606578698639
31
0.000000000000000
  0
LINE
  5
F103E8
330
F103E9
100
AcDbEntity
8
Geo
100
AcDbLine
10
-37.7876869965477
20
-0.182606578698639
30
0.000000000000000
11
-37.6876869965477
21
-0.236190420529328
31
0.000000000000000
  0
LINE
  5
F103EA
330
F103EB
100
AcDbEntity
8
Geo
100
AcDbLine
10
-37.6876869965477
20
-0.236190420529328
30
0.000000000000000
11
-37.5876869965477
21
-0.289635261502429
31
0.000000000000000
  0
LINE
  5
F103EC
330
F103ED
100
AcDbEntity
8
Geo
100
AcDbLine
10
-37.5876869965477
20
-0.289635261502429
30
0.000000000000000
11
-37.4876869965477
21
-0.342938902249312
31
0.000000000000000
  0
LINE
  5
F103EE
330
F103EF
100
AcDbEntity
8
Geo
100
AcDbLine
10
-37.4876869965477
20
-0.342938902249312
30
0.000000000000000
11
-37.3876869965477
21
-0.396099149212036
31
0.000000000000000
  0
LINE
  5
F103F0
330
F103F1
100
AcDbEntity
8
Geo
100
AcDbLine
10
-37.3876869965477
20
-0.396099149212036
30
0.000000000000000
11
-37.2876869965477
21
-0.449113814733621
31
0.000000000000000
  0
LINE
  5
F103F2
330
F103F3
100
AcDbEntity
8
Geo
100
AcDbLine
10
-37.2876869965477
20
-0.449113814733621
30
0.000000000000000
11
-37.1876869965477
21
-0.501980717148068
31
0.000000000000000
  0
LINE
  5
F103F4
330
F103F5
100
AcDbEntity
8
Geo
100
AcDbLine
10
-37.1876869965477
20
-0.501980717148068
30
0.000000000000000
11
-37.0876869965477
21
-0.554697680870149
31
0.000000000000000
  0
LINE
  5
F103F6
330
F103F7
100
AcDbEntity
8
Geo
100
AcDbLine
10
-37.0876869965477
20
-0.554697680870149
30
0.000000000000000
11
-36.9876869965477
21
-0.607262536484925
31
0.000000000000000
  0
LINE
  5
F103F8
330
F103F9
100
AcDbEntity
8
Geo
100
AcDbLine
10
-36.9876869965477
20
-0.607262536484925
30
0.000000000000000
11
-36.8876869965477
21
-0.659673120837035
31
0.000000000000000
  0
LINE
  5
F103FA
330
F103FB
100
AcDbEntity
8
Geo
100
AcDbLine
10
-36.8876869965477
20
-0.659673120837035
30
0.000000000000000
11
-36.7876869965477
21
-0.711927277119703
31
0.000000000000000
  0
LINE
  5
F103FC
330
F103FD
100
AcDbEntity
8
Geo
100
AcDbLine
10
-36.7876869965477
20
-0.711927277119703
30
0.000000000000000
11
-36.6876869965477
21
-0.764022854963500
31
0.000000000000000
  0
LINE
  5
F103FE
330
F103FF
100
AcDbEntity
8
Geo
100
AcDbLine
10
-36.6876869965477
20
-0.764022854963500
30
0.000000000000000
11
-36.5876869965477
21
-0.815957710524841
31
0.000000000000000
  0
LINE
  5
F10400
330
F10401
100
AcDbEntity
8
Geo
100
AcDbLine
10
-36.5876869965477
20
-0.815957710524841
30
0.000000000000000
11
-36.4876869965477
21
-0.867729706574200
31
0.000000000000000
  0
LINE
  5
F10402
330
F10403
100
AcDbEntity
8
Geo
100
AcDbLine
10
-36.4876869965477
20
-0.867729706574200
30
0.000000000000000
11
-36.3876869965477
21
-0.919336712584066
31
0.000000000000000
  0
LINE
  5
F10404
330
F10405
100
AcDbEntity
8
Geo
100
AcDbLine
10
-36.3876869965477
20
-0.919336712584066
30
0.000000000000000
11
-36.2876869965477
21
-0.970776604816618
31
0.000000000000000
  0
LINE
  5
F10406
330
F10407
100
AcDbEntity
8
Geo
100
AcDbLine
10
-36.2876869965477
20
-0.970776604816618
30
0.000000000000000
11
-36.1876869965477
21
-1.02204726641112
31
0.000000000000000
  0
LINE
  5
F10408
330
F10409
100
AcDbEntity
8
Geo
100
AcDbLine
10
-36.1876869965477
20
-1.02204726641112
30
0.000000000000000
11
-36.0876869965477
21
-1.07314658747105
31
0.000000000000000
  0
LINE
  5
F1040A
330
F1040B
100
AcDbEntity
8
Geo
100
AcDbLine
10
-36.0876869965477
20
-1.07314658747105
30
0.000000000000000
11
-35.9876869965477
21
-1.12407246515089
31
0.000000000000000
  0
LINE
  5
F1040C
330
F1040D
100
AcDbEntity
8
Geo
100
AcDbLine
10
-35.9876869965477
20
-1.12407246515089
30
0.000000000000000
11
-35.8876869965477
21
-1.17482280374269
31
0.000000000000000
  0
LINE
  5
F1040E
330
F1040F
100
AcDbEntity
8
Geo
100
AcDbLine
10
-35.8876869965477
20
-1.17482280374269
30
0.000000000000000
11
-35.7876869965477
21
-1.22539551476233
31
0.000000000000000
  0
LINE
  5
F10410
330
F10411
100
AcDbEntity
8
Geo
100
AcDbLine
10
-35.7876869965477
20
-1.22539551476233
30
0.000000000000000
11
-35.6876869965477
21
-1.27578851703541
31
0.000000000000000
  0
LINE
  5
F10412
330
F10413
100
AcDbEntity
8
Geo
100
AcDbLine
10
-35.6876869965477
20
-1.27578851703541
30
0.000000000000000
11
-35.5876869965477
21
-1.32599973678295
31
0.000000000000000
  0
LINE
  5
F10414
330
F10415
100
AcDbEntity
8
Geo
100
AcDbLine
10
-35.5876869965477
20
-1.32599973678295
30
0.000000000000000
11
-35.4876869965477
21
-1.37602710770668
31
0.000000000000000
  0
LINE
  5
F10416
330
F10417
100
AcDbEntity
8
Geo
100
AcDbLine
10
-35.4876869965477
20
-1.37602710770668
30
0.000000000000000
11
-35.3876869965477
21
-1.42586857107414
31
0.000000000000000
  0
LINE
  5
F10418
330
F10419
100
AcDbEntity
8
Geo
100
AcDbLine
10
-35.3876869965477
20
-1.42586857107414
30
0.000000000000000
11
-35.2876869965477
21
-1.47552207580331
31
0.000000000000000
  0
LINE
  5
F1041A
330
F1041B
100
AcDbEntity
8
Geo
100
AcDbLine
10
-35.2876869965477
20
-1.47552207580331
30
0.000000000000000
11
-35.1876869965477
21
-1.52498557854711
31
0.000000000000000
  0
LINE
  5
F1041C
330
F1041D
100
AcDbEntity
8
Geo
100
AcDbLine
10
-35.1876869965477
20
-1.52498557854711
30
0.000000000000000
11
-35.0876869965477
21
-1.57425704377743
31
0.000000000000000
  0
LINE
  5
F1041E
330
F1041F
100
AcDbEntity
8
Geo
100
AcDbLine
10
-35.0876869965477
20
-1.57425704377743
30
0.000000000000000
11
-34.9876869965477
21
-1.62333444386890
31
0.000000000000000
  0
LINE
  5
F10420
330
F10421
100
AcDbEntity
8
Geo
100
AcDbLine
10
-34.9876869965477
20
-1.62333444386890
30
0.000000000000000
11
-34.8876869965477
21
-1.67221575918236
31
0.000000000000000
  0
LINE
  5
F10422
330
F10423
100
AcDbEntity
8
Geo
100
AcDbLine
10
-34.8876869965477
20
-1.67221575918236
30
0.000000000000000
11
-34.7876869965477
21
-1.72089897814794
31
0.000000000000000
  0
LINE
  5
F10424
330
F10425
100
AcDbEntity
8
Geo
100
AcDbLine
10
-34.7876869965477
20
-1.72089897814794
30
0.000000000000000
11
-34.6876869965477
21
-1.76938209734787
31
0.000000000000000
  0
LINE
  5
F10426
330
F10427
100
AcDbEntity
8
Geo
100
AcDbLine
10
-34.6876869965477
20
-1.76938209734787
30
0.000000000000000
11
-34.5876869965477
21
-1.81766312159889
31
0.000000000000000
  0
LINE
  5
F10428
330
F10429
100
AcDbEntity
8
Geo
100
AcDbLine
10
-34.5876869965477
20
-1.81766312159889
30
0.000000000000000
11
-34.4876869965477
21
-1.86574006403439
31
0.000000000000000
  0
LINE
  5
F1042A
330
F1042B
100
AcDbEntity
8
Geo
100
AcDbLine
10
-34.4876869965477
20
-1.86574006403439
30
0.000000000000000
11
-34.3876869965477
21
-1.91361094618617
31
0.000000000000000
  0
LINE
  5
F1042C
330
F1042D
100
AcDbEntity
8
Geo
100
AcDbLine
10
-34.3876869965477
20
-1.91361094618617
30
0.000000000000000
11
-34.2876869965477
21
-1.96127379806582
31
0.000000000000000
  0
LINE
  5
F1042E
330
F1042F
100
AcDbEntity
8
Geo
100
AcDbLine
10
-34.2876869965477
20
-1.96127379806582
30
0.000000000000000
11
-34.1876869965477
21
-2.00872665824584
31
0.000000000000000
  0
LINE
  5
F10430
330
F10431
100
AcDbEntity
8
Geo
100
AcDbLine
10
-34.1876869965477
20
-2.00872665824584
30
0.000000000000000
11
-34.0876869965477
21
-2.05596757394033
31
0.000000000000000
  0
LINE
  5
F10432
330
F10433
100
AcDbEntity
8
Geo
100
AcDbLine
10
-34.0876869965477
20
-2.05596757394033
30
0.000000000000000
11
-33.9876869965477
21
-2.10299460108535
31
0.000000000000000
  0
LINE
  5
F10434
330
F10435
100
AcDbEntity
8
Geo
100
AcDbLine
10
-33.9876869965477
20
-2.10299460108535
30
0.000000000000000
11
-33.8876869965477
21
-2.14980580441892
31
0.000000000000000
  0
LINE
  5
F10436
330
F10437
100
AcDbEntity
8
Geo
100
AcDbLine
10
-33.8876869965477
20
-2.14980580441892
30
0.000000000000000
11
-33.7876869965477
21
-2.19639925756069
31
0.000000000000000
  0
LINE
  5
F10438
330
F10439
100
AcDbEntity
8
Geo
100
AcDbLine
10
-33.7876869965477
20
-2.19639925756069
30
0.000000000000000
11
-33.6876869965477
21
-2.24277304309118
31
0.000000000000000
  0
LINE
  5
F1043A
330
F1043B
100
AcDbEntity
8
Geo
100
AcDbLine
10
-33.6876869965477
20
-2.24277304309118
30
0.000000000000000
11
-33.5876869965477
21
-2.28892525263069
31
0.000000000000000
  0
LINE
  5
F1043C
330
F1043D
100
AcDbEntity
8
Geo
100
AcDbLine
10
-33.5876869965477
20
-2.28892525263069
30
0.000000000000000
11
-33.4876869965477
21
-2.33485398691786
31
0.000000000000000
  0
LINE
  5
F1043E
330
F1043F
100
AcDbEntity
8
Geo
100
AcDbLine
10
-33.4876869965477
20
-2.33485398691786
30
0.000000000000000
11
-33.3876869965477
21
-2.38055735588780
31
0.000000000000000
  0
LINE
  5
F10440
330
F10441
100
AcDbEntity
8
Geo
100
AcDbLine
10
-33.3876869965477
20
-2.38055735588780
30
0.000000000000000
11
-33.2876869965477
21
-2.42603347874988
31
0.000000000000000
  0
LINE
  5
F10442
330
F10443
100
AcDbEntity
8
Geo
100
AcDbLine
10
-33.2876869965477
20
-2.42603347874988
30
0.000000000000000
11
-33.1876869965477
21
-2.47128048406513
31
0.000000000000000
  0
LINE
  5
F10444
330
F10445
100
AcDbEntity
8
Geo
100
AcDbLine
10
-33.1876869965477
20
-2.47128048406513
30
0.000000000000000
11
-33.0876869965477
21
-2.51629650982326
31
0.000000000000000
  0
LINE
  5
F10446
330
F10447
100
AcDbEntity
8
Geo
100
AcDbLine
10
-33.0876869965477
20
-2.51629650982326
30
0.000000000000000
11
-32.9876869965477
21
-2.56107970351928
31
0.000000000000000
  0
LINE
  5
F10448
330
F10449
100
AcDbEntity
8
Geo
100
AcDbLine
10
-32.9876869965477
20
-2.56107970351928
30
0.000000000000000
11
-32.8876869965477
21
-2.60562822222971
31
0.000000000000000
  0
LINE
  5
F1044A
330
F1044B
100
AcDbEntity
8
Geo
100
AcDbLine
10
-32.8876869965477
20
-2.60562822222971
30
0.000000000000000
11
-32.7876869965477
21
-2.64994023268848
31
0.000000000000000
  0
LINE
  5
F1044C
330
F1044D
100
AcDbEntity
8
Geo
100
AcDbLine
10
-32.7876869965477
20
-2.64994023268848
30
0.000000000000000
11
-32.6876869965477
21
-2.69401391136232
31
0.000000000000000
  0
LINE
  5
F1044E
330
F1044F
100
AcDbEntity
8
Geo
100
AcDbLine
10
-32.6876869965477
20
-2.69401391136232
30
0.000000000000000
11
-32.5876869965477
21
-2.73784744452580
31
0.000000000000000
  0
LINE
  5
F10450
330
F10451
100
AcDbEntity
8
Geo
100
AcDbLine
10
-32.5876869965477
20
-2.73784744452580
30
0.000000000000000
11
-32.4876869965477
21
-2.78143902833602
31
0.000000000000000
  0
LINE
  5
F10452
330
F10453
100
AcDbEntity
8
Geo
100
AcDbLine
10
-32.4876869965477
20
-2.78143902833602
30
0.000000000000000
11
-32.3876869965477
21
-2.82478686890679
31
0.000000000000000
  0
LINE
  5
F10454
330
F10455
100
AcDbEntity
8
Geo
100
AcDbLine
10
-32.3876869965477
20
-2.82478686890679
30
0.000000000000000
11
-32.2876869965477
21
-2.86788918238248
31
0.000000000000000
  0
LINE
  5
F10456
330
F10457
100
AcDbEntity
8
Geo
100
AcDbLine
10
-32.2876869965477
20
-2.86788918238248
30
0.000000000000000
11
-32.1876869965477
21
-2.91074419501140
31
0.000000000000000
  0
LINE
  5
F10458
330
F10459
100
AcDbEntity
8
Geo
100
AcDbLine
10
-32.1876869965477
20
-2.91074419501140
30
0.000000000000000
11
-32.0876869965477
21
-2.95335014321885
31
0.000000000000000
  0
LINE
  5
F1045A
330
F1045B
100
AcDbEntity
8
Geo
100
AcDbLine
10
-32.0876869965477
20
-2.95335014321885
30
0.000000000000000
11
-31.9876869965477
21
-2.99570527367963
31
0.000000000000000
  0
LINE
  5
F1045C
330
F1045D
100
AcDbEntity
8
Geo
100
AcDbLine
10
-31.9876869965477
20
-2.99570527367963
30
0.000000000000000
11
-31.8876869965477
21
-3.03780784339024
31
0.000000000000000
  0
LINE
  5
F1045E
330
F1045F
100
AcDbEntity
8
Geo
100
AcDbLine
10
-31.8876869965477
20
-3.03780784339024
30
0.000000000000000
11
-31.7876869965477
21
-3.07965611974058
31
0.000000000000000
  0
LINE
  5
F10460
330
F10461
100
AcDbEntity
8
Geo
100
AcDbLine
10
-31.7876869965477
20
-3.07965611974058
30
0.000000000000000
11
-31.6876869965477
21
-3.12124838058527
31
0.000000000000000
  0
LINE
  5
F10462
330
F10463
100
AcDbEntity
8
Geo
100
AcDbLine
10
-31.6876869965477
20
-3.12124838058527
30
0.000000000000000
11
-31.5876869965477
21
-3.16258291431450
31
0.000000000000000
  0
LINE
  5
F10464
330
F10465
100
AcDbEntity
8
Geo
100
AcDbLine
10
-31.5876869965477
20
-3.16258291431450
30
0.000000000000000
11
-31.4876869965477
21
-3.20365801992449
31
0.000000000000000
  0
LINE
  5
F10466
330
F10467
100
AcDbEntity
8
Geo
100
AcDbLine
10
-31.4876869965477
20
-3.20365801992449
30
0.000000000000000
11
-31.3876869965477
21
-3.24447200708746
31
0.000000000000000
  0
LINE
  5
F10468
330
F10469
100
AcDbEntity
8
Geo
100
AcDbLine
10
-31.3876869965477
20
-3.24447200708746
30
0.000000000000000
11
-31.2876869965477
21
-3.28502319622125
31
0.000000000000000
  0
LINE
  5
F1046A
330
F1046B
100
AcDbEntity
8
Geo
100
AcDbLine
10
-31.2876869965477
20
-3.28502319622125
30
0.000000000000000
11
-31.1876869965477
21
-3.32530991855834
31
0.000000000000000
  0
LINE
  5
F1046C
330
F1046D
100
AcDbEntity
8
Geo
100
AcDbLine
10
-31.1876869965477
20
-3.32530991855834
30
0.000000000000000
11
-31.0876869965477
21
-3.36533051621462
31
0.000000000000000
  0
LINE
  5
F1046E
330
F1046F
100
AcDbEntity
8
Geo
100
AcDbLine
10
-31.0876869965477
20
-3.36533051621462
30
0.000000000000000
11
-30.9876869965477
21
-3.40508334225756
31
0.000000000000000
  0
LINE
  5
F10470
330
F10471
100
AcDbEntity
8
Geo
100
AcDbLine
10
-30.9876869965477
20
-3.40508334225756
30
0.000000000000000
11
-30.8876869965477
21
-3.44456676077400
31
0.000000000000000
  0
LINE
  5
F10472
330
F10473
100
AcDbEntity
8
Geo
100
AcDbLine
10
-30.8876869965477
20
-3.44456676077400
30
0.000000000000000
11
-30.7876869965477
21
-3.48377914693747
31
0.000000000000000
  0
LINE
  5
F10474
330
F10475
100
AcDbEntity
8
Geo
100
AcDbLine
10
-30.7876869965477
20
-3.48377914693747
30
0.000000000000000
11
-30.6876869965477
21
-3.52271888707508
31
0.000000000000000
  0
LINE
  5
F10476
330
F10477
100
AcDbEntity
8
Geo
100
AcDbLine
10
-30.6876869965477
20
-3.52271888707508
30
0.000000000000000
11
-30.5876869965477
21
-3.56138437873387
31
0.000000000000000
  0
LINE
  5
F10478
330
F10479
100
AcDbEntity
8
Geo
100
AcDbLine
10
-30.5876869965477
20
-3.56138437873387
30
0.000000000000000
11
-30.4876869965477
21
-3.59977403074680
31
0.000000000000000
  0
LINE
  5
F1047A
330
F1047B
100
AcDbEntity
8
Geo
100
AcDbLine
10
-30.4876869965477
20
-3.59977403074680
30
0.000000000000000
11
-30.3876869965477
21
-3.63788626329822
31
0.000000000000000
  0
LINE
  5
F1047C
330
F1047D
100
AcDbEntity
8
Geo
100
AcDbLine
10
-30.3876869965477
20
-3.63788626329822
30
0.000000000000000
11
-30.2876869965477
21
-3.67571950798887
31
0.000000000000000
  0
LINE
  5
F1047E
330
F1047F
100
AcDbEntity
8
Geo
100
AcDbLine
10
-30.2876869965477
20
-3.67571950798887
30
0.000000000000000
11
-30.1876869965477
21
-3.71327220790045
31
0.000000000000000
  0
LINE
  5
F10480
330
F10481
100
AcDbEntity
8
Geo
100
AcDbLine
10
-30.1876869965477
20
-3.71327220790045
30
0.000000000000000
11
-30.0876869965477
21
-3.75054281765966
31
0.000000000000000
  0
LINE
  5
F10482
330
F10483
100
AcDbEntity
8
Geo
100
AcDbLine
10
-30.0876869965477
20
-3.75054281765966
30
0.000000000000000
11
-29.9876869965478
21
-3.78752980350181
31
0.000000000000000
  0
LINE
  5
F10484
330
F10485
100
AcDbEntity
8
Geo
100
AcDbLine
10
-29.9876869965478
20
-3.78752980350181
30
0.000000000000000
11
-29.8876869965477
21
-3.82423164333393
31
0.000000000000000
  0
LINE
  5
F10486
330
F10487
100
AcDbEntity
8
Geo
100
AcDbLine
10
-29.8876869965477
20
-3.82423164333393
30
0.000000000000000
11
-29.7876869965477
21
-3.86064682679743
31
0.000000000000000
  0
LINE
  5
F10488
330
F10489
100
AcDbEntity
8
Geo
100
AcDbLine
10
-29.7876869965477
20
-3.86064682679743
30
0.000000000000000
11
-29.6876869965478
21
-3.89677385533022
31
0.000000000000000
  0
LINE
  5
F1048A
330
F1048B
100
AcDbEntity
8
Geo
100
AcDbLine
10
-29.6876869965478
20
-3.89677385533022
30
0.000000000000000
11
-29.5876869965478
21
-3.93261124222842
31
0.000000000000000
  0
LINE
  5
F1048C
330
F1048D
100
AcDbEntity
8
Geo
100
AcDbLine
10
-29.5876869965478
20
-3.93261124222842
30
0.000000000000000
11
-29.4876869965478
21
-3.96815751270748
31
0.000000000000000
  0
LINE
  5
F1048E
330
F1048F
100
AcDbEntity
8
Geo
100
AcDbLine
10
-29.4876869965478
20
-3.96815751270748
30
0.000000000000000
11
-29.3876869965477
21
-4.00341120396295
31
0.000000000000000
  0
LINE
  5
F10490
330
F10491
100
AcDbEntity
8
Geo
100
AcDbLine
10
-29.3876869965477
20
-4.00341120396295
30
0.000000000000000
11
-29.2876869965478
21
-4.03837086523062
31
0.000000000000000
  0
LINE
  5
F10492
330
F10493
100
AcDbEntity
8
Geo
100
AcDbLine
10
-29.2876869965478
20
-4.03837086523062
30
0.000000000000000
11
-29.1876869965478
21
-4.07303505784622
31
0.000000000000000
  0
LINE
  5
F10494
330
F10495
100
AcDbEntity
8
Geo
100
AcDbLine
10
-29.1876869965478
20
-4.07303505784622
30
0.000000000000000
11
-29.0876869965478
21
-4.10740235530467
31
0.000000000000000
  0
LINE
  5
F10496
330
F10497
100
AcDbEntity
8
Geo
100
AcDbLine
10
-29.0876869965478
20
-4.10740235530467
30
0.000000000000000
11
-28.9876869965478
21
-4.14147134331874
31
0.000000000000000
  0
LINE
  5
F10498
330
F10499
100
AcDbEntity
8
Geo
100
AcDbLine
10
-28.9876869965478
20
-4.14147134331874
30
0.000000000000000
11
-28.8876869965478
21
-4.17524061987727
31
0.000000000000000
  0
LINE
  5
F1049A
330
F1049B
100
AcDbEntity
8
Geo
100
AcDbLine
10
-28.8876869965478
20
-4.17524061987727
30
0.000000000000000
11
-28.7876869965478
21
-4.20870879530287
31
0.000000000000000
  0
LINE
  5
F1049C
330
F1049D
100
AcDbEntity
8
Geo
100
AcDbLine
10
-28.7876869965478
20
-4.20870879530287
30
0.000000000000000
11
-28.6876869965478
21
-4.24187449230908
31
0.000000000000000
  0
LINE
  5
F1049E
330
F1049F
100
AcDbEntity
8
Geo
100
AcDbLine
10
-28.6876869965478
20
-4.24187449230908
30
0.000000000000000
11
-28.5876869965478
21
-4.27473634605709
31
0.000000000000000
  0
LINE
  5
F104A0
330
F104A1
100
AcDbEntity
8
Geo
100
AcDbLine
10
-28.5876869965478
20
-4.27473634605709
30
0.000000000000000
11
-28.4876869965478
21
-4.30729300421187
31
0.000000000000000
  0
LINE
  5
F104A2
330
F104A3
100
AcDbEntity
8
Geo
100
AcDbLine
10
-28.4876869965478
20
-4.30729300421187
30
0.000000000000000
11
-28.3876869965478
21
-4.33954312699786
31
0.000000000000000
  0
LINE
  5
F104A4
330
F104A5
100
AcDbEntity
8
Geo
100
AcDbLine
10
-28.3876869965478
20
-4.33954312699786
30
0.000000000000000
11
-28.2876869965478
21
-4.37148538725404
31
0.000000000000000
  0
LINE
  5
F104A6
330
F104A7
100
AcDbEntity
8
Geo
100
AcDbLine
10
-28.2876869965478
20
-4.37148538725404
30
0.000000000000000
11
-28.1876869965478
21
-4.40311847048864
31
0.000000000000000
  0
LINE
  5
F104A8
330
F104A9
100
AcDbEntity
8
Geo
100
AcDbLine
10
-28.1876869965478
20
-4.40311847048864
30
0.000000000000000
11
-28.0876869965478
21
-4.43444107493313
31
0.000000000000000
  0
LINE
  5
F104AA
330
F104AB
100
AcDbEntity
8
Geo
100
AcDbLine
10
-28.0876869965478
20
-4.43444107493313
30
0.000000000000000
11
-27.9876869965478
21
-4.46545191159587
31
0.000000000000000
  0
LINE
  5
F104AC
330
F104AD
100
AcDbEntity
8
Geo
100
AcDbLine
10
-27.9876869965478
20
-4.46545191159587
30
0.000000000000000
11
-27.8876869965478
21
-4.49614970431512
31
0.000000000000000
  0
LINE
  5
F104AE
330
F104AF
100
AcDbEntity
8
Geo
100
AcDbLine
10
-27.8876869965478
20
-4.49614970431512
30
0.000000000000000
11
-27.7876869965478
21
-4.52653318981156
31
0.000000000000000
  0
LINE
  5
F104B0
330
F104B1
100
AcDbEntity
8
Geo
100
AcDbLine
10
-27.7876869965478
20
-4.52653318981156
30
0.000000000000000
11
-27.6876869965478
21
-4.55660111774028
31
0.000000000000000
  0
LINE
  5
F104B2
330
F104B3
100
AcDbEntity
8
Geo
100
AcDbLine
10
-27.6876869965478
20
-4.55660111774028
30
0.000000000000000
11
-27.5876869965478
21
-4.58635225074223
31
0.000000000000000
  0
LINE
  5
F104B4
330
F104B5
100
AcDbEntity
8
Geo
100
AcDbLine
10
-27.5876869965478
20
-4.58635225074223
30
0.000000000000000
11
-27.4876869965478
21
-4.61578536449515
31
0.000000000000000
  0
LINE
  5
F104B6
330
F104B7
100
AcDbEntity
8
Geo
100
AcDbLine
10
-27.4876869965478
20
-4.61578536449515
30
0.000000000000000
11
-27.3876869965478
21
-4.64489924776396
31
0.000000000000000
  0
LINE
  5
F104B8
330
F104B9
100
AcDbEntity
8
Geo
100
AcDbLine
10
-27.3876869965478
20
-4.64489924776396
30
0.000000000000000
11
-27.2876869965478
21
-4.67369270245055
31
0.000000000000000
  0
LINE
  5
F104BA
330
F104BB
100
AcDbEntity
8
Geo
100
AcDbLine
10
-27.2876869965478
20
-4.67369270245055
30
0.000000000000000
11
-27.1876869965478
21
-4.70216454364317
31
0.000000000000000
  0
LINE
  5
F104BC
330
F104BD
100
AcDbEntity
8
Geo
100
AcDbLine
10
-27.1876869965478
20
-4.70216454364317
30
0.000000000000000
11
-27.0876869965478
21
-4.73031359966513
31
0.000000000000000
  0
LINE
  5
F104BE
330
F104BF
100
AcDbEntity
8
Geo
100
AcDbLine
10
-27.0876869965478
20
-4.73031359966513
30
0.000000000000000
11
-26.9876869965478
21
-4.75813871212303
31
0.000000000000000
  0
LINE
  5
F104C0
330
F104C1
100
AcDbEntity
8
Geo
100
AcDbLine
10
-26.9876869965478
20
-4.75813871212303
30
0.000000000000000
11
-26.8876869965478
21
-4.78563873595444
31
0.000000000000000
  0
LINE
  5
F104C2
330
F104C3
100
AcDbEntity
8
Geo
100
AcDbLine
10
-26.8876869965478
20
-4.78563873595444
30
0.000000000000000
11
-26.7876869965478
21
-4.81281253947502
31
0.000000000000000
  0
LINE
  5
F104C4
330
F104C5
100
AcDbEntity
8
Geo
100
AcDbLine
10
-26.7876869965478
20
-4.81281253947502
30
0.000000000000000
11
-26.6876869965478
21
-4.83965900442508
31
0.000000000000000
  0
LINE
  5
F104C6
330
F104C7
100
AcDbEntity
8
Geo
100
AcDbLine
10
-26.6876869965478
20
-4.83965900442508
30
0.000000000000000
11
-26.5876869965478
21
-4.86617702601563
31
0.000000000000000
  0
LINE
  5
F104C8
330
F104C9
100
AcDbEntity
8
Geo
100
AcDbLine
10
-26.5876869965478
20
-4.86617702601563
30
0.000000000000000
11
-26.4876869965478
21
-4.89236551297378
31
0.000000000000000
  0
LINE
  5
F104CA
330
F104CB
100
AcDbEntity
8
Geo
100
AcDbLine
10
-26.4876869965478
20
-4.89236551297378
30
0.000000000000000
11
-26.3876869965478
21
-4.91822338758773
31
0.000000000000000
  0
LINE
  5
F104CC
330
F104CD
100
AcDbEntity
8
Geo
100
AcDbLine
10
-26.3876869965478
20
-4.91822338758773
30
0.000000000000000
11
-26.2876869965478
21
-4.94374958575106
31
0.000000000000000
  0
LINE
  5
F104CE
330
F104CF
100
AcDbEntity
8
Geo
100
AcDbLine
10
-26.2876869965478
20
-4.94374958575106
30
0.000000000000000
11
-26.1876869965478
21
-4.96894305700654
31
0.000000000000000
  0
LINE
  5
F104D0
330
F104D1
100
AcDbEntity
8
Geo
100
AcDbLine
10
-26.1876869965478
20
-4.96894305700654
30
0.000000000000000
11
-26.0876869965478
21
-4.99380276458935
31
0.000000000000000
  0
LINE
  5
F104D2
330
F104D3
100
AcDbEntity
8
Geo
100
AcDbLine
10
-26.0876869965478
20
-4.99380276458935
30
0.000000000000000
11
-25.9876869965478
21
-5.01832768546979
31
0.000000000000000
  0
LINE
  5
F104D4
330
F104D5
100
AcDbEntity
8
Geo
100
AcDbLine
10
-25.9876869965478
20
-5.01832768546979
30
0.000000000000000
11
-25.8876869965478
21
-5.04251681039529
31
0.000000000000000
  0
LINE
  5
F104D6
330
F104D7
100
AcDbEntity
8
Geo
100
AcDbLine
10
-25.8876869965478
20
-5.04251681039529
30
0.000000000000000
11
-25.7876869965478
21
-5.06636914393205
31
0.000000000000000
  0
LINE
  5
F104D8
330
F104D9
100
AcDbEntity
8
Geo
100
AcDbLine
10
-25.7876869965478
20
-5.06636914393205
30
0.000000000000000
11
-25.6876869965478
21
-5.08988370450590
31
0.000000000000000
  0
LINE
  5
F104DA
330
F104DB
100
AcDbEntity
8
Geo
100
AcDbLine
10
-25.6876869965478
20
-5.08988370450590
30
0.000000000000000
11
-25.5876869965478
21
-5.11305952444279
31
0.000000000000000
  0
LINE
  5
F104DC
330
F104DD
100
AcDbEntity
8
Geo
100
AcDbLine
10
-25.5876869965478
20
-5.11305952444279
30
0.000000000000000
11
-25.4876869965478
21
-5.13589565000853
31
0.000000000000000
  0
LINE
  5
F104DE
330
F104DF
100
AcDbEntity
8
Geo
100
AcDbLine
10
-25.4876869965478
20
-5.13589565000853
30
0.000000000000000
11
-25.3876869965478
21
-5.15839114144810
31
0.000000000000000
  0
LINE
  5
F104E0
330
F104E1
100
AcDbEntity
8
Geo
100
AcDbLine
10
-25.3876869965478
20
-5.15839114144810
30
0.000000000000000
11
-25.2876869965478
21
-5.18054507302428
31
0.000000000000000
  0
LINE
  5
F104E2
330
F104E3
100
AcDbEntity
8
Geo
100
AcDbLine
10
-25.2876869965478
20
-5.18054507302428
30
0.000000000000000
11
-25.1876869965478
21
-5.20235653305576
31
0.000000000000000
  0
LINE
  5
F104E4
330
F104E5
100
AcDbEntity
8
Geo
100
AcDbLine
10
-25.1876869965478
20
-5.20235653305576
30
0.000000000000000
11
-25.0876869965478
21
-5.22382462395469
31
0.000000000000000
  0
LINE
  5
F104E6
330
F104E7
100
AcDbEntity
8
Geo
100
AcDbLine
10
-25.0876869965478
20
-5.22382462395469
30
0.000000000000000
11
-24.9876869965478
21
-5.24494846226355
31
0.000000000000000
  0
LINE
  5
F104E8
330
F104E9
100
AcDbEntity
8
Geo
100
AcDbLine
10
-24.9876869965478
20
-5.24494846226355
30
0.000000000000000
11
-24.8876869965478
21
-5.26572717869158
31
0.000000000000000
  0
LINE
  5
F104EA
330
F104EB
100
AcDbEntity
8
Geo
100
AcDbLine
10
-24.8876869965478
20
-5.26572717869158
30
0.000000000000000
11
-24.7876869965478
21
-5.28615991815049
31
0.000000000000000
  0
LINE
  5
F104EC
330
F104ED
100
AcDbEntity
8
Geo
100
AcDbLine
10
-24.7876869965478
20
-5.28615991815049
30
0.000000000000000
11
-24.6876869965478
21
-5.30624583978969
31
0.000000000000000
  0
LINE
  5
F104EE
330
F104EF
100
AcDbEntity
8
Geo
100
AcDbLine
10
-24.6876869965478
20
-5.30624583978969
30
0.000000000000000
11
-24.5876869965478
21
-5.32598411703089
31
0.000000000000000
  0
LINE
  5
F104F0
330
F104F1
100
AcDbEntity
8
Geo
100
AcDbLine
10
-24.5876869965478
20
-5.32598411703089
30
0.000000000000000
11
-24.4876869965478
21
-5.34537393760207
31
0.000000000000000
  0
LINE
  5
F104F2
330
F104F3
100
AcDbEntity
8
Geo
100
AcDbLine
10
-24.4876869965478
20
-5.34537393760207
30
0.000000000000000
11
-24.3876869965478
21
-5.36441450357098
31
0.000000000000000
  0
LINE
  5
F104F4
330
F104F5
100
AcDbEntity
8
Geo
100
AcDbLine
10
-24.3876869965478
20
-5.36441450357098
30
0.000000000000000
11
-24.2876869965478
21
-5.38310503137791
31
0.000000000000000
  0
LINE
  5
F104F6
330
F104F7
100
AcDbEntity
8
Geo
100
AcDbLine
10
-24.2876869965478
20
-5.38310503137791
30
0.000000000000000
11
-24.1876869965478
21
-5.40144475186799
31
0.000000000000000
  0
LINE
  5
F104F8
330
F104F9
100
AcDbEntity
8
Geo
100
AcDbLine
10
-24.1876869965478
20
-5.40144475186799
30
0.000000000000000
11
-24.0876869965478
21
-5.41943291032278
31
0.000000000000000
  0
LINE
  5
F104FA
330
F104FB
100
AcDbEntity
8
Geo
100
AcDbLine
10
-24.0876869965478
20
-5.41943291032278
30
0.000000000000000
11
-23.9876869965478
21
-5.43706876649141
31
0.000000000000000
  0
LINE
  5
F104FC
330
F104FD
100
AcDbEntity
8
Geo
100
AcDbLine
10
-23.9876869965478
20
-5.43706876649141
30
0.000000000000000
11
-23.8876869965478
21
-5.45435159462095
31
0.000000000000000
  0
LINE
  5
F104FE
330
F104FF
100
AcDbEntity
8
Geo
100
AcDbLine
10
-23.8876869965478
20
-5.45435159462095
30
0.000000000000000
11
-23.7876869965478
21
-5.47128068348634
31
0.000000000000000
  0
LINE
  5
F10500
330
F10501
100
AcDbEntity
8
Geo
100
AcDbLine
10
-23.7876869965478
20
8.28661688322477
30
0.000000000000000
11
-23.6876869965478
21
8.23914089804271
31
0.000000000000000
  0
LINE
  5
F10502
330
F10503
100
AcDbEntity
8
Geo
100
AcDbLine
10
-23.6876869965478
20
8.23914089804271
30
0.000000000000000
11
-23.5876869965478
21
8.19145513584771
31
0.000000000000000
  0
LINE
  5
F10504
330
F10505
100
AcDbEntity
8
Geo
100
AcDbLine
10
-23.5876869965478
20
8.19145513584771
30
0.000000000000000
11
-23.4876869965478
21
8.14356155901011
31
0.000000000000000
  0
LINE
  5
F10506
330
F10507
100
AcDbEntity
8
Geo
100
AcDbLine
10
-23.4876869965478
20
8.14356155901011
30
0.000000000000000
11
-23.3876869965478
21
8.09546213845246
31
0.000000000000000
  0
LINE
  5
F10508
330
F10509
100
AcDbEntity
8
Geo
100
AcDbLine
10
-23.3876869965478
20
8.09546213845246
30
0.000000000000000
11
-23.2876869965478
21
8.04715885357095
31
0.000000000000000
  0
LINE
  5
F1050A
330
F1050B
100
AcDbEntity
8
Geo
100
AcDbLine
10
-23.2876869965478
20
8.04715885357095
30
0.000000000000000
11
-23.1876869965478
21
7.99865369217103
31
0.000000000000000
  0
LINE
  5
F1050C
330
F1050D
100
AcDbEntity
8
Geo
100
AcDbLine
10
-23.1876869965478
20
7.99865369217103
30
0.000000000000000
11
-23.0876869965478
21
7.94994865046595
31
0.000000000000000
  0
LINE
  5
F1050E
330
F1050F
100
AcDbEntity
8
Geo
100
AcDbLine
10
-23.0876869965478
20
7.94994865046595
30
0.000000000000000
11
-22.9876869965478
21
7.90104573328672
31
0.000000000000000
  0
LINE
  5
F10510
330
F10511
100
AcDbEntity
8
Geo
100
AcDbLine
10
-22.9876869965478
20
7.90104573328672
30
0.000000000000000
11
-22.8876869965478
21
7.85194695487998
31
0.000000000000000
  0
LINE
  5
F10512
330
F10513
100
AcDbEntity
8
Geo
100
AcDbLine
10
-22.8876869965478
20
7.85194695487998
30
0.000000000000000
11
-22.7876869965478
21
7.80265434112585
31
0.000000000000000
  0
LINE
  5
F10514
330
F10515
100
AcDbEntity
8
Geo
100
AcDbLine
10
-22.7876869965478
20
7.80265434112585
30
0.000000000000000
11
-22.6876869965478
21
7.75316993483714
31
0.000000000000000
  0
LINE
  5
F10516
330
F10517
100
AcDbEntity
8
Geo
100
AcDbLine
10
-22.6876869965478
20
7.75316993483714
30
0.000000000000000
11
-22.5876869965478
21
7.70349580720242
31
0.000000000000000
  0
LINE
  5
F10518
330
F10519
100
AcDbEntity
8
Geo
100
AcDbLine
10
-22.5876869965478
20
7.70349580720242
30
0.000000000000000
11
-22.4876869965478
21
7.65363408066944
31
0.000000000000000
  0
LINE
  5
F1051A
330
F1051B
100
AcDbEntity
8
Geo
100
AcDbLine
10
-22.4876869965478
20
7.65363408066944
30
0.000000000000000
11
-22.3876869965478
21
7.60358697196814
31
0.000000000000000
  0
LINE
  5
F1051C
330
F1051D
100
AcDbEntity
8
Geo
100
AcDbLine
10
-22.3876869965478
20
7.60358697196814
30
0.000000000000000
11
-22.2876869965478
21
7.55335686895823
31
0.000000000000000
  0
LINE
  5
F1051E
330
F1051F
100
AcDbEntity
8
Geo
100
AcDbLine
10
-22.2876869965478
20
7.55335686895823
30
0.000000000000000
11
-22.1876869965478
21
7.50294646206499
31
0.000000000000000
  0
LINE
  5
F10520
330
F10521
100
AcDbEntity
8
Geo
100
AcDbLine
10
-22.1876869965478
20
7.50294646206499
30
0.000000000000000
11
-22.0876869965478
21
7.45235896084739
31
0.000000000000000
  0
LINE
  5
F10522
330
F10523
100
AcDbEntity
8
Geo
100
AcDbLine
10
-22.0876869965478
20
7.45235896084739
30
0.000000000000000
11
-21.9876869965478
21
7.40159843944732
31
0.000000000000000
  0
LINE
  5
F10524
330
F10525
100
AcDbEntity
8
Geo
100
AcDbLine
10
-21.9876869965478
20
7.40159843944732
30
0.000000000000000
11
-21.8876869965478
21
7.35067037213907
31
0.000000000000000
  0
LINE
  5
F10526
330
F10527
100
AcDbEntity
8
Geo
100
AcDbLine
10
-21.8876869965478
20
7.35067037213907
30
0.000000000000000
11
-21.7876869965478
21
7.29958244290975
31
0.000000000000000
  0
LINE
  5
F10528
330
F10529
100
AcDbEntity
8
Geo
100
AcDbLine
10
-21.7876869965478
20
7.29958244290975
30
0.000000000000000
11
-21.6876869965478
21
7.24834574206375
31
0.000000000000000
  0
LINE
  5
F1052A
330
F1052B
100
AcDbEntity
8
Geo
100
AcDbLine
10
-21.6876869965478
20
7.24834574206375
30
0.000000000000000
11
-21.5876869965478
21
7.19697649951735
31
0.000000000000000
  0
LINE
  5
F1052C
330
F1052D
100
AcDbEntity
8
Geo
100
AcDbLine
10
-21.5876869965478
20
7.19697649951735
30
0.000000000000000
11
-21.4876869965478
21
7.14549855013881
31
0.000000000000000
  0
LINE
  5
F1052E
330
F1052F
100
AcDbEntity
8
Geo
100
AcDbLine
10
-21.4876869965478
20
7.14549855013881
30
0.000000000000000
11
-21.3876869965478
21
7.09394678274786
31
0.000000000000000
  0
LINE
  5
F10530
330
F10531
100
AcDbEntity
8
Geo
100
AcDbLine
10
-21.3876869965478
20
7.09394678274786
30
0.000000000000000
11
-21.2876869965478
21
7.04237189290284
31
0.000000000000000
  0
LINE
  5
F10532
330
F10533
100
AcDbEntity
8
Geo
100
AcDbLine
10
-21.2876869965478
20
7.04237189290284
30
0.000000000000000
11
-21.1876869965478
21
6.99084684216381
31
0.000000000000000
  0
LINE
  5
F10534
330
F10535
100
AcDbEntity
8
Geo
100
AcDbLine
10
-21.1876869965478
20
6.99084684216381
30
0.000000000000000
11
-21.0876869965478
21
6.93947552496049
31
0.000000000000000
  0
LINE
  5
F10536
330
F10537
100
AcDbEntity
8
Geo
100
AcDbLine
10
-21.0876869965478
20
6.93947552496049
30
0.000000000000000
11
-20.9876869965478
21
6.88840426028872
31
0.000000000000000
  0
LINE
  5
F10538
330
F10539
100
AcDbEntity
8
Geo
100
AcDbLine
10
-20.9876869965478
20
6.88840426028872
30
0.000000000000000
11
-20.8876869965477
21
6.83783686074303
31
0.000000000000000
  0
LINE
  5
F1053A
330
F1053B
100
AcDbEntity
8
Geo
100
AcDbLine
10
-20.8876869965477
20
6.83783686074303
30
0.000000000000000
11
-20.7876869965477
21
6.78805418686483
31
0.000000000000000
  0
LINE
  5
F1053C
330
F1053D
100
AcDbEntity
8
Geo
100
AcDbLine
10
-20.7876869965477
20
6.78805418686483
30
0.000000000000000
11
-20.6876869965477
21
6.73943927042887
31
0.000000000000000
  0
LINE
  5
F1053E
330
F1053F
100
AcDbEntity
8
Geo
100
AcDbLine
10
-20.6876869965477
20
6.73943927042887
30
0.000000000000000
11
-20.5876869965477
21
6.69250928429850
31
0.000000000000000
  0
LINE
  5
F10540
330
F10541
100
AcDbEntity
8
Geo
100
AcDbLine
10
-20.5876869965477
20
6.69250928429850
30
0.000000000000000
11
-20.4876869965477
21
6.64795584401404
31
0.000000000000000
  0
LINE
  5
F10542
330
F10543
100
AcDbEntity
8
Geo
100
AcDbLine
10
-20.4876869965477
20
6.64795584401404
30
0.000000000000000
11
-20.3876869965477
21
6.60669533743632
31
0.000000000000000
  0
LINE
  5
F10544
330
F10545
100
AcDbEntity
8
Geo
100
AcDbLine
10
-20.3876869965477
20
6.60669533743632
30
0.000000000000000
11
-20.2876869965477
21
6.56993117522125
31
0.000000000000000
  0
LINE
  5
F10546
330
F10547
100
AcDbEntity
8
Geo
100
AcDbLine
10
-20.2876869965477
20
6.56993117522125
30
0.000000000000000
11
-20.1876869965477
21
6.53923000417874
31
0.000000000000000
  0
LINE
  5
F10548
330
F10549
100
AcDbEntity
8
Geo
100
AcDbLine
10
-20.1876869965477
20
6.53923000417874
30
0.000000000000000
11
-20.0876869965477
21
6.51661397106366
31
0.000000000000000
  0
LINE
  5
F1054A
330
F1054B
100
AcDbEntity
8
Geo
100
AcDbLine
10
-20.0876869965477
20
6.51661397106366
30
0.000000000000000
11
-19.9876869965477
21
6.50467096747118
31
0.000000000000000
  0
LINE
  5
F1054C
330
F1054D
100
AcDbEntity
8
Geo
100
AcDbLine
10
-19.9876869965477
20
6.50467096747118
30
0.000000000000000
11
-19.8876869965477
21
6.50668425421423
31
0.000000000000000
  0
LINE
  5
F1054E
330
F1054F
100
AcDbEntity
8
Geo
100
AcDbLine
10
-19.8876869965477
20
6.50668425421423
30
0.000000000000000
11
-19.7876869965477
21
6.52678164862404
31
0.000000000000000
  0
LINE
  5
F10550
330
F10551
100
AcDbEntity
8
Geo
100
AcDbLine
10
-19.7876869965477
20
6.52678164862404
30
0.000000000000000
11
-19.6876869965477
21
6.57010200924545
31
0.000000000000000
  0
LINE
  5
F10552
330
F10553
100
AcDbEntity
8
Geo
100
AcDbLine
10
-19.6876869965477
20
6.57010200924545
30
0.000000000000000
11
-19.5876869965477
21
6.64297207230875
31
0.000000000000000
  0
LINE
  5
F10554
330
F10555
100
AcDbEntity
8
Geo
100
AcDbLine
10
-19.5876869965477
20
6.64297207230875
30
0.000000000000000
11
-19.4876869965477
21
6.75307797583992
31
0.000000000000000
  0
LINE
  5
F10556
330
F10557
100
AcDbEntity
8
Geo
100
AcDbLine
10
-19.4876869965477
20
6.75307797583992
30
0.000000000000000
11
-19.3876869965477
21
6.90959978702019
31
0.000000000000000
  0
LINE
  5
F10558
330
F10559
100
AcDbEntity
8
Geo
100
AcDbLine
10
-19.3876869965477
20
6.90959978702019
30
0.000000000000000
11
-19.2876869965477
21
7.12324819855222
31
0.000000000000000
  0
LINE
  5
F1055A
330
F1055B
100
AcDbEntity
8
Geo
100
AcDbLine
10
-19.2876869965477
20
7.12324819855222
30
0.000000000000000
11
-19.1876869965477
21
7.40609007580218
31
0.000000000000000
  0
LINE
  5
F1055C
330
F1055D
100
AcDbEntity
8
Geo
100
AcDbLine
10
-19.1876869965477
20
7.40609007580218
30
0.000000000000000
11
-19.0876869965477
21
7.77095641437324
31
0.000000000000000
  0
LINE
  5
F1055E
330
F1055F
100
AcDbEntity
8
Geo
100
AcDbLine
10
-19.0876869965477
20
7.77095641437324
30
0.000000000000000
11
-18.9876869965477
21
8.23006467379327
31
0.000000000000000
  0
LINE
  5
F10560
330
F10561
100
AcDbEntity
8
Geo
100
AcDbLine
10
-18.9876869965477
20
8.23006467379327
30
0.000000000000000
11
-18.8876869965477
21
8.79221668016368
31
0.000000000000000
  0
LINE
  5
F10562
330
F10563
100
AcDbEntity
8
Geo
100
AcDbLine
10
-18.8876869965477
20
8.79221668016368
30
0.000000000000000
11
-18.7876869965477
21
9.45750514820811
31
0.000000000000000
  0
LINE
  5
F10564
330
F10565
100
AcDbEntity
8
Geo
100
AcDbLine
10
-18.7876869965477
20
9.45750514820811
30
0.000000000000000
11
-18.7876869965477
21
9.61663460946609
31
0.000000000000000
  0
LINE
  5
F10566
330
F10567
100
AcDbEntity
8
Geo
100
AcDbLine
10
-18.7876869965477
20
9.61663460946609
30
0.000000000000000
11
-18.8876869965477
21
10.1581862140020
31
0.000000000000000
  0
LINE
  5
F10568
330
F10569
100
AcDbEntity
8
Geo
100
AcDbLine
10
-18.8876869965477
20
10.1581862140020
30
0.000000000000000
11
-18.9876869965477
21
10.6005107734081
31
0.000000000000000
  0
LINE
  5
F1056A
330
F1056B
100
AcDbEntity
8
Geo
100
AcDbLine
10
-18.9876869965477
20
10.6005107734081
30
0.000000000000000
11
-19.0876869965477
21
10.9581724301465
31
0.000000000000000
  0
LINE
  5
F1056C
330
F1056D
100
AcDbEntity
8
Geo
100
AcDbLine
10
-19.0876869965477
20
10.9581724301465
30
0.000000000000000
11
-19.1876869965477
21
11.2445292512981
31
0.000000000000000
  0
LINE
  5
F1056E
330
F1056F
100
AcDbEntity
8
Geo
100
AcDbLine
10
-19.1876869965477
20
11.2445292512981
30
0.000000000000000
11
-19.2876869965477
21
11.4715034791601
31
0.000000000000000
  0
LINE
  5
F10570
330
F10571
100
AcDbEntity
8
Geo
100
AcDbLine
10
-19.2876869965477
20
11.4715034791601
30
0.000000000000000
11
-19.3876869965477
21
11.6495155668523
31
0.000000000000000
  0
LINE
  5
F10572
330
F10573
100
AcDbEntity
8
Geo
100
AcDbLine
10
-19.3876869965477
20
11.6495155668523
30
0.000000000000000
11
-19.4876869965477
21
11.7875226903985
31
0.000000000000000
  0
LINE
  5
F10574
330
F10575
100
AcDbEntity
8
Geo
100
AcDbLine
10
-19.4876869965477
20
11.7875226903985
30
0.000000000000000
11
-19.5876869965477
21
11.8931191476308
31
0.000000000000000
  0
LINE
  5
F10576
330
F10577
100
AcDbEntity
8
Geo
100
AcDbLine
10
-19.5876869965477
20
11.8931191476308
30
0.000000000000000
11
-19.6876869965477
21
11.9726690770005
31
0.000000000000000
  0
LINE
  5
F10578
330
F10579
100
AcDbEntity
8
Geo
100
AcDbLine
10
-19.6876869965477
20
11.9726690770005
30
0.000000000000000
11
-19.7876869965477
21
12.0314517073630
31
0.000000000000000
  0
LINE
  5
F1057A
330
F1057B
100
AcDbEntity
8
Geo
100
AcDbLine
10
-19.7876869965477
20
12.0314517073630
30
0.000000000000000
11
-19.8876869965477
21
12.0738064673062
31
0.000000000000000
  0
LINE
  5
F1057C
330
F1057D
100
AcDbEntity
8
Geo
100
AcDbLine
10
-19.8876869965477
20
12.0738064673062
30
0.000000000000000
11
-19.9876869965477
21
12.1032703183417
31
0.000000000000000
  0
LINE
  5
F1057E
330
F1057F
100
AcDbEntity
8
Geo
100
AcDbLine
10
-19.9876869965477
20
12.1032703183417
30
0.000000000000000
11
-20.0876869965477
21
12.1227031395390
31
0.000000000000000
  0
LINE
  5
F10580
330
F10581
100
AcDbEntity
8
Geo
100
AcDbLine
10
-20.0876869965477
20
12.1227031395390
30
0.000000000000000
11
-20.1876869965477
21
12.1343993002753
31
0.000000000000000
  0
LINE
  5
F10582
330
F10583
100
AcDbEntity
8
Geo
100
AcDbLine
10
-20.1876869965477
20
12.1343993002753
30
0.000000000000000
11
-20.2876869965477
21
12.1401850407608
31
0.000000000000000
  0
LINE
  5
F10584
330
F10585
100
AcDbEntity
8
Geo
100
AcDbLine
10
-20.2876869965477
20
12.1401850407608
30
0.000000000000000
11
-20.3730619881314
21
12.1415420023015
31
0.000000000000000
  0
LINE
  5
F10586
330
F10587
100
AcDbEntity
8
Geo
100
AcDbLine
10
-23.7876869965478
20
-4.24277952846168
30
0.000000000000000
11
-23.6876869965478
21
-4.27563303258464
31
0.000000000000000
  0
LINE
  5
F10588
330
F10589
100
AcDbEntity
8
Geo
100
AcDbLine
10
-23.6876869965478
20
-4.27563303258464
30
0.000000000000000
11
-23.5876869965478
21
-4.30818130421383
31
0.000000000000000
  0
LINE
  5
F1058A
330
F1058B
100
AcDbEntity
8
Geo
100
AcDbLine
10
-23.5876869965478
20
-4.30818130421383
30
0.000000000000000
11
-23.4876869965478
21
-4.34042300391878
31
0.000000000000000
  0
LINE
  5
F1058C
330
F1058D
100
AcDbEntity
8
Geo
100
AcDbLine
10
-23.4876869965478
20
-4.34042300391878
30
0.000000000000000
11
-23.3876869965478
21
-4.37235680488497
31
0.000000000000000
  0
LINE
  5
F1058E
330
F1058F
100
AcDbEntity
8
Geo
100
AcDbLine
10
-23.3876869965478
20
-4.37235680488497
30
0.000000000000000
11
-23.2876869965478
21
-4.40398139296681
31
0.000000000000000
  0
LINE
  5
F10590
330
F10591
100
AcDbEntity
8
Geo
100
AcDbLine
10
-23.2876869965478
20
-4.40398139296681
30
0.000000000000000
11
-23.1876869965478
21
-4.43529546673088
31
0.000000000000000
  0
LINE
  5
F10592
330
F10593
100
AcDbEntity
8
Geo
100
AcDbLine
10
-23.1876869965478
20
-4.43529546673088
30
0.000000000000000
11
-23.0876869965478
21
-4.46629773745960
31
0.000000000000000
  0
LINE
  5
F10594
330
F10595
100
AcDbEntity
8
Geo
100
AcDbLine
10
-23.0876869965478
20
-4.46629773745960
30
0.000000000000000
11
-22.9876869965478
21
-4.49698692902670
31
0.000000000000000
  0
LINE
  5
F10596
330
F10597
100
AcDbEntity
8
Geo
100
AcDbLine
10
-22.9876869965478
20
-4.49698692902670
30
0.000000000000000
11
-22.8876869965478
21
-4.52736177742636
31
0.000000000000000
  0
LINE
  5
F10598
330
F10599
100
AcDbEntity
8
Geo
100
AcDbLine
10
-22.8876869965478
20
-4.52736177742636
30
0.000000000000000
11
-22.7876869965478
21
-4.55742102948789
31
0.000000000000000
  0
LINE
  5
F1059A
330
F1059B
100
AcDbEntity
8
Geo
100
AcDbLine
10
-22.7876869965478
20
-4.55742102948789
30
0.000000000000000
11
-22.6876869965478
21
-4.58716343987038
31
0.000000000000000
  0
LINE
  5
F1059C
330
F1059D
100
AcDbEntity
8
Geo
100
AcDbLine
10
-22.6876869965478
20
-4.58716343987038
30
0.000000000000000
11
-22.5876869965478
21
-4.61658776472033
31
0.000000000000000
  0
LINE
  5
F1059E
330
F1059F
100
AcDbEntity
8
Geo
100
AcDbLine
10
-22.5876869965478
20
-4.61658776472033
30
0.000000000000000
11
-22.4876869965478
21
-4.64569274928584
31
0.000000000000000
  0
LINE
  5
F105A0
330
F105A1
100
AcDbEntity
8
Geo
100
AcDbLine
10
-22.4876869965478
20
-4.64569274928584
30
0.000000000000000
11
-22.3876869965478
21
-4.67447710519004
31
0.000000000000000
  0
LINE
  5
F105A2
330
F105A3
100
AcDbEntity
8
Geo
100
AcDbLine
10
-22.3876869965478
20
-4.67447710519004
30
0.000000000000000
11
-22.2876869965478
21
-4.70293947083277
31
0.000000000000000
  0
LINE
  5
F105A4
330
F105A5
100
AcDbEntity
8
Geo
100
AcDbLine
10
-22.2876869965478
20
-4.70293947083277
30
0.000000000000000
11
-22.1876869965478
21
-4.73107834535628
31
0.000000000000000
  0
LINE
  5
F105A6
330
F105A7
100
AcDbEntity
8
Geo
100
AcDbLine
10
-22.1876869965478
20
-4.73107834535628
30
0.000000000000000
11
-22.0876869965478
21
-4.75889198260802
31
0.000000000000000
  0
LINE
  5
F105A8
330
F105A9
100
AcDbEntity
8
Geo
100
AcDbLine
10
-22.0876869965478
20
-4.75889198260802
30
0.000000000000000
11
-21.9876869965478
21
-4.78637822637971
31
0.000000000000000
  0
LINE
  5
F105AA
330
F105AB
100
AcDbEntity
8
Geo
100
AcDbLine
10
-21.9876869965478
20
-4.78637822637971
30
0.000000000000000
11
-21.8876869965478
21
-4.81353426170935
31
0.000000000000000
  0
LINE
  5
F105AC
330
F105AD
100
AcDbEntity
8
Geo
100
AcDbLine
10
-21.8876869965478
20
-4.81353426170935
30
0.000000000000000
11
-21.7876869965478
21
-4.84035624900856
31
0.000000000000000
  0
LINE
  5
F105AE
330
F105AF
100
AcDbEntity
8
Geo
100
AcDbLine
10
-21.7876869965478
20
-4.84035624900856
30
0.000000000000000
11
-21.6876869965478
21
-4.86683879802730
31
0.000000000000000
  0
LINE
  5
F105B0
330
F105B1
100
AcDbEntity
8
Geo
100
AcDbLine
10
-21.6876869965478
20
-4.86683879802730
30
0.000000000000000
11
-21.5876869965478
21
-4.89297422699270
31
0.000000000000000
  0
LINE
  5
F105B2
330
F105B3
100
AcDbEntity
8
Geo
100
AcDbLine
10
-21.5876869965478
20
-4.89297422699270
30
0.000000000000000
11
-21.4876869965478
21
-4.91875153844694
31
0.000000000000000
  0
LINE
  5
F105B4
330
F105B5
100
AcDbEntity
8
Geo
100
AcDbLine
10
-21.4876869965478
20
-4.91875153844694
30
0.000000000000000
11
-21.3876869965478
21
-4.94415502711439
31
0.000000000000000
  0
LINE
  5
F105B6
330
F105B7
100
AcDbEntity
8
Geo
100
AcDbLine
10
-21.3876869965478
20
-4.94415502711439
30
0.000000000000000
11
-21.2876869965478
21
-4.96916241621797
31
0.000000000000000
  0
LINE
  5
F105B8
330
F105B9
100
AcDbEntity
8
Geo
100
AcDbLine
10
-21.2876869965478
20
-4.96916241621797
30
0.000000000000000
11
-21.1876869965478
21
-4.99374239652641
31
0.000000000000000
  0
LINE
  5
F105BA
330
F105BB
100
AcDbEntity
8
Geo
100
AcDbLine
10
-21.1876869965478
20
-4.99374239652641
30
0.000000000000000
11
-21.0876869965478
21
-5.01785141617412
31
0.000000000000000
  0
LINE
  5
F105BC
330
F105BD
100
AcDbEntity
8
Geo
100
AcDbLine
10
-21.0876869965478
20
-5.01785141617412
30
0.000000000000000
11
-20.9876869965478
21
-5.04142953740650
31
0.000000000000000
  0
LINE
  5
F105BE
330
F105BF
100
AcDbEntity
8
Geo
100
AcDbLine
10
-20.9876869965478
20
-5.04142953740650
30
0.000000000000000
11
-20.8876869965477
21
-5.06439513610377
31
0.000000000000000
  0
LINE
  5
F105C0
330
F105C1
100
AcDbEntity
8
Geo
100
AcDbLine
10
-20.8876869965477
20
-5.06439513610377
30
0.000000000000000
11
-20.7876869965477
21
-5.08663816635252
31
0.000000000000000
  0
LINE
  5
F105C2
330
F105C3
100
AcDbEntity
8
Geo
100
AcDbLine
10
-20.7876869965477
20
-5.08663816635252
30
0.000000000000000
11
-20.6876869965477
21
-5.10801163701752
31
0.000000000000000
  0
LINE
  5
F105C4
330
F105C5
100
AcDbEntity
8
Geo
100
AcDbLine
10
-20.6876869965477
20
-5.10801163701752
30
0.000000000000000
11
-20.5876869965477
21
-5.12832083587103
31
0.000000000000000
  0
LINE
  5
F105C6
330
F105C7
100
AcDbEntity
8
Geo
100
AcDbLine
10
-20.5876869965477
20
-5.12832083587103
30
0.000000000000000
11
-20.4876869965477
21
-5.14730966548981
31
0.000000000000000
  0
LINE
  5
F105C8
330
F105C9
100
AcDbEntity
8
Geo
100
AcDbLine
10
-20.4876869965477
20
-5.14730966548981
30
0.000000000000000
11
-20.3876869965477
21
-5.16464318489510
31
0.000000000000000
  0
LINE
  5
F105CA
330
F105CB
100
AcDbEntity
8
Geo
100
AcDbLine
10
-20.3876869965477
20
-5.16464318489510
30
0.000000000000000
11
-20.2876869965477
21
-5.17988501949030
31
0.000000000000000
  0
LINE
  5
F105CC
330
F105CD
100
AcDbEntity
8
Geo
100
AcDbLine
10
-20.2876869965477
20
-5.17988501949030
30
0.000000000000000
11
-20.1876869965477
21
-5.19246761143783
31
0.000000000000000
  0
LINE
  5
F105CE
330
F105CF
100
AcDbEntity
8
Geo
100
AcDbLine
10
-20.1876869965477
20
-5.19246761143783
30
0.000000000000000
11
-20.0876869965477
21
-5.20165218252220
31
0.000000000000000
  0
LINE
  5
F105D0
330
F105D1
100
AcDbEntity
8
Geo
100
AcDbLine
10
-20.0876869965477
20
-5.20165218252220
30
0.000000000000000
11
-19.9876869965477
21
-5.20647354414047
31
0.000000000000000
  0
LINE
  5
F105D2
330
F105D3
100
AcDbEntity
8
Geo
100
AcDbLine
10
-19.9876869965477
20
-5.20647354414047
30
0.000000000000000
11
-19.8876869965477
21
-5.20566217780527
31
0.000000000000000
  0
LINE
  5
F105D4
330
F105D5
100
AcDbEntity
8
Geo
100
AcDbLine
10
-19.8876869965477
20
-5.20566217780527
30
0.000000000000000
11
-19.7876869965477
21
-5.19753183937698
31
0.000000000000000
  0
LINE
  5
F105D6
330
F105D7
100
AcDbEntity
8
Geo
100
AcDbLine
10
-19.7876869965477
20
-5.19753183937698
30
0.000000000000000
11
-19.6876869965477
21
-5.17981463461682
31
0.000000000000000
  0
LINE
  5
F105D8
330
F105D9
100
AcDbEntity
8
Geo
100
AcDbLine
10
-19.6876869965477
20
-5.17981463461682
30
0.000000000000000
11
-19.5876869965477
21
-5.14941617301510
31
0.000000000000000
  0
LINE
  5
F105DA
330
F105DB
100
AcDbEntity
8
Geo
100
AcDbLine
10
-19.5876869965477
20
-5.14941617301510
30
0.000000000000000
11
-19.4876869965477
21
-5.10204992790939
31
0.000000000000000
  0
LINE
  5
F105DC
330
F105DD
100
AcDbEntity
8
Geo
100
AcDbLine
10
-19.4876869965477
20
-5.10204992790939
30
0.000000000000000
11
-19.3876869965477
21
-5.03169117258230
31
0.000000000000000
  0
LINE
  5
F105DE
330
F105DF
100
AcDbEntity
8
Geo
100
AcDbLine
10
-19.3876869965477
20
-5.03169117258230
30
0.000000000000000
11
-19.2876869965477
21
-4.92976617956957
31
0.000000000000000
  0
LINE
  5
F105E0
330
F105E1
100
AcDbEntity
8
Geo
100
AcDbLine
10
-19.2876869965477
20
-4.92976617956957
30
0.000000000000000
11
-19.1876869965477
21
-4.78396301181601
31
0.000000000000000
  0
LINE
  5
F105E2
330
F105E3
100
AcDbEntity
8
Geo
100
AcDbLine
10
-19.1876869965477
20
-4.78396301181601
30
0.000000000000000
11
-19.0876869965477
21
-4.57652266452416
31
0.000000000000000
  0
LINE
  5
F105E4
330
F105E5
100
AcDbEntity
8
Geo
100
AcDbLine
10
-19.0876869965477
20
-4.57652266452416
30
0.000000000000000
11
-18.9876869965477
21
-4.28186267626173
31
0.000000000000000
  0
LINE
  5
F105E6
330
F105E7
100
AcDbEntity
8
Geo
100
AcDbLine
10
-18.9876869965477
20
-4.28186267626173
30
0.000000000000000
11
-18.8876869965477
21
-3.86344733994360
31
0.000000000000000
  0
LINE
  5
F105E8
330
F105E9
100
AcDbEntity
8
Geo
100
AcDbLine
10
-18.8876869965477
20
-3.86344733994360
30
0.000000000000000
11
-18.7876869965477
21
-3.27005760618543
31
0.000000000000000
  0
LINE
  5
F105EA
330
F105EB
100
AcDbEntity
8
Geo
100
AcDbLine
10
-18.7876869965477
20
-3.27005760618543
30
0.000000000000000
11
-18.7876869965477
21
-3.10931199764465
31
0.000000000000000
  0
LINE
  5
F105EC
330
F105ED
100
AcDbEntity
8
Geo
100
AcDbLine
10
-18.7876869965477
20
-3.10931199764465
30
0.000000000000000
11
-18.8876869965477
21
-2.49465387846860
31
0.000000000000000
  0
LINE
  5
F105EE
330
F105EF
100
AcDbEntity
8
Geo
100
AcDbLine
10
-18.8876869965477
20
-2.49465387846860
30
0.000000000000000
11
-18.9876869965477
21
-1.89470509962434
31
0.000000000000000
  0
LINE
  5
F105F0
330
F105F1
100
AcDbEntity
8
Geo
100
AcDbLine
10
-18.9876869965477
20
-1.89470509962434
30
0.000000000000000
11
-19.0876869965477
21
-1.31943196696666
31
0.000000000000000
  0
LINE
  5
F105F2
330
F105F3
100
AcDbEntity
8
Geo
100
AcDbLine
10
-19.0876869965477
20
-1.31943196696666
30
0.000000000000000
11
-19.1876869965477
21
-0.775293154122393
31
0.000000000000000
  0
LINE
  5
F105F4
330
F105F5
100
AcDbEntity
8
Geo
100
AcDbLine
10
-19.1876869965477
20
-0.775293154122393
30
0.000000000000000
11
-19.2876869965477
21
-0.266058589618215
31
0.000000000000000
  0
LINE
  5
F105F6
330
F105F7
100
AcDbEntity
8
Geo
100
AcDbLine
10
-19.2876869965477
20
-0.266058589618215
30
0.000000000000000
11
-19.3876869965477
21
0.206514604660304
31
0.000000000000000
  0
LINE
  5
F105F8
330
F105F9
100
AcDbEntity
8
Geo
100
AcDbLine
10
-19.3876869965477
20
0.206514604660304
30
0.000000000000000
11
-19.4876869965477
21
0.642138485249165
31
0.000000000000000
  0
LINE
  5
F105FA
330
F105FB
100
AcDbEntity
8
Geo
100
AcDbLine
10
-19.4876869965477
20
0.642138485249165
30
0.000000000000000
11
-19.5876869965477
21
1.04156641450271
31
0.000000000000000
  0
LINE
  5
F105FC
330
F105FD
100
AcDbEntity
8
Geo
100
AcDbLine
10
-19.5876869965477
20
1.04156641450271
30
0.000000000000000
11
-19.6876869965477
21
1.40626260389943
31
0.000000000000000
  0
LINE
  5
F105FE
330
F105FF
100
AcDbEntity
8
Geo
100
AcDbLine
10
-19.6876869965477
20
1.40626260389943
30
0.000000000000000
11
-19.7876869965477
21
1.73815130978105
31
0.000000000000000
  0
LINE
  5
F10600
330
F10601
100
AcDbEntity
8
Geo
100
AcDbLine
10
-19.7876869965477
20
1.73815130978105
30
0.000000000000000
11
-19.8876869965477
21
2.03942969985018
31
0.000000000000000
  0
LINE
  5
F10602
330
F10603
100
AcDbEntity
8
Geo
100
AcDbLine
10
-19.8876869965477
20
2.03942969985018
30
0.000000000000000
11
-19.9876869965477
21
2.31243067715690
31
0.000000000000000
  0
LINE
  5
F10604
330
F10605
100
AcDbEntity
8
Geo
100
AcDbLine
10
-19.9876869965477
20
2.31243067715690
30
0.000000000000000
11
-20.0876869965477
21
2.55952428180183
31
0.000000000000000
  0
LINE
  5
F10606
330
F10607
100
AcDbEntity
8
Geo
100
AcDbLine
10
-20.0876869965477
20
2.55952428180183
30
0.000000000000000
11
-20.1876869965477
21
2.78304846222015
31
0.000000000000000
  0
LINE
  5
F10608
330
F10609
100
AcDbEntity
8
Geo
100
AcDbLine
10
-20.1876869965477
20
2.78304846222015
30
0.000000000000000
11
-20.2876869965477
21
2.98526191275625
31
0.000000000000000
  0
LINE
  5
F1060A
330
F1060B
100
AcDbEntity
8
Geo
100
AcDbLine
10
-20.2876869965477
20
2.98526191275625
30
0.000000000000000
11
-20.3876869965477
21
3.16831328019583
31
0.000000000000000
  0
LINE
  5
F1060C
330
F1060D
100
AcDbEntity
8
Geo
100
AcDbLine
10
-20.3876869965477
20
3.16831328019583
30
0.000000000000000
11
-20.4876869965477
21
3.33422235754570
31
0.000000000000000
  0
LINE
  5
F1060E
330
F1060F
100
AcDbEntity
8
Geo
100
AcDbLine
10
-20.4876869965477
20
3.33422235754570
30
0.000000000000000
11
-20.5876869965477
21
3.48486993754877
31
0.000000000000000
  0
LINE
  5
F10610
330
F10611
100
AcDbEntity
8
Geo
100
AcDbLine
10
-20.5876869965477
20
3.48486993754877
30
0.000000000000000
11
-20.6876869965477
21
3.62199382817612
31
0.000000000000000
  0
LINE
  5
F10612
330
F10613
100
AcDbEntity
8
Geo
100
AcDbLine
10
-20.6876869965477
20
3.62199382817612
30
0.000000000000000
11
-20.7876869965477
21
3.74718917567505
31
0.000000000000000
  0
LINE
  5
F10614
330
F10615
100
AcDbEntity
8
Geo
100
AcDbLine
10
-20.7876869965477
20
3.74718917567505
30
0.000000000000000
11
-20.8876869965477
21
3.86191173303142
31
0.000000000000000
  0
LINE
  5
F10616
330
F10617
100
AcDbEntity
8
Geo
100
AcDbLine
10
-20.8876869965477
20
3.86191173303142
30
0.000000000000000
11
-20.9876869965478
21
3.96748308393394
31
0.000000000000000
  0
LINE
  5
F10618
330
F10619
100
AcDbEntity
8
Geo
100
AcDbLine
10
-20.9876869965478
20
3.96748308393394
30
0.000000000000000
11
-21.0876869965478
21
4.06509711066887
31
0.000000000000000
  0
LINE
  5
F1061A
330
F1061B
100
AcDbEntity
8
Geo
100
AcDbLine
10
-21.0876869965478
20
4.06509711066887
30
0.000000000000000
11
-21.1876869965478
21
4.15582720028893
31
0.000000000000000
  0
LINE
  5
F1061C
330
F1061D
100
AcDbEntity
8
Geo
100
AcDbLine
10
-21.1876869965478
20
4.15582720028893
30
0.000000000000000
11
-21.2876869965478
21
4.24063383413029
31
0.000000000000000
  0
LINE
  5
F1061E
330
F1061F
100
AcDbEntity
8
Geo
100
AcDbLine
10
-21.2876869965478
20
4.24063383413029
30
0.000000000000000
11
-21.3876869965478
21
4.32037231490329
31
0.000000000000000
  0
LINE
  5
F10620
330
F10621
100
AcDbEntity
8
Geo
100
AcDbLine
10
-21.3876869965478
20
4.32037231490329
30
0.000000000000000
11
-21.4876869965478
21
4.39580046374450
31
0.000000000000000
  0
LINE
  5
F10622
330
F10623
100
AcDbEntity
8
Geo
100
AcDbLine
10
-21.4876869965478
20
4.39580046374450
30
0.000000000000000
11
-21.5876869965478
21
4.46758617492148
31
0.000000000000000
  0
LINE
  5
F10624
330
F10625
100
AcDbEntity
8
Geo
100
AcDbLine
10
-21.5876869965478
20
4.46758617492148
30
0.000000000000000
11
-21.6876869965478
21
4.53631475450320
31
0.000000000000000
  0
LINE
  5
F10626
330
F10627
100
AcDbEntity
8
Geo
100
AcDbLine
10
-21.6876869965478
20
4.53631475450320
30
0.000000000000000
11
-21.7876869965478
21
4.60249599588500
31
0.000000000000000
  0
LINE
  5
F10628
330
F10629
100
AcDbEntity
8
Geo
100
AcDbLine
10
-21.7876869965478
20
4.60249599588500
30
0.000000000000000
11
-21.8876869965478
21
4.66657096303582
31
0.000000000000000
  0
LINE
  5
F1062A
330
F1062B
100
AcDbEntity
8
Geo
100
AcDbLine
10
-21.8876869965478
20
4.66657096303582
30
0.000000000000000
11
-21.9876869965478
21
4.72891846425369
31
0.000000000000000
  0
LINE
  5
F1062C
330
F1062D
100
AcDbEntity
8
Geo
100
AcDbLine
10
-21.9876869965478
20
4.72891846425369
30
0.000000000000000
11
-22.0876869965478
21
4.78986120692050
31
0.000000000000000
  0
LINE
  5
F1062E
330
F1062F
100
AcDbEntity
8
Geo
100
AcDbLine
10
-22.0876869965478
20
4.78986120692050
30
0.000000000000000
11
-22.1876869965478
21
4.84967162857207
31
0.000000000000000
  0
LINE
  5
F10630
330
F10631
100
AcDbEntity
8
Geo
100
AcDbLine
10
-22.1876869965478
20
4.84967162857207
30
0.000000000000000
11
-22.2876869965478
21
4.90857740249398
31
0.000000000000000
  0
LINE
  5
F10632
330
F10633
100
AcDbEntity
8
Geo
100
AcDbLine
10
-22.2876869965478
20
4.90857740249398
30
0.000000000000000
11
-22.3876869965478
21
4.96676661768813
31
0.000000000000000
  0
LINE
  5
F10634
330
F10635
100
AcDbEntity
8
Geo
100
AcDbLine
10
-22.3876869965478
20
4.96676661768813
30
0.000000000000000
11
-22.4876869965478
21
5.02439263389587
31
0.000000000000000
  0
LINE
  5
F10636
330
F10637
100
AcDbEntity
8
Geo
100
AcDbLine
10
-22.4876869965478
20
5.02439263389587
30
0.000000000000000
11
-22.5876869965478
21
5.08157861273105
31
0.000000000000000
  0
LINE
  5
F10638
330
F10639
100
AcDbEntity
8
Geo
100
AcDbLine
10
-22.5876869965478
20
5.08157861273105
30
0.000000000000000
11
-22.6876869965478
21
5.13842172608451
31
0.000000000000000
  0
LINE
  5
F1063A
330
F1063B
100
AcDbEntity
8
Geo
100
AcDbLine
10
-22.6876869965478
20
5.13842172608451
30
0.000000000000000
11
-22.7876869965478
21
5.19499704295283
31
0.000000000000000
  0
LINE
  5
F1063C
330
F1063D
100
AcDbEntity
8
Geo
100
AcDbLine
10
-22.7876869965478
20
5.19499704295283
30
0.000000000000000
11
-22.8876869965478
21
5.25136109580571
31
0.000000000000000
  0
LINE
  5
F1063E
330
F1063F
100
AcDbEntity
8
Geo
100
AcDbLine
10
-22.8876869965478
20
5.25136109580571
30
0.000000000000000
11
-22.9876869965478
21
5.30755512759181
31
0.000000000000000
  0
LINE
  5
F10640
330
F10641
100
AcDbEntity
8
Geo
100
AcDbLine
10
-22.9876869965478
20
5.30755512759181
30
0.000000000000000
11
-23.0876869965478
21
5.36360802051904
31
0.000000000000000
  0
LINE
  5
F10642
330
F10643
100
AcDbEntity
8
Geo
100
AcDbLine
10
-23.0876869965478
20
5.36360802051904
30
0.000000000000000
11
-23.1876869965478
21
5.41953890784373
31
0.000000000000000
  0
LINE
  5
F10644
330
F10645
100
AcDbEntity
8
Geo
100
AcDbLine
10
-23.1876869965478
20
5.41953890784373
30
0.000000000000000
11
-23.2876869965478
21
5.47535947006288
31
0.000000000000000
  0
LINE
  5
F10646
330
F10647
100
AcDbEntity
8
Geo
100
AcDbLine
10
-23.2876869965478
20
5.47535947006288
30
0.000000000000000
11
-23.3876869965478
21
5.53107591711941
31
0.000000000000000
  0
LINE
  5
F10648
330
F10649
100
AcDbEntity
8
Geo
100
AcDbLine
10
-23.3876869965478
20
5.53107591711941
30
0.000000000000000
11
-23.4876869965478
21
5.58669065849066
31
0.000000000000000
  0
LINE
  5
F1064A
330
F1064B
100
AcDbEntity
8
Geo
100
AcDbLine
10
-23.4876869965478
20
5.58669065849066
30
0.000000000000000
11
-23.5876869965478
21
5.64220366332537
31
0.000000000000000
  0
LINE
  5
F1064C
330
F1064D
100
AcDbEntity
8
Geo
100
AcDbLine
10
-23.5876869965478
20
5.64220366332537
30
0.000000000000000
11
-23.6876869965478
21
5.69761351311225
31
0.000000000000000
  0
LINE
  5
F1064E
330
F1064F
100
AcDbEntity
8
Geo
100
AcDbLine
10
-23.6876869965478
20
5.69761351311225
30
0.000000000000000
11
-23.7876869965478
21
5.75291814969541
31
0.000000000000000
  0
LINE
  5
F10650
330
F10651
100
AcDbEntity
8
Geo
100
AcDbLine
10
-20.3730619881313
20
-5.85845799769849
30
0.000000000000000
11
-20.3876869965477
21
-5.85841818087041
31
0.000000000000000
  0
LINE
  5
F10652
330
F10653
100
AcDbEntity
8
Geo
100
AcDbLine
10
-20.3876869965477
20
-5.85841818087041
30
0.000000000000000
11
-20.4876869965477
21
-5.85639522134609
31
0.000000000000000
  0
LINE
  5
F10654
330
F10655
100
AcDbEntity
8
Geo
100
AcDbLine
10
-20.4876869965477
20
-5.85639522134609
30
0.000000000000000
11
-20.5876869965477
21
-5.85190705403271
31
0.000000000000000
  0
LINE
  5
F10656
330
F10657
100
AcDbEntity
8
Geo
100
AcDbLine
10
-20.5876869965477
20
-5.85190705403271
30
0.000000000000000
11
-20.6876869965477
21
-5.84562473939266
31
0.000000000000000
  0
LINE
  5
F10658
330
F10659
100
AcDbEntity
8
Geo
100
AcDbLine
10
-20.6876869965477
20
-5.84562473939266
30
0.000000000000000
11
-20.7876869965477
21
-5.83805662466309
31
0.000000000000000
  0
LINE
  5
F1065A
330
F1065B
100
AcDbEntity
8
Geo
100
AcDbLine
10
-20.7876869965477
20
-5.83805662466309
30
0.000000000000000
11
-20.8876869965477
21
-5.82958208841578
31
0.000000000000000
  0
LINE
  5
F1065C
330
F1065D
100
AcDbEntity
8
Geo
100
AcDbLine
10
-20.8876869965477
20
-5.82958208841578
30
0.000000000000000
11
-20.9876869965478
21
-5.82047904931803
31
0.000000000000000
  0
LINE
  5
F1065E
330
F1065F
100
AcDbEntity
8
Geo
100
AcDbLine
10
-20.9876869965478
20
-5.82047904931803
30
0.000000000000000
11
-21.0876869965478
21
-5.81094625302776
31
0.000000000000000
  0
LINE
  5
F10660
330
F10661
100
AcDbEntity
8
Geo
100
AcDbLine
10
-21.0876869965478
20
-5.81094625302776
30
0.000000000000000
11
-21.1876869965478
21
-5.80112122165720
31
0.000000000000000
  0
LINE
  5
F10662
330
F10663
100
AcDbEntity
8
Geo
100
AcDbLine
10
-21.1876869965478
20
-5.80112122165720
30
0.000000000000000
11
-21.2876869965478
21
-5.79109462666797
31
0.000000000000000
  0
LINE
  5
F10664
330
F10665
100
AcDbEntity
8
Geo
100
AcDbLine
10
-21.2876869965478
20
-5.79109462666797
30
0.000000000000000
11
-21.3876869965478
21
-5.78092173223343
31
0.000000000000000
  0
LINE
  5
F10666
330
F10667
100
AcDbEntity
8
Geo
100
AcDbLine
10
-21.3876869965478
20
-5.78092173223343
30
0.000000000000000
11
-21.4876869965478
21
-5.77063145381449
31
0.000000000000000
  0
LINE
  5
F10668
330
F10669
100
AcDbEntity
8
Geo
100
AcDbLine
10
-21.4876869965478
20
-5.77063145381449
30
0.000000000000000
11
-21.5876869965478
21
-5.76023348645693
31
0.000000000000000
  0
LINE
  5
F1066A
330
F1066B
100
AcDbEntity
8
Geo
100
AcDbLine
10
-21.5876869965478
20
-5.76023348645693
30
0.000000000000000
11
-21.6876869965478
21
-5.74972387887174
31
0.000000000000000
  0
LINE
  5
F1066C
330
F1066D
100
AcDbEntity
8
Geo
100
AcDbLine
10
-21.6876869965478
20
-5.74972387887174
30
0.000000000000000
11
-21.7876869965478
21
-5.73908936200093
31
0.000000000000000
  0
LINE
  5
F1066E
330
F1066F
100
AcDbEntity
8
Geo
100
AcDbLine
10
-21.7876869965478
20
-5.73908936200093
30
0.000000000000000
11
-21.8876869965478
21
-5.72831068356208
31
0.000000000000000
  0
LINE
  5
F10670
330
F10671
100
AcDbEntity
8
Geo
100
AcDbLine
10
-21.8876869965478
20
-5.72831068356208
30
0.000000000000000
11
-21.9876869965478
21
-5.71736515197209
31
0.000000000000000
  0
LINE
  5
F10672
330
F10673
100
AcDbEntity
8
Geo
100
AcDbLine
10
-21.9876869965478
20
-5.71736515197209
30
0.000000000000000
11
-22.0876869965478
21
-5.70622855302394
31
0.000000000000000
  0
LINE
  5
F10674
330
F10675
100
AcDbEntity
8
Geo
100
AcDbLine
10
-22.0876869965478
20
-5.70622855302394
30
0.000000000000000
11
-22.1876869965478
21
-5.69487656971378
31
0.000000000000000
  0
LINE
  5
F10676
330
F10677
100
AcDbEntity
8
Geo
100
AcDbLine
10
-22.1876869965478
20
-5.69487656971378
30
0.000000000000000
11
-22.2876869965478
21
-5.68328580873630
31
0.000000000000000
  0
LINE
  5
F10678
330
F10679
100
AcDbEntity
8
Geo
100
AcDbLine
10
-22.2876869965478
20
-5.68328580873630
30
0.000000000000000
11
-22.3876869965478
21
-5.67143451550373
31
0.000000000000000
  0
LINE
  5
F1067A
330
F1067B
100
AcDbEntity
8
Geo
100
AcDbLine
10
-22.3876869965478
20
-5.67143451550373
30
0.000000000000000
11
-22.4876869965478
21
-5.65930304230100
31
0.000000000000000
  0
LINE
  5
F1067C
330
F1067D
100
AcDbEntity
8
Geo
100
AcDbLine
10
-22.4876869965478
20
-5.65930304230100
30
0.000000000000000
11
-22.5876869965478
21
-5.64687412065221
31
0.000000000000000
  0
LINE
  5
F1067E
330
F1067F
100
AcDbEntity
8
Geo
100
AcDbLine
10
-22.5876869965478
20
-5.64687412065221
30
0.000000000000000
11
-22.6876869965478
21
-5.63413297850447
31
0.000000000000000
  0
LINE
  5
F10680
330
F10681
100
AcDbEntity
8
Geo
100
AcDbLine
10
-22.6876869965478
20
-5.63413297850447
30
0.000000000000000
11
-22.7876869965478
21
-5.62106733487788
31
0.000000000000000
  0
LINE
  5
F10682
330
F10683
100
AcDbEntity
8
Geo
100
AcDbLine
10
-22.7876869965478
20
-5.62106733487788
30
0.000000000000000
11
-22.8876869965478
21
-5.60766729869735
31
0.000000000000000
  0
LINE
  5
F10684
330
F10685
100
AcDbEntity
8
Geo
100
AcDbLine
10
-22.8876869965478
20
-5.60766729869735
30
0.000000000000000
11
-22.9876869965478
21
-5.59392519419519
31
0.000000000000000
  0
LINE
  5
F10686
330
F10687
100
AcDbEntity
8
Geo
100
AcDbLine
10
-22.9876869965478
20
-5.59392519419519
30
0.000000000000000
11
-23.0876869965478
21
-5.57983533219576
31
0.000000000000000
  0
LINE
  5
F10688
330
F10689
100
AcDbEntity
8
Geo
100
AcDbLine
10
-23.0876869965478
20
-5.57983533219576
30
0.000000000000000
11
-23.1876869965478
21
-5.56539374446611
31
0.000000000000000
  0
LINE
  5
F1068A
330
F1068B
100
AcDbEntity
8
Geo
100
AcDbLine
10
-23.1876869965478
20
-5.56539374446611
30
0.000000000000000
11
-23.2876869965478
21
-5.55059789689314
31
0.000000000000000
  0
LINE
  5
F1068C
330
F1068D
100
AcDbEntity
8
Geo
100
AcDbLine
10
-23.2876869965478
20
-5.55059789689314
30
0.000000000000000
11
-23.3876869965478
21
-5.53544639632706
31
0.000000000000000
  0
LINE
  5
F1068E
330
F1068F
100
AcDbEntity
8
Geo
100
AcDbLine
10
-23.3876869965478
20
-5.53544639632706
30
0.000000000000000
11
-23.4876869965478
21
-5.51993870535675
31
0.000000000000000
  0
LINE
  5
F10690
330
F10691
100
AcDbEntity
8
Geo
100
AcDbLine
10
-23.4876869965478
20
-5.51993870535675
30
0.000000000000000
11
-23.5876869965478
21
-5.50407487893288
31
0.000000000000000
  0
LINE
  5
F10692
330
F10693
100
AcDbEntity
8
Geo
100
AcDbLine
10
-23.5876869965478
20
-5.50407487893288
30
0.000000000000000
11
-23.6876869965478
21
-5.48785533654096
31
0.000000000000000
  0
LINE
  5
F10694
330
F10695
100
AcDbEntity
8
Geo
100
AcDbLine
10
-23.6876869965478
20
-5.48785533654096
30
0.000000000000000
11
-23.7876869965478
21
-5.47128068348634
31
0.000000000000000
  0
LINE
  5
F10696
330
F10697
100
AcDbEntity
8
Geo
100
AcDbLine
10
-38.7876869965477
20
2.25521502459052
30
0.000000000000000
11
-38.6876869965477
21
2.19850118212158
31
0.000000000000000
  0
LINE
  5
F10698
330
F10699
100
AcDbEntity
8
Geo
100
AcDbLine
10
-38.6876869965477
20
2.19850118212158
30
0.000000000000000
11
-38.5876869965477
21
2.14182614778379
31
0.000000000000000
  0
LINE
  5
F1069A
330
F1069B
100
AcDbEntity
8
Geo
100
AcDbLine
10
-38.5876869965477
20
2.14182614778379
30
0.000000000000000
11
-38.4876869965477
21
2.08519225387506
31
0.000000000000000
  0
LINE
  5
F1069C
330
F1069D
100
AcDbEntity
8
Geo
100
AcDbLine
10
-38.4876869965477
20
2.08519225387506
30
0.000000000000000
11
-38.3876869965477
21
2.02860183100031
31
0.000000000000000
  0
LINE
  5
F1069E
330
F1069F
100
AcDbEntity
8
Geo
100
AcDbLine
10
-38.3876869965477
20
2.02860183100031
30
0.000000000000000
11
-38.2876869965477
21
1.97205720797555
31
0.000000000000000
  0
LINE
  5
F106A0
330
F106A1
100
AcDbEntity
8
Geo
100
AcDbLine
10
-38.2876869965477
20
1.97205720797555
30
0.000000000000000
11
-38.1876869965477
21
1.91556071173201
31
0.000000000000000
  0
LINE
  5
F106A2
330
F106A3
100
AcDbEntity
8
Geo
100
AcDbLine
10
-38.1876869965477
20
1.91556071173201
30
0.000000000000000
11
-38.0876869965477
21
1.85911466722042
31
0.000000000000000
  0
LINE
  5
F106A4
330
F106A5
100
AcDbEntity
8
Geo
100
AcDbLine
10
-38.0876869965477
20
1.85911466722042
30
0.000000000000000
11
-37.9876869965477
21
1.80272139731530
31
0.000000000000000
  0
LINE
  5
F106A6
330
F106A7
100
AcDbEntity
8
Geo
100
AcDbLine
10
-37.9876869965477
20
1.80272139731530
30
0.000000000000000
11
-37.8876869965477
21
1.74638322271938
31
0.000000000000000
  0
LINE
  5
F106A8
330
F106A9
100
AcDbEntity
8
Geo
100
AcDbLine
10
-37.8876869965477
20
1.74638322271938
30
0.000000000000000
11
-37.7876869965477
21
1.69010246186812
31
0.000000000000000
  0
LINE
  5
F106AA
330
F106AB
100
AcDbEntity
8
Geo
100
AcDbLine
10
-37.7876869965477
20
1.69010246186812
30
0.000000000000000
11
-37.6876869965477
21
1.63388143083426
31
0.000000000000000
  0
LINE
  5
F106AC
330
F106AD
100
AcDbEntity
8
Geo
100
AcDbLine
10
-37.6876869965477
20
1.63388143083426
30
0.000000000000000
11
-37.5876869965477
21
1.57772244323254
31
0.000000000000000
  0
LINE
  5
F106AE
330
F106AF
100
AcDbEntity
8
Geo
100
AcDbLine
10
-37.5876869965477
20
1.57772244323254
30
0.000000000000000
11
-37.4876869965477
21
1.52162781012450
31
0.000000000000000
  0
LINE
  5
F106B0
330
F106B1
100
AcDbEntity
8
Geo
100
AcDbLine
10
-37.4876869965477
20
1.52162781012450
30
0.000000000000000
11
-37.3876869965477
21
1.46559983992333
31
0.000000000000000
  0
LINE
  5
F106B2
330
F106B3
100
AcDbEntity
8
Geo
100
AcDbLine
10
-37.3876869965477
20
1.46559983992333
30
0.000000000000000
11
-37.2876869965477
21
1.40964083829891
31
0.000000000000000
  0
LINE
  5
F106B4
330
F106B5
100
AcDbEntity
8
Geo
100
AcDbLine
10
-37.2876869965477
20
1.40964083829891
30
0.000000000000000
11
-37.1876869965477
21
1.35375310808291
31
0.000000000000000
  0
LINE
  5
F106B6
330
F106B7
100
AcDbEntity
8
Geo
100
AcDbLine
10
-37.1876869965477
20
1.35375310808291
30
0.000000000000000
11
-37.0876869965477
21
1.29793894917404
31
0.000000000000000
  0
LINE
  5
F106B8
330
F106B9
100
AcDbEntity
8
Geo
100
AcDbLine
10
-37.0876869965477
20
1.29793894917404
30
0.000000000000000
11
-36.9876869965477
21
1.24220065844339
31
0.000000000000000
  0
LINE
  5
F106BA
330
F106BB
100
AcDbEntity
8
Geo
100
AcDbLine
10
-36.9876869965477
20
1.24220065844339
30
0.000000000000000
11
-36.8876869965477
21
1.18654052963991
31
0.000000000000000
  0
LINE
  5
F106BC
330
F106BD
100
AcDbEntity
8
Geo
100
AcDbLine
10
-36.8876869965477
20
1.18654052963991
30
0.000000000000000
11
-36.7876869965477
21
1.13096085329604
31
0.000000000000000
  0
LINE
  5
F106BE
330
F106BF
100
AcDbEntity
8
Geo
100
AcDbLine
10
-36.7876869965477
20
1.13096085329604
30
0.000000000000000
11
-36.6876869965477
21
1.07546391663340
31
0.000000000000000
  0
LINE
  5
F106C0
330
F106C1
100
AcDbEntity
8
Geo
100
AcDbLine
10
-36.6876869965477
20
1.07546391663340
30
0.000000000000000
11
-36.5876869965477
21
1.02005200346872
31
0.000000000000000
  0
LINE
  5
F106C2
330
F106C3
100
AcDbEntity
8
Geo
100
AcDbLine
10
-36.5876869965477
20
1.02005200346872
30
0.000000000000000
11
-36.4876869965477
21
0.964727394119816
31
0.000000000000000
  0
LINE
  5
F106C4
330
F106C5
100
AcDbEntity
8
Geo
100
AcDbLine
10
-36.4876869965477
20
0.964727394119816
30
0.000000000000000
11
-36.3876869965477
21
0.909492365311785
31
0.000000000000000
  0
LINE
  5
F106C6
330
F106C7
100
AcDbEntity
8
Geo
100
AcDbLine
10
-36.3876869965477
20
0.909492365311785
30
0.000000000000000
11
-36.2876869965477
21
0.854349190083281
31
0.000000000000000
  0
LINE
  5
F106C8
330
F106C9
100
AcDbEntity
8
Geo
100
AcDbLine
10
-36.2876869965477
20
0.854349190083281
30
0.000000000000000
11
-36.1876869965477
21
0.799300137692993
31
0.000000000000000
  0
LINE
  5
F106CA
330
F106CB
100
AcDbEntity
8
Geo
100
AcDbLine
10
-36.1876869965477
20
0.799300137692993
30
0.000000000000000
11
-36.0876869965477
21
0.744347473526255
31
0.000000000000000
  0
LINE
  5
F106CC
330
F106CD
100
AcDbEntity
8
Geo
100
AcDbLine
10
-36.0876869965477
20
0.744347473526255
30
0.000000000000000
11
-35.9876869965477
21
0.689493459001817
31
0.000000000000000
  0
LINE
  5
F106CE
330
F106CF
100
AcDbEntity
8
Geo
100
AcDbLine
10
-35.9876869965477
20
0.689493459001817
30
0.000000000000000
11
-35.8876869965477
21
0.634740351478796
31
0.000000000000000
  0
LINE
  5
F106D0
330
F106D1
100
AcDbEntity
8
Geo
100
AcDbLine
10
-35.8876869965477
20
0.634740351478796
30
0.000000000000000
11
-35.7876869965477
21
0.580090404163761
31
0.000000000000000
  0
LINE
  5
F106D2
330
F106D3
100
AcDbEntity
8
Geo
100
AcDbLine
10
-35.7876869965477
20
0.580090404163761
30
0.000000000000000
11
-35.6876869965477
21
0.525545866018029
31
0.000000000000000
  0
LINE
  5
F106D4
330
F106D5
100
AcDbEntity
8
Geo
100
AcDbLine
10
-35.6876869965477
20
0.525545866018029
30
0.000000000000000
11
-35.5876869965477
21
0.471108981665100
31
0.000000000000000
  0
LINE
  5
F106D6
330
F106D7
100
AcDbEntity
8
Geo
100
AcDbLine
10
-35.5876869965477
20
0.471108981665100
30
0.000000000000000
11
-35.4876869965477
21
0.416781991298294
31
0.000000000000000
  0
LINE
  5
F106D8
330
F106D9
100
AcDbEntity
8
Geo
100
AcDbLine
10
-35.4876869965477
20
0.416781991298294
30
0.000000000000000
11
-35.3876869965477
21
0.362567130588558
31
0.000000000000000
  0
LINE
  5
F106DA
330
F106DB
100
AcDbEntity
8
Geo
100
AcDbLine
10
-35.3876869965477
20
0.362567130588558
30
0.000000000000000
11
-35.2876869965477
21
0.308466630592471
31
0.000000000000000
  0
LINE
  5
F106DC
330
F106DD
100
AcDbEntity
8
Geo
100
AcDbLine
10
-35.2876869965477
20
0.308466630592471
30
0.000000000000000
11
-35.1876869965477
21
0.254482717660420
31
0.000000000000000
  0
LINE
  5
F106DE
330
F106DF
100
AcDbEntity
8
Geo
100
AcDbLine
10
-35.1876869965477
20
0.254482717660420
30
0.000000000000000
11
-35.0876869965477
21
0.200617613344990
31
0.000000000000000
  0
LINE
  5
F106E0
330
F106E1
100
AcDbEntity
8
Geo
100
AcDbLine
10
-35.0876869965477
20
0.200617613344990
30
0.000000000000000
11
-34.9876869965477
21
0.146873534309541
31
0.000000000000000
  0
LINE
  5
F106E2
330
F106E3
100
AcDbEntity
8
Geo
100
AcDbLine
10
-34.9876869965477
20
0.146873534309541
30
0.000000000000000
11
-34.8876869965477
21
0.0932526922369830
31
0.000000000000000
  0
LINE
  5
F106E4
330
F106E5
100
AcDbEntity
8
Geo
100
AcDbLine
10
-34.8876869965477
20
0.0932526922369830
30
0.000000000000000
11
-34.7876869965477
21
0.0397572937387598
31
0.000000000000000
  0
LINE
  5
F106E6
330
F106E7
100
AcDbEntity
8
Geo
100
AcDbLine
10
-34.7876869965477
20
0.0397572937387598
30
0.000000000000000
11
-34.6876869965477
21
-0.0136104597359452
31
0.000000000000000
  0
LINE
  5
F106E8
330
F106E9
100
AcDbEntity
8
Geo
100
AcDbLine
10
-34.6876869965477
20
-0.0136104597359452
30
0.000000000000000
11
-34.5876869965477
21
-0.0668483719908175
31
0.000000000000000
  0
LINE
  5
F106EA
330
F106EB
100
AcDbEntity
8
Geo
100
AcDbLine
10
-34.5876869965477
20
-0.0668483719908175
30
0.000000000000000
11
-34.4876869965477
21
-0.119954252172785
31
0.000000000000000
  0
LINE
  5
F106EC
330
F106ED
100
AcDbEntity
8
Geo
100
AcDbLine
10
-34.4876869965477
20
-0.119954252172785
30
0.000000000000000
11
-34.3876869965477
21
-0.172925914862176
31
0.000000000000000
  0
LINE
  5
F106EE
330
F106EF
100
AcDbEntity
8
Geo
100
AcDbLine
10
-34.3876869965477
20
-0.172925914862176
30
0.000000000000000
11
-34.2876869965477
21
-0.225761180162648
31
0.000000000000000
  0
LINE
  5
F106F0
330
F106F1
100
AcDbEntity
8
Geo
100
AcDbLine
10
-34.2876869965477
20
-0.225761180162648
30
0.000000000000000
11
-34.1876869965477
21
-0.278457873790905
31
0.000000000000000
  0
LINE
  5
F106F2
330
F106F3
100
AcDbEntity
8
Geo
100
AcDbLine
10
-34.1876869965477
20
-0.278457873790905
30
0.000000000000000
11
-34.0876869965477
21
-0.331013827166169
31
0.000000000000000
  0
LINE
  5
F106F4
330
F106F5
100
AcDbEntity
8
Geo
100
AcDbLine
10
-34.0876869965477
20
-0.331013827166169
30
0.000000000000000
11
-33.9876869965477
21
-0.383426877499426
31
0.000000000000000
  0
LINE
  5
F106F6
330
F106F7
100
AcDbEntity
8
Geo
100
AcDbLine
10
-33.9876869965477
20
-0.383426877499426
30
0.000000000000000
11
-33.8876869965477
21
-0.435694867882415
31
0.000000000000000
  0
LINE
  5
F106F8
330
F106F9
100
AcDbEntity
8
Geo
100
AcDbLine
10
-33.8876869965477
20
-0.435694867882415
30
0.000000000000000
11
-33.7876869965477
21
-0.487815647376410
31
0.000000000000000
  0
LINE
  5
F106FA
330
F106FB
100
AcDbEntity
8
Geo
100
AcDbLine
10
-33.7876869965477
20
-0.487815647376410
30
0.000000000000000
11
-33.6876869965477
21
-0.539787071100719
31
0.000000000000000
  0
LINE
  5
F106FC
330
F106FD
100
AcDbEntity
8
Geo
100
AcDbLine
10
-33.6876869965477
20
-0.539787071100719
30
0.000000000000000
11
-33.5876869965477
21
-0.591607000320963
31
0.000000000000000
  0
LINE
  5
F106FE
330
F106FF
100
AcDbEntity
8
Geo
100
AcDbLine
10
-33.5876869965477
20
-0.591607000320963
30
0.000000000000000
11
-33.4876869965477
21
-0.643273302537076
31
0.000000000000000
  0
LINE
  5
F10700
330
F10701
100
AcDbEntity
8
Geo
100
AcDbLine
10
-33.4876869965477
20
-0.643273302537076
30
0.000000000000000
11
-33.3876869965477
21
-0.694783851571074
31
0.000000000000000
  0
LINE
  5
F10702
330
F10703
100
AcDbEntity
8
Geo
100
AcDbLine
10
-33.3876869965477
20
-0.694783851571074
30
0.000000000000000
11
-33.2876869965477
21
-0.746136527654547
31
0.000000000000000
  0
LINE
  5
F10704
330
F10705
100
AcDbEntity
8
Geo
100
AcDbLine
10
-33.2876869965477
20
-0.746136527654547
30
0.000000000000000
11
-33.1876869965477
21
-0.797329217515891
31
0.000000000000000
  0
LINE
  5
F10706
330
F10707
100
AcDbEntity
8
Geo
100
AcDbLine
10
-33.1876869965477
20
-0.797329217515891
30
0.000000000000000
11
-33.0876869965477
21
-0.848359814467275
31
0.000000000000000
  0
LINE
  5
F10708
330
F10709
100
AcDbEntity
8
Geo
100
AcDbLine
10
-33.0876869965477
20
-0.848359814467275
30
0.000000000000000
11
-32.9876869965477
21
-0.899226218491333
31
0.000000000000000
  0
LINE
  5
F1070A
330
F1070B
100
AcDbEntity
8
Geo
100
AcDbLine
10
-32.9876869965477
20
-0.899226218491333
30
0.000000000000000
11
-32.8876869965477
21
-0.949926336327589
31
0.000000000000000
  0
LINE
  5
F1070C
330
F1070D
100
AcDbEntity
8
Geo
100
AcDbLine
10
-32.8876869965477
20
-0.949926336327589
30
0.000000000000000
11
-32.7876869965477
21
-1.00045808155860
31
0.000000000000000
  0
LINE
  5
F1070E
330
F1070F
100
AcDbEntity
8
Geo
100
AcDbLine
10
-32.7876869965477
20
-1.00045808155860
30
0.000000000000000
11
-32.6876869965477
21
-1.05081937469580
31
0.000000000000000
  0
LINE
  5
F10710
330
F10711
100
AcDbEntity
8
Geo
100
AcDbLine
10
-32.6876869965477
20
-1.05081937469580
30
0.000000000000000
11
-32.5876869965477
21
-1.10100814326510
31
0.000000000000000
  0
LINE
  5
F10712
330
F10713
100
AcDbEntity
8
Geo
100
AcDbLine
10
-32.5876869965477
20
-1.10100814326510
30
0.000000000000000
11
-32.4876869965477
21
-1.15102232189217
31
0.000000000000000
  0
LINE
  5
F10714
330
F10715
100
AcDbEntity
8
Geo
100
AcDbLine
10
-32.4876869965477
20
-1.15102232189217
30
0.000000000000000
11
-32.3876869965477
21
-1.20085985238740
31
0.000000000000000
  0
LINE
  5
F10716
330
F10717
100
AcDbEntity
8
Geo
100
AcDbLine
10
-32.3876869965477
20
-1.20085985238740
30
0.000000000000000
11
-32.2876869965477
21
-1.25051868383066
31
0.000000000000000
  0
LINE
  5
F10718
330
F10719
100
AcDbEntity
8
Geo
100
AcDbLine
10
-32.2876869965477
20
-1.25051868383066
30
0.000000000000000
11
-32.1876869965477
21
-1.29999677265564
31
0.000000000000000
  0
LINE
  5
F1071A
330
F1071B
100
AcDbEntity
8
Geo
100
AcDbLine
10
-32.1876869965477
20
-1.29999677265564
30
0.000000000000000
11
-32.0876869965477
21
-1.34929208273397
31
0.000000000000000
  0
LINE
  5
F1071C
330
F1071D
100
AcDbEntity
8
Geo
100
AcDbLine
10
-32.0876869965477
20
-1.34929208273397
30
0.000000000000000
11
-31.9876869965477
21
-1.39840258545904
31
0.000000000000000
  0
LINE
  5
F1071E
330
F1071F
100
AcDbEntity
8
Geo
100
AcDbLine
10
-31.9876869965477
20
-1.39840258545904
30
0.000000000000000
11
-31.8876869965477
21
-1.44732625982943
31
0.000000000000000
  0
LINE
  5
F10720
330
F10721
100
AcDbEntity
8
Geo
100
AcDbLine
10
-31.8876869965477
20
-1.44732625982943
30
0.000000000000000
11
-31.7876869965477
21
-1.49606109253211
31
0.000000000000000
  0
LINE
  5
F10722
330
F10723
100
AcDbEntity
8
Geo
100
AcDbLine
10
-31.7876869965477
20
-1.49606109253211
30
0.000000000000000
11
-31.6876869965477
21
-1.54460507802529
31
0.000000000000000
  0
LINE
  5
F10724
330
F10725
100
AcDbEntity
8
Geo
100
AcDbLine
10
-31.6876869965477
20
-1.54460507802529
30
0.000000000000000
11
-31.5876869965477
21
-1.59295621862095
31
0.000000000000000
  0
LINE
  5
F10726
330
F10727
100
AcDbEntity
8
Geo
100
AcDbLine
10
-31.5876869965477
20
-1.59295621862095
30
0.000000000000000
11
-31.4876869965477
21
-1.64111252456703
31
0.000000000000000
  0
LINE
  5
F10728
330
F10729
100
AcDbEntity
8
Geo
100
AcDbLine
10
-31.4876869965477
20
-1.64111252456703
30
0.000000000000000
11
-31.3876869965477
21
-1.68907201412935
31
0.000000000000000
  0
LINE
  5
F1072A
330
F1072B
100
AcDbEntity
8
Geo
100
AcDbLine
10
-31.3876869965477
20
-1.68907201412935
30
0.000000000000000
11
-31.2876869965477
21
-1.73683271367312
31
0.000000000000000
  0
LINE
  5
F1072C
330
F1072D
100
AcDbEntity
8
Geo
100
AcDbLine
10
-31.2876869965477
20
-1.73683271367312
30
0.000000000000000
11
-31.1876869965477
21
-1.78439265774421
31
0.000000000000000
  0
LINE
  5
F1072E
330
F1072F
100
AcDbEntity
8
Geo
100
AcDbLine
10
-31.1876869965477
20
-1.78439265774421
30
0.000000000000000
11
-31.0876869965477
21
-1.83174988914998
31
0.000000000000000
  0
LINE
  5
F10730
330
F10731
100
AcDbEntity
8
Geo
100
AcDbLine
10
-31.0876869965477
20
-1.83174988914998
30
0.000000000000000
11
-30.9876869965477
21
-1.87890245903984
31
0.000000000000000
  0
LINE
  5
F10732
330
F10733
100
AcDbEntity
8
Geo
100
AcDbLine
10
-30.9876869965477
20
-1.87890245903984
30
0.000000000000000
11
-30.8876869965477
21
-1.92584842698550
31
0.000000000000000
  0
LINE
  5
F10734
330
F10735
100
AcDbEntity
8
Geo
100
AcDbLine
10
-30.8876869965477
20
-1.92584842698550
30
0.000000000000000
11
-30.7876869965477
21
-1.97258586106072
31
0.000000000000000
  0
LINE
  5
F10736
330
F10737
100
AcDbEntity
8
Geo
100
AcDbLine
10
-30.7876869965477
20
-1.97258586106072
30
0.000000000000000
11
-30.6876869965477
21
-2.01911283792091
31
0.000000000000000
  0
LINE
  5
F10738
330
F10739
100
AcDbEntity
8
Geo
100
AcDbLine
10
-30.6876869965477
20
-2.01911283792091
30
0.000000000000000
11
-30.5876869965477
21
-2.06542744288224
31
0.000000000000000
  0
LINE
  5
F1073A
330
F1073B
100
AcDbEntity
8
Geo
100
AcDbLine
10
-30.5876869965477
20
-2.06542744288224
30
0.000000000000000
11
-30.4876869965477
21
-2.11152777000041
31
0.000000000000000
  0
LINE
  5
F1073C
330
F1073D
100
AcDbEntity
8
Geo
100
AcDbLine
10
-30.4876869965477
20
-2.11152777000041
30
0.000000000000000
11
-30.3876869965477
21
-2.15741192214912
31
0.000000000000000
  0
LINE
  5
F1073E
330
F1073F
100
AcDbEntity
8
Geo
100
AcDbLine
10
-30.3876869965477
20
-2.15741192214912
30
0.000000000000000
11
-30.2876869965477
21
-2.20307801109815
31
0.000000000000000
  0
LINE
  5
F10740
330
F10741
100
AcDbEntity
8
Geo
100
AcDbLine
10
-30.2876869965477
20
-2.20307801109815
30
0.000000000000000
11
-30.1876869965477
21
-2.24852415759101
31
0.000000000000000
  0
LINE
  5
F10742
330
F10743
100
AcDbEntity
8
Geo
100
AcDbLine
10
-30.1876869965477
20
-2.24852415759101
30
0.000000000000000
11
-30.0876869965477
21
-2.29374849142233
31
0.000000000000000
  0
LINE
  5
F10744
330
F10745
100
AcDbEntity
8
Geo
100
AcDbLine
10
-30.0876869965477
20
-2.29374849142233
30
0.000000000000000
11
-29.9876869965478
21
-2.33874915151479
31
0.000000000000000
  0
LINE
  5
F10746
330
F10747
100
AcDbEntity
8
Geo
100
AcDbLine
10
-29.9876869965478
20
-2.33874915151479
30
0.000000000000000
11
-29.8876869965477
21
-2.38352428599573
31
0.000000000000000
  0
LINE
  5
F10748
330
F10749
100
AcDbEntity
8
Geo
100
AcDbLine
10
-29.8876869965477
20
-2.38352428599573
30
0.000000000000000
11
-29.7876869965477
21
-2.42807205227335
31
0.000000000000000
  0
LINE
  5
F1074A
330
F1074B
100
AcDbEntity
8
Geo
100
AcDbLine
10
-29.7876869965477
20
-2.42807205227335
30
0.000000000000000
11
-29.6876869965478
21
-2.47239061711250
31
0.000000000000000
  0
LINE
  5
F1074C
330
F1074D
100
AcDbEntity
8
Geo
100
AcDbLine
10
-29.6876869965478
20
-2.47239061711250
30
0.000000000000000
11
-29.5876869965478
21
-2.51647815671021
31
0.000000000000000
  0
LINE
  5
F1074E
330
F1074F
100
AcDbEntity
8
Geo
100
AcDbLine
10
-29.5876869965478
20
-2.51647815671021
30
0.000000000000000
11
-29.4876869965478
21
-2.56033285677065
31
0.000000000000000
  0
LINE
  5
F10750
330
F10751
100
AcDbEntity
8
Geo
100
AcDbLine
10
-29.4876869965478
20
-2.56033285677065
30
0.000000000000000
11
-29.3876869965477
21
-2.60395291257983
31
0.000000000000000
  0
LINE
  5
F10752
330
F10753
100
AcDbEntity
8
Geo
100
AcDbLine
10
-29.3876869965477
20
-2.60395291257983
30
0.000000000000000
11
-29.2876869965478
21
-2.64733652907991
31
0.000000000000000
  0
LINE
  5
F10754
330
F10755
100
AcDbEntity
8
Geo
100
AcDbLine
10
-29.2876869965478
20
-2.64733652907991
30
0.000000000000000
11
-29.1876869965478
21
-2.69048192094297
31
0.000000000000000
  0
LINE
  5
F10756
330
F10757
100
AcDbEntity
8
Geo
100
AcDbLine
10
-29.1876869965478
20
-2.69048192094297
30
0.000000000000000
11
-29.0876869965478
21
-2.73338731264458
31
0.000000000000000
  0
LINE
  5
F10758
330
F10759
100
AcDbEntity
8
Geo
100
AcDbLine
10
-29.0876869965478
20
-2.73338731264458
30
0.000000000000000
11
-28.9876869965478
21
-2.77605093853682
31
0.000000000000000
  0
LINE
  5
F1075A
330
F1075B
100
AcDbEntity
8
Geo
100
AcDbLine
10
-28.9876869965478
20
-2.77605093853682
30
0.000000000000000
11
-28.8876869965478
21
-2.81847104292094
31
0.000000000000000
  0
LINE
  5
F1075C
330
F1075D
100
AcDbEntity
8
Geo
100
AcDbLine
10
-28.8876869965478
20
-2.81847104292094
30
0.000000000000000
11
-28.7876869965478
21
-2.86064588011962
31
0.000000000000000
  0
LINE
  5
F1075E
330
F1075F
100
AcDbEntity
8
Geo
100
AcDbLine
10
-28.7876869965478
20
-2.86064588011962
30
0.000000000000000
11
-28.6876869965478
21
-2.90257371454880
31
0.000000000000000
  0
LINE
  5
F10760
330
F10761
100
AcDbEntity
8
Geo
100
AcDbLine
10
-28.6876869965478
20
-2.90257371454880
30
0.000000000000000
11
-28.5876869965478
21
-2.94425282078911
31
0.000000000000000
  0
LINE
  5
F10762
330
F10763
100
AcDbEntity
8
Geo
100
AcDbLine
10
-28.5876869965478
20
-2.94425282078911
30
0.000000000000000
11
-28.4876869965478
21
-2.98568148365688
31
0.000000000000000
  0
LINE
  5
F10764
330
F10765
100
AcDbEntity
8
Geo
100
AcDbLine
10
-28.4876869965478
20
-2.98568148365688
30
0.000000000000000
11
-28.3876869965478
21
-3.02685799827472
31
0.000000000000000
  0
LINE
  5
F10766
330
F10767
100
AcDbEntity
8
Geo
100
AcDbLine
10
-28.3876869965478
20
-3.02685799827472
30
0.000000000000000
11
-28.2876869965478
21
-3.06778067014164
31
0.000000000000000
  0
LINE
  5
F10768
330
F10769
100
AcDbEntity
8
Geo
100
AcDbLine
10
-28.2876869965478
20
-3.06778067014164
30
0.000000000000000
11
-28.1876869965478
21
-3.10844781520287
31
0.000000000000000
  0
LINE
  5
F1076A
330
F1076B
100
AcDbEntity
8
Geo
100
AcDbLine
10
-28.1876869965478
20
-3.10844781520287
30
0.000000000000000
11
-28.0876869965478
21
-3.14885775991907
31
0.000000000000000
  0
LINE
  5
F1076C
330
F1076D
100
AcDbEntity
8
Geo
100
AcDbLine
10
-28.0876869965478
20
-3.14885775991907
30
0.000000000000000
11
-27.9876869965478
21
-3.18900884133526
31
0.000000000000000
  0
LINE
  5
F1076E
330
F1076F
100
AcDbEntity
8
Geo
100
AcDbLine
10
-27.9876869965478
20
-3.18900884133526
30
0.000000000000000
11
-27.8876869965478
21
-3.22889940714923
31
0.000000000000000
  0
LINE
  5
F10770
330
F10771
100
AcDbEntity
8
Geo
100
AcDbLine
10
-27.8876869965478
20
-3.22889940714923
30
0.000000000000000
11
-27.7876869965478
21
-3.26852781577954
31
0.000000000000000
  0
LINE
  5
F10772
330
F10773
100
AcDbEntity
8
Geo
100
AcDbLine
10
-27.7876869965478
20
-3.26852781577954
30
0.000000000000000
11
-27.6876869965478
21
-3.30789243643308
31
0.000000000000000
  0
LINE
  5
F10774
330
F10775
100
AcDbEntity
8
Geo
100
AcDbLine
10
-27.6876869965478
20
-3.30789243643308
30
0.000000000000000
11
-27.5876869965478
21
-3.34699164917215
31
0.000000000000000
  0
LINE
  5
F10776
330
F10777
100
AcDbEntity
8
Geo
100
AcDbLine
10
-27.5876869965478
20
-3.34699164917215
30
0.000000000000000
11
-27.4876869965478
21
-3.38582384498118
31
0.000000000000000
  0
LINE
  5
F10778
330
F10779
100
AcDbEntity
8
Geo
100
AcDbLine
10
-27.4876869965478
20
-3.38582384498118
30
0.000000000000000
11
-27.3876869965478
21
-3.42438742583290
31
0.000000000000000
  0
LINE
  5
F1077A
330
F1077B
100
AcDbEntity
8
Geo
100
AcDbLine
10
-27.3876869965478
20
-3.42438742583290
30
0.000000000000000
11
-27.2876869965478
21
-3.46268080475412
31
0.000000000000000
  0
LINE
  5
F1077C
330
F1077D
100
AcDbEntity
8
Geo
100
AcDbLine
10
-27.2876869965478
20
-3.46268080475412
30
0.000000000000000
11
-27.1876869965478
21
-3.50070240589102
31
0.000000000000000
  0
LINE
  5
F1077E
330
F1077F
100
AcDbEntity
8
Geo
100
AcDbLine
10
-27.1876869965478
20
-3.50070240589102
30
0.000000000000000
11
-27.0876869965478
21
-3.53845066457402
31
0.000000000000000
  0
LINE
  5
F10780
330
F10781
100
AcDbEntity
8
Geo
100
AcDbLine
10
-27.0876869965478
20
-3.53845066457402
30
0.000000000000000
11
-26.9876869965478
21
-3.57592402738218
31
0.000000000000000
  0
LINE
  5
F10782
330
F10783
100
AcDbEntity
8
Geo
100
AcDbLine
10
-26.9876869965478
20
-3.57592402738218
30
0.000000000000000
11
-26.8876869965478
21
-3.61312095220708
31
0.000000000000000
  0
LINE
  5
F10784
330
F10785
100
AcDbEntity
8
Geo
100
AcDbLine
10
-26.8876869965478
20
-3.61312095220708
30
0.000000000000000
11
-26.7876869965478
21
-3.65003990831633
31
0.000000000000000
  0
LINE
  5
F10786
330
F10787
100
AcDbEntity
8
Geo
100
AcDbLine
10
-26.7876869965478
20
-3.65003990831633
30
0.000000000000000
11
-26.6876869965478
21
-3.68667937641652
31
0.000000000000000
  0
LINE
  5
F10788
330
F10789
100
AcDbEntity
8
Geo
100
AcDbLine
10
-26.6876869965478
20
-3.68667937641652
30
0.000000000000000
11
-26.5876869965478
21
-3.72303784871580
31
0.000000000000000
  0
LINE
  5
F1078A
330
F1078B
100
AcDbEntity
8
Geo
100
AcDbLine
10
-26.5876869965478
20
-3.72303784871580
30
0.000000000000000
11
-26.4876869965478
21
-3.75911382898586
31
0.000000000000000
  0
LINE
  5
F1078C
330
F1078D
100
AcDbEntity
8
Geo
100
AcDbLine
10
-26.4876869965478
20
-3.75911382898586
30
0.000000000000000
11
-26.3876869965478
21
-3.79490583262356
31
0.000000000000000
  0
LINE
  5
F1078E
330
F1078F
100
AcDbEntity
8
Geo
100
AcDbLine
10
-26.3876869965478
20
-3.79490583262356
30
0.000000000000000
11
-26.2876869965478
21
-3.83041238671198
31
0.000000000000000
  0
LINE
  5
F10790
330
F10791
100
AcDbEntity
8
Geo
100
AcDbLine
10
-26.2876869965478
20
-3.83041238671198
30
0.000000000000000
11
-26.1876869965478
21
-3.86563203008106
31
0.000000000000000
  0
LINE
  5
F10792
330
F10793
100
AcDbEntity
8
Geo
100
AcDbLine
10
-26.1876869965478
20
-3.86563203008106
30
0.000000000000000
11
-26.0876869965478
21
-3.90056331336775
31
0.000000000000000
  0
LINE
  5
F10794
330
F10795
100
AcDbEntity
8
Geo
100
AcDbLine
10
-26.0876869965478
20
-3.90056331336775
30
0.000000000000000
11
-25.9876869965478
21
-3.93520479907559
31
0.000000000000000
  0
LINE
  5
F10796
330
F10797
100
AcDbEntity
8
Geo
100
AcDbLine
10
-25.9876869965478
20
-3.93520479907559
30
0.000000000000000
11
-25.8876869965478
21
-3.96955506163394
31
0.000000000000000
  0
LINE
  5
F10798
330
F10799
100
AcDbEntity
8
Geo
100
AcDbLine
10
-25.8876869965478
20
-3.96955506163394
30
0.000000000000000
11
-25.7876869965478
21
-4.00361268745660
31
0.000000000000000
  0
LINE
  5
F1079A
330
F1079B
100
AcDbEntity
8
Geo
100
AcDbLine
10
-25.7876869965478
20
-4.00361268745660
30
0.000000000000000
11
-25.6876869965478
21
-4.03737627499997
31
0.000000000000000
  0
LINE
  5
F1079C
330
F1079D
100
AcDbEntity
8
Geo
100
AcDbLine
10
-25.6876869965478
20
-4.03737627499997
30
0.000000000000000
11
-25.5876869965478
21
-4.07084443482077
31
0.000000000000000
  0
LINE
  5
F1079E
330
F1079F
100
AcDbEntity
8
Geo
100
AcDbLine
10
-25.5876869965478
20
-4.07084443482077
30
0.000000000000000
11
-25.4876869965478
21
-4.10401578963322
31
0.000000000000000
  0
LINE
  5
F107A0
330
F107A1
100
AcDbEntity
8
Geo
100
AcDbLine
10
-25.4876869965478
20
-4.10401578963322
30
0.000000000000000
11
-25.3876869965478
21
-4.13688897436564
31
0.000000000000000
  0
LINE
  5
F107A2
330
F107A3
100
AcDbEntity
8
Geo
100
AcDbLine
10
-25.3876869965478
20
-4.13688897436564
30
0.000000000000000
11
-25.2876869965478
21
-4.16946263621673
31
0.000000000000000
  0
LINE
  5
F107A4
330
F107A5
100
AcDbEntity
8
Geo
100
AcDbLine
10
-25.2876869965478
20
-4.16946263621673
30
0.000000000000000
11
-25.1876869965478
21
-4.20173543471118
31
0.000000000000000
  0
LINE
  5
F107A6
330
F107A7
100
AcDbEntity
8
Geo
100
AcDbLine
10
-25.1876869965478
20
-4.20173543471118
30
0.000000000000000
11
-25.0876869965478
21
-4.23370604175483
31
0.000000000000000
  0
LINE
  5
F107A8
330
F107A9
100
AcDbEntity
8
Geo
100
AcDbLine
10
-25.0876869965478
20
-4.23370604175483
30
0.000000000000000
11
-24.9876869965478
21
-4.26537314168935
31
0.000000000000000
  0
LINE
  5
F107AA
330
F107AB
100
AcDbEntity
8
Geo
100
AcDbLine
10
-24.9876869965478
20
-4.26537314168935
30
0.000000000000000
11
-24.8876869965478
21
-4.29673543134639
31
0.000000000000000
  0
LINE
  5
F107AC
330
F107AD
100
AcDbEntity
8
Geo
100
AcDbLine
10
-24.8876869965478
20
-4.29673543134639
30
0.000000000000000
11
-24.7876869965478
21
-4.32779162010115
31
0.000000000000000
  0
LINE
  5
F107AE
330
F107AF
100
AcDbEntity
8
Geo
100
AcDbLine
10
-24.7876869965478
20
-4.32779162010115
30
0.000000000000000
11
-24.6876869965478
21
-4.35854042992556
31
0.000000000000000
  0
LINE
  5
F107B0
330
F107B1
100
AcDbEntity
8
Geo
100
AcDbLine
10
-24.6876869965478
20
-4.35854042992556
30
0.000000000000000
11
-24.5876869965478
21
-4.38898059544085
31
0.000000000000000
  0
LINE
  5
F107B2
330
F107B3
100
AcDbEntity
8
Geo
100
AcDbLine
10
-24.5876869965478
20
-4.38898059544085
30
0.000000000000000
11
-24.4876869965478
21
-4.41911086396959
31
0.000000000000000
  0
LINE
  5
F107B4
330
F107B5
100
AcDbEntity
8
Geo
100
AcDbLine
10
-24.4876869965478
20
-4.41911086396959
30
0.000000000000000
11
-24.3876869965478
21
-4.44892999558730
31
0.000000000000000
  0
LINE
  5
F107B6
330
F107B7
100
AcDbEntity
8
Geo
100
AcDbLine
10
-24.3876869965478
20
-4.44892999558730
30
0.000000000000000
11
-24.2876869965478
21
-4.47843676317343
31
0.000000000000000
  0
LINE
  5
F107B8
330
F107B9
100
AcDbEntity
8
Geo
100
AcDbLine
10
-24.2876869965478
20
-4.47843676317343
30
0.000000000000000
11
-24.1876869965478
21
-4.50762995246186
31
0.000000000000000
  0
LINE
  5
F107BA
330
F107BB
100
AcDbEntity
8
Geo
100
AcDbLine
10
-24.1876869965478
20
-4.50762995246186
30
0.000000000000000
11
-24.0876869965478
21
-4.53650836209091
31
0.000000000000000
  0
LINE
  5
F107BC
330
F107BD
100
AcDbEntity
8
Geo
100
AcDbLine
10
-24.0876869965478
20
-4.53650836209091
30
0.000000000000000
11
-23.9876869965478
21
-4.56507080365273
31
0.000000000000000
  0
LINE
  5
F107BE
330
F107BF
100
AcDbEntity
8
Geo
100
AcDbLine
10
-23.9876869965478
20
-4.56507080365273
30
0.000000000000000
11
-23.8876869965478
21
-4.59331610174224
31
0.000000000000000
  0
LINE
  5
F107C0
330
F107C1
100
AcDbEntity
8
Geo
100
AcDbLine
10
-23.8876869965478
20
-4.59331610174224
30
0.000000000000000
11
-23.7876869965478
21
-4.62124309400546
31
0.000000000000000
  0
LINE
  5
F107C2
330
F107C3
100
AcDbEntity
8
Geo
100
AcDbLine
10
-38.7876869965477
20
11.9852586424013
30
0.000000000000000
11
-38.6876869965477
21
11.9793909223312
31
0.000000000000000
  0
LINE
  5
F107C4
330
F107C5
100
AcDbEntity
8
Geo
100
AcDbLine
10
-38.6876869965477
20
11.9793909223312
30
0.000000000000000
11
-38.5876869965477
21
11.9731595060220
31
0.000000000000000
  0
LINE
  5
F107C6
330
F107C7
100
AcDbEntity
8
Geo
100
AcDbLine
10
-38.5876869965477
20
11.9731595060220
30
0.000000000000000
11
-38.4876869965477
21
11.9665646499096
31
0.000000000000000
  0
LINE
  5
F107C8
330
F107C9
100
AcDbEntity
8
Geo
100
AcDbLine
10
-38.4876869965477
20
11.9665646499096
30
0.000000000000000
11
-38.3876869965477
21
11.9596066253863
31
0.000000000000000
  0
LINE
  5
F107CA
330
F107CB
100
AcDbEntity
8
Geo
100
AcDbLine
10
-38.3876869965477
20
11.9596066253863
30
0.000000000000000
11
-38.2876869965477
21
11.9522857187897
31
0.000000000000000
  0
LINE
  5
F107CC
330
F107CD
100
AcDbEntity
8
Geo
100
AcDbLine
10
-38.2876869965477
20
11.9522857187897
30
0.000000000000000
11
-38.1876869965477
21
11.9446022313906
31
0.000000000000000
  0
LINE
  5
F107CE
330
F107CF
100
AcDbEntity
8
Geo
100
AcDbLine
10
-38.1876869965477
20
11.9446022313906
30
0.000000000000000
11
-38.0876869965477
21
11.9365564793807
31
0.000000000000000
  0
LINE
  5
F107D0
330
F107D1
100
AcDbEntity
8
Geo
100
AcDbLine
10
-38.0876869965477
20
11.9365564793807
30
0.000000000000000
11
-37.9876869965477
21
11.9281487938599
31
0.000000000000000
  0
LINE
  5
F107D2
330
F107D3
100
AcDbEntity
8
Geo
100
AcDbLine
10
-37.9876869965477
20
11.9281487938599
30
0.000000000000000
11
-37.8876869965477
21
11.9193795208223
31
0.000000000000000
  0
LINE
  5
F107D4
330
F107D5
100
AcDbEntity
8
Geo
100
AcDbLine
10
-37.8876869965477
20
11.9193795208223
30
0.000000000000000
11
-37.7876869965477
21
11.9102490211420
31
0.000000000000000
  0
LINE
  5
F107D6
330
F107D7
100
AcDbEntity
8
Geo
100
AcDbLine
10
-37.7876869965477
20
11.9102490211420
30
0.000000000000000
11
-37.6876869965477
21
11.9007576705585
31
0.000000000000000
  0
LINE
  5
F107D8
330
F107D9
100
AcDbEntity
8
Geo
100
AcDbLine
10
-37.6876869965477
20
11.9007576705585
30
0.000000000000000
11
-37.5876869965477
21
11.8909058596610
31
0.000000000000000
  0
LINE
  5
F107DA
330
F107DB
100
AcDbEntity
8
Geo
100
AcDbLine
10
-37.5876869965477
20
11.8909058596610
30
0.000000000000000
11
-37.4876869965477
21
11.8806939938725
31
0.000000000000000
  0
LINE
  5
F107DC
330
F107DD
100
AcDbEntity
8
Geo
100
AcDbLine
10
-37.4876869965477
20
11.8806939938725
30
0.000000000000000
11
-37.3876869965477
21
11.8701224934329
31
0.000000000000000
  0
LINE
  5
F107DE
330
F107DF
100
AcDbEntity
8
Geo
100
AcDbLine
10
-37.3876869965477
20
11.8701224934329
30
0.000000000000000
11
-37.2876869965477
21
11.8591917933818
31
0.000000000000000
  0
LINE
  5
F107E0
330
F107E1
100
AcDbEntity
8
Geo
100
AcDbLine
10
-37.2876869965477
20
11.8591917933818
30
0.000000000000000
11
-37.1876869965477
21
11.8479023435408
31
0.000000000000000
  0
LINE
  5
F107E2
330
F107E3
100
AcDbEntity
8
Geo
100
AcDbLine
10
-37.1876869965477
20
11.8479023435408
30
0.000000000000000
11
-37.0876869965477
21
11.8362546084947
31
0.000000000000000
  0
LINE
  5
F107E4
330
F107E5
100
AcDbEntity
8
Geo
100
AcDbLine
10
-37.0876869965477
20
11.8362546084947
30
0.000000000000000
11
-36.9876869965477
21
11.8242490675725
31
0.000000000000000
  0
LINE
  5
F107E6
330
F107E7
100
AcDbEntity
8
Geo
100
AcDbLine
10
-36.9876869965477
20
11.8242490675725
30
0.000000000000000
11
-36.8876869965477
21
11.8118862148277
31
0.000000000000000
  0
LINE
  5
F107E8
330
F107E9
100
AcDbEntity
8
Geo
100
AcDbLine
10
-36.8876869965477
20
11.8118862148277
30
0.000000000000000
11
-36.7876869965477
21
11.7991665590180
31
0.000000000000000
  0
LINE
  5
F107EA
330
F107EB
100
AcDbEntity
8
Geo
100
AcDbLine
10
-36.7876869965477
20
11.7991665590180
30
0.000000000000000
11
-36.6876869965477
21
11.7860906235840
31
0.000000000000000
  0
LINE
  5
F107EC
330
F107ED
100
AcDbEntity
8
Geo
100
AcDbLine
10
-36.6876869965477
20
11.7860906235840
30
0.000000000000000
11
-36.5876869965477
21
11.7726589466285
31
0.000000000000000
  0
LINE
  5
F107EE
330
F107EF
100
AcDbEntity
8
Geo
100
AcDbLine
10
-36.5876869965477
20
11.7726589466285
30
0.000000000000000
11
-36.4876869965477
21
11.7588720808933
31
0.000000000000000
  0
LINE
  5
F107F0
330
F107F1
100
AcDbEntity
8
Geo
100
AcDbLine
10
-36.4876869965477
20
11.7588720808933
30
0.000000000000000
11
-36.3876869965477
21
11.7447305937372
31
0.000000000000000
  0
LINE
  5
F107F2
330
F107F3
100
AcDbEntity
8
Geo
100
AcDbLine
10
-36.3876869965477
20
11.7447305937372
30
0.000000000000000
11
-36.2876869965477
21
11.7302350671125
31
0.000000000000000
  0
LINE
  5
F107F4
330
F107F5
100
AcDbEntity
8
Geo
100
AcDbLine
10
-36.2876869965477
20
11.7302350671125
30
0.000000000000000
11
-36.1876869965477
21
11.7153860975409
31
0.000000000000000
  0
LINE
  5
F107F6
330
F107F7
100
AcDbEntity
8
Geo
100
AcDbLine
10
-36.1876869965477
20
11.7153860975409
30
0.000000000000000
11
-36.0876869965477
21
11.7001842960889
31
0.000000000000000
  0
LINE
  5
F107F8
330
F107F9
100
AcDbEntity
8
Geo
100
AcDbLine
10
-36.0876869965477
20
11.7001842960889
30
0.000000000000000
11
-35.9876869965477
21
11.6846302883429
31
0.000000000000000
  0
LINE
  5
F107FA
330
F107FB
100
AcDbEntity
8
Geo
100
AcDbLine
10
-35.9876869965477
20
11.6846302883429
30
0.000000000000000
11
-35.8876869965477
21
11.6687247143834
31
0.000000000000000
  0
LINE
  5
F107FC
330
F107FD
100
AcDbEntity
8
Geo
100
AcDbLine
10
-35.8876869965477
20
11.6687247143834
30
0.000000000000000
11
-35.7876869965477
21
11.6524682287585
31
0.000000000000000
  0
LINE
  5
F107FE
330
F107FF
100
AcDbEntity
8
Geo
100
AcDbLine
10
-35.7876869965477
20
11.6524682287585
30
0.000000000000000
11
-35.6876869965477
21
11.6358615004571
31
0.000000000000000
  0
LINE
  5
F10800
330
F10801
100
AcDbEntity
8
Geo
100
AcDbLine
10
-35.6876869965477
20
11.6358615004571
30
0.000000000000000
11
-35.5876869965477
21
11.6189052128812
31
0.000000000000000
  0
LINE
  5
F10802
330
F10803
100
AcDbEntity
8
Geo
100
AcDbLine
10
-35.5876869965477
20
11.6189052128812
30
0.000000000000000
11
-35.4876869965477
21
11.6016000638182
31
0.000000000000000
  0
LINE
  5
F10804
330
F10805
100
AcDbEntity
8
Geo
100
AcDbLine
10
-35.4876869965477
20
11.6016000638182
30
0.000000000000000
11
-35.3876869965477
21
11.5839467654116
31
0.000000000000000
  0
LINE
  5
F10806
330
F10807
100
AcDbEntity
8
Geo
100
AcDbLine
10
-35.3876869965477
20
11.5839467654116
30
0.000000000000000
11
-35.2876869965477
21
11.5659460441321
31
0.000000000000000
  0
LINE
  5
F10808
330
F10809
100
AcDbEntity
8
Geo
100
AcDbLine
10
-35.2876869965477
20
11.5659460441321
30
0.000000000000000
11
-35.1876869965477
21
11.5475986407476
31
0.000000000000000
  0
LINE
  5
F1080A
330
F1080B
100
AcDbEntity
8
Geo
100
AcDbLine
10
-35.1876869965477
20
11.5475986407476
30
0.000000000000000
11
-35.0876869965477
21
11.5289053102927
31
0.000000000000000
  0
LINE
  5
F1080C
330
F1080D
100
AcDbEntity
8
Geo
100
AcDbLine
10
-35.0876869965477
20
11.5289053102927
30
0.000000000000000
11
-34.9876869965477
21
11.5098668220376
31
0.000000000000000
  0
LINE
  5
F1080E
330
F1080F
100
AcDbEntity
8
Geo
100
AcDbLine
10
-34.9876869965477
20
11.5098668220376
30
0.000000000000000
11
-34.8876869965477
21
11.4904839594565
31
0.000000000000000
  0
LINE
  5
F10810
330
F10811
100
AcDbEntity
8
Geo
100
AcDbLine
10
-34.8876869965477
20
11.4904839594565
30
0.000000000000000
11
-34.7876869965477
21
11.4707575201953
31
0.000000000000000
  0
LINE
  5
F10812
330
F10813
100
AcDbEntity
8
Geo
100
AcDbLine
10
-34.7876869965477
20
11.4707575201953
30
0.000000000000000
11
-34.6876869965477
21
11.4506883160389
31
0.000000000000000
  0
LINE
  5
F10814
330
F10815
100
AcDbEntity
8
Geo
100
AcDbLine
10
-34.6876869965477
20
11.4506883160389
30
0.000000000000000
11
-34.5876869965477
21
11.4302771728775
31
0.000000000000000
  0
LINE
  5
F10816
330
F10817
100
AcDbEntity
8
Geo
100
AcDbLine
10
-34.5876869965477
20
11.4302771728775
30
0.000000000000000
11
-34.4876869965477
21
11.4095249306732
31
0.000000000000000
  0
LINE
  5
F10818
330
F10819
100
AcDbEntity
8
Geo
100
AcDbLine
10
-34.4876869965477
20
11.4095249306732
30
0.000000000000000
11
-34.3876869965477
21
11.3884324434247
31
0.000000000000000
  0
LINE
  5
F1081A
330
F1081B
100
AcDbEntity
8
Geo
100
AcDbLine
10
-34.3876869965477
20
11.3884324434247
30
0.000000000000000
11
-34.2876869965477
21
11.3670005791325
31
0.000000000000000
  0
LINE
  5
F1081C
330
F1081D
100
AcDbEntity
8
Geo
100
AcDbLine
10
-34.2876869965477
20
11.3670005791325
30
0.000000000000000
11
-34.1876869965477
21
11.3452302197634
31
0.000000000000000
  0
LINE
  5
F1081E
330
F1081F
100
AcDbEntity
8
Geo
100
AcDbLine
10
-34.1876869965477
20
11.3452302197634
30
0.000000000000000
11
-34.0876869965477
21
11.3231222612140
31
0.000000000000000
  0
LINE
  5
F10820
330
F10821
100
AcDbEntity
8
Geo
100
AcDbLine
10
-34.0876869965477
20
11.3231222612140
30
0.000000000000000
11
-33.9876869965477
21
11.3006776132735
31
0.000000000000000
  0
LINE
  5
F10822
330
F10823
100
AcDbEntity
8
Geo
100
AcDbLine
10
-33.9876869965477
20
11.3006776132735
30
0.000000000000000
11
-33.8876869965477
21
11.2778971995869
31
0.000000000000000
  0
LINE
  5
F10824
330
F10825
100
AcDbEntity
8
Geo
100
AcDbLine
10
-33.8876869965477
20
11.2778971995869
30
0.000000000000000
11
-33.7876869965477
21
11.2547819576165
31
0.000000000000000
  0
LINE
  5
F10826
330
F10827
100
AcDbEntity
8
Geo
100
AcDbLine
10
-33.7876869965477
20
11.2547819576165
30
0.000000000000000
11
-33.6876869965477
21
11.2313328386037
31
0.000000000000000
  0
LINE
  5
F10828
330
F10829
100
AcDbEntity
8
Geo
100
AcDbLine
10
-33.6876869965477
20
11.2313328386037
30
0.000000000000000
11
-33.5876869965477
21
11.2075508075295
31
0.000000000000000
  0
LINE
  5
F1082A
330
F1082B
100
AcDbEntity
8
Geo
100
AcDbLine
10
-33.5876869965477
20
11.2075508075295
30
0.000000000000000
11
-33.4876869965477
21
11.1834368430748
31
0.000000000000000
  0
LINE
  5
F1082C
330
F1082D
100
AcDbEntity
8
Geo
100
AcDbLine
10
-33.4876869965477
20
11.1834368430748
30
0.000000000000000
11
-33.3876869965477
21
11.1589919375805
31
0.000000000000000
  0
LINE
  5
F1082E
330
F1082F
100
AcDbEntity
8
Geo
100
AcDbLine
10
-33.3876869965477
20
11.1589919375805
30
0.000000000000000
11
-33.2876869965477
21
11.1342170970063
31
0.000000000000000
  0
LINE
  5
F10830
330
F10831
100
AcDbEntity
8
Geo
100
AcDbLine
10
-33.2876869965477
20
11.1342170970063
30
0.000000000000000
11
-33.1876869965477
21
11.1091133408896
31
0.000000000000000
  0
LINE
  5
F10832
330
F10833
100
AcDbEntity
8
Geo
100
AcDbLine
10
-33.1876869965477
20
11.1091133408896
30
0.000000000000000
11
-33.0876869965477
21
11.0836817023031
31
0.000000000000000
  0
LINE
  5
F10834
330
F10835
100
AcDbEntity
8
Geo
100
AcDbLine
10
-33.0876869965477
20
11.0836817023031
30
0.000000000000000
11
-32.9876869965477
21
11.0579232278127
31
0.000000000000000
  0
LINE
  5
F10836
330
F10837
100
AcDbEntity
8
Geo
100
AcDbLine
10
-32.9876869965477
20
11.0579232278127
30
0.000000000000000
11
-32.8876869965477
21
11.0318389774344
31
0.000000000000000
  0
LINE
  5
F10838
330
F10839
100
AcDbEntity
8
Geo
100
AcDbLine
10
-32.8876869965477
20
11.0318389774344
30
0.000000000000000
11
-32.7876869965477
21
11.0054300245904
31
0.000000000000000
  0
LINE
  5
F1083A
330
F1083B
100
AcDbEntity
8
Geo
100
AcDbLine
10
-32.7876869965477
20
11.0054300245904
30
0.000000000000000
11
-32.6876869965477
21
10.9786974560652
31
0.000000000000000
  0
LINE
  5
F1083C
330
F1083D
100
AcDbEntity
8
Geo
100
AcDbLine
10
-32.6876869965477
20
10.9786974560652
30
0.000000000000000
11
-32.5876869965477
21
10.9516423719606
31
0.000000000000000
  0
LINE
  5
F1083E
330
F1083F
100
AcDbEntity
8
Geo
100
AcDbLine
10
-32.5876869965477
20
10.9516423719606
30
0.000000000000000
11
-32.4876869965477
21
10.9242658856508
31
0.000000000000000
  0
LINE
  5
F10840
330
F10841
100
AcDbEntity
8
Geo
100
AcDbLine
10
-32.4876869965477
20
10.9242658856508
30
0.000000000000000
11
-32.3876869965477
21
10.8965691237364
31
0.000000000000000
  0
LINE
  5
F10842
330
F10843
100
AcDbEntity
8
Geo
100
AcDbLine
10
-32.3876869965477
20
10.8965691237364
30
0.000000000000000
11
-32.2876869965477
21
10.8685532259978
31
0.000000000000000
  0
LINE
  5
F10844
330
F10845
100
AcDbEntity
8
Geo
100
AcDbLine
10
-32.2876869965477
20
10.8685532259978
30
0.000000000000000
11
-32.1876869965477
21
10.8402193453487
31
0.000000000000000
  0
LINE
  5
F10846
330
F10847
100
AcDbEntity
8
Geo
100
AcDbLine
10
-32.1876869965477
20
10.8402193453487
30
0.000000000000000
11
-32.0876869965477
21
10.8115686477884
31
0.000000000000000
  0
LINE
  5
F10848
330
F10849
100
AcDbEntity
8
Geo
100
AcDbLine
10
-32.0876869965477
20
10.8115686477884
30
0.000000000000000
11
-31.9876869965477
21
10.7826023123540
31
0.000000000000000
  0
LINE
  5
F1084A
330
F1084B
100
AcDbEntity
8
Geo
100
AcDbLine
10
-31.9876869965477
20
10.7826023123540
30
0.000000000000000
11
-31.8876869965477
21
10.7533215310716
31
0.000000000000000
  0
LINE
  5
F1084C
330
F1084D
100
AcDbEntity
8
Geo
100
AcDbLine
10
-31.8876869965477
20
10.7533215310716
30
0.000000000000000
11
-31.7876869965477
21
10.7237275089075
31
0.000000000000000
  0
LINE
  5
F1084E
330
F1084F
100
AcDbEntity
8
Geo
100
AcDbLine
10
-31.7876869965477
20
10.7237275089075
30
0.000000000000000
11
-31.6876869965477
21
10.6938214637185
31
0.000000000000000
  0
LINE
  5
F10850
330
F10851
100
AcDbEntity
8
Geo
100
AcDbLine
10
-31.6876869965477
20
10.6938214637185
30
0.000000000000000
11
-31.5876869965477
21
10.6636046262018
31
0.000000000000000
  0
LINE
  5
F10852
330
F10853
100
AcDbEntity
8
Geo
100
AcDbLine
10
-31.5876869965477
20
10.6636046262018
30
0.000000000000000
11
-31.4876869965477
21
10.6330782398445
31
0.000000000000000
  0
LINE
  5
F10854
330
F10855
100
AcDbEntity
8
Geo
100
AcDbLine
10
-31.4876869965477
20
10.6330782398445
30
0.000000000000000
11
-31.3876869965477
21
10.6022435608721
31
0.000000000000000
  0
LINE
  5
F10856
330
F10857
100
AcDbEntity
8
Geo
100
AcDbLine
10
-31.3876869965477
20
10.6022435608721
30
0.000000000000000
11
-31.2876869965477
21
10.5711018581971
31
0.000000000000000
  0
LINE
  5
F10858
330
F10859
100
AcDbEntity
8
Geo
100
AcDbLine
10
-31.2876869965477
20
10.5711018581971
30
0.000000000000000
11
-31.1876869965477
21
10.5396544133667
31
0.000000000000000
  0
LINE
  5
F1085A
330
F1085B
100
AcDbEntity
8
Geo
100
AcDbLine
10
-31.1876869965477
20
10.5396544133667
30
0.000000000000000
11
-31.0876869965477
21
10.5079025205099
31
0.000000000000000
  0
LINE
  5
F1085C
330
F1085D
100
AcDbEntity
8
Geo
100
AcDbLine
10
-31.0876869965477
20
10.5079025205099
30
0.000000000000000
11
-30.9876869965477
21
10.4758474862845
31
0.000000000000000
  0
LINE
  5
F1085E
330
F1085F
100
AcDbEntity
8
Geo
100
AcDbLine
10
-30.9876869965477
20
10.4758474862845
30
0.000000000000000
11
-30.8876869965477
21
10.4434906298232
31
0.000000000000000
  0
LINE
  5
F10860
330
F10861
100
AcDbEntity
8
Geo
100
AcDbLine
10
-30.8876869965477
20
10.4434906298232
30
0.000000000000000
11
-30.7876869965477
21
10.4108332826794
31
0.000000000000000
  0
LINE
  5
F10862
330
F10863
100
AcDbEntity
8
Geo
100
AcDbLine
10
-30.7876869965477
20
10.4108332826794
30
0.000000000000000
11
-30.6876869965477
21
10.3778767887721
31
0.000000000000000
  0
LINE
  5
F10864
330
F10865
100
AcDbEntity
8
Geo
100
AcDbLine
10
-30.6876869965477
20
10.3778767887721
30
0.000000000000000
11
-30.5876869965477
21
10.3446225043311
31
0.000000000000000
  0
LINE
  5
F10866
330
F10867
100
AcDbEntity
8
Geo
100
AcDbLine
10
-30.5876869965477
20
10.3446225043311
30
0.000000000000000
11
-30.4876869965477
21
10.3110717978407
31
0.000000000000000
  0
LINE
  5
F10868
330
F10869
100
AcDbEntity
8
Geo
100
AcDbLine
10
-30.4876869965477
20
10.3110717978407
30
0.000000000000000
11
-30.3876869965477
21
10.2772260499836
31
0.000000000000000
  0
LINE
  5
F1086A
330
F1086B
100
AcDbEntity
8
Geo
100
AcDbLine
10
-30.3876869965477
20
10.2772260499836
30
0.000000000000000
11
-30.2876869965477
21
10.2430866535843
31
0.000000000000000
  0
LINE
  5
F1086C
330
F1086D
100
AcDbEntity
8
Geo
100
AcDbLine
10
-30.2876869965477
20
10.2430866535843
30
0.000000000000000
11
-30.1876869965477
21
10.2086550135514
31
0.000000000000000
  0
LINE
  5
F1086E
330
F1086F
100
AcDbEntity
8
Geo
100
AcDbLine
10
-30.1876869965477
20
10.2086550135514
30
0.000000000000000
11
-30.0876869965477
21
10.1739325468199
31
0.000000000000000
  0
LINE
  5
F10870
330
F10871
100
AcDbEntity
8
Geo
100
AcDbLine
10
-30.0876869965477
20
10.1739325468199
30
0.000000000000000
11
-29.9876869965478
21
10.1389206822930
31
0.000000000000000
  0
LINE
  5
F10872
330
F10873
100
AcDbEntity
8
Geo
100
AcDbLine
10
-29.9876869965478
20
10.1389206822930
30
0.000000000000000
11
-29.8876869965477
21
10.1036208607832
31
0.000000000000000
  0
LINE
  5
F10874
330
F10875
100
AcDbEntity
8
Geo
100
AcDbLine
10
-29.8876869965477
20
10.1036208607832
30
0.000000000000000
11
-29.7876869965477
21
10.0680345349531
31
0.000000000000000
  0
LINE
  5
F10876
330
F10877
100
AcDbEntity
8
Geo
100
AcDbLine
10
-29.7876869965477
20
10.0680345349531
30
0.000000000000000
11
-29.6876869965478
21
10.0321631692556
31
0.000000000000000
  0
LINE
  5
F10878
330
F10879
100
AcDbEntity
8
Geo
100
AcDbLine
10
-29.6876869965478
20
10.0321631692556
30
0.000000000000000
11
-29.5876869965478
21
9.99600823987340
31
0.000000000000000
  0
LINE
  5
F1087A
330
F1087B
100
AcDbEntity
8
Geo
100
AcDbLine
10
-29.5876869965478
20
9.99600823987340
30
0.000000000000000
11
-29.4876869965478
21
9.95957123465868
31
0.000000000000000
  0
LINE
  5
F1087C
330
F1087D
100
AcDbEntity
8
Geo
100
AcDbLine
10
-29.4876869965478
20
9.95957123465868
30
0.000000000000000
11
-29.3876869965477
21
9.92285365307148
31
0.000000000000000
  0
LINE
  5
F1087E
330
F1087F
100
AcDbEntity
8
Geo
100
AcDbLine
10
-29.3876869965477
20
9.92285365307148
30
0.000000000000000
11
-29.2876869965478
21
9.88585700611823
31
0.000000000000000
  0
LINE
  5
F10880
330
F10881
100
AcDbEntity
8
Geo
100
AcDbLine
10
-29.2876869965478
20
9.88585700611823
30
0.000000000000000
11
-29.1876869965478
21
9.84858281628946
31
0.000000000000000
  0
LINE
  5
F10882
330
F10883
100
AcDbEntity
8
Geo
100
AcDbLine
10
-29.1876869965478
20
9.84858281628946
30
0.000000000000000
11
-29.0876869965478
21
9.81103261749717
31
0.000000000000000
  0
LINE
  5
F10884
330
F10885
100
AcDbEntity
8
Geo
100
AcDbLine
10
-29.0876869965478
20
9.81103261749717
30
0.000000000000000
11
-28.9876869965478
21
9.77320795501176
31
0.000000000000000
  0
LINE
  5
F10886
330
F10887
100
AcDbEntity
8
Geo
100
AcDbLine
10
-28.9876869965478
20
9.77320795501176
30
0.000000000000000
11
-28.8876869965478
21
9.73511038539834
31
0.000000000000000
  0
LINE
  5
F10888
330
F10889
100
AcDbEntity
8
Geo
100
AcDbLine
10
-28.8876869965478
20
9.73511038539834
30
0.000000000000000
11
-28.7876869965478
21
9.69674147645277
31
0.000000000000000
  0
LINE
  5
F1088A
330
F1088B
100
AcDbEntity
8
Geo
100
AcDbLine
10
-28.7876869965478
20
9.69674147645277
30
0.000000000000000
11
-28.6876869965478
21
9.65810280713707
31
0.000000000000000
  0
LINE
  5
F1088C
330
F1088D
100
AcDbEntity
8
Geo
100
AcDbLine
10
-28.6876869965478
20
9.65810280713707
30
0.000000000000000
11
-28.5876869965478
21
9.61919596751448
31
0.000000000000000
  0
LINE
  5
F1088E
330
F1088F
100
AcDbEntity
8
Geo
100
AcDbLine
10
-28.5876869965478
20
9.61919596751448
30
0.000000000000000
11
-28.4876869965478
21
9.58002255868404
31
0.000000000000000
  0
LINE
  5
F10890
330
F10891
100
AcDbEntity
8
Geo
100
AcDbLine
10
-28.4876869965478
20
9.58002255868404
30
0.000000000000000
11
-28.3876869965478
21
9.54058419271464
31
0.000000000000000
  0
LINE
  5
F10892
330
F10893
100
AcDbEntity
8
Geo
100
AcDbLine
10
-28.3876869965478
20
9.54058419271464
30
0.000000000000000
11
-28.2876869965478
21
9.50088249257874
31
0.000000000000000
  0
LINE
  5
F10894
330
F10895
100
AcDbEntity
8
Geo
100
AcDbLine
10
-28.2876869965478
20
9.50088249257874
30
0.000000000000000
11
-28.1876869965478
21
9.46091909208556
31
0.000000000000000
  0
LINE
  5
F10896
330
F10897
100
AcDbEntity
8
Geo
100
AcDbLine
10
-28.1876869965478
20
9.46091909208556
30
0.000000000000000
11
-28.0876869965478
21
9.42069563581385
31
0.000000000000000
  0
LINE
  5
F10898
330
F10899
100
AcDbEntity
8
Geo
100
AcDbLine
10
-28.0876869965478
20
9.42069563581385
30
0.000000000000000
11
-27.9876869965478
21
9.38021377904420
31
0.000000000000000
  0
LINE
  5
F1089A
330
F1089B
100
AcDbEntity
8
Geo
100
AcDbLine
10
-27.9876869965478
20
9.38021377904420
30
0.000000000000000
11
-27.8876869965478
21
9.33947518769091
31
0.000000000000000
  0
LINE
  5
F1089C
330
F1089D
100
AcDbEntity
8
Geo
100
AcDbLine
10
-27.8876869965478
20
9.33947518769091
30
0.000000000000000
11
-27.7876869965478
21
9.29848153823349
31
0.000000000000000
  0
LINE
  5
F1089E
330
F1089F
100
AcDbEntity
8
Geo
100
AcDbLine
10
-27.7876869965478
20
9.29848153823349
30
0.000000000000000
11
-27.6876869965478
21
9.25723451764761
31
0.000000000000000
  0
LINE
  5
F108A0
330
F108A1
100
AcDbEntity
8
Geo
100
AcDbLine
10
-27.6876869965478
20
9.25723451764761
30
0.000000000000000
11
-27.5876869965478
21
9.21573582333570
31
0.000000000000000
  0
LINE
  5
F108A2
330
F108A3
100
AcDbEntity
8
Geo
100
AcDbLine
10
-27.5876869965478
20
9.21573582333570
30
0.000000000000000
11
-27.4876869965478
21
9.17398716305710
31
0.000000000000000
  0
LINE
  5
F108A4
330
F108A5
100
AcDbEntity
8
Geo
100
AcDbLine
10
-27.4876869965478
20
9.17398716305710
30
0.000000000000000
11
-27.3876869965478
21
9.13199025485778
31
0.000000000000000
  0
LINE
  5
F108A6
330
F108A7
100
AcDbEntity
8
Geo
100
AcDbLine
10
-27.3876869965478
20
9.13199025485778
30
0.000000000000000
11
-27.2876869965478
21
9.08974682699965
31
0.000000000000000
  0
LINE
  5
F108A8
330
F108A9
100
AcDbEntity
8
Geo
100
AcDbLine
10
-27.2876869965478
20
9.08974682699965
30
0.000000000000000
11
-27.1876869965478
21
9.04725861788942
31
0.000000000000000
  0
LINE
  5
F108AA
330
F108AB
100
AcDbEntity
8
Geo
100
AcDbLine
10
-27.1876869965478
20
9.04725861788942
30
0.000000000000000
11
-27.0876869965478
21
9.00452737600705
31
0.000000000000000
  0
LINE
  5
F108AC
330
F108AD
100
AcDbEntity
8
Geo
100
AcDbLine
10
-27.0876869965478
20
9.00452737600705
30
0.000000000000000
11
-26.9876869965478
21
8.96155485983384
31
0.000000000000000
  0
LINE
  5
F108AE
330
F108AF
100
AcDbEntity
8
Geo
100
AcDbLine
10
-26.9876869965478
20
8.96155485983384
30
0.000000000000000
11
-26.8876869965478
21
8.91834283778003
31
0.000000000000000
  0
LINE
  5
F108B0
330
F108B1
100
AcDbEntity
8
Geo
100
AcDbLine
10
-26.8876869965478
20
8.91834283778003
30
0.000000000000000
11
-26.7876869965478
21
8.87489308811202
31
0.000000000000000
  0
LINE
  5
F108B2
330
F108B3
100
AcDbEntity
8
Geo
100
AcDbLine
10
-26.7876869965478
20
8.87489308811202
30
0.000000000000000
11
-26.6876869965478
21
8.83120739887924
31
0.000000000000000
  0
LINE
  5
F108B4
330
F108B5
100
AcDbEntity
8
Geo
100
AcDbLine
10
-26.6876869965478
20
8.83120739887924
30
0.000000000000000
11
-26.5876869965478
21
8.78728756784050
31
0.000000000000000
  0
LINE
  5
F108B6
330
F108B7
100
AcDbEntity
8
Geo
100
AcDbLine
10
-26.5876869965478
20
8.78728756784050
30
0.000000000000000
11
-26.4876869965478
21
8.74313540239006
31
0.000000000000000
  0
LINE
  5
F108B8
330
F108B9
100
AcDbEntity
8
Geo
100
AcDbLine
10
-26.4876869965478
20
8.74313540239006
30
0.000000000000000
11
-26.3876869965478
21
8.69875271948323
31
0.000000000000000
  0
LINE
  5
F108BA
330
F108BB
100
AcDbEntity
8
Geo
100
AcDbLine
10
-26.3876869965478
20
8.69875271948323
30
0.000000000000000
11
-26.2876869965478
21
8.65414134556160
31
0.000000000000000
  0
LINE
  5
F108BC
330
F108BD
100
AcDbEntity
8
Geo
100
AcDbLine
10
-26.2876869965478
20
8.65414134556160
30
0.000000000000000
11
-26.1876869965478
21
8.60930311647790
31
0.000000000000000
  0
LINE
  5
F108BE
330
F108BF
100
AcDbEntity
8
Geo
100
AcDbLine
10
-26.1876869965478
20
8.60930311647790
30
0.000000000000000
11
-26.0876869965478
21
8.56423987742039
31
0.000000000000000
  0
LINE
  5
F108C0
330
F108C1
100
AcDbEntity
8
Geo
100
AcDbLine
10
-26.0876869965478
20
8.56423987742039
30
0.000000000000000
11
-25.9876869965478
21
8.51895348283701
31
0.000000000000000
  0
LINE
  5
F108C2
330
F108C3
100
AcDbEntity
8
Geo
100
AcDbLine
10
-25.9876869965478
20
8.51895348283701
30
0.000000000000000
11
-25.8876869965478
21
8.47344579635899
31
0.000000000000000
  0
LINE
  5
F108C4
330
F108C5
100
AcDbEntity
8
Geo
100
AcDbLine
10
-25.8876869965478
20
8.47344579635899
30
0.000000000000000
11
-25.7876869965478
21
8.42771869072423
31
0.000000000000000
  0
LINE
  5
F108C6
330
F108C7
100
AcDbEntity
8
Geo
100
AcDbLine
10
-25.7876869965478
20
8.42771869072423
30
0.000000000000000
11
-25.6876869965478
21
8.38177404770015
31
0.000000000000000
  0
LINE
  5
F108C8
330
F108C9
100
AcDbEntity
8
Geo
100
AcDbLine
10
-25.6876869965478
20
8.38177404770015
30
0.000000000000000
11
-25.5876869965478
21
8.33561375800633
31
0.000000000000000
  0
LINE
  5
F108CA
330
F108CB
100
AcDbEntity
8
Geo
100
AcDbLine
10
-25.5876869965478
20
8.33561375800633
30
0.000000000000000
11
-25.4876869965478
21
8.28923972123664
31
0.000000000000000
  0
LINE
  5
F108CC
330
F108CD
100
AcDbEntity
8
Geo
100
AcDbLine
10
-25.4876869965478
20
8.28923972123664
30
0.000000000000000
11
-25.3876869965478
21
8.24265384578113
31
0.000000000000000
  0
LINE
  5
F108CE
330
F108CF
100
AcDbEntity
8
Geo
100
AcDbLine
10
-25.3876869965478
20
8.24265384578113
30
0.000000000000000
11
-25.2876869965478
21
8.19585804874743
31
0.000000000000000
  0
LINE
  5
F108D0
330
F108D1
100
AcDbEntity
8
Geo
100
AcDbLine
10
-25.2876869965478
20
8.19585804874743
30
0.000000000000000
11
-25.1876869965478
21
8.14885425588190
31
0.000000000000000
  0
LINE
  5
F108D2
330
F108D3
100
AcDbEntity
8
Geo
100
AcDbLine
10
-25.1876869965478
20
8.14885425588190
30
0.000000000000000
11
-25.0876869965478
21
8.10164440149037
31
0.000000000000000
  0
LINE
  5
F108D4
330
F108D5
100
AcDbEntity
8
Geo
100
AcDbLine
10
-25.0876869965478
20
8.10164440149037
30
0.000000000000000
11
-24.9876869965478
21
8.05423042835855
31
0.000000000000000
  0
LINE
  5
F108D6
330
F108D7
100
AcDbEntity
8
Geo
100
AcDbLine
10
-24.9876869965478
20
8.05423042835855
30
0.000000000000000
11
-24.8876869965478
21
8.00661428767204
31
0.000000000000000
  0
LINE
  5
F108D8
330
F108D9
100
AcDbEntity
8
Geo
100
AcDbLine
10
-24.8876869965478
20
8.00661428767204
30
0.000000000000000
11
-24.7876869965478
21
7.95879793893610
31
0.000000000000000
  0
LINE
  5
F108DA
330
F108DB
100
AcDbEntity
8
Geo
100
AcDbLine
10
-24.7876869965478
20
7.95879793893610
30
0.000000000000000
11
-24.6876869965478
21
7.91078334989494
31
0.000000000000000
  0
LINE
  5
F108DC
330
F108DD
100
AcDbEntity
8
Geo
100
AcDbLine
10
-24.6876869965478
20
7.91078334989494
30
0.000000000000000
11
-24.5876869965478
21
7.86257249645082
31
0.000000000000000
  0
LINE
  5
F108DE
330
F108DF
100
AcDbEntity
8
Geo
100
AcDbLine
10
-24.5876869965478
20
7.86257249645082
30
0.000000000000000
11
-24.4876869965478
21
7.81416736258266
31
0.000000000000000
  0
LINE
  5
F108E0
330
F108E1
100
AcDbEntity
8
Geo
100
AcDbLine
10
-24.4876869965478
20
7.81416736258266
30
0.000000000000000
11
-24.3876869965478
21
7.76556994026445
31
0.000000000000000
  0
LINE
  5
F108E2
330
F108E3
100
AcDbEntity
8
Geo
100
AcDbLine
10
-24.3876869965478
20
7.76556994026445
30
0.000000000000000
11
-24.2876869965478
21
7.71678222938325
31
0.000000000000000
  0
LINE
  5
F108E4
330
F108E5
100
AcDbEntity
8
Geo
100
AcDbLine
10
-24.2876869965478
20
7.71678222938325
30
0.000000000000000
11
-24.1876869965478
21
7.66780623765692
31
0.000000000000000
  0
LINE
  5
F108E6
330
F108E7
100
AcDbEntity
8
Geo
100
AcDbLine
10
-24.1876869965478
20
7.66780623765692
30
0.000000000000000
11
-24.0876869965478
21
7.61864398055143
31
0.000000000000000
  0
LINE
  5
F108E8
330
F108E9
100
AcDbEntity
8
Geo
100
AcDbLine
10
-24.0876869965478
20
7.61864398055143
30
0.000000000000000
11
-23.9876869965478
21
7.56929748119802
31
0.000000000000000
  0
LINE
  5
F108EA
330
F108EB
100
AcDbEntity
8
Geo
100
AcDbLine
10
-23.9876869965478
20
7.56929748119802
30
0.000000000000000
11
-23.8876869965478
21
7.51976877030985
31
0.000000000000000
  0
LINE
  5
F108EC
330
F108ED
100
AcDbEntity
8
Geo
100
AcDbLine
10
-23.8876869965478
20
7.51976877030985
30
0.000000000000000
11
-23.7876869965478
21
7.47005988609849
31
0.000000000000000
  0
LINE
  5
F108EE
330
F108EF
100
AcDbEntity
8
Geo
100
AcDbLine
10
44.2123130034523
20
11.1415420023015
30
0.000000000000000
11
44.2123130034523
21
3.14154200230151
31
0.000000000000000
  0
LINE
  5
F108F0
330
F108F1
100
AcDbEntity
8
Geo
100
AcDbLine
10
-38.7876869965477
20
3.14154200230151
30
0.000000000000000
11
-38.7876869965477
21
-5.85845799769849
31
0.000000000000000
  0
LINE
  5
F108F2
330
F108F3
100
AcDbEntity
8
Geo
100
AcDbLine
10
-38.7876869965477
20
-5.85845799769849
30
0.000000000000000
11
-18.7876869965477
21
-5.85845799769849
31
0.000000000000000
  0
LINE
  5
F108F4
330
F108F5
100
AcDbEntity
8
Geo
100
AcDbLine
10
-18.7876869965477
20
-5.85845799769849
30
0.000000000000000
11
43.2123130034523
21
-5.85845799769849
31
0.000000000000000
  0
LINE
  5
F108F6
330
F108F7
100
AcDbEntity
8
Geo
100
AcDbLine
10
43.2123130034523
20
-5.85845799769849
30
0.000000000000000
11
44.2123130034523
21
-4.85845799769849
31
0.000000000000000
  0
LINE
  5
F108F8
330
F108F9
100
AcDbEntity
8
Geo
100
AcDbLine
10
-38.7876869965477
20
12.1415420023015
30
0.000000000000000
11
-38.7876869965477
21
-5.85845799769849
31
0.000000000000000
  0
LINE
  5
F108FA
330
F108FB
100
AcDbEntity
8
Geo
100
AcDbLine
10
-18.7876869965477
20
12.1415420023015
30
0.000000000000000
11
-18.7876869965477
21
-5.85845799769849
31
0.000000000000000
  0
LINE
  5
F108FC
330
F108FD
100
AcDbEntity
8
Geo
100
AcDbLine
10
-18.7876869965477
20
12.1415420023015
30
0.000000000000000
11
-18.7876869965477
21
-5.85845799769849
31
0.000000000000000
  0
LINE
  5
F108FE
330
F108FF
100
AcDbEntity
8
Geo
100
AcDbLine
10
43.2123130034523
20
12.1415420023015
30
0.000000000000000
11
43.2123130034523
21
-5.85845799769849
31
0.000000000000000
  0
LINE
  5
F10900
330
F10901
100
AcDbEntity
8
Geo
100
AcDbLine
10
44.2123130034523
20
11.1415420023015
30
0.000000000000000
11
44.2123130034523
21
-4.85845799769849
31
0.000000000000000
  0
LINE
  5
F10902
330
F10903
100
AcDbEntity
8
Geo
 6
Dashdot
100
AcDbLine
10
-38.7876869965477
20
3.14154200230151
30
0.000000000000000
11
44.2123130034523
21
3.14154200230151
31
0.000000000000000
  0
LWPOLYLINE
  5
F10904
330
F10905
100
AcDbEntity
8
Rahmen
100
AcDbPolyline
90
   4
70
   1
43
   0.0
 10
-134.602991944764
 20
99.9252013808976
 10
143.302646720368
 20
99.9252013808976
 10
143.302646720368
 20
-100.166858457998
 10
-134.602991944764
 20
-100.166858457998
  0
TEXT
  5
F10906
330
F10907
 100
AcDbEntity
8
Text
100
AcDbText
10
-133.636363636364
20
-99.6668584579977
30
0.000000000000000
40
1.00000000000000
1
ISBESketcher - ©ISBE GmbH      lizensiert für: Schmid Werkzeuge
100
AcDbText
  0
LWPOLYLINE
  5
F10908
330
F10909
100
AcDbEntity
8
Rahmen
100
AcDbPolyline
90
   4
70
   1
43
   0.0
 10
103.429228998849
 20
-97.0253164556962
 10
143.302646720368
 20
-97.0253164556962
 10
143.302646720368
 20
-100.166858457998
 10
103.429228998849
 20
-100.166858457998
  0
TEXT
  5
F1090A
330
F1090B
 100
AcDbEntity
8
Text
100
AcDbText
10
104.500000000000
20
-99.4499424626007
30
0.000000000000000
40
1.50000000000000
1
Ers. durch:
100
AcDbText
  0
TEXT
  5
F1090C
330
F1090D
 100
AcDbEntity
8
Text
100
AcDbText
10
0.000000000000000
20
0.500000000000000
30
0.000000000000000
40
1.50000000000000
1

100
AcDbText
  0
LWPOLYLINE
  5
F1090E
330
F1090F
100
AcDbEntity
8
Rahmen
100
AcDbPolyline
90
   4
70
   1
43
   0.0
 10
63.3141542002302
 20
-97.0253164556962
 10
103.429228998849
 20
-97.0253164556962
 10
103.429228998849
 20
-100.166858457998
 10
63.3141542002302
 20
-100.166858457998
  0
TEXT
  5
F10910
330
F10911
 100
AcDbEntity
8
Text
100
AcDbText
10
64.5000000000000
20
-99.4499424626007
30
0.000000000000000
40
1.50000000000000
1
Ers. für:
100
AcDbText
  0
TEXT
  5
F10912
330
F10913
 100
AcDbEntity
8
Text
100
AcDbText
10
0.000000000000000
20
0.500000000000000
30
0.000000000000000
40
1.50000000000000
1

100
AcDbText
  0
LWPOLYLINE
  5
F10914
330
F10915
100
AcDbEntity
8
Rahmen
100
AcDbPolyline
90
   4
70
   1
43
   0.0
 10
130.011507479862
 20
-94.1254315304948
 10
143.302646720368
 20
-94.1254315304948
 10
143.302646720368
 20
-97.0253164556962
 10
130.011507479862
 20
-97.0253164556962
  0
TEXT
  5
F10916
330
F10917
 100
AcDbEntity
8
Text
100
AcDbText
10
131.166666666667
20
-96.4499424626007
30
0.000000000000000
40
1.50000000000000
1
Blätter
100
AcDbText
  0
TEXT
  5
F10918
330
F10919
 100
AcDbEntity
8
Text
100
AcDbText
10
0.000000000000000
20
0.500000000000000
30
0.000000000000000
40
1.50000000000000
1

100
AcDbText
  0
LWPOLYLINE
  5
F1091A
330
F1091B
100
AcDbEntity
8
Rahmen
100
AcDbPolyline
90
   4
70
   1
43
   0.0
 10
130.011507479862
 20
-91.2255466052934
 10
143.302646720368
 20
-91.2255466052934
 10
143.302646720368
 20
-94.1254315304948
 10
130.011507479862
 20
-94.1254315304948
  0
TEXT
  5
F1091C
330
F1091D
 100
AcDbEntity
8
Text
100
AcDbText
10
131.166666666667
20
-93.4499424626007
30
0.000000000000000
40
1.50000000000000
1
Blatt
100
AcDbText
  0
TEXT
  5
F1091E
330
F1091F
 100
AcDbEntity
8
Text
100
AcDbText
10
0.000000000000000
20
0.500000000000000
30
0.000000000000000
40
1.50000000000000
1

100
AcDbText
  0
LWPOLYLINE
  5
F10920
330
F10921
100
AcDbEntity
8
Rahmen
100
AcDbPolyline
90
   4
70
   1
43
   0.0
 10
63.3141542002302
 20
-91.2255466052934
 10
130.011507479862
 20
-91.2255466052934
 10
130.011507479862
 20
-97.0253164556962
 10
63.3141542002302
 20
-97.0253164556962
  0
TEXT
  5
F10922
330
F10923
 100
AcDbEntity
8
Text
100
AcDbText
10
64.5000000000000
20
-93.4499424626007
30
0.000000000000000
40
1.50000000000000
1
Datum:
100
AcDbText
  0
TEXT
  5
F10924
330
F10925
 100
AcDbEntity
8
Text
100
AcDbText
10
91.1543920214806
20
-96.4499424626007
30
0.000000000000000
40
1.50000000000000
1
14.05.2019
100
AcDbText
  0
LWPOLYLINE
  5
F10926
330
F10927
100
AcDbEntity
8
Rahmen
100
AcDbPolyline
90
   4
70
   1
43
   0.0
 10
63.3141542002302
 20
-85.1841196777906
 10
143.302646720368
 20
-85.1841196777906
 10
143.302646720368
 20
-91.2255466052934
 10
63.3141542002302
 20
-91.2255466052934
  0
TEXT
  5
F10928
330
F10929
 100
AcDbEntity
8
Text
100
AcDbText
10
0.000000000000000
20
0.500000000000000
30
0.000000000000000
40
1.50000000000000
1

100
AcDbText
  0
TEXT
  5
F1092A
330
F1092B
 100
AcDbEntity
8
Text
100
AcDbText
10
74.2594936708861
20
-89.7040659762179
30
0.000000000000000
40
2.50000000000000
1
VHM-Schlichtfräser 0140-18-b
100
AcDbText
  0
LWPOLYLINE
  5
F1092C
330
F1092D
100
AcDbEntity
8
Rahmen
100
AcDbPolyline
90
   4
70
   1
43
   0.0
 10
103.429228998849
 20
-79.1426927502877
 10
143.302646720368
 20
-79.1426927502877
 10
143.302646720368
 20
-85.1841196777906
 10
103.429228998849
 20
-85.1841196777906
  0
TEXT
  5
F1092E
330
F1092F
 100
AcDbEntity
8
Text
100
AcDbText
10
104.500000000000
20
-81.4499424626007
30
0.000000000000000
40
1.50000000000000
1
Zu bearb. Material:
100
AcDbText
  0
TEXT
  5
F10930
330
F10931
 100
AcDbEntity
8
Text
100
AcDbText
10
0.000000000000000
20
0.500000000000000
30
0.000000000000000
40
1.50000000000000
1

100
AcDbText
  0
LWPOLYLINE
  5
F10932
330
F10933
100
AcDbEntity
8
Rahmen
100
AcDbPolyline
90
   4
70
   1
43
   0.0
 10
63.3141542002302
 20
-79.1426927502877
 10
103.429228998849
 20
-79.1426927502877
 10
103.429228998849
 20
-85.1841196777906
 10
63.3141542002302
 20
-85.1841196777906
  0
TEXT
  5
F10934
330
F10935
 100
AcDbEntity
8
Text
100
AcDbText
10
64.5000000000000
20
-81.4499424626007
30
0.000000000000000
40
1.50000000000000
1
Werkstoff:
100
AcDbText
  0
TEXT
  5
F10936
330
F10937
 100
AcDbEntity
8
Text
100
AcDbText
10
80.9626006904488
20
-84.4499424626007
30
0.000000000000000
40
1.50000000000000
1
VHM
100
AcDbText
  0
LWPOLYLINE
  5
F10938
330
F10939
100
AcDbEntity
8
Rahmen
100
AcDbPolyline
90
   4
70
   1
43
   0.0
 10
103.429228998849
 20
-76.0011507479862
 10
143.302646720368
 20
-76.0011507479862
 10
143.302646720368
 20
-79.1426927502877
 10
103.429228998849
 20
-79.1426927502877
  0
TEXT
  5
F1093A
330
F1093B
 100
AcDbEntity
8
Text
100
AcDbText
10
0.000000000000000
20
0.500000000000000
30
0.000000000000000
40
1.50000000000000
1

100
AcDbText
  0
TEXT
  5
F1093C
330
F1093D
 100
AcDbEntity
8
Text
100
AcDbText
10
0.000000000000000
20
0.500000000000000
30
0.000000000000000
40
1.50000000000000
1

100
AcDbText
  0
LWPOLYLINE
  5
F1093E
330
F1093F
100
AcDbEntity
8
Rahmen
100
AcDbPolyline
90
   4
70
   1
43
   0.0
 10
63.3141542002302
 20
-76.0011507479862
 10
103.429228998849
 20
-76.0011507479862
 10
103.429228998849
 20
-79.1426927502877
 10
63.3141542002302
 20
-79.1426927502877
  0
TEXT
  5
F10940
330
F10941
 100
AcDbEntity
8
Text
100
AcDbText
10
64.5000000000000
20
-78.4499424626007
30
0.000000000000000
40
1.50000000000000
1
Maßstab:
100
AcDbText
  0
TEXT
  5
F10942
330
F10943
 100
AcDbEntity
8
Text
100
AcDbText
10
89.0834292289989
20
-78.4499424626007
30
0.000000000000000
40
1.50000000000000
1
1 : 1
100
AcDbText
0
VIEWPORT
5
294
102
{ACAD_XDICTIONARY
360
58A
102
}
330
25D
100
AcDbEntity
67
1
8
0
60
1
100
AcDbViewport
10
0.0
20
0.0
30
0.0
40
10.0
41
10.0
68
-1
69
1
12
0.0
22
0.0
13
0.0
23
0.0
14
1.0
24
1.0
15
0.0
25
0.0
16
0.0
26
0.0
36
1.0
17
0.0
27
0.0
37
0.0
42
0.0
43
0.0
44
0.0
45
10.0
50
0.0
51
0.0000000000007958
72
100
90
32800
1

281
0
71
0
74
0
110
0.0
120
0.0
130
0.0
111
1.0
121
0.0
131
0.0
112
0.0
122
1.0
132
0.0
79
0
146
0.0
1001
VD_INVISIBLE_NOT_FOR_READ
1000
VD_INVISIBLE_NOT_FOR_READ
0
VIEWPORT
5
295
102
{ACAD_XDICTIONARY
360
58C
102
}
330
25D
100
AcDbEntity
67
1
8
0
60
1
100
AcDbViewport
10
0.0
20
0.0
30
0.0
40
10.0
41
10.0
68
0
69
2
12
0.0
22
0.0
13
0.0
23
0.0
14
1.0
24
1.0
15
0.0
25
0.0
16
0.0
26
0.0
36
1.0
17
0.0
27
0.0
37
0.0
42
0.0
43
0.0
44
0.0
45
10.0
50
0.0
51
0.0000000000007958
72
100
90
163872
1

281
0
71
0
74
0
110
0.0
120
0.0
130
0.0
111
1.0
121
0.0
131
0.0
112
0.0
122
1.0
132
0.0
79
0
146
0.0
1001
VD_INVISIBLE_NOT_FOR_READ
1000
VD_INVISIBLE_NOT_FOR_READ
0
ENDSEC
0
SECTION
2
OBJECTS
0
DICTIONARY
5
13
330
0
100
AcDbDictionary
281
1
3
ACAD_COLOR
350
FA7
3
ACAD_GROUP
350
14
3
ACAD_LAYOUT
350
FCF
3
ACAD_MATERIAL
350
F7A
3
ACAD_MLEADERSTYLE
350
FCD
3
ACAD_MLINESTYLE
350
16
3
ACAD_PLOTSETTINGS
350
17
3
ACAD_PLOTSTYLENAME
350
18
3
ACAD_SCALELIST
350
FAB
3
ACAD_TABLESTYLE
350
FA8
3
ACAD_VISUALSTYLE
350
F93
3
ACDB_RECOMPOSE_DATA
350
107E
3
AcDbVariableDictionary
350
FF0
3
DWGPROPS
350
107F
0
DICTIONARY
5
F1000F
330
F1000E
100
AcDbDictionary
280
1
281
1
3
ACAD_MTEXT_2008_RT
360
F10010
0
DICTIONARY
5
F10014
330
F10013
100
AcDbDictionary
280
1
281
1
3
ACAD_MTEXT_2008_RT
360
F10015
0
DICTIONARY
5
F10005
330
F10004
100
AcDbDictionary
280
1
281
1
3
ACAD_MTEXT_2008_RT
360
F10006
0
DICTIONARY
5
F1000A
330
F10009
100
AcDbDictionary
280
1
281
1
3
ACAD_MTEXT_2008_RT
360
F1000B
0
DICTIONARY
5
FA7
102
{ACAD_REACTORS
330
13
102
}
330
13
100
AcDbDictionary
281
1
0
DICTIONARY
5
14
330
13
100
AcDbDictionary
281
1
0
DICTIONARY
5
FCF
102
{ACAD_REACTORS
330
13
102
}
330
13
100
AcDbDictionary
281
1
3
Layout1
350
FD1
3
Model
350
FD0
0
DICTIONARY
5
F7A
102
{ACAD_REACTORS
330
13
102
}
330
13
100
AcDbDictionary
281
1
3
ByBlock
350
F83
3
ByLayer
350
F7B
3
Global
350
F8B
0
DICTIONARY
5
FCD
102
{ACAD_REACTORS
330
13
102
}
330
13
100
AcDbDictionary
281
1
3
Standard
350
FCE
0
DICTIONARY
5
16
330
13
100
AcDbDictionary
281
1
3
Standard
350
FAA
0
DICTIONARY
5
17
102
{ACAD_REACTORS
330
13
102
}
330
13
100
AcDbDictionary
281
1
0
ACDBDICTIONARYWDFLT
5
18
102
{ACAD_REACTORS
330
13
102
}
330
13
100
AcDbDictionary
281
1
3
Normal
350
19
100
AcDbDictionaryWithDefault
340
19
0
DICTIONARY
5
FAB
102
{ACAD_REACTORS
330
13
102
}
330
13
100
AcDbDictionary
281
1
3
A0
350
FAC
3
A1
350
FAD
3
A2
350
FAE
3
A3
350
FAF
3
A4
350
FB0
3
A5
350
FB1
3
A6
350
FB2
3
A7
350
FB3
3
A8
350
FB4
3
A9
350
FB5
3
B0
350
FB6
3
B1
350
FB7
3
B2
350
FB8
3
B3
350
FB9
3
B4
350
FBA
3
B5
350
FBB
3
B6
350
FBC
3
B7
350
FBD
3
B8
350
FBE
3
B9
350
FBF
3
C0
350
FC0
3
C1
350
FC1
3
C2
350
FC2
3
C3
350
FC3
3
C4
350
FC4
3
C5
350
FC5
3
C6
350
FC6
3
C7
350
FC7
3
C8
350
FC8
3
C9
350
FC9
3
D0
350
FCA
3
D1
350
FCB
3
D2
350
FCC
0
DICTIONARY
5
FA8
102
{ACAD_REACTORS
330
13
102
}
330
13
100
AcDbDictionary
281
1
3
Standard
350
FA9
0
DICTIONARY
5
F93
102
{ACAD_REACTORS
330
13
102
}
330
13
100
AcDbDictionary
281
1
3
2dWireframe
350
F99
3
3D Hidden
350
F9B
3
3dWireframe
350
F9A
3
Basic
350
F98
3
Brighten
350
F9F
3
ColorChange
350
FA3
3
Conceptual
350
F9C
3
Dim
350
F9E
3
EdgeColorOff
350
FA6
3
Facepattern
350
FA2
3
Flat
350
F94
3
FlatWithEdges
350
F95
3
Gouraud
350
F96
3
GouraudWithEdges
350
F97
3
JitterOff
350
FA4
3
Linepattern
350
FA1
3
OverhangOff
350
FA5
3
Realistic
350
F9D
3
Thicken
350
FA0
0
XRECORD
5
107E
102
{ACAD_REACTORS
330
13
102
}
330
13
100
AcDbXrecord
280
1
90
1
330
FA9
330
F1000E
330
F10013
330
F10004
330
F10009
0
DICTIONARY
5
FF0
102
{ACAD_REACTORS
330
13
102
}
330
13
100
AcDbDictionary
281
1
3
CANNOSCALE
350
FF3
3
CMLEADERSTYLE
350
FF2
3
CTABLESTYLE
350
FF1
3
DIMASSOC
350
FF6
3
INDEXCTL
350
FF5
3
SORTENTS
350
FF4
3
XCLIPFRAME
350
1078
0
XRECORD
5
107F
102
{ACAD_REACTORS
330
13
102
}
330
13
100
AcDbXrecord
280
1
1
DWGPROPS COOKIE
2

3

4

6

7

8

9

300
=
301
=
302
=
303
=
304
=
305
=
306
=
307
=
308
=
309
=
40
0.0
41
0.0
42
0.0
1

90
0
0
XRECORD
5
F10010
102
{ACAD_REACTORS
330
F1000F
102
}
330
F1000F
100
AcDbXrecord
280
1
40
48458.0
1
20
0
XRECORD
5
F10015
102
{ACAD_REACTORS
330
F10014
102
}
330
F10014
100
AcDbXrecord
280
1
40
48458.0
1
83
0
XRECORD
5
F10006
102
{ACAD_REACTORS
330
F10005
102
}
330
F10005
100
AcDbXrecord
280
1
40
48458.0
1
Ø18
0
LAYOUT
5
FD1
102
{ACAD_XDICTIONARY
360
10A9
102
}
102
{ACAD_REACTORS
330
FCF
102
}
330
FCF
100
AcDbPlotSettings
1

2
Microsoft XPS Document Writer
4

6

40
0.0
41
0.0
42
0.0
43
0.0
44
0.0
45
0.0
46
0.0
47
0.0
48
0.0
49
0.0
140
0.0
141
0.0
142
1.0
143
1.0
70
688
72
0
73
0
74
5
7

75
16
147
1.0
148
0.0
149
0.0
100
AcDbLayout
1
Layout1
70
1
71
1
10
0.0
20
0.0
11
12.0
21
9.0
12
0.0
22
0.0
32
0.0
14
1.000000000000000E+20
24
1.000000000000000E+20
34
1.000000000000000E+20
15
-1.000000000000000E+20
25
-1.000000000000000E+20
35
-1.000000000000000E+20
146
0.0
13
0.0
23
0.0
33
0.0
16
1.0
26
0.0
36
0.0
17
0.0
27
1.0
37
0.0
76
0
330
25D
0
LAYOUT
5
FD0
102
{ACAD_XDICTIONARY
360
10A7
102
}
102
{ACAD_REACTORS
330
FCF
102
}
330
FCF
100
AcDbPlotSettings
1

2
Microsoft XPS Document Writer
4

6

40
0.0
41
0.0
42
0.0
43
0.0
44
0.0
45
0.0
46
0.0
47
0.0
48
0.0
49
0.0
140
0.0
141
0.0
142
1.0
143
1.0
70
1712
72
0
73
0
74
0
7

75
0
147
1.0
148
0.0
149
0.0
100
AcDbLayout
1
Model
70
1
71
0
10
0.0
20
0.0
11
12.0
21
9.0
12
0.0
22
0.0
32
0.0
14
0.0
24
0.0
34
0.0
15
0.0
25
0.0
35
0.0
146
0.0
13
0.0
23
0.0
33
0.0
16
1.0
26
0.0
36
0.0
17
0.0
27
1.0
37
0.0
76
0
330
261
331
26B
0
MATERIAL
5
F83
102
{ACAD_XDICTIONARY
360
F84
102
}
102
{ACAD_REACTORS
330
F7A
102
}
330
F7A
100
AcDbMaterial
1
ByBlock
72
0
43
0.0208333333333333
43
0.0
43
0.0
43
0.0
43
0.0
43
0.0208333333333333
43
0.0
43
0.0
43
0.0
43
0.0
43
1.0
43
0.0
43
0.0
43
0.0
43
0.0
43
1.0
77
0
47
0.0208333333333333
47
0.0
47
0.0
47
0.0
47
0.0
47
0.0208333333333333
47
0.0
47
0.0
47
0.0
47
0.0
47
1.0
47
0.0
47
0.0
47
0.0
47
0.0
47
1.0
171
0
49
0.0208333333333333
49
0.0
49
0.0
49
0.0
49
0.0
49
0.0208333333333333
49
0.0
49
0.0
49
0.0
49
0.0
49
1.0
49
0.0
49
0.0
49
0.0
49
0.0
49
1.0
175
0
142
0.0208333333333333
142
0.0
142
0.0
142
0.0
142
0.0
142
0.0208333333333333
142
0.0
142
0.0
142
0.0
142
0.0
142
1.0
142
0.0
142
0.0
142
0.0
142
0.0
142
1.0
179
0
144
0.0208333333333333
144
0.0
144
0.0
144
0.0
144
0.0
144
0.0208333333333333
144
0.0
144
0.0
144
0.0
144
0.0
144
1.0
144
0.0
144
0.0
144
0.0
144
0.0
144
1.0
147
0.0208333333333333
147
0.0
147
0.0
147
0.0
147
0.0
147
0.0208333333333333
147
0.0
147
0.0
147
0.0
147
0.0
147
1.0
147
0.0
147
0.0
147
0.0
147
0.0
147
1.0
0
MATERIAL
5
F7B
102
{ACAD_XDICTIONARY
360
F7C
102
}
102
{ACAD_REACTORS
330
F7A
102
}
330
F7A
100
AcDbMaterial
1
ByLayer
72
0
43
0.0208333333333333
43
0.0
43
0.0
43
0.0
43
0.0
43
0.0208333333333333
43
0.0
43
0.0
43
0.0
43
0.0
43
1.0
43
0.0
43
0.0
43
0.0
43
0.0
43
1.0
77
0
47
0.0208333333333333
47
0.0
47
0.0
47
0.0
47
0.0
47
0.0208333333333333
47
0.0
47
0.0
47
0.0
47
0.0
47
1.0
47
0.0
47
0.0
47
0.0
47
0.0
47
1.0
171
0
49
0.0208333333333333
49
0.0
49
0.0
49
0.0
49
0.0
49
0.0208333333333333
49
0.0
49
0.0
49
0.0
49
0.0
49
1.0
49
0.0
49
0.0
49
0.0
49
0.0
49
1.0
175
0
142
0.0208333333333333
142
0.0
142
0.0
142
0.0
142
0.0
142
0.0208333333333333
142
0.0
142
0.0
142
0.0
142
0.0
142
1.0
142
0.0
142
0.0
142
0.0
142
0.0
142
1.0
179
0
144
0.0208333333333333
144
0.0
144
0.0
144
0.0
144
0.0
144
0.0208333333333333
144
0.0
144
0.0
144
0.0
144
0.0
144
1.0
144
0.0
144
0.0
144
0.0
144
0.0
144
1.0
147
0.0208333333333333
147
0.0
147
0.0
147
0.0
147
0.0
147
0.0208333333333333
147
0.0
147
0.0
147
0.0
147
0.0
147
1.0
147
0.0
147
0.0
147
0.0
147
0.0
147
1.0
0
MATERIAL
5
F8B
102
{ACAD_XDICTIONARY
360
F8C
102
}
102
{ACAD_REACTORS
330
F7A
102
}
330
F7A
100
AcDbMaterial
1
Global
72
0
43
0.0208333333333333
43
0.0
43
0.0
43
0.0
43
0.0
43
0.0208333333333333
43
0.0
43
0.0
43
0.0
43
0.0
43
1.0
43
0.0
43
0.0
43
0.0
43
0.0
43
1.0
77
0
47
0.0208333333333333
47
0.0
47
0.0
47
0.0
47
0.0
47
0.0208333333333333
47
0.0
47
0.0
47
0.0
47
0.0
47
1.0
47
0.0
47
0.0
47
0.0
47
0.0
47
1.0
171
0
49
0.0208333333333333
49
0.0
49
0.0
49
0.0
49
0.0
49
0.0208333333333333
49
0.0
49
0.0
49
0.0
49
0.0
49
1.0
49
0.0
49
0.0
49
0.0
49
0.0
49
1.0
175
0
142
0.0208333333333333
142
0.0
142
0.0
142
0.0
142
0.0
142
0.0208333333333333
142
0.0
142
0.0
142
0.0
142
0.0
142
1.0
142
0.0
142
0.0
142
0.0
142
0.0
142
1.0
179
0
144
0.0208333333333333
144
0.0
144
0.0
144
0.0
144
0.0
144
0.0208333333333333
144
0.0
144
0.0
144
0.0
144
0.0
144
1.0
144
0.0
144
0.0
144
0.0
144
0.0
144
1.0
147
0.0208333333333333
147
0.0
147
0.0
147
0.0
147
0.0
147
0.0208333333333333
147
0.0
147
0.0
147
0.0
147
0.0
147
1.0
147
0.0
147
0.0
147
0.0
147
0.0
147
1.0
0
MLEADERSTYLE
5
FCE
102
{ACAD_REACTORS
330
FCD
102
}
330
FCD
100
AcDbMLeaderStyle
170
2
171
1
172
0
90
2
40
0.0
41
0.0
173
1
91
-1056964608
340
256
92
-2
290
1
42
0.09
291
1
43
0.36
3
Standard
44
0.18
300

342
253
174
1
178
6
175
1
176
0
93
-1056964608
45
0.18
292
0
297
0
46
0.18
94
-1056964608
47
1.0
49
1.0
140
1.0
293
1
141
0.0
294
1
177
0
142
1.0
295
0
296
0
143
0.125
1001
ACAD_MLEADERVER
1070
2
0
MLINESTYLE
5
FAA
102
{ACAD_REACTORS
330
16
102
}
330
16
100
AcDbMlineStyle
2
STANDARD
70
0
3

62
256
51
90.0
52
90.0
71
2
49
0.5
62
256
6
BYLAYER
49
-0.5
62
256
6
BYLAYER
0
ACDBPLACEHOLDER
5
19
102
{ACAD_REACTORS
330
18
102
}
330
18
0
SCALE
5
FAC
102
{ACAD_REACTORS
330
FAB
102
}
330
FAB
100
AcDbScale
70
0
300
1:1
140
1.0
141
1.0
290
1
0
SCALE
5
FAD
102
{ACAD_REACTORS
330
FAB
102
}
330
FAB
100
AcDbScale
70
0
300
1:2
140
1.0
141
2.0
290
0
0
SCALE
5
FAE
102
{ACAD_REACTORS
330
FAB
102
}
330
FAB
100
AcDbScale
70
0
300
1:4
140
1.0
141
4.0
290
0
0
SCALE
5
FAF
102
{ACAD_REACTORS
330
FAB
102
}
330
FAB
100
AcDbScale
70
0
300
1:5
140
1.0
141
5.0
290
0
0
SCALE
5
FB0
102
{ACAD_REACTORS
330
FAB
102
}
330
FAB
100
AcDbScale
70
0
300
1:8
140
1.0
141
8.0
290
0
0
SCALE
5
FB1
102
{ACAD_REACTORS
330
FAB
102
}
330
FAB
100
AcDbScale
70
0
300
1:10
140
1.0
141
10.0
290
0
0
SCALE
5
FB2
102
{ACAD_REACTORS
330
FAB
102
}
330
FAB
100
AcDbScale
70
0
300
1:16
140
1.0
141
16.0
290
0
0
SCALE
5
FB3
102
{ACAD_REACTORS
330
FAB
102
}
330
FAB
100
AcDbScale
70
0
300
1:20
140
1.0
141
20.0
290
0
0
SCALE
5
FB4
102
{ACAD_REACTORS
330
FAB
102
}
330
FAB
100
AcDbScale
70
0
300
1:30
140
1.0
141
30.0
290
0
0
SCALE
5
FB5
102
{ACAD_REACTORS
330
FAB
102
}
330
FAB
100
AcDbScale
70
0
300
1:40
140
1.0
141
40.0
290
0
0
SCALE
5
FB6
102
{ACAD_REACTORS
330
FAB
102
}
330
FAB
100
AcDbScale
70
0
300
1:50
140
1.0
141
50.0
290
0
0
SCALE
5
FB7
102
{ACAD_REACTORS
330
FAB
102
}
330
FAB
100
AcDbScale
70
0
300
1:100
140
1.0
141
100.0
290
0
0
SCALE
5
FB8
102
{ACAD_REACTORS
330
FAB
102
}
330
FAB
100
AcDbScale
70
0
300
2:1
140
2.0
141
1.0
290
0
0
SCALE
5
FB9
102
{ACAD_REACTORS
330
FAB
102
}
330
FAB
100
AcDbScale
70
0
300
4:1
140
4.0
141
1.0
290
0
0
SCALE
5
FBA
102
{ACAD_REACTORS
330
FAB
102
}
330
FAB
100
AcDbScale
70
0
300
8:1
140
8.0
141
1.0
290
0
0
SCALE
5
FBB
102
{ACAD_REACTORS
330
FAB
102
}
330
FAB
100
AcDbScale
70
0
300
10:1
140
10.0
141
1.0
290
0
0
SCALE
5
FBC
102
{ACAD_REACTORS
330
FAB
102
}
330
FAB
100
AcDbScale
70
0
300
100:1
140
100.0
141
1.0
290
0
0
SCALE
5
FBD
102
{ACAD_REACTORS
330
FAB
102
}
330
FAB
100
AcDbScale
70
0
300
1/128" = 1'-0"
140
0.0078125
141
12.0
290
0
0
SCALE
5
FBE
102
{ACAD_REACTORS
330
FAB
102
}
330
FAB
100
AcDbScale
70
0
300
1/64" = 1'-0"
140
0.015625
141
12.0
290
0
0
SCALE
5
FBF
102
{ACAD_REACTORS
330
FAB
102
}
330
FAB
100
AcDbScale
70
0
300
1/32" = 1'-0"
140
0.03125
141
12.0
290
0
0
SCALE
5
FC0
102
{ACAD_REACTORS
330
FAB
102
}
330
FAB
100
AcDbScale
70
0
300
1/16" = 1'-0"
140
0.0625
141
12.0
290
0
0
SCALE
5
FC1
102
{ACAD_REACTORS
330
FAB
102
}
330
FAB
100
AcDbScale
70
0
300
3/32" = 1'-0"
140
0.09375
141
12.0
290
0
0
SCALE
5
FC2
102
{ACAD_REACTORS
330
FAB
102
}
330
FAB
100
AcDbScale
70
0
300
1/8" = 1'-0"
140
0.125
141
12.0
290
0
0
SCALE
5
FC3
102
{ACAD_REACTORS
330
FAB
102
}
330
FAB
100
AcDbScale
70
0
300
3/16" = 1'-0"
140
0.1875
141
12.0
290
0
0
SCALE
5
FC4
102
{ACAD_REACTORS
330
FAB
102
}
330
FAB
100
AcDbScale
70
0
300
1/4" = 1'-0"
140
0.25
141
12.0
290
0
0
SCALE
5
FC5
102
{ACAD_REACTORS
330
FAB
102
}
330
FAB
100
AcDbScale
70
0
300
3/8" = 1'-0"
140
0.375
141
12.0
290
0
0
SCALE
5
FC6
102
{ACAD_REACTORS
330
FAB
102
}
330
FAB
100
AcDbScale
70
0
300
1/2" = 1'-0"
140
0.5
141
12.0
290
0
0
SCALE
5
FC7
102
{ACAD_REACTORS
330
FAB
102
}
330
FAB
100
AcDbScale
70
0
300
3/4" = 1'-0"
140
0.75
141
12.0
290
0
0
SCALE
5
FC8
102
{ACAD_REACTORS
330
FAB
102
}
330
FAB
100
AcDbScale
70
0
300
1" = 1'-0"
140
1.0
141
12.0
290
0
0
SCALE
5
FC9
102
{ACAD_REACTORS
330
FAB
102
}
330
FAB
100
AcDbScale
70
0
300
1-1/2" = 1'-0"
140
1.5
141
12.0
290
0
0
SCALE
5
FCA
102
{ACAD_REACTORS
330
FAB
102
}
330
FAB
100
AcDbScale
70
0
300
3" = 1'-0"
140
3.0
141
12.0
290
0
0
SCALE
5
FCB
102
{ACAD_REACTORS
330
FAB
102
}
330
FAB
100
AcDbScale
70
0
300
6" = 1'-0"
140
6.0
141
12.0
290
0
0
SCALE
5
FCC
102
{ACAD_REACTORS
330
FAB
102
}
330
FAB
100
AcDbScale
70
0
300
1'-0" = 1'-0"
140
12.0
141
12.0
290
0
0
TABLESTYLE
5
FA9
102
{ACAD_XDICTIONARY
360
FF8
102
}
102
{ACAD_REACTORS
330
FA8
102
}
330
FA8
100
AcDbTableStyle
3
Standard
70
0
71
0
40
0.06
41
0.06
280
0
281
0
7
Standard
140
0.18
170
2
62
0
63
7
283
0
274
-2
284
1
64
0
275
-2
285
1
65
0
276
-2
286
1
66
0
277
-2
287
1
67
0
278
-2
288
1
68
0
279
-2
289
1
69
0
7
Standard
140
0.25
170
5
62
0
63
7
283
0
274
-2
284
1
64
0
275
-2
285
1
65
0
276
-2
286
1
66
0
277
-2
287
1
67
0
278
-2
288
1
68
0
279
-2
289
1
69
0
7
Standard
140
0.18
170
5
62
0
63
7
283
0
274
-2
284
1
64
0
275
-2
285
1
65
0
276
-2
286
1
66
0
277
-2
287
1
67
0
278
-2
288
1
68
0
279
-2
289
1
69
0
0
VISUALSTYLE
5
F99
102
{ACAD_XDICTIONARY
360
108A
102
}
102
{ACAD_REACTORS
330
F93
102
}
330
F93
100
AcDbVisualStyle
2

70
4
71
0
72
2
73
0
90
0
40
-0.6
41
-30.0
62
5
63
7
74
1
91
4
64
7
65
257
75
1
175
1
42
1.0
92
0
66
257
43
1.0
76
1
77
6
78
2
67
7
79
5
170
0
171
0
290
0
174
0
93
1
44
0.0
173
0
291
0
45
0.0
1001
ACAD
1000
AcDbSavedByObjectVersion
1070
0
0
VISUALSTYLE
5
F9B
102
{ACAD_XDICTIONARY
360
108E
102
}
102
{ACAD_REACTORS
330
F93
102
}
330
F93
100
AcDbVisualStyle
2

70
6
71
1
72
2
73
2
90
0
40
-0.6
41
-30.0
62
5
63
7
74
2
91
2
64
7
65
257
75
2
175
1
42
179.0
92
0
66
257
43
1.0
76
1
77
6
78
2
67
7
79
3
170
0
171
0
290
0
174
0
93
1
44
0.0
173
0
291
0
45
0.0
1001
ACAD
1000
AcDbSavedByObjectVersion
1070
0
0
VISUALSTYLE
5
F9A
102
{ACAD_XDICTIONARY
360
108C
102
}
102
{ACAD_REACTORS
330
F93
102
}
330
F93
100
AcDbVisualStyle
2

70
5
71
0
72
2
73
0
90
0
40
-0.6
41
-30.0
62
5
63
7
74
1
91
4
64
7
65
257
75
1
175
1
42
1.0
92
0
66
257
43
1.0
76
1
77
6
78
2
67
7
79
5
170
0
171
0
290
0
174
0
93
1
44
0.0
173
0
291
0
45
0.0
1001
ACAD
1000
AcDbSavedByObjectVersion
1070
0
0
VISUALSTYLE
5
F98
102
{ACAD_XDICTIONARY
360
1088
102
}
102
{ACAD_REACTORS
330
F93
102
}
330
F93
100
AcDbVisualStyle
2

70
7
71
1
72
0
73
1
90
0
40
-0.6
41
-30.0
62
5
63
7
74
0
91
4
64
7
65
257
75
1
175
1
42
1.0
92
8
66
7
43
1.0
76
1
77
6
78
2
67
7
79
5
170
0
171
0
290
0
174
0
93
1
44
0.0
173
0
291
1
45
0.0
1001
ACAD
1000
AcDbSavedByObjectVersion
1070
0
0
VISUALSTYLE
5
F9F
102
{ACAD_XDICTIONARY
360
1096
102
}
102
{ACAD_REACTORS
330
F93
102
}
330
F93
100
AcDbVisualStyle
2

70
12
71
2
72
2
73
0
90
0
40
-0.6
41
-30.0
62
5
63
7
74
1
91
4
64
7
65
257
75
1
175
1
42
1.0
92
8
66
7
43
1.0
76
1
77
6
78
2
67
7
79
5
170
0
171
0
290
0
174
0
93
1
44
50.0
173
0
291
1
45
0.0
1001
ACAD
1000
AcDbSavedByObjectVersion
1070
0
0
VISUALSTYLE
5
FA3
102
{ACAD_XDICTIONARY
360
109E
102
}
102
{ACAD_REACTORS
330
F93
102
}
330
F93
100
AcDbVisualStyle
2

70
16
71
2
72
2
73
3
90
0
40
-0.6
41
-30.0
62
5
63
8
74
1
91
4
64
7
65
257
75
1
175
1
42
1.0
92
8
66
8
43
1.0
76
1
77
6
78
2
67
7
79
5
170
0
171
0
290
0
174
0
93
1
44
0.0
173
0
291
1
45
0.0
1001
ACAD
1000
AcDbSavedByObjectVersion
1070
0
0
VISUALSTYLE
5
F9C
102
{ACAD_XDICTIONARY
360
1090
102
}
102
{ACAD_REACTORS
330
F93
102
}
330
F93
100
AcDbVisualStyle
2

70
9
71
3
72
2
73
0
90
0
40
-0.6
41
-30.0
62
5
63
7
74
2
91
2
64
7
65
257
75
1
175
1
42
179.0
92
8
66
7
43
1.0
76
1
77
6
78
2
67
7
79
3
170
0
171
0
290
0
174
0
93
1
44
0.0
173
0
291
0
45
0.0
1001
ACAD
1000
AcDbSavedByObjectVersion
1070
0
0
VISUALSTYLE
5
F9E
102
{ACAD_XDICTIONARY
360
1094
102
}
102
{ACAD_REACTORS
330
F93
102
}
330
F93
100
AcDbVisualStyle
2

70
11
71
2
72
2
73
0
90
0
40
-0.6
41
-30.0
62
5
63
7
74
1
91
4
64
7
65
257
75
1
175
1
42
1.0
92
8
66
7
43
1.0
76
1
77
6
78
2
67
7
79
5
170
0
171
0
290
0
174
0
93
1
44
-50.0
173
0
291
1
45
0.0
1001
ACAD
1000
AcDbSavedByObjectVersion
1070
0
0
VISUALSTYLE
5
FA6
102
{ACAD_XDICTIONARY
360
10A4
102
}
102
{ACAD_REACTORS
330
F93
102
}
330
F93
100
AcDbVisualStyle
2

70
22
71
2
72
2
73
0
90
0
40
-0.6
41
-30.0
62
5
63
7
74
1
91
4
64
7
65
257
75
1
175
1
42
1.0
92
8
66
7
43
1.0
76
1
77
6
78
2
67
7
79
5
170
0
171
0
290
0
174
0
93
1
44
0.0
173
0
291
1
45
0.0
1001
ACAD
1000
AcDbSavedByObjectVersion
1070
0
0
VISUALSTYLE
5
FA2
102
{ACAD_XDICTIONARY
360
109C
102
}
102
{ACAD_REACTORS
330
F93
102
}
330
F93
100
AcDbVisualStyle
2

70
15
71
2
72
2
73
0
90
0
40
-0.6
41
-30.0
62
5
63
7
74
1
91
4
64
7
65
257
75
1
175
1
42
1.0
92
8
66
7
43
1.0
76
1
77
6
78
2
67
7
79
5
170
0
171
0
290
0
174
0
93
1
44
0.0
173
0
291
1
45
0.0
1001
ACAD
1000
AcDbSavedByObjectVersion
1070
0
0
VISUALSTYLE
5
F94
102
{ACAD_XDICTIONARY
360
1080
102
}
102
{ACAD_REACTORS
330
F93
102
}
330
F93
100
AcDbVisualStyle
2

70
0
71
2
72
1
73
1
90
2
40
-0.6
41
30.0
62
5
63
7
74
0
91
4
64
7
65
257
75
1
175
1
42
1.0
92
8
66
7
43
1.0
76
1
77
6
78
2
67
7
79
5
170
0
171
0
290
0
174
0
93
13
44
0.0
173
0
291
1
45
0.0
1001
ACAD
1000
AcDbSavedByObjectVersion
1070
0
0
VISUALSTYLE
5
F95
102
{ACAD_XDICTIONARY
360
1082
102
}
102
{ACAD_REACTORS
330
F93
102
}
330
F93
100
AcDbVisualStyle
2

70
1
71
2
72
1
73
1
90
2
40
-0.6
41
30.0
62
5
63
7
74
1
91
4
64
7
65
257
75
1
175
1
42
1.0
92
0
66
257
43
1.0
76
1
77
6
78
2
67
7
79
5
170
0
171
0
290
0
174
0
93
13
44
0.0
173
0
291
1
45
0.0
1001
ACAD
1000
AcDbSavedByObjectVersion
1070
0
0
VISUALSTYLE
5
F96
102
{ACAD_XDICTIONARY
360
1084
102
}
102
{ACAD_REACTORS
330
F93
102
}
330
F93
100
AcDbVisualStyle
2

70
2
71
2
72
2
73
1
90
2
40
-0.6
41
30.0
62
5
63
7
74
0
91
4
64
7
65
257
75
1
175
1
42
1.0
92
0
66
7
43
1.0
76
1
77
6
78
2
67
7
79
5
170
0
171
0
290
0
174
0
93
13
44
0.0
173
0
291
1
45
0.0
1001
ACAD
1000
AcDbSavedByObjectVersion
1070
0
0
VISUALSTYLE
5
F97
102
{ACAD_XDICTIONARY
360
1086
102
}
102
{ACAD_REACTORS
330
F93
102
}
330
F93
100
AcDbVisualStyle
2

70
3
71
2
72
2
73
1
90
2
40
-0.6
41
30.0
62
5
63
7
74
1
91
4
64
7
65
257
75
1
175
1
42
1.0
92
0
66
257
43
1.0
76
1
77
6
78
2
67
7
79
5
170
0
171
0
290
0
174
0
93
13
44
0.0
173
0
291
1
45
0.0
1001
ACAD
1000
AcDbSavedByObjectVersion
1070
0
0
VISUALSTYLE
5
FA4
102
{ACAD_XDICTIONARY
360
10A0
102
}
102
{ACAD_REACTORS
330
F93
102
}
330
F93
100
AcDbVisualStyle
2

70
20
71
2
72
2
73
0
90
0
40
-0.6
41
-30.0
62
5
63
7
74
1
91
4
64
7
65
257
75
1
175
1
42
1.0
92
10
66
7
43
1.0
76
1
77
6
78
2
67
7
79
5
170
0
171
0
290
0
174
0
93
1
44
0.0
173
0
291
1
45
0.0
1001
ACAD
1000
AcDbSavedByObjectVersion
1070
0
0
VISUALSTYLE
5
FA1
102
{ACAD_XDICTIONARY
360
109A
102
}
102
{ACAD_REACTORS
330
F93
102
}
330
F93
100
AcDbVisualStyle
2

70
14
71
2
72
2
73
0
90
0
40
-0.6
41
-30.0
62
5
63
7
74
1
91
4
64
7
65
257
75
7
175
7
42
1.0
92
8
66
7
43
1.0
76
1
77
6
78
2
67
7
79
5
170
0
171
0
290
0
174
0
93
1
44
0.0
173
0
291
1
45
0.0
1001
ACAD
1000
AcDbSavedByObjectVersion
1070
0
0
VISUALSTYLE
5
FA5
102
{ACAD_XDICTIONARY
360
10A2
102
}
102
{ACAD_REACTORS
330
F93
102
}
330
F93
100
AcDbVisualStyle
2

70
21
71
2
72
2
73
0
90
0
40
-0.6
41
-30.0
62
5
63
7
74
1
91
4
64
7
65
257
75
1
175
1
42
1.0
92
9
66
7
43
1.0
76
1
77
6
78
2
67
7
79
5
170
0
171
0
290
0
174
0
93
1
44
0.0
173
0
291
1
45
0.0
1001
ACAD
1000
AcDbSavedByObjectVersion
1070
0
0
VISUALSTYLE
5
F9D
102
{ACAD_XDICTIONARY
360
1092
102
}
102
{ACAD_REACTORS
330
F93
102
}
330
F93
100
AcDbVisualStyle
2

70
8
71
2
72
2
73
0
90
0
40
-0.6
41
-30.0
62
5
63
7
74
1
91
0
64
7
65
257
75
1
175
1
42
1.0
92
8
66
8
43
1.0
76
1
77
6
78
2
67
7
79
5
170
0
171
0
290
0
174
0
93
13
44
0.0
173
0
291
0
45
0.0
1001
ACAD
1000
AcDbSavedByObjectVersion
1070
0
0
VISUALSTYLE
5
FA0
102
{ACAD_XDICTIONARY
360
1098
102
}
102
{ACAD_REACTORS
330
F93
102
}
330
F93
100
AcDbVisualStyle
2

70
13
71
2
72
2
73
0
90
0
40
-0.6
41
-30.0
62
5
63
7
74
1
91
4
64
7
65
257
75
1
175
1
42
1.0
92
12
66
7
43
1.0
76
1
77
6
78
2
67
7
79
5
170
0
171
0
290
0
174
0
93
1
44
0.0
173
0
291
1
45
0.0
1001
ACAD
1000
AcDbSavedByObjectVersion
1070
0
0
DICTIONARYVAR
5
FF3
102
{ACAD_REACTORS
330
FF0
102
}
330
FF0
100
DictionaryVariables
280
0
1
1:1
0
DICTIONARYVAR
5
FF2
102
{ACAD_REACTORS
330
FF0
102
}
330
FF0
100
DictionaryVariables
280
0
1
STANDARD
0
DICTIONARYVAR
5
FF1
102
{ACAD_REACTORS
330
FF0
102
}
330
FF0
100
DictionaryVariables
280
0
1
STANDARD
0
DICTIONARYVAR
5
FF6
102
{ACAD_REACTORS
330
FF0
102
}
330
FF0
100
DictionaryVariables
280
0
1
1
0
DICTIONARYVAR
5
FF5
102
{ACAD_REACTORS
330
FF0
102
}
330
FF0
100
DictionaryVariables
280
0
1
0
0
DICTIONARYVAR
5
FF4
102
{ACAD_REACTORS
330
FF0
102
}
330
FF0
100
DictionaryVariables
280
0
1
127
0
DICTIONARYVAR
5
1078
102
{ACAD_REACTORS
330
FF0
102
}
330
FF0
100
DictionaryVariables
280
0
1
2
0
DICTIONARY
5
10A9
330
FD1
100
AcDbDictionary
280
1
281
1
3
ACAD_XREC_ROUNDTRIP
360
10AA
0
DICTIONARY
5
10A7
330
FD0
100
AcDbDictionary
280
1
281
1
3
ACAD_XREC_ROUNDTRIP
360
10A8
0
DICTIONARY
5
F84
330
F83
100
AcDbDictionary
280
1
281
1
3
ACAD_XREC_ROUNDTRIP
360
FFF
3
BUMPTILE
360
F86
3
DIFFUSETILE
360
F85
3
OPACITYTILE
360
F89
3
REFLECTIONTILE
360
F88
3
REFRACTIONTILE
360
F8A
3
SPECULARTILE
360
F87
0
DICTIONARY
5
F7C
330
F7B
100
AcDbDictionary
280
1
281
1
3
ACAD_XREC_ROUNDTRIP
360
FFE
3
BUMPTILE
360
F7E
3
DIFFUSETILE
360
F7D
3
OPACITYTILE
360
F81
3
REFLECTIONTILE
360
F80
3
REFRACTIONTILE
360
F82
3
SPECULARTILE
360
F7F
0
DICTIONARY
5
F8C
330
F8B
100
AcDbDictionary
280
1
281
1
3
ACAD_XREC_ROUNDTRIP
360
1000
3
BUMPTILE
360
F8E
3
DIFFUSETILE
360
F8D
3
OPACITYTILE
360
F91
3
REFLECTIONTILE
360
F90
3
REFRACTIONTILE
360
F92
3
SPECULARTILE
360
F8F
0
DICTIONARY
5
FF8
330
FA9
100
AcDbDictionary
280
1
281
1
3
ACAD_ROUNDTRIP_2008_TABLESTYLE_CELLSTYLEMAP
360
1079
3
ACAD_XREC_ROUNDTRIP
360
10A6
0
DICTIONARY
5
108A
330
F99
100
AcDbDictionary
280
1
281
1
3
ACAD_XREC_ROUNDTRIP
360
108B
0
DICTIONARY
5
108E
330
F9B
100
AcDbDictionary
280
1
281
1
3
ACAD_XREC_ROUNDTRIP
360
108F
0
DICTIONARY
5
108C
330
F9A
100
AcDbDictionary
280
1
281
1
3
ACAD_XREC_ROUNDTRIP
360
108D
0
DICTIONARY
5
1088
330
F98
100
AcDbDictionary
280
1
281
1
3
ACAD_XREC_ROUNDTRIP
360
1089
0
DICTIONARY
5
1096
330
F9F
100
AcDbDictionary
280
1
281
1
3
ACAD_XREC_ROUNDTRIP
360
1097
0
DICTIONARY
5
109E
330
FA3
100
AcDbDictionary
280
1
281
1
3
ACAD_XREC_ROUNDTRIP
360
109F
0
DICTIONARY
5
1090
330
F9C
100
AcDbDictionary
280
1
281
1
3
ACAD_XREC_ROUNDTRIP
360
1091
0
DICTIONARY
5
1094
330
F9E
100
AcDbDictionary
280
1
281
1
3
ACAD_XREC_ROUNDTRIP
360
1095
0
DICTIONARY
5
10A4
330
FA6
100
AcDbDictionary
280
1
281
1
3
ACAD_XREC_ROUNDTRIP
360
10A5
0
DICTIONARY
5
109C
330
FA2
100
AcDbDictionary
280
1
281
1
3
ACAD_XREC_ROUNDTRIP
360
109D
0
DICTIONARY
5
1080
330
F94
100
AcDbDictionary
280
1
281
1
3
ACAD_XREC_ROUNDTRIP
360
1081
0
DICTIONARY
5
1082
330
F95
100
AcDbDictionary
280
1
281
1
3
ACAD_XREC_ROUNDTRIP
360
1083
0
DICTIONARY
5
1084
330
F96
100
AcDbDictionary
280
1
281
1
3
ACAD_XREC_ROUNDTRIP
360
1085
0
DICTIONARY
5
1086
330
F97
100
AcDbDictionary
280
1
281
1
3
ACAD_XREC_ROUNDTRIP
360
1087
0
DICTIONARY
5
10A0
330
FA4
100
AcDbDictionary
280
1
281
1
3
ACAD_XREC_ROUNDTRIP
360
10A1
0
DICTIONARY
5
109A
330
FA1
100
AcDbDictionary
280
1
281
1
3
ACAD_XREC_ROUNDTRIP
360
109B
0
DICTIONARY
5
10A2
330
FA5
100
AcDbDictionary
280
1
281
1
3
ACAD_XREC_ROUNDTRIP
360
10A3
0
DICTIONARY
5
1092
330
F9D
100
AcDbDictionary
280
1
281
1
3
ACAD_XREC_ROUNDTRIP
360
1093
0
DICTIONARY
5
1098
330
FA0
100
AcDbDictionary
280
1
281
1
3
ACAD_XREC_ROUNDTRIP
360
1099
0
XRECORD
5
10AA
102
{ACAD_REACTORS
330
10A9
102
}
330
10A9
100
AcDbXrecord
280
1
102
SHADEPLOT
70
0
102
SHADEPLOTRESLEVEL
70
2
102
SHADEPLOTCUSTOMDPI
70
300
0
XRECORD
5
10A8
102
{ACAD_REACTORS
330
10A7
102
}
330
10A7
100
AcDbXrecord
280
1
102
SHADEPLOT
70
0
102
SHADEPLOTRESLEVEL
70
2
102
SHADEPLOTCUSTOMDPI
70
300
0
XRECORD
5
FFF
102
{ACAD_REACTORS
330
F84
102
}
330
F84
100
AcDbXrecord
280
1
102
MATERIAL
148
0.0
149
0.0
149
0.0
93
0
94
127
282
0
72
0
77
0
171
0
175
0
179
0
273
0
0
XRECORD
5
F86
102
{ACAD_REACTORS
330
F84
102
}
330
F84
100
AcDbXrecord
280
1
270
1
271
1
0
XRECORD
5
F85
102
{ACAD_REACTORS
330
F84
102
}
330
F84
100
AcDbXrecord
280
1
270
1
271
1
0
XRECORD
5
F89
102
{ACAD_REACTORS
330
F84
102
}
330
F84
100
AcDbXrecord
280
1
270
1
271
1
0
XRECORD
5
F88
102
{ACAD_REACTORS
330
F84
102
}
330
F84
100
AcDbXrecord
280
1
270
1
271
1
0
XRECORD
5
F8A
102
{ACAD_REACTORS
330
F84
102
}
330
F84
100
AcDbXrecord
280
1
270
1
271
1
0
XRECORD
5
F87
102
{ACAD_REACTORS
330
F84
102
}
330
F84
100
AcDbXrecord
280
1
270
1
271
1
0
XRECORD
5
FFE
102
{ACAD_REACTORS
330
F7C
102
}
330
F7C
100
AcDbXrecord
280
1
102
MATERIAL
148
0.0
149
0.0
149
0.0
93
0
94
127
282
0
72
0
77
0
171
0
175
0
179
0
273
0
0
XRECORD
5
F7E
102
{ACAD_REACTORS
330
F7C
102
}
330
F7C
100
AcDbXrecord
280
1
270
1
271
1
0
XRECORD
5
F7D
102
{ACAD_REACTORS
330
F7C
102
}
330
F7C
100
AcDbXrecord
280
1
270
1
271
1
0
XRECORD
5
F81
102
{ACAD_REACTORS
330
F7C
102
}
330
F7C
100
AcDbXrecord
280
1
270
1
271
1
0
XRECORD
5
F80
102
{ACAD_REACTORS
330
F7C
102
}
330
F7C
100
AcDbXrecord
280
1
270
1
271
1
0
XRECORD
5
F82
102
{ACAD_REACTORS
330
F7C
102
}
330
F7C
100
AcDbXrecord
280
1
270
1
271
1
0
XRECORD
5
F7F
102
{ACAD_REACTORS
330
F7C
102
}
330
F7C
100
AcDbXrecord
280
1
270
1
271
1
0
XRECORD
5
1000
102
{ACAD_REACTORS
330
F8C
102
}
330
F8C
100
AcDbXrecord
280
1
102
MATERIAL
148
0.0
149
0.0
149
0.0
93
0
94
127
282
0
72
0
77
0
171
0
175
0
179
0
273
0
0
XRECORD
5
F8E
102
{ACAD_REACTORS
330
F8C
102
}
330
F8C
100
AcDbXrecord
280
1
270
1
271
1
0
XRECORD
5
F8D
102
{ACAD_REACTORS
330
F8C
102
}
330
F8C
100
AcDbXrecord
280
1
270
1
271
1
0
XRECORD
5
F91
102
{ACAD_REACTORS
330
F8C
102
}
330
F8C
100
AcDbXrecord
280
1
270
1
271
1
0
XRECORD
5
F90
102
{ACAD_REACTORS
330
F8C
102
}
330
F8C
100
AcDbXrecord
280
1
270
1
271
1
0
XRECORD
5
F92
102
{ACAD_REACTORS
330
F8C
102
}
330
F8C
100
AcDbXrecord
280
1
270
1
271
1
0
XRECORD
5
F8F
102
{ACAD_REACTORS
330
F8C
102
}
330
F8C
100
AcDbXrecord
280
1
270
1
271
1
0
CELLSTYLEMAP
5
1079
102
{ACAD_REACTORS
330
FF8
102
}
330
FF8
100
AcDbCellStyleMap
90
3
300
CELLSTYLE
1
TABLEFORMAT_BEGIN
90
5
170
1
91
0
92
32768
62
257
93
1
300
CONTENTFORMAT
1
CONTENTFORMAT_BEGIN
90
0
91
0
92
512
93
0
300

40
0.0
140
1.0
94
5
62
0
340
253
144
0.25
309
CONTENTFORMAT_END
171
1
301
MARGIN
1
CELLMARGIN_BEGIN
40
0.06
40
0.06
40
0.06
40
0.06
40
0.18
40
0.18
309
CELLMARGIN_END
94
6
95
1
302
GRIDFORMAT
1
GRIDFORMAT_BEGIN
90
0
91
1
62
0
92
-2
340
0
93
0
40
0.045
309
GRIDFORMAT_END
95
2
302
GRIDFORMAT
1
GRIDFORMAT_BEGIN
90
0
91
1
62
0
92
-2
340
0
93
0
40
0.045
309
GRIDFORMAT_END
95
4
302
GRIDFORMAT
1
GRIDFORMAT_BEGIN
90
0
91
1
62
0
92
-2
340
0
93
0
40
0.045
309
GRIDFORMAT_END
95
8
302
GRIDFORMAT
1
GRIDFORMAT_BEGIN
90
0
91
1
62
0
92
-2
340
0
93
0
40
0.045
309
GRIDFORMAT_END
95
16
302
GRIDFORMAT
1
GRIDFORMAT_BEGIN
90
0
91
1
62
0
92
-2
340
0
93
0
40
0.045
309
GRIDFORMAT_END
95
32
302
GRIDFORMAT
1
GRIDFORMAT_BEGIN
90
0
91
1
62
0
92
-2
340
0
93
0
40
0.045
309
GRIDFORMAT_END
309
TABLEFORMAT_END
1
CELLSTYLE_BEGIN
90
1
91
1
300
_TITLE
309
CELLSTYLE_END
300
CELLSTYLE
1
TABLEFORMAT_BEGIN
90
5
170
1
91
0
92
0
62
257
93
1
300
CONTENTFORMAT
1
CONTENTFORMAT_BEGIN
90
0
91
0
92
512
93
0
300

40
0.0
140
1.0
94
5
62
0
340
253
144
0.18
309
CONTENTFORMAT_END
171
1
301
MARGIN
1
CELLMARGIN_BEGIN
40
0.06
40
0.06
40
0.06
40
0.06
40
0.18
40
0.18
309
CELLMARGIN_END
94
6
95
1
302
GRIDFORMAT
1
GRIDFORMAT_BEGIN
90
0
91
1
62
0
92
-2
340
0
93
0
40
0.045
309
GRIDFORMAT_END
95
2
302
GRIDFORMAT
1
GRIDFORMAT_BEGIN
90
0
91
1
62
0
92
-2
340
0
93
0
40
0.045
309
GRIDFORMAT_END
95
4
302
GRIDFORMAT
1
GRIDFORMAT_BEGIN
90
0
91
1
62
0
92
-2
340
0
93
0
40
0.045
309
GRIDFORMAT_END
95
8
302
GRIDFORMAT
1
GRIDFORMAT_BEGIN
90
0
91
1
62
0
92
-2
340
0
93
0
40
0.045
309
GRIDFORMAT_END
95
16
302
GRIDFORMAT
1
GRIDFORMAT_BEGIN
90
0
91
1
62
0
92
-2
340
0
93
0
40
0.045
309
GRIDFORMAT_END
95
32
302
GRIDFORMAT
1
GRIDFORMAT_BEGIN
90
0
91
1
62
0
92
-2
340
0
93
0
40
0.045
309
GRIDFORMAT_END
309
TABLEFORMAT_END
1
CELLSTYLE_BEGIN
90
2
91
1
300
_HEADER
309
CELLSTYLE_END
300
CELLSTYLE
1
TABLEFORMAT_BEGIN
90
5
170
1
91
0
92
0
62
257
93
1
300
CONTENTFORMAT
1
CONTENTFORMAT_BEGIN
90
0
91
0
92
512
93
0
300

40
0.0
140
1.0
94
2
62
0
340
253
144
0.18
309
CONTENTFORMAT_END
171
1
301
MARGIN
1
CELLMARGIN_BEGIN
40
0.06
40
0.06
40
0.06
40
0.06
40
0.18
40
0.18
309
CELLMARGIN_END
94
6
95
1
302
GRIDFORMAT
1
GRIDFORMAT_BEGIN
90
0
91
1
62
0
92
-2
340
0
93
0
40
0.045
309
GRIDFORMAT_END
95
2
302
GRIDFORMAT
1
GRIDFORMAT_BEGIN
90
0
91
1
62
0
92
-2
340
0
93
0
40
0.045
309
GRIDFORMAT_END
95
4
302
GRIDFORMAT
1
GRIDFORMAT_BEGIN
90
0
91
1
62
0
92
-2
340
0
93
0
40
0.045
309
GRIDFORMAT_END
95
8
302
GRIDFORMAT
1
GRIDFORMAT_BEGIN
90
0
91
1
62
0
92
-2
340
0
93
0
40
0.045
309
GRIDFORMAT_END
95
16
302
GRIDFORMAT
1
GRIDFORMAT_BEGIN
90
0
91
1
62
0
92
-2
340
0
93
0
40
0.045
309
GRIDFORMAT_END
95
32
302
GRIDFORMAT
1
GRIDFORMAT_BEGIN
90
0
91
1
62
0
92
-2
340
0
93
0
40
0.045
309
GRIDFORMAT_END
309
TABLEFORMAT_END
1
CELLSTYLE_BEGIN
90
3
91
2
300
_DATA
309
CELLSTYLE_END
0
XRECORD
5
10A6
102
{ACAD_REACTORS
330
FF8
102
}
330
FF8
100
AcDbXrecord
280
1
102
ACAD_ROUNDTRIP_PRE2007_TABLESTYLE
90
512
91
0
1

92
512
93
0
2

94
512
95
0
3

0
XRECORD
5
108B
102
{ACAD_REACTORS
330
108A
102
}
330
108A
100
AcDbXrecord
280
1
102
RTVSPropertyOp0
70
1
102
RTVSPropertyOp1
70
1
102
RTVSPropertyOp2
70
1
102
RTVSPropertyOp3
70
1
102
RTVSPropertyOp4
70
1
102
RTVSPropertyOp5
70
1
102
RTVSPropertyOp6
70
1
102
RTVSPropertyOp7
70
1
102
RTVSPropertyOp8
70
1
102
RTVSPropertyOp9
70
1
102
RTVSPropertyOp10
70
1
102
RTVSPropertyOp11
70
1
102
RTVSPropertyOp12
70
1
102
RTVSPropertyOp13
70
1
102
RTVSPropertyOp14
70
1
102
RTVSPropertyOp15
70
1
102
RTVSPropertyOp16
70
1
102
RTVSPropertyOp17
70
1
102
RTVSPropertyOp18
70
1
102
RTVSPropertyOp19
70
1
102
RTVSPropertyOp20
70
1
102
RTVSPropertyOp21
70
1
102
RTVSPropertyOp22
70
1
102
RTVSPropertyOp23
70
1
102
RTVSPropertyOp24
70
1
102
RTVSPropertyOp25
70
1
102
RTVSPropertyOp26
70
1
102
RTVSPropertyOp27
70
1
0
XRECORD
5
108F
102
{ACAD_REACTORS
330
108E
102
}
330
108E
100
AcDbXrecord
280
1
102
RTVSPropertyOp0
70
1
102
RTVSPropertyOp1
70
1
102
RTVSPropertyOp2
70
1
102
RTVSPropertyOp3
70
1
102
RTVSPropertyOp4
70
1
102
RTVSPropertyOp5
70
1
102
RTVSPropertyOp6
70
1
102
RTVSPropertyOp7
70
1
102
RTVSPropertyOp8
70
1
102
RTVSPropertyOp9
70
1
102
RTVSPropertyOp10
70
1
102
RTVSPropertyOp11
70
1
102
RTVSPropertyOp12
70
1
102
RTVSPropertyOp13
70
1
102
RTVSPropertyOp14
70
1
102
RTVSPropertyOp15
70
1
102
RTVSPropertyOp16
70
1
102
RTVSPropertyOp17
70
1
102
RTVSPropertyOp18
70
1
102
RTVSPropertyOp19
70
1
102
RTVSPropertyOp20
70
1
102
RTVSPropertyOp21
70
1
102
RTVSPropertyOp22
70
1
102
RTVSPropertyOp23
70
1
102
RTVSPropertyOp24
70
1
102
RTVSPropertyOp25
70
1
102
RTVSPropertyOp26
70
1
102
RTVSPropertyOp27
70
1
0
XRECORD
5
108D
102
{ACAD_REACTORS
330
108C
102
}
330
108C
100
AcDbXrecord
280
1
102
RTVSPropertyOp0
70
1
102
RTVSPropertyOp1
70
1
102
RTVSPropertyOp2
70
1
102
RTVSPropertyOp3
70
1
102
RTVSPropertyOp4
70
1
102
RTVSPropertyOp5
70
1
102
RTVSPropertyOp6
70
1
102
RTVSPropertyOp7
70
1
102
RTVSPropertyOp8
70
1
102
RTVSPropertyOp9
70
1
102
RTVSPropertyOp10
70
1
102
RTVSPropertyOp11
70
1
102
RTVSPropertyOp12
70
1
102
RTVSPropertyOp13
70
1
102
RTVSPropertyOp14
70
1
102
RTVSPropertyOp15
70
1
102
RTVSPropertyOp16
70
1
102
RTVSPropertyOp17
70
1
102
RTVSPropertyOp18
70
1
102
RTVSPropertyOp19
70
1
102
RTVSPropertyOp20
70
1
102
RTVSPropertyOp21
70
1
102
RTVSPropertyOp22
70
1
102
RTVSPropertyOp23
70
1
102
RTVSPropertyOp24
70
1
102
RTVSPropertyOp25
70
1
102
RTVSPropertyOp26
70
1
102
RTVSPropertyOp27
70
1
0
XRECORD
5
1089
102
{ACAD_REACTORS
330
1088
102
}
330
1088
100
AcDbXrecord
280
1
102
RTVSPropertyOp0
70
1
102
RTVSPropertyOp1
70
1
102
RTVSPropertyOp2
70
1
102
RTVSPropertyOp3
70
1
102
RTVSPropertyOp4
70
1
102
RTVSPropertyOp5
70
1
102
RTVSPropertyOp6
70
1
102
RTVSPropertyOp7
70
1
102
RTVSPropertyOp8
70
1
102
RTVSPropertyOp9
70
1
102
RTVSPropertyOp10
70
1
102
RTVSPropertyOp11
70
1
102
RTVSPropertyOp12
70
1
102
RTVSPropertyOp13
70
1
102
RTVSPropertyOp14
70
1
102
RTVSPropertyOp15
70
1
102
RTVSPropertyOp16
70
1
102
RTVSPropertyOp17
70
1
102
RTVSPropertyOp18
70
1
102
RTVSPropertyOp19
70
1
102
RTVSPropertyOp20
70
1
102
RTVSPropertyOp21
70
1
102
RTVSPropertyOp22
70
1
102
RTVSPropertyOp23
70
1
102
RTVSPropertyOp24
70
1
102
RTVSPropertyOp25
70
1
102
RTVSPropertyOp26
70
1
102
RTVSPropertyOp27
70
1
0
XRECORD
5
1097
102
{ACAD_REACTORS
330
1096
102
}
330
1096
100
AcDbXrecord
280
1
102
RTVSPropertyOp0
70
1
102
RTVSPropertyOp1
70
1
102
RTVSPropertyOp2
70
1
102
RTVSPropertyOp3
70
1
102
RTVSPropertyOp4
70
1
102
RTVSPropertyOp5
70
1
102
RTVSPropertyOp6
70
1
102
RTVSPropertyOp7
70
1
102
RTVSPropertyOp8
70
1
102
RTVSPropertyOp9
70
1
102
RTVSPropertyOp10
70
1
102
RTVSPropertyOp11
70
1
102
RTVSPropertyOp12
70
1
102
RTVSPropertyOp13
70
1
102
RTVSPropertyOp14
70
1
102
RTVSPropertyOp15
70
1
102
RTVSPropertyOp16
70
1
102
RTVSPropertyOp17
70
1
102
RTVSPropertyOp18
70
1
102
RTVSPropertyOp19
70
1
102
RTVSPropertyOp20
70
1
102
RTVSPropertyOp21
70
1
102
RTVSPropertyOp22
70
1
102
RTVSPropertyOp23
70
1
102
RTVSPropertyOp24
70
1
102
RTVSPropertyOp25
70
1
102
RTVSPropertyOp26
70
1
102
RTVSPropertyOp27
70
1
0
XRECORD
5
109F
102
{ACAD_REACTORS
330
109E
102
}
330
109E
100
AcDbXrecord
280
1
102
RTVSPropertyOp0
70
1
102
RTVSPropertyOp1
70
1
102
RTVSPropertyOp2
70
1
102
RTVSPropertyOp3
70
1
102
RTVSPropertyOp4
70
1
102
RTVSPropertyOp5
70
1
102
RTVSPropertyOp6
70
1
102
RTVSPropertyOp7
70
1
102
RTVSPropertyOp8
70
1
102
RTVSPropertyOp9
70
1
102
RTVSPropertyOp10
70
1
102
RTVSPropertyOp11
70
1
102
RTVSPropertyOp12
70
1
102
RTVSPropertyOp13
70
1
102
RTVSPropertyOp14
70
1
102
RTVSPropertyOp15
70
1
102
RTVSPropertyOp16
70
1
102
RTVSPropertyOp17
70
1
102
RTVSPropertyOp18
70
1
102
RTVSPropertyOp19
70
1
102
RTVSPropertyOp20
70
1
102
RTVSPropertyOp21
70
1
102
RTVSPropertyOp22
70
1
102
RTVSPropertyOp23
70
1
102
RTVSPropertyOp24
70
1
102
RTVSPropertyOp25
70
1
102
RTVSPropertyOp26
70
1
102
RTVSPropertyOp27
70
1
0
XRECORD
5
1091
102
{ACAD_REACTORS
330
1090
102
}
330
1090
100
AcDbXrecord
280
1
102
RTVSPropertyOp0
70
1
102
RTVSPropertyOp1
70
1
102
RTVSPropertyOp2
70
1
102
RTVSPropertyOp3
70
1
102
RTVSPropertyOp4
70
1
102
RTVSPropertyOp5
70
1
102
RTVSPropertyOp6
70
1
102
RTVSPropertyOp7
70
1
102
RTVSPropertyOp8
70
1
102
RTVSPropertyOp9
70
1
102
RTVSPropertyOp10
70
1
102
RTVSPropertyOp11
70
1
102
RTVSPropertyOp12
70
1
102
RTVSPropertyOp13
70
1
102
RTVSPropertyOp14
70
1
102
RTVSPropertyOp15
70
1
102
RTVSPropertyOp16
70
1
102
RTVSPropertyOp17
70
1
102
RTVSPropertyOp18
70
1
102
RTVSPropertyOp19
70
1
102
RTVSPropertyOp20
70
1
102
RTVSPropertyOp21
70
1
102
RTVSPropertyOp22
70
1
102
RTVSPropertyOp23
70
1
102
RTVSPropertyOp24
70
1
102
RTVSPropertyOp25
70
1
102
RTVSPropertyOp26
70
1
102
RTVSPropertyOp27
70
1
0
XRECORD
5
1095
102
{ACAD_REACTORS
330
1094
102
}
330
1094
100
AcDbXrecord
280
1
102
RTVSPropertyOp0
70
1
102
RTVSPropertyOp1
70
1
102
RTVSPropertyOp2
70
1
102
RTVSPropertyOp3
70
1
102
RTVSPropertyOp4
70
1
102
RTVSPropertyOp5
70
1
102
RTVSPropertyOp6
70
1
102
RTVSPropertyOp7
70
1
102
RTVSPropertyOp8
70
1
102
RTVSPropertyOp9
70
1
102
RTVSPropertyOp10
70
1
102
RTVSPropertyOp11
70
1
102
RTVSPropertyOp12
70
1
102
RTVSPropertyOp13
70
1
102
RTVSPropertyOp14
70
1
102
RTVSPropertyOp15
70
1
102
RTVSPropertyOp16
70
1
102
RTVSPropertyOp17
70
1
102
RTVSPropertyOp18
70
1
102
RTVSPropertyOp19
70
1
102
RTVSPropertyOp20
70
1
102
RTVSPropertyOp21
70
1
102
RTVSPropertyOp22
70
1
102
RTVSPropertyOp23
70
1
102
RTVSPropertyOp24
70
1
102
RTVSPropertyOp25
70
1
102
RTVSPropertyOp26
70
1
102
RTVSPropertyOp27
70
1
0
XRECORD
5
10A5
102
{ACAD_REACTORS
330
10A4
102
}
330
10A4
100
AcDbXrecord
280
1
102
RTVSPropertyOp0
70
0
102
RTVSPropertyOp1
70
0
102
RTVSPropertyOp2
70
0
102
RTVSPropertyOp3
70
0
102
RTVSPropertyOp4
70
0
102
RTVSPropertyOp5
70
0
102
RTVSPropertyOp6
70
0
102
RTVSPropertyOp7
70
0
102
RTVSPropertyOp8
70
0
102
RTVSPropertyOp9
70
0
102
RTVSPropertyOp10
70
0
102
RTVSPropertyOp11
70
0
102
RTVSPropertyOp12
70
0
102
RTVSPropertyOp13
70
0
102
RTVSPropertyOp14
70
2
102
RTVSPropertyOp15
70
0
102
RTVSPropertyOp16
70
0
102
RTVSPropertyOp17
70
0
102
RTVSPropertyOp18
70
0
102
RTVSPropertyOp19
70
0
102
RTVSPropertyOp20
70
0
102
RTVSPropertyOp21
70
0
102
RTVSPropertyOp22
70
0
102
RTVSPropertyOp23
70
0
102
RTVSPropertyOp24
70
0
102
RTVSPropertyOp25
70
0
102
RTVSPropertyOp26
70
0
102
RTVSPropertyOp27
70
0
0
XRECORD
5
109D
102
{ACAD_REACTORS
330
109C
102
}
330
109C
100
AcDbXrecord
280
1
102
RTVSPropertyOp0
70
1
102
RTVSPropertyOp1
70
1
102
RTVSPropertyOp2
70
1
102
RTVSPropertyOp3
70
1
102
RTVSPropertyOp4
70
1
102
RTVSPropertyOp5
70
1
102
RTVSPropertyOp6
70
1
102
RTVSPropertyOp7
70
1
102
RTVSPropertyOp8
70
1
102
RTVSPropertyOp9
70
1
102
RTVSPropertyOp10
70
1
102
RTVSPropertyOp11
70
1
102
RTVSPropertyOp12
70
1
102
RTVSPropertyOp13
70
1
102
RTVSPropertyOp14
70
1
102
RTVSPropertyOp15
70
1
102
RTVSPropertyOp16
70
1
102
RTVSPropertyOp17
70
1
102
RTVSPropertyOp18
70
1
102
RTVSPropertyOp19
70
1
102
RTVSPropertyOp20
70
1
102
RTVSPropertyOp21
70
1
102
RTVSPropertyOp22
70
1
102
RTVSPropertyOp23
70
1
102
RTVSPropertyOp24
70
1
102
RTVSPropertyOp25
70
1
102
RTVSPropertyOp26
70
1
102
RTVSPropertyOp27
70
1
0
XRECORD
5
1081
102
{ACAD_REACTORS
330
1080
102
}
330
1080
100
AcDbXrecord
280
1
102
RTVSPropertyOp0
70
1
102
RTVSPropertyOp1
70
1
102
RTVSPropertyOp2
70
1
102
RTVSPropertyOp3
70
1
102
RTVSPropertyOp4
70
1
102
RTVSPropertyOp5
70
1
102
RTVSPropertyOp6
70
1
102
RTVSPropertyOp7
70
1
102
RTVSPropertyOp8
70
1
102
RTVSPropertyOp9
70
1
102
RTVSPropertyOp10
70
1
102
RTVSPropertyOp11
70
1
102
RTVSPropertyOp12
70
1
102
RTVSPropertyOp13
70
1
102
RTVSPropertyOp14
70
1
102
RTVSPropertyOp15
70
1
102
RTVSPropertyOp16
70
1
102
RTVSPropertyOp17
70
1
102
RTVSPropertyOp18
70
1
102
RTVSPropertyOp19
70
1
102
RTVSPropertyOp20
70
1
102
RTVSPropertyOp21
70
1
102
RTVSPropertyOp22
70
1
102
RTVSPropertyOp23
70
1
102
RTVSPropertyOp24
70
1
102
RTVSPropertyOp25
70
1
102
RTVSPropertyOp26
70
1
102
RTVSPropertyOp27
70
1
0
XRECORD
5
1083
102
{ACAD_REACTORS
330
1082
102
}
330
1082
100
AcDbXrecord
280
1
102
RTVSPropertyOp0
70
1
102
RTVSPropertyOp1
70
1
102
RTVSPropertyOp2
70
1
102
RTVSPropertyOp3
70
1
102
RTVSPropertyOp4
70
1
102
RTVSPropertyOp5
70
1
102
RTVSPropertyOp6
70
1
102
RTVSPropertyOp7
70
1
102
RTVSPropertyOp8
70
1
102
RTVSPropertyOp9
70
1
102
RTVSPropertyOp10
70
1
102
RTVSPropertyOp11
70
1
102
RTVSPropertyOp12
70
1
102
RTVSPropertyOp13
70
1
102
RTVSPropertyOp14
70
1
102
RTVSPropertyOp15
70
1
102
RTVSPropertyOp16
70
1
102
RTVSPropertyOp17
70
1
102
RTVSPropertyOp18
70
1
102
RTVSPropertyOp19
70
1
102
RTVSPropertyOp20
70
1
102
RTVSPropertyOp21
70
1
102
RTVSPropertyOp22
70
1
102
RTVSPropertyOp23
70
1
102
RTVSPropertyOp24
70
1
102
RTVSPropertyOp25
70
1
102
RTVSPropertyOp26
70
1
102
RTVSPropertyOp27
70
1
0
XRECORD
5
1085
102
{ACAD_REACTORS
330
1084
102
}
330
1084
100
AcDbXrecord
280
1
102
RTVSPropertyOp0
70
1
102
RTVSPropertyOp1
70
1
102
RTVSPropertyOp2
70
1
102
RTVSPropertyOp3
70
1
102
RTVSPropertyOp4
70
1
102
RTVSPropertyOp5
70
1
102
RTVSPropertyOp6
70
1
102
RTVSPropertyOp7
70
1
102
RTVSPropertyOp8
70
1
102
RTVSPropertyOp9
70
1
102
RTVSPropertyOp10
70
1
102
RTVSPropertyOp11
70
1
102
RTVSPropertyOp12
70
1
102
RTVSPropertyOp13
70
1
102
RTVSPropertyOp14
70
1
102
RTVSPropertyOp15
70
1
102
RTVSPropertyOp16
70
1
102
RTVSPropertyOp17
70
1
102
RTVSPropertyOp18
70
1
102
RTVSPropertyOp19
70
1
102
RTVSPropertyOp20
70
1
102
RTVSPropertyOp21
70
1
102
RTVSPropertyOp22
70
1
102
RTVSPropertyOp23
70
1
102
RTVSPropertyOp24
70
1
102
RTVSPropertyOp25
70
1
102
RTVSPropertyOp26
70
1
102
RTVSPropertyOp27
70
1
0
XRECORD
5
1087
102
{ACAD_REACTORS
330
1086
102
}
330
1086
100
AcDbXrecord
280
1
102
RTVSPropertyOp0
70
1
102
RTVSPropertyOp1
70
1
102
RTVSPropertyOp2
70
1
102
RTVSPropertyOp3
70
1
102
RTVSPropertyOp4
70
1
102
RTVSPropertyOp5
70
1
102
RTVSPropertyOp6
70
1
102
RTVSPropertyOp7
70
1
102
RTVSPropertyOp8
70
1
102
RTVSPropertyOp9
70
1
102
RTVSPropertyOp10
70
1
102
RTVSPropertyOp11
70
1
102
RTVSPropertyOp12
70
1
102
RTVSPropertyOp13
70
1
102
RTVSPropertyOp14
70
1
102
RTVSPropertyOp15
70
1
102
RTVSPropertyOp16
70
1
102
RTVSPropertyOp17
70
1
102
RTVSPropertyOp18
70
1
102
RTVSPropertyOp19
70
1
102
RTVSPropertyOp20
70
1
102
RTVSPropertyOp21
70
1
102
RTVSPropertyOp22
70
1
102
RTVSPropertyOp23
70
1
102
RTVSPropertyOp24
70
1
102
RTVSPropertyOp25
70
1
102
RTVSPropertyOp26
70
1
102
RTVSPropertyOp27
70
1
0
XRECORD
5
10A1
102
{ACAD_REACTORS
330
10A0
102
}
330
10A0
100
AcDbXrecord
280
1
102
RTVSPropertyOp0
70
0
102
RTVSPropertyOp1
70
0
102
RTVSPropertyOp2
70
0
102
RTVSPropertyOp3
70
0
102
RTVSPropertyOp4
70
0
102
RTVSPropertyOp5
70
0
102
RTVSPropertyOp6
70
0
102
RTVSPropertyOp7
70
0
102
RTVSPropertyOp8
70
0
102
RTVSPropertyOp9
70
0
102
RTVSPropertyOp10
70
0
102
RTVSPropertyOp11
70
0
102
RTVSPropertyOp12
70
0
102
RTVSPropertyOp13
70
0
102
RTVSPropertyOp14
70
2
102
RTVSPropertyOp15
70
0
102
RTVSPropertyOp16
70
0
102
RTVSPropertyOp17
70
0
102
RTVSPropertyOp18
70
0
102
RTVSPropertyOp19
70
0
102
RTVSPropertyOp20
70
0
102
RTVSPropertyOp21
70
0
102
RTVSPropertyOp22
70
0
102
RTVSPropertyOp23
70
0
102
RTVSPropertyOp24
70
0
102
RTVSPropertyOp25
70
0
102
RTVSPropertyOp26
70
0
102
RTVSPropertyOp27
70
0
0
XRECORD
5
109B
102
{ACAD_REACTORS
330
109A
102
}
330
109A
100
AcDbXrecord
280
1
102
RTVSPropertyOp0
70
1
102
RTVSPropertyOp1
70
1
102
RTVSPropertyOp2
70
1
102
RTVSPropertyOp3
70
1
102
RTVSPropertyOp4
70
1
102
RTVSPropertyOp5
70
1
102
RTVSPropertyOp6
70
1
102
RTVSPropertyOp7
70
1
102
RTVSPropertyOp8
70
1
102
RTVSPropertyOp9
70
1
102
RTVSPropertyOp10
70
1
102
RTVSPropertyOp11
70
1
102
RTVSPropertyOp12
70
1
102
RTVSPropertyOp13
70
1
102
RTVSPropertyOp14
70
1
102
RTVSPropertyOp15
70
1
102
RTVSPropertyOp16
70
1
102
RTVSPropertyOp17
70
1
102
RTVSPropertyOp18
70
1
102
RTVSPropertyOp19
70
1
102
RTVSPropertyOp20
70
1
102
RTVSPropertyOp21
70
1
102
RTVSPropertyOp22
70
1
102
RTVSPropertyOp23
70
1
102
RTVSPropertyOp24
70
1
102
RTVSPropertyOp25
70
1
102
RTVSPropertyOp26
70
1
102
RTVSPropertyOp27
70
1
0
XRECORD
5
10A3
102
{ACAD_REACTORS
330
10A2
102
}
330
10A2
100
AcDbXrecord
280
1
102
RTVSPropertyOp0
70
0
102
RTVSPropertyOp1
70
0
102
RTVSPropertyOp2
70
0
102
RTVSPropertyOp3
70
0
102
RTVSPropertyOp4
70
0
102
RTVSPropertyOp5
70
0
102
RTVSPropertyOp6
70
0
102
RTVSPropertyOp7
70
0
102
RTVSPropertyOp8
70
0
102
RTVSPropertyOp9
70
0
102
RTVSPropertyOp10
70
0
102
RTVSPropertyOp11
70
0
102
RTVSPropertyOp12
70
0
102
RTVSPropertyOp13
70
0
102
RTVSPropertyOp14
70
2
102
RTVSPropertyOp15
70
0
102
RTVSPropertyOp16
70
0
102
RTVSPropertyOp17
70
0
102
RTVSPropertyOp18
70
0
102
RTVSPropertyOp19
70
0
102
RTVSPropertyOp20
70
0
102
RTVSPropertyOp21
70
0
102
RTVSPropertyOp22
70
0
102
RTVSPropertyOp23
70
0
102
RTVSPropertyOp24
70
0
102
RTVSPropertyOp25
70
0
102
RTVSPropertyOp26
70
0
102
RTVSPropertyOp27
70
0
0
XRECORD
5
1093
102
{ACAD_REACTORS
330
1092
102
}
330
1092
100
AcDbXrecord
280
1
102
RTVSPropertyOp0
70
1
102
RTVSPropertyOp1
70
1
102
RTVSPropertyOp2
70
1
102
RTVSPropertyOp3
70
1
102
RTVSPropertyOp4
70
1
102
RTVSPropertyOp5
70
1
102
RTVSPropertyOp6
70
1
102
RTVSPropertyOp7
70
1
102
RTVSPropertyOp8
70
1
102
RTVSPropertyOp9
70
1
102
RTVSPropertyOp10
70
1
102
RTVSPropertyOp11
70
1
102
RTVSPropertyOp12
70
1
102
RTVSPropertyOp13
70
1
102
RTVSPropertyOp14
70
1
102
RTVSPropertyOp15
70
1
102
RTVSPropertyOp16
70
1
102
RTVSPropertyOp17
70
1
102
RTVSPropertyOp18
70
1
102
RTVSPropertyOp19
70
1
102
RTVSPropertyOp20
70
1
102
RTVSPropertyOp21
70
1
102
RTVSPropertyOp22
70
1
102
RTVSPropertyOp23
70
1
102
RTVSPropertyOp24
70
1
102
RTVSPropertyOp25
70
1
102
RTVSPropertyOp26
70
1
102
RTVSPropertyOp27
70
1
0
XRECORD
5
1099
102
{ACAD_REACTORS
330
1098
102
}
330
1098
100
AcDbXrecord
280
1
102
RTVSPropertyOp0
70
1
102
RTVSPropertyOp1
70
1
102
RTVSPropertyOp2
70
1
102
RTVSPropertyOp3
70
1
102
RTVSPropertyOp4
70
1
102
RTVSPropertyOp5
70
1
102
RTVSPropertyOp6
70
1
102
RTVSPropertyOp7
70
1
102
RTVSPropertyOp8
70
1
102
RTVSPropertyOp9
70
1
102
RTVSPropertyOp10
70
1
102
RTVSPropertyOp11
70
1
102
RTVSPropertyOp12
70
1
102
RTVSPropertyOp13
70
1
102
RTVSPropertyOp14
70
1
102
RTVSPropertyOp15
70
1
102
RTVSPropertyOp16
70
1
102
RTVSPropertyOp17
70
1
102
RTVSPropertyOp18
70
1
102
RTVSPropertyOp19
70
1
102
RTVSPropertyOp20
70
1
102
RTVSPropertyOp21
70
1
102
RTVSPropertyOp22
70
1
102
RTVSPropertyOp23
70
1
102
RTVSPropertyOp24
70
1
102
RTVSPropertyOp25
70
1
102
RTVSPropertyOp26
70
1
102
RTVSPropertyOp27
70
1
0
ENDSEC
0
EOF
