0
SECTION
2
HEADER
9
$ACADVER
1
AC1015
9
$ACADMAINTVER
70
20
9
$DWGCODEPAGE
3
ANSI_1252
9
$INSBASE
10
0.0
20
0.0
30
0.0
9
$EXTMIN
10
-150.000000000000
20
-105.000000000000
30
0.0
9
$EXTMAX
10
150.000000000000
20
105.000000000000
30
0.0
9
$LIMMIN
10
0.0
20
0.0
9
$LIMMAX
10
12.0
20
9.0
9
$ORTHOMODE
70
0
9
$REGENMODE
70
1
9
$FILLMODE
70
1
9
$QTEXTMODE
70
0
9
$MIRRTEXT
70
1
9
$LTSCALE
40
1.0
9
$ATTMODE
70
1
9
$TEXTSIZE
40
0.2
9
$TRACEWID
40
0.05
9
$TEXTSTYLE
7
Standard
9
$CLAYER
8
0
9
$CELTYPE
6
ByLayer
9
$CECOLOR
62
256
9
$CELTSCALE
40
1.0
9
$DISPSILH
70
0
9
$DIMSCALE
40
1.0
9
$DIMASZ
40
2.5
9
$DIMEXO
40
0.625
9
$DIMDLI
40
0.38
9
$DIMRND
40
0.0
9
$DIMDLE
40
0.0
9
$DIMEXE
40
1.25
9
$DIMTP
40
0.0
9
$DIMTM
40
0.000000001
9
$DIMTXT
40
2.5
9
$DIMCEN
40
0.09
9
$DIMTSZ
40
0.0
9
$DIMTOL
70
1
9
$DIMLIM
70
0
9
$DIMTIH
70
0
9
$DIMTOH
70
0
9
$DIMSE1
70
0
9
$DIMSE2
70
0
9
$DIMTAD
70
1
9
$DIMZIN
70
0
9
$DIMBLK
1
VDDIM_DEFAULT
9
$DIMASO
70
1
9
$DIMSHO
70
1
9
$DIMPOST
1

9
$DIMAPOST
1

9
$DIMALT
70
0
9
$DIMALTD
70
2
9
$DIMALTF
40
25.4
9
$DIMLFAC
40
1.00000000000000
9
$DIMTOFL
70
0
9
$DIMTVP
40
0.0
9
$DIMTIX
70
0
9
$DIMSOXD
70
0
9
$DIMSAH
70
0
9
$DIMBLK1
1

9
$DIMBLK2
1

9
$DIMSTYLE
2
BEM-ISBE
9
$DIMCLRD
70
0
9
$DIMCLRE
70
0
9
$DIMCLRT
70
0
9
$DIMTFAC
40
0.5
9
$DIMGAP
40
0.625
9
$DIMJUST
70
0
9
$DIMSD1
70
0
9
$DIMSD2
70
0
9
$DIMTOLJ
70
1
9
$DIMTZIN
70
0
9
$DIMALTZ
70
0
9
$DIMALTTZ
70
0
9
$DIMUPT
70
0
9
$DIMDEC
70
3
9
$DIMTDEC
70
3
9
$DIMALTU
70
2
9
$DIMALTTD
70
2
9
$DIMTXSTY
7
Standard
9
$DIMAUNIT
70
0
9
$DIMADEC
70
3
9
$DIMALTRND
40
0.0
9
$DIMAZIN
70
0
9
$DIMDSEP
70
46
9
$DIMATFIT
70
3
9
$DIMFRAC
70
0
9
$DIMLDRBLK
1

9
$DIMLUNIT
70
2
9
$DIMLWD
70
-2
9
$DIMLWE
70
-2
9
$DIMTMOVE
70
0
9
$LUNITS
70
2
9
$LUPREC
70
4
9
$SKETCHINC
40
0.1
9
$FILLETRAD
40
0.5
9
$AUNITS
70
0
9
$AUPREC
70
0
9
$MENU
1
.
9
$ELEVATION
40
0.0
9
$PELEVATION
40
0.0
9
$THICKNESS
40
0.0
9
$LIMCHECK
70
0
9
$CHAMFERA
40
0.5
9
$CHAMFERB
40
0.5
9
$CHAMFERC
40
1.0
9
$CHAMFERD
40
0.0
9
$SKPOLY
70
0
9
$TDCREATE
40
0.0
9
$TDUCREATE
40
0.0
9
$TDUPDATE
40
0.0
9
$TDUUPDATE
40
0.0
9
$TDINDWG
40
0.0
9
$TDUSRTIMER
40
0.0
9
$USRTIMER
70
1
9
$ANGBASE
50
0.0
9
$ANGDIR
70
0
9
$PDMODE
70
0
9
$PDSIZE
40
0.0
9
$PLINEWID
40
0.0
9
$SPLFRAME
70
0
9
$SPLINETYPE
70
6
9
$SPLINESEGS
70
8
9
$HANDSEED
5
10AB
9
$SURFTAB1
70
6
9
$SURFTAB2
70
6
9
$SURFTYPE
70
6
9
$SURFU
70
6
9
$SURFV
70
6
9
$UCSBASE
2

9
$UCSNAME
2

9
$UCSORG
10
0.0
20
0.0
30
0.0
9
$UCSXDIR
10
1.0
20
0.0
30
0.0
9
$UCSYDIR
10
0.0
20
1.0
30
0.0
9
$UCSORTHOREF
2

9
$UCSORTHOVIEW
70
0
9
$UCSORGTOP
10
0.0
20
0.0
30
0.0
9
$UCSORGBOTTOM
10
0.0
20
0.0
30
0.0
9
$UCSORGLEFT
10
0.0
20
0.0
30
0.0
9
$UCSORGRIGHT
10
0.0
20
0.0
30
0.0
9
$UCSORGFRONT
10
0.0
20
0.0
30
0.0
9
$UCSORGBACK
10
0.0
20
0.0
30
0.0
9
$PUCSBASE
2

9
$PUCSNAME
2

9
$PUCSORG
10
0.0
20
0.0
30
0.0
9
$PUCSXDIR
10
1.0
20
0.0
30
0.0
9
$PUCSYDIR
10
0.0
20
1.0
30
0.0
9
$PUCSORTHOREF
2

9
$PUCSORTHOVIEW
70
0
9
$PUCSORGTOP
10
0.0
20
0.0
30
0.0
9
$PUCSORGBOTTOM
10
0.0
20
0.0
30
0.0
9
$PUCSORGLEFT
10
0.0
20
0.0
30
0.0
9
$PUCSORGRIGHT
10
0.0
20
0.0
30
0.0
9
$PUCSORGFRONT
10
0.0
20
0.0
30
0.0
9
$PUCSORGBACK
10
0.0
20
0.0
30
0.0
9
$USERI1
70
0
9
$USERI2
70
0
9
$USERI3
70
0
9
$USERI4
70
0
9
$USERI5
70
0
9
$USERR1
40
0.0
9
$USERR2
40
0.0
9
$USERR3
40
0.0
9
$USERR4
40
0.0
9
$USERR5
40
0.0
9
$WORLDVIEW
70
1
9
$SHADEDGE
70
3
9
$SHADEDIF
70
70
9
$TILEMODE
70
1
9
$MAXACTVP
70
64
9
$PINSBASE
10
0.0
20
0.0
30
0.0
9
$PLIMCHECK
70
0
9
$PEXTMIN
10
1.000000000000000E+20
20
1.000000000000000E+20
30
1.000000000000000E+20
9
$PEXTMAX
10
-1.000000000000000E+20
20
-1.000000000000000E+20
30
-1.000000000000000E+20
9
$PLIMMIN
10
0.0
20
0.0
9
$PLIMMAX
10
12.0
20
9.0
9
$UNITMODE
70
0
9
$VISRETAIN
70
1
9
$PLINEGEN
70
0
9
$PSLTSCALE
70
1
9
$TREEDEPTH
70
3020
9
$CMLSTYLE
2
Standard
9
$CMLJUST
70
0
9
$CMLSCALE
40
1.0
9
$PROXYGRAPHICS
70
1
9
$MEASUREMENT
70
0
9
$CELWEIGHT
370
-1
9
$ENDCAPS
280
0
9
$JOINSTYLE
280
0
9
$LWDISPLAY
290
0
9
$INSUNITS
70
4
9
$HYPERLINKBASE
1

9
$STYLESHEET
1

9
$XEDIT
290
1
9
$CEPSNTYPE
380
0
9
$PSTYLEMODE
290
0
9
$FINGERPRINTGUID
2
{FAEB1C30-E019-11D5-929B-00C0DF256EC4}
9
$VERSIONGUID
2
{04C5C4E4-4947-4D90-8812-D401569E61F7}
9
$EXTNAMES
290
1
9
$PSVPSCALE
40
0.0
9
$OLESTARTUP
290
0
0
ENDSEC
0
SECTION
2
CLASSES
0
CLASS
1
ACDBDICTIONARYWDFLT
2
AcDbDictionaryWithDefault
3
ObjectDBX Classes
90
0
280
0
281
0
0
CLASS
1
ACDBPLACEHOLDER
2
AcDbPlaceHolder
3
ObjectDBX Classes
90
0
280
0
281
0
0
CLASS
1
LAYOUT
2
AcDbLayout
3
ObjectDBX Classes
90
0
280
0
281
0
0
CLASS
1
MATERIAL
2
AcDbMaterial
3
ObjectDBX Classes
90
1153
280
0
281
0
0
CLASS
1
VISUALSTYLE
2
AcDbVisualStyle
3
ObjectDBX Classes
90
4095
280
0
281
0
0
CLASS
1
TABLESTYLE
2
AcDbTableStyle
3
ObjectDBX Classes
90
4095
280
0
281
0
0
CLASS
1
SCALE
2
AcDbScale
3
ObjectDBX Classes
90
1153
280
0
281
0
0
CLASS
1
MLEADERSTYLE
2
AcDbMLeaderStyle
3
ACDB_MLEADERSTYLE_CLASS
90
4095
280
0
281
0
0
CLASS
1
DICTIONARYVAR
2
AcDbDictionaryVar
3
ObjectDBX Classes
90
0
280
0
281
0
0
CLASS
1
CELLSTYLEMAP
2
AcDbCellStyleMap
3
ObjectDBX Classes
90
1152
280
0
281
0
0
ENDSEC
0
SECTION
2
TABLES
0
TABLE
2
VPORT
5
24A
330
0
100
AcDbSymbolTable
70
1
0
VPORT
5
26B
330
24A
100
AcDbSymbolTableRecord
100
AcDbViewportTableRecord
2
*Active
70
0
10
0.0
20
0.0
11
1.0
21
1.0
12
0.000000000000000
22
0.000000000000000
13
0.0
23
0.0
14
10.0
24
10.0
15
10.0
25
10.0
16
0.0
26
0.0
36
1.0
17
0.0
27
0.0
37
0.0
40
210.000000000000
41
1.42857142857143
42
1.0
43
0.0
44
0.0
50
0.0
51
0.0000000000007958
71
0
72
100
73
1
74
3
75
0
76
0
77
0
78
1
281
0
65
1
110
0.0
120
0.0
130
0.0
111
1.0
121
0.0
131
0.0
112
0.0
122
1.0
132
0.0
79
0
146
0.0
0
ENDTAB
0
TABLE
2
LTYPE
5
247
330
0
100
AcDbSymbolTable
70
25
0
LTYPE
5
256
330
247
100
AcDbSymbolTableRecord
100
AcDbLinetypeTableRecord
2
ByBlock
70
0
3

72
65
73
0
40
0.0
0
LTYPE
5
257
330
247
100
AcDbSymbolTableRecord
100
AcDbLinetypeTableRecord
2
ByLayer
70
0
3

72
65
73
0
40
0.0
0
LTYPE
5
258
330
247
100
AcDbSymbolTableRecord
100
AcDbLinetypeTableRecord
2
Continuous
70
0
3
Solid line
72
65
73
0
40
0.0
0
LTYPE
5
273
330
247
100
AcDbSymbolTableRecord
100
AcDbLinetypeTableRecord
2
CENTER
70
0
3
Center ____ _ ____ _ ____ _ ____ _ ____ _ ____
72
65
73
4
40
2.0
49
1.25
74
0
49
-0.25
74
0
49
0.25
74
0
49
-0.25
74
0
0
LTYPE
5
274
330
247
100
AcDbSymbolTableRecord
100
AcDbLinetypeTableRecord
2
DASHDOT
70
0
3
Dashdot __ . __ . __ . __ . __ . __ . __ . __
72
65
73
4
40
1.0
49
0.5
74
0
49
-0.25
74
0
49
0.0
74
0
49
-0.25
74
0
0
LTYPE
5
275
330
247
100
AcDbSymbolTableRecord
100
AcDbLinetypeTableRecord
2
DASHED
70
0
3
Dashed __ __ __ __ __ __ __ __ __ __ __ __ __ _
72
65
73
2
40
0.75
49
0.5
74
0
49
-0.25
74
0
0
LTYPE
5
276
330
247
100
AcDbSymbolTableRecord
100
AcDbLinetypeTableRecord
2
HIDDEN
70
0
3
Hidden __ __ __ __ __ __ __ __ __ __ __ __ __ __
72
65
73
2
40
0.375
49
0.25
74
0
49
-0.125
74
0
0
LTYPE
5
277
330
247
100
AcDbSymbolTableRecord
100
AcDbLinetypeTableRecord
2
HIDDEN2
70
0
3
Hidden2 _ _ _ _ _ _ _ _ _ _ _ _ _ _ _ _ _
72
65
73
2
40
0.1875
49
0.125
74
0
49
-0.0625
74
0
0
LTYPE
5
278
330
247
100
AcDbSymbolTableRecord
100
AcDbLinetypeTableRecord
2
BORDER
70
0
3
Border __ __ . __ __ . __ __ . __ __ . __ __ .
72
65
73
6
40
1.75
49
0.5
74
0
49
-0.25
74
0
49
0.5
74
0
49
-0.25
74
0
49
0.0
74
0
49
-0.25
74
0
0
LTYPE
5
279
330
247
100
AcDbSymbolTableRecord
100
AcDbLinetypeTableRecord
2
BORDER2
70
0
3
Border2 __.__.__.__.__.__.__.__.__.__.__.
72
65
73
6
40
0.875
49
0.25
74
0
49
-0.125
74
0
49
0.25
74
0
49
-0.125
74
0
49
0.0
74
0
49
-0.125
74
0
0
LTYPE
5
27A
330
247
100
AcDbSymbolTableRecord
100
AcDbLinetypeTableRecord
2
BORDERX2
70
0
3
Borderx2  ____  ____  .  ____  ____  .  ___
72
65
73
6
40
3.5
49
1.0
74
0
49
-0.5
74
0
49
1.0
74
0
49
-0.5
74
0
49
0.0
74
0
49
-0.5
74
0
0
LTYPE
5
27B
330
247
100
AcDbSymbolTableRecord
100
AcDbLinetypeTableRecord
2
CENTER2
70
0
3
Center2  ___ _ ___ _ ___ _ ___ _ ___ _ ___
72
65
73
4
40
1.125
49
0.75
74
0
49
-0.125
74
0
49
0.125
74
0
49
-0.125
74
0
0
LTYPE
5
27C
330
247
100
AcDbSymbolTableRecord
100
AcDbLinetypeTableRecord
2
CENTERX2
70
0
3
Centerx2  ________  __  ________  __  _____
72
65
73
4
40
4.0
49
2.5
74
0
49
-0.5
74
0
49
0.5
74
0
49
-0.5
74
0
0
LTYPE
5
27D
330
247
100
AcDbSymbolTableRecord
100
AcDbLinetypeTableRecord
2
DASHDOT2
70
0
3
Dashdot2  _._._._._._._._._._._._._._._.
72
65
73
4
40
0.5
49
0.25
74
0
49
-0.125
74
0
49
0.0
74
0
49
-0.125
74
0
0
LTYPE
5
27E
330
247
100
AcDbSymbolTableRecord
100
AcDbLinetypeTableRecord
2
DASHDOTX2
70
0
3
Dashdotx2 ____  .  ____  .  ____  .  ___
72
65
73
4
40
2.0
49
1.0
74
0
49
-0.5
74
0
49
0.0
74
0
49
-0.5
74
0
0
LTYPE
5
27F
330
247
100
AcDbSymbolTableRecord
100
AcDbLinetypeTableRecord
2
DASHED2
70
0
3
Dashed2 _ _ _ _ _ _ _ _ _ _ _ _ _ _ _ _ _
72
65
73
2
40
0.375
49
0.25
74
0
49
-0.125
74
0
0
LTYPE
5
280
330
247
100
AcDbSymbolTableRecord
100
AcDbLinetypeTableRecord
2
DASHEDX2
70
0
3
Dashedx2 ____  ____  ____  ____  ____  ___
72
65
73
2
40
1.5
49
1.0
74
0
49
-0.5
74
0
0
LTYPE
5
281
330
247
100
AcDbSymbolTableRecord
100
AcDbLinetypeTableRecord
2
DIVIDE
70
0
3
Divide ____ . . ____ . . ____ . . ____ . . ____
72
65
73
6
40
1.25
49
0.5
74
0
49
-0.25
74
0
49
0.0
74
0
49
-0.25
74
0
49
0.0
74
0
49
-0.25
74
0
0
LTYPE
5
282
330
247
100
AcDbSymbolTableRecord
100
AcDbLinetypeTableRecord
2
DIVIDE2
70
0
3
Divide2 __..__..__..__..__..__..__..__.._
72
65
73
6
40
0.625
49
0.25
74
0
49
-0.125
74
0
49
0.0
74
0
49
-0.125
74
0
49
0.0
74
0
49
-0.125
74
0
0
LTYPE
5
283
330
247
100
AcDbSymbolTableRecord
100
AcDbLinetypeTableRecord
2
DIVIDEX2
70
0
3
Dividex2 ________  .  .  ________  .  .  _
72
65
73
6
40
2.5
49
1.0
74
0
49
-0.5
74
0
49
0.0
74
0
49
-0.5
74
0
49
0.0
74
0
49
-0.5
74
0
0
LTYPE
5
284
330
247
100
AcDbSymbolTableRecord
100
AcDbLinetypeTableRecord
2
DOT
70
0
3
Dot . . . . . . . . . . . . . . . . . . . . . . . .
72
65
73
2
40
0.25
49
0.0
74
0
49
-0.25
74
0
0
LTYPE
5
285
330
247
100
AcDbSymbolTableRecord
100
AcDbLinetypeTableRecord
2
DOT2
70
0
3
Dot2 ........................................
72
65
73
2
40
0.125
49
0.0
74
0
49
-0.125
74
0
0
LTYPE
5
286
330
247
100
AcDbSymbolTableRecord
100
AcDbLinetypeTableRecord
2
DOTX2
70
0
3
Dotx2 .  .  .  .  .  .  .  .  .  .  .  .  .  .
72
65
73
2
40
0.5
49
0.0
74
0
49
-0.5
74
0
0
LTYPE
5
287
330
247
100
AcDbSymbolTableRecord
100
AcDbLinetypeTableRecord
2
HIDDENX2
70
0
3
Hiddenx2 ____ ____ ____ ____ ____ ____ ____
72
65
73
2
40
0.75
49
0.5
74
0
49
-0.25
74
0
0
LTYPE
5
288
330
247
100
AcDbSymbolTableRecord
100
AcDbLinetypeTableRecord
2
PHANTOM
70
0
3
Phantom ______  __  __  ______  __  __  ______
72
65
73
6
40
2.5
49
1.25
74
0
49
-0.25
74
0
49
0.25
74
0
49
-0.25
74
0
49
0.25
74
0
49
-0.25
74
0
0
LTYPE
5
289
330
247
100
AcDbSymbolTableRecord
100
AcDbLinetypeTableRecord
2
PHANTOM2
70
0
3
Phantom2 ___ _ _ ___ _ _ ___ _ _ ___ _ _
72
65
73
6
40
1.25
49
0.625
74
0
49
-0.125
74
0
49
0.125
74
0
49
-0.125
74
0
49
0.125
74
0
49
-0.125
74
0
0
LTYPE
5
28A
330
247
100
AcDbSymbolTableRecord
100
AcDbLinetypeTableRecord
2
PHANTOMX2
70
0
3
Phantomx2 ____________    ____    ____   _
72
65
73
6
40
5.0
49
2.5
74
0
49
-0.5
74
0
49
0.5
74
0
49
-0.5
74
0
49
0.5
74
0
49
-0.5
74
0
0
ENDTAB
0
TABLE
2
LAYER
5
244
330
0
100
AcDbSymbolTable
70
6
0
LAYER
5
252
330
244
100
AcDbSymbolTableRecord
100
AcDbLayerTableRecord
2
0
70
0
62
7
6
Continuous
370
0
390
251
0
LAYER
5
23F
330
244
100
AcDbSymbolTableRecord
100
AcDbLayerTableRecord
2
Bemassung
70
0
 62
   7
6
Continuous
370
0
390
251
0
LAYER
5
240
330
244
100
AcDbSymbolTableRecord
100
AcDbLayerTableRecord
2
Rahmen
70
0
 62
   7
6
Continuous
370
0
390
251
0
LAYER
5
241
330
244
100
AcDbSymbolTableRecord
100
AcDbLayerTableRecord
2
Geo
70
0
 62
   7
6
Continuous
370
0
390
251
0
LAYER
5
33A
330
244
100
AcDbSymbolTableRecord
100
AcDbLayerTableRecord
2
Defpoints
70
0
62
7
6
Continuous
290
0
370
-3
390
251
0
LAYER
5
57E
330
244
100
AcDbSymbolTableRecord
100
AcDbLayerTableRecord
2
Text
70
0
 62
   7
6
Continuous
370
0
390
251
1001
AcAecLayerStandard
1000

1000

0
ENDTAB
0
TABLE
2
STYLE
5
245
330
0
100
AcDbSymbolTable
70
2
0
STYLE
5
253
330
245
100
AcDbSymbolTableRecord
100
AcDbTextStyleTableRecord
2
Standard
70
0
40
0.0
41
1.0
50
0.0
71
0
42
0.2
3
Arial
4

1001
ACAD
1000
Arial
1071
0
0
STYLE
5
132
330
245
100
AcDbSymbolTableRecord
100
AcDbTextStyleTableRecord
2
Beschriftung
70
0
40
0.0
41
1.0
50
0.0
71
0
42
0.2
3
Arial
4

1001
ACAD
1000
Arial
1071
0
1001
AcadAnnotative
1000
AnnotativeData
1070
1
1070
1
0
ENDTAB
0
TABLE
2
VIEW
5
248
330
0
100
AcDbSymbolTable
70
0
0
ENDTAB
0
TABLE
2
UCS
5
249
330
0
100
AcDbSymbolTable
70
0
0
ENDTAB
0
TABLE
2
APPID
5
24B
330
0
100
AcDbSymbolTable
70
13
0
APPID
5
254
330
24B
100
AcDbSymbolTableRecord
100
AcDbRegAppTableRecord
2
ACAD
70
0
0
APPID
5
26C
330
24B
100
AcDbSymbolTableRecord
100
AcDbRegAppTableRecord
2
VD_INVISIBLE_NOT_FOR_READ
70
0
0
APPID
5
26D
330
24B
100
AcDbSymbolTableRecord
100
AcDbRegAppTableRecord
2
VD_TEMPHATCH
70
0
0
APPID
5
26E
330
24B
100
AcDbSymbolTableRecord
100
AcDbRegAppTableRecord
2
VDEXTRAPARAM
70
0
0
APPID
5
26F
330
24B
100
AcDbSymbolTableRecord
100
AcDbRegAppTableRecord
2
PE_URL
70
0
0
APPID
5
270
330
24B
100
AcDbSymbolTableRecord
100
AcDbRegAppTableRecord
2
VD_UNKNOWN
70
0
0
APPID
5
28F
330
24B
100
AcDbSymbolTableRecord
100
AcDbRegAppTableRecord
2
AcadAnnotative
70
0
0
APPID
5
290
330
24B
100
AcDbSymbolTableRecord
100
AcDbRegAppTableRecord
2
ACAD_DSTYLE_DIMJAG
70
0
0
APPID
5
291
330
24B
100
AcDbSymbolTableRecord
100
AcDbRegAppTableRecord
2
ACAD_DSTYLE_DIMTALN
70
0
0
APPID
5
293
330
24B
100
AcDbSymbolTableRecord
100
AcDbRegAppTableRecord
2
ACAD_PSEXT
70
0
0
APPID
5
42A
330
24B
100
AcDbSymbolTableRecord
100
AcDbRegAppTableRecord
2
ACAD_MLEADERVER
70
0
0
APPID
5
532
330
24B
100
AcDbSymbolTableRecord
100
AcDbRegAppTableRecord
2
ACAD_EXEMPT_FROM_CAD_STANDARDS
70
0
0
APPID
5
57F
330
24B
100
AcDbSymbolTableRecord
100
AcDbRegAppTableRecord
2
AcAecLayerStandard
70
0
0
ENDTAB
0
TABLE
2
DIMSTYLE
5
24C
330
0
100
AcDbSymbolTable
70
3
100
AcDbDimStyleTable
71
2
340
27
340
269
0
DIMSTYLE
105
269
330
24C
100
AcDbSymbolTableRecord
100
AcDbDimStyleTableRecord
2
Standard
70
0
172
1
174
1
288
1
340
253
342
23C
0
DIMSTYLE
105
137
330
24C
100
AcDbSymbolTableRecord
100
AcDbDimStyleTableRecord
2
Beschriftung
70
0
41
2.5
42
0.625
44
1.25
73
0
74
0
77
1
140
2.5
147
0.625
172
1
174
1
271
2
288
1
340
253
342
23C
1001
AcadAnnotative
1000
AnnotativeData
1070
1
1070
1
1001
ACAD_DSTYLE_DIMJAG
1070
388
1040
1.5
1001
ACAD_DSTYLE_DIMTALN
1070
392
1070
0
0
DIMSTYLE
105
27
102
{ACAD_REACTORS
330
F1000D
330
F10012
330
F10003
330
F10008
102
}
330
24C
100
AcDbSymbolTableRecord
100
AcDbDimStyleTableRecord
2
BEM-ISBE
70
0
41
2.5
42
0.625
44
1.25
48
0.000000001
71
1
73
0
74
0
77
1
140
2.5
144
1.00000000000000
146
0.5
147
0.625
171
 3
172
 1
179
 3
271
 3
272
 3
274
 3
340
253
342
23C
1001
ACAD_DSTYLE_DIMJAG
1070
388
1040
1.5
1001
ACAD_DSTYLE_DIMTALN
1070
392
1070
1
0
ENDTAB
0
TABLE
2
BLOCK_RECORD
5
243
330
0
100
AcDbSymbolTable
70
5
0
BLOCK_RECORD
5
261
330
243
100
AcDbSymbolTableRecord
100
AcDbBlockTableRecord
2
*Model_Space
340
FD0
0
BLOCK_RECORD
5
25D
330
243
100
AcDbSymbolTableRecord
100
AcDbBlockTableRecord
2
*Paper_Space
340
FD1
0
BLOCK_RECORD
5
265
330
243
100
AcDbSymbolTableRecord
100
AcDbBlockTableRecord
2
*Paper_Space0
340
0
0
BLOCK_RECORD
5
23C
330
243
100
AcDbSymbolTableRecord
100
AcDbBlockTableRecord
2
VDDIM_DEFAULT
340
0
102
{BLKREFS
102
}
0
BLOCK_RECORD
5
23E
330
243
100
AcDbSymbolTableRecord
100
AcDbBlockTableRecord
2
VDDIM_NONE
340
0
0
BLOCK_RECORD
5
F1000C
330
243
100
AcDbSymbolTableRecord
100
AcDbBlockTableRecord
2
*D5
340
0
0
BLOCK_RECORD
5
F10011
330
243
100
AcDbSymbolTableRecord
100
AcDbBlockTableRecord
2
*D6
340
0
0
BLOCK_RECORD
5
F10002
330
243
100
AcDbSymbolTableRecord
100
AcDbBlockTableRecord
2
*D3
340
0
0
BLOCK_RECORD
5
F10007
330
243
100
AcDbSymbolTableRecord
100
AcDbBlockTableRecord
2
*D4
340
0
0
ENDTAB
0
ENDSEC
0
SECTION
2
BLOCKS
0
BLOCK
5
262
330
261
100
AcDbEntity
8
0
100
AcDbBlockBegin
2
*Model_Space
70
0
10
0.0
20
0.0
30
0.0
3
*Model_Space
1

0
ENDBLK
5
263
330
261
100
AcDbEntity
8
0
100
AcDbBlockEnd
0
BLOCK
5
25E
330
25D
100
AcDbEntity
67
1
8
0
100
AcDbBlockBegin
2
*Paper_Space
70
0
10
0.0
20
0.0
30
0.0
3
*Paper_Space
1

0
ENDBLK
5
25F
330
25D
100
AcDbEntity
67
1
8
0
100
AcDbBlockEnd
0
BLOCK
5
266
330
265
100
AcDbEntity
8
0
100
AcDbBlockBegin
2
*Paper_Space0
70
0
10
0.0
20
0.0
30
0.0
3
*Paper_Space0
1

0
VIEWPORT
5
296
102
{ACAD_XDICTIONARY
360
58E
102
}
330
265
100
AcDbEntity
8
0
60
1
100
AcDbViewport
10
0.0
20
0.0
30
0.0
40
10.0
41
10.0
69
0
12
0.0
22
0.0
13
0.0
23
0.0
14
1.0
24
1.0
15
0.0
25
0.0
16
0.0
26
0.0
36
1.0
17
0.0
27
0.0
37
0.0
42
0.0
43
0.0
44
0.0
45
10.0
50
0.0
51
0.0000000000007958
72
100
90
163872
1

281
0
71
0
74
0
110
0.0
120
0.0
130
0.0
111
1.0
121
0.0
131
0.0
112
0.0
122
1.0
132
0.0
79
0
146
0.0
1001
VD_INVISIBLE_NOT_FOR_READ
1000
VD_INVISIBLE_NOT_FOR_READ
0
VIEWPORT
5
297
102
{ACAD_XDICTIONARY
360
590
102
}
330
265
100
AcDbEntity
8
0
60
1
100
AcDbViewport
10
0.0
20
0.0
30
0.0
40
10.0
41
10.0
69
0
12
0.0
22
0.0
13
0.0
23
0.0
14
1.0
24
1.0
15
0.0
25
0.0
16
0.0
26
0.0
36
1.0
17
0.0
27
0.0
37
0.0
42
0.0
43
0.0
44
0.0
45
10.0
50
0.0
51
0.0000000000007958
72
100
90
163872
1

281
0
71
0
74
0
110
0.0
120
0.0
130
0.0
111
1.0
121
0.0
131
0.0
112
0.0
122
1.0
132
0.0
79
0
146
0.0
1001
VD_INVISIBLE_NOT_FOR_READ
1000
VD_INVISIBLE_NOT_FOR_READ
0
ENDBLK
5
267
330
265
100
AcDbEntity
8
0
100
AcDbBlockEnd
0
BLOCK
5
28B
330
23C
100
AcDbEntity
8
0
100
AcDbBlockBegin
2
VDDIM_DEFAULT
70
0
10
0.0
20
0.0
30
0.0
3
VDDIM_DEFAULT
1

0
LWPOLYLINE
5
23D
330
23C
100
AcDbEntity
8
0
6
Continuous
62
0
100
AcDbPolyline
90
4
70
0
43
0.0
10
0.0
20
0.0
10
-1.0
20
-0.1665
10
-1.0
20
0.1665
10
0.0
20
0.0
1001
VDEXTRAPARAM
1071
1
1071
0
1071
0
1040
1.0
1000

1000

1040
0.0
1040
0.0
0
HATCH
5
292
330
23C
100
AcDbEntity
8
0
6
Continuous
62
0
100
AcDbHatch
10
0.0
20
0.0
30
0.0
210
0.0
220
0.0
230
1.0
2
SOLID
70
1
71
0
91
1
92
2
72
0
73
1
93
3
10
0.0
20
0.0
10
-1.0
20
-0.1665
10
-1.0
20
0.1665
97
0
75
0
76
1
98
1
10
0.0
20
0.0
1001
VDEXTRAPARAM
1071
1
1071
0
1071
0
1040
1.0
1000

1000

1040
0.0
1040
0.0
1001
VD_TEMPHATCH
1000
VD_TEMPHATCH
0
ENDBLK
5
28C
330
23C
100
AcDbEntity
8
0
100
AcDbBlockEnd
0
BLOCK
5
28D
330
23E
100
AcDbEntity
8
0
100
AcDbBlockBegin
2
VDDIM_NONE
70
0
10
0.0
20
0.0
30
0.0
3
VDDIM_NONE
1

0
ENDBLK
5
28E
330
23E
100
AcDbEntity
8
0
100
AcDbBlockEnd
  0
BLOCK
  5
F10016
330
F1000C
100
AcDbEntity
  8
0
100
AcDbBlockBegin
  2
*D5
 70
     1
 10
0.0
 20
0.0
 30
0.0
  3
*D5
  1

  0
LINE
  5
F10017
330
F1000C
100
AcDbEntity
  8
Bemassung
 62
     0
370
    -2
100
AcDbLine
10
-25.0707710011507
20
-5.34177215189875
30
0.000000000000000
11
-25.0707710011507
21
-12.3417721518988
31
0.000000000000000
  0
LINE
  5
F10018
330
F1000C
100
AcDbEntity
  8
Bemassung
 62
     0
370
    -2
100
AcDbLine
10
-45.0707710011507
20
-12.3417721518988
30
0.000000000000000
11
-45.0707710011507
21
22.6582278481012
31
0.000000000000000
  0
LINE
  5
F10019
330
F1000C
100
AcDbEntity
  8
Bemassung
 62
     0
370
    -2
100
AcDbLine
10
-25.0707710011507
20
-10.3417721518988
30
0.000000000000000
11
-45.0707710011507
21
-10.3417721518988
31
0.000000000000000
  0
INSERT
  5
F1001A
330
F1000C
100
AcDbEntity
  8
Bemassung
 62
     0
370
    -2
100
AcDbBlockReference
  2
VDDIM_DEFAULT
10
-25.0707710011507
20
-10.3417721518988
30
0.000000000000000
 41
2.50000000000000
 42
2.50000000000000
 43
2.50000000000000
  0
INSERT
  5
F1001B
330
F1000C
100
AcDbEntity
  8
Bemassung
 62
     0
370
    -2
100
AcDbBlockReference
  2
VDDIM_DEFAULT
10
-45.0707710011507
20
-10.3417721518988
30
0.000000000000000
 41
2.50000000000000
 42
2.50000000000000
 43
2.50000000000000
 50
180.000000000000
  0
MTEXT
  5
F1001C
330
F1000C
100
AcDbEntity
  8
Bemassung
 62
     0
100
AcDbMText
10
-35.0707710011507
20
-9.67510548523209
30
0.000000000000000
 40
2.50000000000000
 41
0.0
 71
     8
 72
     1
  1
20
 11
1.00000000000000
 21
0.000000000000000
 31
0.0
 73
     1
 44
1.0
1001
ACAD
1000
MTEXTBEGIN
1070
73
1070
1
1070
44
1040
1.0
1070
74
1070
0
1000
MTEXTEND
  0
POINT
  5
F1001D
330
F1000C
100
AcDbEntity
  8
Bemassung
 62
     0
100
AcDbPoint
10
-25.0707710011507
20
-5.34177215189875
30
0.000000000000000
  0
POINT
  5
F1001E
330
F1000C
100
AcDbEntity
  8
Bemassung
 62
     0
100
AcDbPoint
10
-45.0707710011507
20
-12.3417721518988
30
0.000000000000000
  0
ENDBLK
  5
F1001F
330
F1000C
100
AcDbEntity
  8
0
100
AcDbBlockEnd
  0
BLOCK
  5
F10020
330
F10011
100
AcDbEntity
  8
0
100
AcDbBlockBegin
  2
*D6
 70
     1
 10
0.0
 20
0.0
 30
0.0
  3
*D6
  1

  0
LINE
  5
F10021
330
F10011
100
AcDbEntity
  8
Bemassung
 62
     0
370
    -2
100
AcDbLine
10
37.9292289988493
20
9.95822784810125
30
0.000000000000000
11
37.9292289988493
21
22.6582278481012
31
0.000000000000000
  0
LINE
  5
F10022
330
F10011
100
AcDbEntity
  8
Bemassung
 62
     0
370
    -2
100
AcDbLine
10
-45.0707710011507
20
-12.3417721518988
30
0.000000000000000
11
-45.0707710011507
21
22.6582278481012
31
0.000000000000000
  0
LINE
  5
F10023
330
F10011
100
AcDbEntity
  8
Bemassung
 62
     0
370
    -2
100
AcDbLine
10
37.9292289988493
20
20.6582278481012
30
0.000000000000000
11
-45.0707710011507
21
20.6582278481012
31
0.000000000000000
  0
INSERT
  5
F10024
330
F10011
100
AcDbEntity
  8
Bemassung
 62
     0
370
    -2
100
AcDbBlockReference
  2
VDDIM_DEFAULT
10
37.9292289988493
20
20.6582278481012
30
0.000000000000000
 41
2.50000000000000
 42
2.50000000000000
 43
2.50000000000000
  0
INSERT
  5
F10025
330
F10011
100
AcDbEntity
  8
Bemassung
 62
     0
370
    -2
100
AcDbBlockReference
  2
VDDIM_DEFAULT
10
-45.0707710011507
20
20.6582278481012
30
0.000000000000000
 41
2.50000000000000
 42
2.50000000000000
 43
2.50000000000000
 50
180.000000000000
  0
MTEXT
  5
F10026
330
F10011
100
AcDbEntity
  8
Bemassung
 62
     0
100
AcDbMText
10
-3.57077100115073
20
21.3248945147679
30
0.000000000000000
 40
2.50000000000000
 41
0.0
 71
     8
 72
     1
  1
83
 11
1.00000000000000
 21
0.000000000000000
 31
0.0
 73
     1
 44
1.0
1001
ACAD
1000
MTEXTBEGIN
1070
73
1070
1
1070
44
1040
1.0
1070
74
1070
0
1000
MTEXTEND
  0
POINT
  5
F10027
330
F10011
100
AcDbEntity
  8
Bemassung
 62
     0
100
AcDbPoint
10
37.9292289988493
20
9.95822784810125
30
0.000000000000000
  0
POINT
  5
F10028
330
F10011
100
AcDbEntity
  8
Bemassung
 62
     0
100
AcDbPoint
10
-45.0707710011507
20
-12.3417721518988
30
0.000000000000000
  0
ENDBLK
  5
F10029
330
F10011
100
AcDbEntity
  8
0
100
AcDbBlockEnd
  0
BLOCK
  5
F1002A
330
F10002
100
AcDbEntity
  8
0
100
AcDbBlockBegin
  2
*D3
 70
     1
 10
0.0
 20
0.0
 30
0.0
  3
*D3
  1

  0
LINE
  5
F1002B
330
F10002
100
AcDbEntity
  8
Bemassung
 62
     0
370
    -2
100
AcDbLine
10
-45.0707710011507
20
-5.34177215189875
30
0.000000000000000
11
-57.0707710011507
21
-5.34177215189875
31
0.000000000000000
  0
LINE
  5
F1002C
330
F10002
100
AcDbEntity
  8
Bemassung
 62
     0
370
    -2
100
AcDbLine
10
-45.0707710011507
20
10.6582278481012
30
0.000000000000000
11
-57.0707710011507
21
10.6582278481012
31
0.000000000000000
  0
LINE
  5
F1002D
330
F10002
100
AcDbEntity
  8
Bemassung
 62
     0
370
    -2
100
AcDbLine
10
-55.0707710011507
20
-5.34177215189875
30
0.000000000000000
11
-55.0707710011507
21
10.6582278481012
31
0.000000000000000
  0
INSERT
  5
F1002E
330
F10002
100
AcDbEntity
  8
Bemassung
 62
     0
370
    -2
100
AcDbBlockReference
  2
VDDIM_DEFAULT
10
-55.0707710011507
20
-5.34177215189875
30
0.000000000000000
 41
2.50000000000000
 42
2.50000000000000
 43
2.50000000000000
 50
270.000000000000
  0
INSERT
  5
F1002F
330
F10002
100
AcDbEntity
  8
Bemassung
 62
     0
370
    -2
100
AcDbBlockReference
  2
VDDIM_DEFAULT
10
-55.0707710011507
20
10.6582278481012
30
0.000000000000000
 41
2.50000000000000
 42
2.50000000000000
 43
2.50000000000000
 50
90.0000000000000
  0
MTEXT
  5
F10030
330
F10002
100
AcDbEntity
  8
Bemassung
 62
     0
100
AcDbMText
10
-55.7374376678174
20
2.65822784810125
30
0.000000000000000
 40
2.50000000000000
 41
0.0
 71
     8
 72
     1
  1
Ø16
 11
6.12323399573677e-17
 21
1.00000000000000
 31
0.0
 73
     1
 44
1.0
1001
ACAD
1000
MTEXTBEGIN
1070
73
1070
1
1070
44
1040
1.0
1070
74
1070
0
1000
MTEXTEND
  0
POINT
  5
F10031
330
F10002
100
AcDbEntity
  8
Bemassung
 62
     0
100
AcDbPoint
10
-45.0707710011507
20
-5.34177215189875
30
0.000000000000000
  0
POINT
  5
F10032
330
F10002
100
AcDbEntity
  8
Bemassung
 62
     0
100
AcDbPoint
10
-45.0707710011507
20
10.6582278481012
30
0.000000000000000
  0
ENDBLK
  5
F10033
330
F10002
100
AcDbEntity
  8
0
100
AcDbBlockEnd
  0
BLOCK
  5
F10034
330
F10007
100
AcDbEntity
  8
0
100
AcDbBlockBegin
  2
*D4
 70
     1
 10
0.0
 20
0.0
 30
0.0
  3
*D4
  1

  0
LINE
  5
F10035
330
F10007
100
AcDbEntity
  8
Bemassung
 62
     0
370
    -2
100
AcDbLine
10
37.2292289988493
20
-5.34177215189875
30
0.000000000000000
11
49.9292289988493
21
-5.34177215189875
31
0.000000000000000
  0
LINE
  5
F10036
330
F10007
100
AcDbEntity
  8
Bemassung
 62
     0
370
    -2
100
AcDbLine
10
37.2292289988493
20
10.6582278481012
30
0.000000000000000
11
49.9292289988493
21
10.6582278481012
31
0.000000000000000
  0
LINE
  5
F10037
330
F10007
100
AcDbEntity
  8
Bemassung
 62
     0
370
    -2
100
AcDbLine
10
47.9292289988493
20
-5.34177215189875
30
0.000000000000000
11
47.9292289988493
21
10.6582278481012
31
0.000000000000000
  0
INSERT
  5
F10038
330
F10007
100
AcDbEntity
  8
Bemassung
 62
     0
370
    -2
100
AcDbBlockReference
  2
VDDIM_DEFAULT
10
47.9292289988493
20
-5.34177215189875
30
0.000000000000000
 41
2.50000000000000
 42
2.50000000000000
 43
2.50000000000000
 50
270.000000000000
  0
INSERT
  5
F10039
330
F10007
100
AcDbEntity
  8
Bemassung
 62
     0
370
    -2
100
AcDbBlockReference
  2
VDDIM_DEFAULT
10
47.9292289988493
20
10.6582278481012
30
0.000000000000000
 41
2.50000000000000
 42
2.50000000000000
 43
2.50000000000000
 50
90.0000000000000
  0
MTEXT
  5
F1003A
330
F10007
100
AcDbEntity
  8
Bemassung
 62
     0
100
AcDbMText
10
47.2625623321826
20
2.65822784810125
30
0.000000000000000
 40
2.50000000000000
 41
0.0
 71
     8
 72
     1
  1
Ø16h6
 11
6.12323399573677e-17
 21
1.00000000000000
 31
0.0
 73
     1
 44
1.0
  0
POINT
  5
F1003B
330
F10007
100
AcDbEntity
  8
Bemassung
 62
     0
100
AcDbPoint
10
37.2292289988493
20
-5.34177215189875
30
0.000000000000000
  0
POINT
  5
F1003C
330
F10007
100
AcDbEntity
  8
Bemassung
 62
     0
100
AcDbPoint
10
37.2292289988493
20
10.6582278481012
30
0.000000000000000
  0
ENDBLK
  5
F1003D
330
F10007
100
AcDbEntity
  8
0
100
AcDbBlockEnd
0
ENDSEC
0
SECTION
2
ENTITIES
  0
DIMENSION
  5
F1000D
330
261
100
AcDbEntity
  8
Bemassung
100
AcDbDimension
  2
*D5
10
-45.0707710011507
20
-10.3417721518988
30
0.000000000000000
11
-35.0707710011507
21
-9.67510548523209
31
0.000000000000000
 70
32
 1
20
 71
     8
  3
BEM-ISBE
100
AcDbAlignedDimension
13
-25.0707710011507
23
-5.34177215189875
33
0.000000000000000
14
-45.0707710011507
24
-12.3417721518988
34
0.000000000000000
100
AcDbRotatedDimension
1001
ACAD
1000
DSTYLE
1002
{
1070
284
1070
8
1070
78
1070
8
1070
144
1040
1.00000000000000
1070
147
1040
0.625
1070
 72
1070
 0
1070
 71
1070
 0
1002
}
  0
DIMENSION
  5
F10012
330
261
100
AcDbEntity
  8
Bemassung
100
AcDbDimension
  2
*D6
10
-45.0707710011507
20
20.6582278481012
30
0.000000000000000
11
-3.57077100115073
21
21.3248945147679
31
0.000000000000000
 70
32
 1
83
 71
     8
  3
BEM-ISBE
100
AcDbAlignedDimension
13
37.9292289988493
23
9.95822784810125
33
0.000000000000000
14
-45.0707710011507
24
-12.3417721518988
34
0.000000000000000
100
AcDbRotatedDimension
1001
ACAD
1000
DSTYLE
1002
{
1070
284
1070
8
1070
78
1070
8
1070
144
1040
1.00000000000000
1070
147
1040
0.625
1070
 72
1070
 0
1070
 71
1070
 0
1002
}
  0
DIMENSION
  5
F10003
330
261
100
AcDbEntity
  8
Bemassung
100
AcDbDimension
  2
*D3
10
-55.0707710011507
20
10.6582278481012
30
0.000000000000000
11
-55.7374376678174
21
2.65822784810125
31
0.000000000000000
 70
32
 1
Ø16
 71
     8
  3
BEM-ISBE
100
AcDbAlignedDimension
13
-45.0707710011507
23
-5.34177215189875
33
0.000000000000000
14
-45.0707710011507
24
10.6582278481012
34
0.000000000000000
50
90.0000000000000
100
AcDbRotatedDimension
1001
ACAD
1000
DSTYLE
1002
{
1070
284
1070
8
1070
78
1070
8
1070
144
1040
1.00000000000000
1070
147
1040
0.625
1070
 72
1070
 0
1070
 71
1070
 0
1002
}
  0
DIMENSION
  5
F10008
330
261
100
AcDbEntity
  8
Bemassung
100
AcDbDimension
  2
*D4
10
47.9292289988493
20
10.6582278481012
30
0.000000000000000
11
47.2625623321826
21
2.65822784810125
31
0.000000000000000
 70
32
 1
Ø16h6
 71
     8
  3
BEM-ISBE
100
AcDbAlignedDimension
13
37.2292289988493
23
-5.34177215189875
33
0.000000000000000
14
37.2292289988493
24
10.6582278481012
34
0.000000000000000
50
90.0000000000000
100
AcDbRotatedDimension
1001
ACAD
1000
DSTYLE
1002
{
1070
284
1070
8
1070
78
1070
8
1070
144
1040
1.00000000000000
1070
147
1040
0.625
1070
 72
1070
 0
1070
 71
1070
 0
1002
}
  0
LINE
  5
F1003E
330
F1003F
100
AcDbEntity
8
Geo
100
AcDbLine
10
-45.0707710011507
20
2.65822784810125
30
0.000000000000000
11
-45.0707710011507
21
10.6582278481012
31
0.000000000000000
  0
LINE
  5
F10040
330
F10041
100
AcDbEntity
8
Geo
100
AcDbLine
10
-45.0707710011507
20
10.6582278481012
30
0.000000000000000
11
-25.0707710011507
21
10.6582278481012
31
0.000000000000000
  0
LINE
  5
F10042
330
F10043
100
AcDbEntity
8
Geo
100
AcDbLine
10
-25.0707710011507
20
10.6582278481012
30
0.000000000000000
11
7.12922899884927
21
10.6582278481012
31
0.000000000000000
  0
LINE
  5
F10044
330
F10045
100
AcDbEntity
8
Geo
100
AcDbLine
10
7.12922899884927
20
10.6582278481012
30
0.000000000000000
11
8.92922899884927
21
8.85822784810125
31
0.000000000000000
  0
LINE
  5
F10046
330
F10047
100
AcDbEntity
8
Geo
100
AcDbLine
10
8.92922899884927
20
8.85822784810125
30
0.000000000000000
11
18.9292289988493
21
8.85822784810125
31
0.000000000000000
  0
LINE
  5
F10048
330
F10049
100
AcDbEntity
8
Geo
100
AcDbLine
10
18.9292289988493
20
8.85822784810125
30
0.000000000000000
11
20.7292289988493
21
10.6582278481012
31
0.000000000000000
  0
LINE
  5
F1004A
330
F1004B
100
AcDbEntity
8
Geo
100
AcDbLine
10
20.7292289988493
20
10.6582278481012
30
0.000000000000000
11
37.2292289988493
21
10.6582278481012
31
0.000000000000000
  0
LINE
  5
F1004C
330
F1004D
100
AcDbEntity
8
Geo
100
AcDbLine
10
37.2292289988493
20
10.6582278481012
30
0.000000000000000
11
37.9292289988493
21
9.95822784810125
31
0.000000000000000
  0
LINE
  5
F1004E
330
F1004F
100
AcDbEntity
8
Geo
100
AcDbLine
10
-45.0707710011507
20
10.6582278481012
30
0.000000000000000
11
-44.9707710011507
21
10.6580195156721
31
0.000000000000000
  0
LINE
  5
F10050
330
F10051
100
AcDbEntity
8
Geo
100
AcDbLine
10
-44.9707710011507
20
10.6580195156721
30
0.000000000000000
11
-44.8707710011507
21
10.6573945292354
31
0.000000000000000
  0
LINE
  5
F10052
330
F10053
100
AcDbEntity
8
Geo
100
AcDbLine
10
-44.8707710011507
20
10.6573945292354
30
0.000000000000000
11
-44.7707710011507
21
10.6563529213423
31
0.000000000000000
  0
LINE
  5
F10054
330
F10055
100
AcDbEntity
8
Geo
100
AcDbLine
10
-44.7707710011507
20
10.6563529213423
30
0.000000000000000
11
-44.6707710011507
21
10.6548947462430
31
0.000000000000000
  0
LINE
  5
F10056
330
F10057
100
AcDbEntity
8
Geo
100
AcDbLine
10
-44.6707710011507
20
10.6548947462430
30
0.000000000000000
11
-44.5707710011507
21
10.6530200798837
31
0.000000000000000
  0
LINE
  5
F10058
330
F10059
100
AcDbEntity
8
Geo
100
AcDbLine
10
-44.5707710011507
20
10.6530200798837
30
0.000000000000000
11
-44.4707710011507
21
10.6507290199030
31
0.000000000000000
  0
LINE
  5
F1005A
330
F1005B
100
AcDbEntity
8
Geo
100
AcDbLine
10
-44.4707710011507
20
10.6507290199030
30
0.000000000000000
11
-44.3707710011507
21
10.6480216856263
31
0.000000000000000
  0
LINE
  5
F1005C
330
F1005D
100
AcDbEntity
8
Geo
100
AcDbLine
10
-44.3707710011507
20
10.6480216856263
30
0.000000000000000
11
-44.2707710011507
21
10.6448982180601
31
0.000000000000000
  0
LINE
  5
F1005E
330
F1005F
100
AcDbEntity
8
Geo
100
AcDbLine
10
-44.2707710011507
20
10.6448982180601
30
0.000000000000000
11
-44.1707710011507
21
10.6413587798842
31
0.000000000000000
  0
LINE
  5
F10060
330
F10061
100
AcDbEntity
8
Geo
100
AcDbLine
10
-44.1707710011507
20
10.6413587798842
30
0.000000000000000
11
-44.0707710011507
21
10.6374035554436
31
0.000000000000000
  0
LINE
  5
F10062
330
F10063
100
AcDbEntity
8
Geo
100
AcDbLine
10
-44.0707710011507
20
10.6374035554436
30
0.000000000000000
11
-43.9707710011507
21
10.6330327507386
31
0.000000000000000
  0
LINE
  5
F10064
330
F10065
100
AcDbEntity
8
Geo
100
AcDbLine
10
-43.9707710011507
20
10.6330327507386
30
0.000000000000000
11
-43.8707710011507
21
10.6282465934144
31
0.000000000000000
  0
LINE
  5
F10066
330
F10067
100
AcDbEntity
8
Geo
100
AcDbLine
10
-43.8707710011507
20
10.6282465934144
30
0.000000000000000
11
-43.7707710011507
21
10.6230453327488
31
0.000000000000000
  0
LINE
  5
F10068
330
F10069
100
AcDbEntity
8
Geo
100
AcDbLine
10
-43.7707710011507
20
10.6230453327488
30
0.000000000000000
11
-43.6707710011507
21
10.6174292396398
31
0.000000000000000
  0
LINE
  5
F1006A
330
F1006B
100
AcDbEntity
8
Geo
100
AcDbLine
10
-43.6707710011507
20
10.6174292396398
30
0.000000000000000
11
-43.5707710011507
21
10.6113986065908
31
0.000000000000000
  0
LINE
  5
F1006C
330
F1006D
100
AcDbEntity
8
Geo
100
AcDbLine
10
-43.5707710011507
20
10.6113986065908
30
0.000000000000000
11
-43.4707710011507
21
10.6049537476960
31
0.000000000000000
  0
LINE
  5
F1006E
330
F1006F
100
AcDbEntity
8
Geo
100
AcDbLine
10
-43.4707710011507
20
10.6049537476960
30
0.000000000000000
11
-43.3707710011507
21
10.5980949986237
31
0.000000000000000
  0
LINE
  5
F10070
330
F10071
100
AcDbEntity
8
Geo
100
AcDbLine
10
-43.3707710011507
20
10.5980949986237
30
0.000000000000000
11
-43.2707710011507
21
10.5908227165988
31
0.000000000000000
  0
LINE
  5
F10072
330
F10073
100
AcDbEntity
8
Geo
100
AcDbLine
10
-43.2707710011507
20
10.5908227165988
30
0.000000000000000
11
-43.1707710011507
21
10.5831372803844
31
0.000000000000000
  0
LINE
  5
F10074
330
F10075
100
AcDbEntity
8
Geo
100
AcDbLine
10
-43.1707710011507
20
10.5831372803844
30
0.000000000000000
11
-43.0707710011507
21
10.5750390902618
31
0.000000000000000
  0
LINE
  5
F10076
330
F10077
100
AcDbEntity
8
Geo
100
AcDbLine
10
-43.0707710011507
20
10.5750390902618
30
0.000000000000000
11
-42.9707710011507
21
10.5665285680100
31
0.000000000000000
  0
LINE
  5
F10078
330
F10079
100
AcDbEntity
8
Geo
100
AcDbLine
10
-42.9707710011507
20
10.5665285680100
30
0.000000000000000
11
-42.8707710011507
21
10.5576061568835
31
0.000000000000000
  0
LINE
  5
F1007A
330
F1007B
100
AcDbEntity
8
Geo
100
AcDbLine
10
-42.8707710011507
20
10.5576061568835
30
0.000000000000000
11
-42.7707710011507
21
10.5482723215891
31
0.000000000000000
  0
LINE
  5
F1007C
330
F1007D
100
AcDbEntity
8
Geo
100
AcDbLine
10
-42.7707710011507
20
10.5482723215891
30
0.000000000000000
11
-42.6707710011507
21
10.5385275482619
31
0.000000000000000
  0
LINE
  5
F1007E
330
F1007F
100
AcDbEntity
8
Geo
100
AcDbLine
10
-42.6707710011507
20
10.5385275482619
30
0.000000000000000
11
-42.5707710011507
21
10.5283723444401
31
0.000000000000000
  0
LINE
  5
F10080
330
F10081
100
AcDbEntity
8
Geo
100
AcDbLine
10
-42.5707710011507
20
10.5283723444401
30
0.000000000000000
11
-42.4707710011507
21
10.5178072390382
31
0.000000000000000
  0
LINE
  5
F10082
330
F10083
100
AcDbEntity
8
Geo
100
AcDbLine
10
-42.4707710011507
20
10.5178072390382
30
0.000000000000000
11
-42.3707710011507
21
10.5068327823197
31
0.000000000000000
  0
LINE
  5
F10084
330
F10085
100
AcDbEntity
8
Geo
100
AcDbLine
10
-42.3707710011507
20
10.5068327823197
30
0.000000000000000
11
-42.2707710011507
21
10.4954495458684
31
0.000000000000000
  0
LINE
  5
F10086
330
F10087
100
AcDbEntity
8
Geo
100
AcDbLine
10
-42.2707710011507
20
10.4954495458684
30
0.000000000000000
11
-42.1707710011507
21
10.4836581225587
31
0.000000000000000
  0
LINE
  5
F10088
330
F10089
100
AcDbEntity
8
Geo
100
AcDbLine
10
-42.1707710011507
20
10.4836581225587
30
0.000000000000000
11
-42.0707710011507
21
10.4714591265245
31
0.000000000000000
  0
LINE
  5
F1008A
330
F1008B
100
AcDbEntity
8
Geo
100
AcDbLine
10
-42.0707710011507
20
10.4714591265245
30
0.000000000000000
11
-41.9707710011507
21
10.4588531931275
31
0.000000000000000
  0
LINE
  5
F1008C
330
F1008D
100
AcDbEntity
8
Geo
100
AcDbLine
10
-41.9707710011507
20
10.4588531931275
30
0.000000000000000
11
-41.8707710011507
21
10.4458409789237
31
0.000000000000000
  0
LINE
  5
F1008E
330
F1008F
100
AcDbEntity
8
Geo
100
AcDbLine
10
-41.8707710011507
20
10.4458409789237
30
0.000000000000000
11
-41.7707710011507
21
10.4324231616299
31
0.000000000000000
  0
LINE
  5
F10090
330
F10091
100
AcDbEntity
8
Geo
100
AcDbLine
10
-41.7707710011507
20
10.4324231616299
30
0.000000000000000
11
-41.6707710011507
21
10.4186004400875
31
0.000000000000000
  0
LINE
  5
F10092
330
F10093
100
AcDbEntity
8
Geo
100
AcDbLine
10
-41.6707710011507
20
10.4186004400875
30
0.000000000000000
11
-41.5707710011507
21
10.4043735342269
31
0.000000000000000
  0
LINE
  5
F10094
330
F10095
100
AcDbEntity
8
Geo
100
AcDbLine
10
-41.5707710011507
20
10.4043735342269
30
0.000000000000000
11
-41.4707710011507
21
10.3897431850296
31
0.000000000000000
  0
LINE
  5
F10096
330
F10097
100
AcDbEntity
8
Geo
100
AcDbLine
10
-41.4707710011507
20
10.3897431850296
30
0.000000000000000
11
-41.3707710011507
21
10.3747101544895
31
0.000000000000000
  0
LINE
  5
F10098
330
F10099
100
AcDbEntity
8
Geo
100
AcDbLine
10
-41.3707710011507
20
10.3747101544895
30
0.000000000000000
11
-41.2707710011507
21
10.3592752255737
31
0.000000000000000
  0
LINE
  5
F1009A
330
F1009B
100
AcDbEntity
8
Geo
100
AcDbLine
10
-41.2707710011507
20
10.3592752255737
30
0.000000000000000
11
-41.1707710011507
21
10.3434392021812
31
0.000000000000000
  0
LINE
  5
F1009C
330
F1009D
100
AcDbEntity
8
Geo
100
AcDbLine
10
-41.1707710011507
20
10.3434392021812
30
0.000000000000000
11
-41.0707710011507
21
10.3272029091012
31
0.000000000000000
  0
LINE
  5
F1009E
330
F1009F
100
AcDbEntity
8
Geo
100
AcDbLine
10
-41.0707710011507
20
10.3272029091012
30
0.000000000000000
11
-40.9707710011507
21
10.3105671919705
31
0.000000000000000
  0
LINE
  5
F100A0
330
F100A1
100
AcDbEntity
8
Geo
100
AcDbLine
10
-40.9707710011507
20
10.3105671919705
30
0.000000000000000
11
-40.8707710011507
21
10.2935329172288
31
0.000000000000000
  0
LINE
  5
F100A2
330
F100A3
100
AcDbEntity
8
Geo
100
AcDbLine
10
-40.8707710011507
20
10.2935329172288
30
0.000000000000000
11
-40.7707710011507
21
10.2761009720740
31
0.000000000000000
  0
LINE
  5
F100A4
330
F100A5
100
AcDbEntity
8
Geo
100
AcDbLine
10
-40.7707710011507
20
10.2761009720740
30
0.000000000000000
11
-40.6707710011507
21
10.2582722644161
31
0.000000000000000
  0
LINE
  5
F100A6
330
F100A7
100
AcDbEntity
8
Geo
100
AcDbLine
10
-40.6707710011507
20
10.2582722644161
30
0.000000000000000
11
-40.5707710011507
21
10.2400477228296
31
0.000000000000000
  0
LINE
  5
F100A8
330
F100A9
100
AcDbEntity
8
Geo
100
AcDbLine
10
-40.5707710011507
20
10.2400477228296
30
0.000000000000000
11
-40.4707710011507
21
10.2214282965052
31
0.000000000000000
  0
LINE
  5
F100AA
330
F100AB
100
AcDbEntity
8
Geo
100
AcDbLine
10
-40.4707710011507
20
10.2214282965052
30
0.000000000000000
11
-40.3707710011507
21
10.2024149552005
31
0.000000000000000
  0
LINE
  5
F100AC
330
F100AD
100
AcDbEntity
8
Geo
100
AcDbLine
10
-40.3707710011507
20
10.2024149552005
30
0.000000000000000
11
-40.2707710011507
21
10.1830086891893
31
0.000000000000000
  0
LINE
  5
F100AE
330
F100AF
100
AcDbEntity
8
Geo
100
AcDbLine
10
-40.2707710011507
20
10.1830086891893
30
0.000000000000000
11
-40.1707710011507
21
10.1632105092104
31
0.000000000000000
  0
LINE
  5
F100B0
330
F100B1
100
AcDbEntity
8
Geo
100
AcDbLine
10
-40.1707710011507
20
10.1632105092104
30
0.000000000000000
11
-40.0707710011507
21
10.1430214464143
31
0.000000000000000
  0
LINE
  5
F100B2
330
F100B3
100
AcDbEntity
8
Geo
100
AcDbLine
10
-40.0707710011507
20
10.1430214464143
30
0.000000000000000
11
-39.9707710011507
21
10.1224425523104
31
0.000000000000000
  0
LINE
  5
F100B4
330
F100B5
100
AcDbEntity
8
Geo
100
AcDbLine
10
-39.9707710011507
20
10.1224425523104
30
0.000000000000000
11
-39.8707710011507
21
10.1014748987113
31
0.000000000000000
  0
LINE
  5
F100B6
330
F100B7
100
AcDbEntity
8
Geo
100
AcDbLine
10
-39.8707710011507
20
10.1014748987113
30
0.000000000000000
11
-39.7707710011507
21
10.0801195776776
31
0.000000000000000
  0
LINE
  5
F100B8
330
F100B9
100
AcDbEntity
8
Geo
100
AcDbLine
10
-39.7707710011507
20
10.0801195776776
30
0.000000000000000
11
-39.6707710011507
21
10.0583777014607
31
0.000000000000000
  0
LINE
  5
F100BA
330
F100BB
100
AcDbEntity
8
Geo
100
AcDbLine
10
-39.6707710011507
20
10.0583777014607
30
0.000000000000000
11
-39.5707710011507
21
10.0362504024451
31
0.000000000000000
  0
LINE
  5
F100BC
330
F100BD
100
AcDbEntity
8
Geo
100
AcDbLine
10
-39.5707710011507
20
10.0362504024451
30
0.000000000000000
11
-39.4707710011507
21
10.0137388330893
31
0.000000000000000
  0
LINE
  5
F100BE
330
F100BF
100
AcDbEntity
8
Geo
100
AcDbLine
10
-39.4707710011507
20
10.0137388330893
30
0.000000000000000
11
-39.3707710011507
21
9.99084416586580
31
0.000000000000000
  0
LINE
  5
F100C0
330
F100C1
100
AcDbEntity
8
Geo
100
AcDbLine
10
-39.3707710011507
20
9.99084416586580
30
0.000000000000000
11
-39.2707710011507
21
9.96756759320001
31
0.000000000000000
  0
LINE
  5
F100C2
330
F100C3
100
AcDbEntity
8
Geo
100
AcDbLine
10
-39.2707710011507
20
9.96756759320001
30
0.000000000000000
11
-39.1707710011507
21
9.94391032740814
31
0.000000000000000
  0
LINE
  5
F100C4
330
F100C5
100
AcDbEntity
8
Geo
100
AcDbLine
10
-39.1707710011507
20
9.94391032740814
30
0.000000000000000
11
-39.0707710011507
21
9.91987360063412
31
0.000000000000000
  0
LINE
  5
F100C6
330
F100C7
100
AcDbEntity
8
Geo
100
AcDbLine
10
-39.0707710011507
20
9.91987360063412
30
0.000000000000000
11
-38.9707710011507
21
9.89545866478535
31
0.000000000000000
  0
LINE
  5
F100C8
330
F100C9
100
AcDbEntity
8
Geo
100
AcDbLine
10
-38.9707710011507
20
9.89545866478535
30
0.000000000000000
11
-38.8707710011507
21
9.87066679146756
31
0.000000000000000
  0
LINE
  5
F100CA
330
F100CB
100
AcDbEntity
8
Geo
100
AcDbLine
10
-38.8707710011507
20
9.87066679146756
30
0.000000000000000
11
-38.7707710011507
21
9.84549927191856
31
0.000000000000000
  0
LINE
  5
F100CC
330
F100CD
100
AcDbEntity
8
Geo
100
AcDbLine
10
-38.7707710011507
20
9.84549927191856
30
0.000000000000000
11
-38.6707710011507
21
9.81995741694095
31
0.000000000000000
  0
LINE
  5
F100CE
330
F100CF
100
AcDbEntity
8
Geo
100
AcDbLine
10
-38.6707710011507
20
9.81995741694095
30
0.000000000000000
11
-38.5707710011507
21
9.79404255683392
31
0.000000000000000
  0
LINE
  5
F100D0
330
F100D1
100
AcDbEntity
8
Geo
100
AcDbLine
10
-38.5707710011507
20
9.79404255683392
30
0.000000000000000
11
-38.4707710011507
21
9.76775604132390
31
0.000000000000000
  0
LINE
  5
F100D2
330
F100D3
100
AcDbEntity
8
Geo
100
AcDbLine
10
-38.4707710011507
20
9.76775604132390
30
0.000000000000000
11
-38.3707710011507
21
9.74109923949430
31
0.000000000000000
  0
LINE
  5
F100D4
330
F100D5
100
AcDbEntity
8
Geo
100
AcDbLine
10
-38.3707710011507
20
9.74109923949430
30
0.000000000000000
11
-38.2707710011507
21
9.71407353971419
31
0.000000000000000
  0
LINE
  5
F100D6
330
F100D7
100
AcDbEntity
8
Geo
100
AcDbLine
10
-38.2707710011507
20
9.71407353971419
30
0.000000000000000
11
-38.1707710011507
21
9.68668034956598
31
0.000000000000000
  0
LINE
  5
F100D8
330
F100D9
100
AcDbEntity
8
Geo
100
AcDbLine
10
-38.1707710011507
20
9.68668034956598
30
0.000000000000000
11
-38.0707710011507
21
9.65892109577215
31
0.000000000000000
  0
LINE
  5
F100DA
330
F100DB
100
AcDbEntity
8
Geo
100
AcDbLine
10
-38.0707710011507
20
9.65892109577215
30
0.000000000000000
11
-37.9707710011507
21
9.63079722412088
31
0.000000000000000
  0
LINE
  5
F100DC
330
F100DD
100
AcDbEntity
8
Geo
100
AcDbLine
10
-37.9707710011507
20
9.63079722412088
30
0.000000000000000
11
-37.8707710011507
21
9.60231019939080
31
0.000000000000000
  0
LINE
  5
F100DE
330
F100DF
100
AcDbEntity
8
Geo
100
AcDbLine
10
-37.8707710011507
20
9.60231019939080
30
0.000000000000000
11
-37.7707710011507
21
9.57346150527468
31
0.000000000000000
  0
LINE
  5
F100E0
330
F100E1
100
AcDbEntity
8
Geo
100
AcDbLine
10
-37.7707710011507
20
9.57346150527468
30
0.000000000000000
11
-37.6707710011507
21
9.54425264430213
31
0.000000000000000
  0
LINE
  5
F100E2
330
F100E3
100
AcDbEntity
8
Geo
100
AcDbLine
10
-37.6707710011507
20
9.54425264430213
30
0.000000000000000
11
-37.5707710011507
21
9.51468513776141
31
0.000000000000000
  0
LINE
  5
F100E4
330
F100E5
100
AcDbEntity
8
Geo
100
AcDbLine
10
-37.5707710011507
20
9.51468513776141
30
0.000000000000000
11
-37.4707710011507
21
9.48476052562013
31
0.000000000000000
  0
LINE
  5
F100E6
330
F100E7
100
AcDbEntity
8
Geo
100
AcDbLine
10
-37.4707710011507
20
9.48476052562013
30
0.000000000000000
11
-37.3707710011507
21
9.45448036644508
31
0.000000000000000
  0
LINE
  5
F100E8
330
F100E9
100
AcDbEntity
8
Geo
100
AcDbLine
10
-37.3707710011507
20
9.45448036644508
30
0.000000000000000
11
-37.2707710011507
21
9.42384623732102
31
0.000000000000000
  0
LINE
  5
F100EA
330
F100EB
100
AcDbEntity
8
Geo
100
AcDbLine
10
-37.2707710011507
20
9.42384623732102
30
0.000000000000000
11
-37.1707710011507
21
9.39285973376860
31
0.000000000000000
  0
LINE
  5
F100EC
330
F100ED
100
AcDbEntity
8
Geo
100
AcDbLine
10
-37.1707710011507
20
9.39285973376860
30
0.000000000000000
11
-37.0707710011507
21
9.36152246966120
31
0.000000000000000
  0
LINE
  5
F100EE
330
F100EF
100
AcDbEntity
8
Geo
100
AcDbLine
10
-37.0707710011507
20
9.36152246966120
30
0.000000000000000
11
-36.9707710011507
21
9.32983607714091
31
0.000000000000000
  0
LINE
  5
F100F0
330
F100F1
100
AcDbEntity
8
Geo
100
AcDbLine
10
-36.9707710011507
20
9.32983607714091
30
0.000000000000000
11
-36.8707710011507
21
9.29780220653352
31
0.000000000000000
  0
LINE
  5
F100F2
330
F100F3
100
AcDbEntity
8
Geo
100
AcDbLine
10
-36.8707710011507
20
9.29780220653352
30
0.000000000000000
11
-36.7707710011507
21
9.26542252626254
31
0.000000000000000
  0
LINE
  5
F100F4
330
F100F5
100
AcDbEntity
8
Geo
100
AcDbLine
10
-36.7707710011507
20
9.26542252626254
30
0.000000000000000
11
-36.6707710011507
21
9.23269872276233
31
0.000000000000000
  0
LINE
  5
F100F6
330
F100F7
100
AcDbEntity
8
Geo
100
AcDbLine
10
-36.6707710011507
20
9.23269872276233
30
0.000000000000000
11
-36.5707710011507
21
9.19963250039027
31
0.000000000000000
  0
LINE
  5
F100F8
330
F100F9
100
AcDbEntity
8
Geo
100
AcDbLine
10
-36.5707710011507
20
9.19963250039027
30
0.000000000000000
11
-36.4707710011507
21
9.16622558133795
31
0.000000000000000
  0
LINE
  5
F100FA
330
F100FB
100
AcDbEntity
8
Geo
100
AcDbLine
10
-36.4707710011507
20
9.16622558133795
30
0.000000000000000
11
-36.3707710011507
21
9.13247970554153
31
0.000000000000000
  0
LINE
  5
F100FC
330
F100FD
100
AcDbEntity
8
Geo
100
AcDbLine
10
-36.3707710011507
20
9.13247970554153
30
0.000000000000000
11
-36.2707710011507
21
9.09839663059108
31
0.000000000000000
  0
LINE
  5
F100FE
330
F100FF
100
AcDbEntity
8
Geo
100
AcDbLine
10
-36.2707710011507
20
9.09839663059108
30
0.000000000000000
11
-36.1707710011507
21
9.06397813163904
31
0.000000000000000
  0
LINE
  5
F10100
330
F10101
100
AcDbEntity
8
Geo
100
AcDbLine
10
-36.1707710011507
20
9.06397813163904
30
0.000000000000000
11
-36.0707710011507
21
9.02922600130779
31
0.000000000000000
  0
LINE
  5
F10102
330
F10103
100
AcDbEntity
8
Geo
100
AcDbLine
10
-36.0707710011507
20
9.02922600130779
30
0.000000000000000
11
-35.9707710011508
21
8.99414204959626
31
0.000000000000000
  0
LINE
  5
F10104
330
F10105
100
AcDbEntity
8
Geo
100
AcDbLine
10
-35.9707710011508
20
8.99414204959626
30
0.000000000000000
11
-35.8707710011508
21
8.95872810378568
31
0.000000000000000
  0
LINE
  5
F10106
330
F10107
100
AcDbEntity
8
Geo
100
AcDbLine
10
-35.8707710011508
20
8.95872810378568
30
0.000000000000000
11
-35.7707710011507
21
8.92298600834438
31
0.000000000000000
  0
LINE
  5
F10108
330
F10109
100
AcDbEntity
8
Geo
100
AcDbLine
10
-35.7707710011507
20
8.92298600834438
30
0.000000000000000
11
-35.6707710011507
21
8.88691762483174
31
0.000000000000000
  0
LINE
  5
F1010A
330
F1010B
100
AcDbEntity
8
Geo
100
AcDbLine
10
-35.6707710011507
20
8.88691762483174
30
0.000000000000000
11
-35.5707710011507
21
8.85052483180127
31
0.000000000000000
  0
LINE
  5
F1010C
330
F1010D
100
AcDbEntity
8
Geo
100
AcDbLine
10
-35.5707710011507
20
8.85052483180127
30
0.000000000000000
11
-35.4707710011508
21
8.81380952470270
31
0.000000000000000
  0
LINE
  5
F1010E
330
F1010F
100
AcDbEntity
8
Geo
100
AcDbLine
10
-35.4707710011508
20
8.81380952470270
30
0.000000000000000
11
-35.3707710011508
21
8.77677361578331
31
0.000000000000000
  0
LINE
  5
F10110
330
F10111
100
AcDbEntity
8
Geo
100
AcDbLine
10
-35.3707710011508
20
8.77677361578331
30
0.000000000000000
11
-35.2707710011507
21
8.73941903398833
31
0.000000000000000
  0
LINE
  5
F10112
330
F10113
100
AcDbEntity
8
Geo
100
AcDbLine
10
-35.2707710011507
20
8.73941903398833
30
0.000000000000000
11
-35.1707710011508
21
8.70174772486043
31
0.000000000000000
  0
LINE
  5
F10114
330
F10115
100
AcDbEntity
8
Geo
100
AcDbLine
10
-35.1707710011508
20
8.70174772486043
30
0.000000000000000
11
-35.0707710011508
21
8.66376165043845
31
0.000000000000000
  0
LINE
  5
F10116
330
F10117
100
AcDbEntity
8
Geo
100
AcDbLine
10
-35.0707710011508
20
8.66376165043845
30
0.000000000000000
11
-34.9707710011508
21
8.62546278915519
31
0.000000000000000
  0
LINE
  5
F10118
330
F10119
100
AcDbEntity
8
Geo
100
AcDbLine
10
-34.9707710011508
20
8.62546278915519
30
0.000000000000000
11
-34.8707710011508
21
8.58685313573435
31
0.000000000000000
  0
LINE
  5
F1011A
330
F1011B
100
AcDbEntity
8
Geo
100
AcDbLine
10
-34.8707710011508
20
8.58685313573435
30
0.000000000000000
11
-34.7707710011507
21
8.54793470108664
31
0.000000000000000
  0
LINE
  5
F1011C
330
F1011D
100
AcDbEntity
8
Geo
100
AcDbLine
10
-34.7707710011507
20
8.54793470108664
30
0.000000000000000
11
-34.6707710011508
21
8.50870951220507
31
0.000000000000000
  0
LINE
  5
F1011E
330
F1011F
100
AcDbEntity
8
Geo
100
AcDbLine
10
-34.6707710011508
20
8.50870951220507
30
0.000000000000000
11
-34.5707710011508
21
8.46917961205936
31
0.000000000000000
  0
LINE
  5
F10120
330
F10121
100
AcDbEntity
8
Geo
100
AcDbLine
10
-34.5707710011508
20
8.46917961205936
30
0.000000000000000
11
-34.4707710011508
21
8.42934705948955
31
0.000000000000000
  0
LINE
  5
F10122
330
F10123
100
AcDbEntity
8
Geo
100
AcDbLine
10
-34.4707710011508
20
8.42934705948955
30
0.000000000000000
11
-34.3707710011508
21
8.38921392909874
31
0.000000000000000
  0
LINE
  5
F10124
330
F10125
100
AcDbEntity
8
Geo
100
AcDbLine
10
-34.3707710011508
20
8.38921392909874
30
0.000000000000000
11
-34.2707710011508
21
8.34878231114507
31
0.000000000000000
  0
LINE
  5
F10126
330
F10127
100
AcDbEntity
8
Geo
100
AcDbLine
10
-34.2707710011508
20
8.34878231114507
30
0.000000000000000
11
-34.1707710011508
21
8.30805431143282
31
0.000000000000000
  0
LINE
  5
F10128
330
F10129
100
AcDbEntity
8
Geo
100
AcDbLine
10
-34.1707710011508
20
8.30805431143282
30
0.000000000000000
11
-34.0707710011508
21
8.26703205120279
31
0.000000000000000
  0
LINE
  5
F1012A
330
F1012B
100
AcDbEntity
8
Geo
100
AcDbLine
10
-34.0707710011508
20
8.26703205120279
30
0.000000000000000
11
-33.9707710011508
21
8.22571766702175
31
0.000000000000000
  0
LINE
  5
F1012C
330
F1012D
100
AcDbEntity
8
Geo
100
AcDbLine
10
-33.9707710011508
20
8.22571766702175
30
0.000000000000000
11
-33.8707710011508
21
8.18411331067121
31
0.000000000000000
  0
LINE
  5
F1012E
330
F1012F
100
AcDbEntity
8
Geo
100
AcDbLine
10
-33.8707710011508
20
8.18411331067121
30
0.000000000000000
11
-33.7707710011508
21
8.14222114903531
31
0.000000000000000
  0
LINE
  5
F10130
330
F10131
100
AcDbEntity
8
Geo
100
AcDbLine
10
-33.7707710011508
20
8.14222114903531
30
0.000000000000000
11
-33.6707710011508
21
8.10004336398801
31
0.000000000000000
  0
LINE
  5
F10132
330
F10133
100
AcDbEntity
8
Geo
100
AcDbLine
10
-33.6707710011508
20
8.10004336398801
30
0.000000000000000
11
-33.5707710011508
21
8.05758215227941
31
0.000000000000000
  0
LINE
  5
F10134
330
F10135
100
AcDbEntity
8
Geo
100
AcDbLine
10
-33.5707710011508
20
8.05758215227941
30
0.000000000000000
11
-33.4707710011508
21
8.01483972542136
31
0.000000000000000
  0
LINE
  5
F10136
330
F10137
100
AcDbEntity
8
Geo
100
AcDbLine
10
-33.4707710011508
20
8.01483972542136
30
0.000000000000000
11
-33.3707710011508
21
7.97181830957226
31
0.000000000000000
  0
LINE
  5
F10138
330
F10139
100
AcDbEntity
8
Geo
100
AcDbLine
10
-33.3707710011508
20
7.97181830957226
30
0.000000000000000
11
-33.2707710011508
21
7.92852014542112
31
0.000000000000000
  0
LINE
  5
F1013A
330
F1013B
100
AcDbEntity
8
Geo
100
AcDbLine
10
-33.2707710011508
20
7.92852014542112
30
0.000000000000000
11
-33.1707710011508
21
7.88494748807088
31
0.000000000000000
  0
LINE
  5
F1013C
330
F1013D
100
AcDbEntity
8
Geo
100
AcDbLine
10
-33.1707710011508
20
7.88494748807088
30
0.000000000000000
11
-33.0707710011508
21
7.84110260692092
31
0.000000000000000
  0
LINE
  5
F1013E
330
F1013F
100
AcDbEntity
8
Geo
100
AcDbLine
10
-33.0707710011508
20
7.84110260692092
30
0.000000000000000
11
-32.9707710011508
21
7.79698778554889
31
0.000000000000000
  0
LINE
  5
F10140
330
F10141
100
AcDbEntity
8
Geo
100
AcDbLine
10
-32.9707710011508
20
7.79698778554889
30
0.000000000000000
11
-32.8707710011508
21
7.75260532159176
31
0.000000000000000
  0
LINE
  5
F10142
330
F10143
100
AcDbEntity
8
Geo
100
AcDbLine
10
-32.8707710011508
20
7.75260532159176
30
0.000000000000000
11
-32.7707710011508
21
7.70795752662617
31
0.000000000000000
  0
LINE
  5
F10144
330
F10145
100
AcDbEntity
8
Geo
100
AcDbLine
10
-32.7707710011508
20
7.70795752662617
30
0.000000000000000
11
-32.6707710011508
21
7.66304672604801
31
0.000000000000000
  0
LINE
  5
F10146
330
F10147
100
AcDbEntity
8
Geo
100
AcDbLine
10
-32.6707710011508
20
7.66304672604801
30
0.000000000000000
11
-32.5707710011508
21
7.61787525895133
31
0.000000000000000
  0
LINE
  5
F10148
330
F10149
100
AcDbEntity
8
Geo
100
AcDbLine
10
-32.5707710011508
20
7.61787525895133
30
0.000000000000000
11
-32.4707710011508
21
7.57244547800648
31
0.000000000000000
  0
LINE
  5
F1014A
330
F1014B
100
AcDbEntity
8
Geo
100
AcDbLine
10
-32.4707710011508
20
7.57244547800648
30
0.000000000000000
11
-32.3707710011508
21
7.52675974933764
31
0.000000000000000
  0
LINE
  5
F1014C
330
F1014D
100
AcDbEntity
8
Geo
100
AcDbLine
10
-32.3707710011508
20
7.52675974933764
30
0.000000000000000
11
-32.2707710011508
21
7.48082045239949
31
0.000000000000000
  0
LINE
  5
F1014E
330
F1014F
100
AcDbEntity
8
Geo
100
AcDbLine
10
-32.2707710011508
20
7.48082045239949
30
0.000000000000000
11
-32.1707710011508
21
7.43462997985338
31
0.000000000000000
  0
LINE
  5
F10150
330
F10151
100
AcDbEntity
8
Geo
100
AcDbLine
10
-32.1707710011508
20
7.43462997985338
30
0.000000000000000
11
-32.0707710011508
21
7.38819073744264
31
0.000000000000000
  0
LINE
  5
F10152
330
F10153
100
AcDbEntity
8
Geo
100
AcDbLine
10
-32.0707710011508
20
7.38819073744264
30
0.000000000000000
11
-31.9707710011508
21
7.34150514386732
31
0.000000000000000
  0
LINE
  5
F10154
330
F10155
100
AcDbEntity
8
Geo
100
AcDbLine
10
-31.9707710011508
20
7.34150514386732
30
0.000000000000000
11
-31.8707710011508
21
7.29457563065819
31
0.000000000000000
  0
LINE
  5
F10156
330
F10157
100
AcDbEntity
8
Geo
100
AcDbLine
10
-31.8707710011508
20
7.29457563065819
30
0.000000000000000
11
-31.7707710011508
21
7.24740464205013
31
0.000000000000000
  0
LINE
  5
F10158
330
F10159
100
AcDbEntity
8
Geo
100
AcDbLine
10
-31.7707710011508
20
7.24740464205013
30
0.000000000000000
11
-31.6707710011508
21
7.19999463485479
31
0.000000000000000
  0
LINE
  5
F1015A
330
F1015B
100
AcDbEntity
8
Geo
100
AcDbLine
10
-31.6707710011508
20
7.19999463485479
30
0.000000000000000
11
-31.5707710011508
21
7.15234807833266
31
0.000000000000000
  0
LINE
  5
F1015C
330
F1015D
100
AcDbEntity
8
Geo
100
AcDbLine
10
-31.5707710011508
20
7.15234807833266
30
0.000000000000000
11
-31.4707710011508
21
7.10446745406447
31
0.000000000000000
  0
LINE
  5
F1015E
330
F1015F
100
AcDbEntity
8
Geo
100
AcDbLine
10
-31.4707710011508
20
7.10446745406447
30
0.000000000000000
11
-31.3707710011508
21
7.05635525582190
31
0.000000000000000
  0
LINE
  5
F10160
330
F10161
100
AcDbEntity
8
Geo
100
AcDbLine
10
-31.3707710011508
20
7.05635525582190
30
0.000000000000000
11
-31.2707710011508
21
7.00801398943773
31
0.000000000000000
  0
LINE
  5
F10162
330
F10163
100
AcDbEntity
8
Geo
100
AcDbLine
10
-31.2707710011508
20
7.00801398943773
30
0.000000000000000
11
-31.1707710011508
21
6.95944617267533
31
0.000000000000000
  0
LINE
  5
F10164
330
F10165
100
AcDbEntity
8
Geo
100
AcDbLine
10
-31.1707710011508
20
6.95944617267533
30
0.000000000000000
11
-31.0707710011508
21
6.91065433509750
31
0.000000000000000
  0
LINE
  5
F10166
330
F10167
100
AcDbEntity
8
Geo
100
AcDbLine
10
-31.0707710011508
20
6.91065433509750
30
0.000000000000000
11
-30.9707710011508
21
6.86164101793476
31
0.000000000000000
  0
LINE
  5
F10168
330
F10169
100
AcDbEntity
8
Geo
100
AcDbLine
10
-30.9707710011508
20
6.86164101793476
30
0.000000000000000
11
-30.8707710011508
21
6.81240877395297
31
0.000000000000000
  0
LINE
  5
F1016A
330
F1016B
100
AcDbEntity
8
Geo
100
AcDbLine
10
-30.8707710011508
20
6.81240877395297
30
0.000000000000000
11
-30.7707710011508
21
6.76296016732036
31
0.000000000000000
  0
LINE
  5
F1016C
330
F1016D
100
AcDbEntity
8
Geo
100
AcDbLine
10
-30.7707710011508
20
6.76296016732036
30
0.000000000000000
11
-30.6707710011508
21
6.71329777347403
31
0.000000000000000
  0
LINE
  5
F1016E
330
F1016F
100
AcDbEntity
8
Geo
100
AcDbLine
10
-30.6707710011508
20
6.71329777347403
30
0.000000000000000
11
-30.5707710011508
21
6.66342417898575
31
0.000000000000000
  0
LINE
  5
F10170
330
F10171
100
AcDbEntity
8
Geo
100
AcDbLine
10
-30.5707710011508
20
6.66342417898575
30
0.000000000000000
11
-30.4707710011508
21
6.61334198142730
31
0.000000000000000
  0
LINE
  5
F10172
330
F10173
100
AcDbEntity
8
Geo
100
AcDbLine
10
-30.4707710011508
20
6.61334198142730
30
0.000000000000000
11
-30.3707710011508
21
6.56305378923516
31
0.000000000000000
  0
LINE
  5
F10174
330
F10175
100
AcDbEntity
8
Geo
100
AcDbLine
10
-30.3707710011508
20
6.56305378923516
30
0.000000000000000
11
-30.2707710011508
21
6.51256222157462
31
0.000000000000000
  0
LINE
  5
F10176
330
F10177
100
AcDbEntity
8
Geo
100
AcDbLine
10
-30.2707710011508
20
6.51256222157462
30
0.000000000000000
11
-30.1707710011508
21
6.46186990820342
31
0.000000000000000
  0
LINE
  5
F10178
330
F10179
100
AcDbEntity
8
Geo
100
AcDbLine
10
-30.1707710011508
20
6.46186990820342
30
0.000000000000000
11
-30.0707710011508
21
6.41097948933477
31
0.000000000000000
  0
LINE
  5
F1017A
330
F1017B
100
AcDbEntity
8
Geo
100
AcDbLine
10
-45.0707710011507
20
2.65822784810125
30
0.000000000000000
11
-44.9707710011507
21
2.60049332235306
31
0.000000000000000
  0
LINE
  5
F1017C
330
F1017D
100
AcDbEntity
8
Geo
100
AcDbLine
10
-44.9707710011507
20
2.60049332235306
30
0.000000000000000
11
-44.8707710011507
21
2.54276180359840
31
0.000000000000000
  0
LINE
  5
F1017E
330
F1017F
100
AcDbEntity
8
Geo
100
AcDbLine
10
-44.8707710011507
20
2.54276180359840
30
0.000000000000000
11
-44.7707710011507
21
2.48503629867412
31
0.000000000000000
  0
LINE
  5
F10180
330
F10181
100
AcDbEntity
8
Geo
100
AcDbLine
10
-44.7707710011507
20
2.48503629867412
30
0.000000000000000
11
-44.6707710011507
21
2.42731981410389
31
0.000000000000000
  0
LINE
  5
F10182
330
F10183
100
AcDbEntity
8
Geo
100
AcDbLine
10
-44.6707710011507
20
2.42731981410389
30
0.000000000000000
11
-44.5707710011507
21
2.36961535594157
31
0.000000000000000
  0
LINE
  5
F10184
330
F10185
100
AcDbEntity
8
Geo
100
AcDbLine
10
-44.5707710011507
20
2.36961535594157
30
0.000000000000000
11
-44.4707710011507
21
2.31192592961464
31
0.000000000000000
  0
LINE
  5
F10186
330
F10187
100
AcDbEntity
8
Geo
100
AcDbLine
10
-44.4707710011507
20
2.31192592961464
30
0.000000000000000
11
-44.3707710011507
21
2.25425453976767
31
0.000000000000000
  0
LINE
  5
F10188
330
F10189
100
AcDbEntity
8
Geo
100
AcDbLine
10
-44.3707710011507
20
2.25425453976767
30
0.000000000000000
11
-44.2707710011507
21
2.19660419010587
31
0.000000000000000
  0
LINE
  5
F1018A
330
F1018B
100
AcDbEntity
8
Geo
100
AcDbLine
10
-44.2707710011507
20
2.19660419010587
30
0.000000000000000
11
-44.1707710011507
21
2.13897788323856
31
0.000000000000000
  0
LINE
  5
F1018C
330
F1018D
100
AcDbEntity
8
Geo
100
AcDbLine
10
-44.1707710011507
20
2.13897788323856
30
0.000000000000000
11
-44.0707710011507
21
2.08137862052288
31
0.000000000000000
  0
LINE
  5
F1018E
330
F1018F
100
AcDbEntity
8
Geo
100
AcDbLine
10
-44.0707710011507
20
2.08137862052288
30
0.000000000000000
11
-43.9707710011507
21
2.02380940190740
31
0.000000000000000
  0
LINE
  5
F10190
330
F10191
100
AcDbEntity
8
Geo
100
AcDbLine
10
-43.9707710011507
20
2.02380940190740
30
0.000000000000000
11
-43.8707710011507
21
1.96627322577591
31
0.000000000000000
  0
LINE
  5
F10192
330
F10193
100
AcDbEntity
8
Geo
100
AcDbLine
10
-43.8707710011507
20
1.96627322577591
30
0.000000000000000
11
-43.7707710011507
21
1.90877308879125
31
0.000000000000000
  0
LINE
  5
F10194
330
F10195
100
AcDbEntity
8
Geo
100
AcDbLine
10
-43.7707710011507
20
1.90877308879125
30
0.000000000000000
11
-43.6707710011507
21
1.85131198573922
31
0.000000000000000
  0
LINE
  5
F10196
330
F10197
100
AcDbEntity
8
Geo
100
AcDbLine
10
-43.6707710011507
20
1.85131198573922
30
0.000000000000000
11
-43.5707710011507
21
1.79389290937261
31
0.000000000000000
  0
LINE
  5
F10198
330
F10199
100
AcDbEntity
8
Geo
100
AcDbLine
10
-43.5707710011507
20
1.79389290937261
30
0.000000000000000
11
-43.4707710011507
21
1.73651885025534
31
0.000000000000000
  0
LINE
  5
F1019A
330
F1019B
100
AcDbEntity
8
Geo
100
AcDbLine
10
-43.4707710011507
20
1.73651885025534
30
0.000000000000000
11
-43.3707710011507
21
1.67919279660668
31
0.000000000000000
  0
LINE
  5
F1019C
330
F1019D
100
AcDbEntity
8
Geo
100
AcDbLine
10
-43.3707710011507
20
1.67919279660668
30
0.000000000000000
11
-43.2707710011507
21
1.62191773414564
31
0.000000000000000
  0
LINE
  5
F1019E
330
F1019F
100
AcDbEntity
8
Geo
100
AcDbLine
10
-43.2707710011507
20
1.62191773414564
30
0.000000000000000
11
-43.1707710011507
21
1.56469664593544
31
0.000000000000000
  0
LINE
  5
F101A0
330
F101A1
100
AcDbEntity
8
Geo
100
AcDbLine
10
-43.1707710011507
20
1.56469664593544
30
0.000000000000000
11
-43.0707710011507
21
1.50753251222815
31
0.000000000000000
  0
LINE
  5
F101A2
330
F101A3
100
AcDbEntity
8
Geo
100
AcDbLine
10
-43.0707710011507
20
1.50753251222815
30
0.000000000000000
11
-42.9707710011507
21
1.45042831030948
31
0.000000000000000
  0
LINE
  5
F101A4
330
F101A5
100
AcDbEntity
8
Geo
100
AcDbLine
10
-42.9707710011507
20
1.45042831030948
30
0.000000000000000
11
-42.8707710011507
21
1.39338701434371
31
0.000000000000000
  0
LINE
  5
F101A6
330
F101A7
100
AcDbEntity
8
Geo
100
AcDbLine
10
-42.8707710011507
20
1.39338701434371
30
0.000000000000000
11
-42.7707710011507
21
1.33641159521877
31
0.000000000000000
  0
LINE
  5
F101A8
330
F101A9
100
AcDbEntity
8
Geo
100
AcDbLine
10
-42.7707710011507
20
1.33641159521877
30
0.000000000000000
11
-42.6707710011507
21
1.27950502039153
31
0.000000000000000
  0
LINE
  5
F101AA
330
F101AB
100
AcDbEntity
8
Geo
100
AcDbLine
10
-42.6707710011507
20
1.27950502039153
30
0.000000000000000
11
-42.5707710011507
21
1.22267025373323
31
0.000000000000000
  0
LINE
  5
F101AC
330
F101AD
100
AcDbEntity
8
Geo
100
AcDbLine
10
-42.5707710011507
20
1.22267025373323
30
0.000000000000000
11
-42.4707710011507
21
1.16591025537513
31
0.000000000000000
  0
LINE
  5
F101AE
330
F101AF
100
AcDbEntity
8
Geo
100
AcDbLine
10
-42.4707710011507
20
1.16591025537513
30
0.000000000000000
11
-42.3707710011507
21
1.10922798155430
31
0.000000000000000
  0
LINE
  5
F101B0
330
F101B1
100
AcDbEntity
8
Geo
100
AcDbLine
10
-42.3707710011507
20
1.10922798155430
30
0.000000000000000
11
-42.2707710011507
21
1.05262638445969
31
0.000000000000000
  0
LINE
  5
F101B2
330
F101B3
100
AcDbEntity
8
Geo
100
AcDbLine
10
-42.2707710011507
20
1.05262638445969
30
0.000000000000000
11
-42.1707710011507
21
0.996108412078355
31
0.000000000000000
  0
LINE
  5
F101B4
330
F101B5
100
AcDbEntity
8
Geo
100
AcDbLine
10
-42.1707710011507
20
0.996108412078355
30
0.000000000000000
11
-42.0707710011507
21
0.939677008041917
31
0.000000000000000
  0
LINE
  5
F101B6
330
F101B7
100
AcDbEntity
8
Geo
100
AcDbLine
10
-42.0707710011507
20
0.939677008041917
30
0.000000000000000
11
-41.9707710011507
21
0.883335111473243
31
0.000000000000000
  0
LINE
  5
F101B8
330
F101B9
100
AcDbEntity
8
Geo
100
AcDbLine
10
-41.9707710011507
20
0.883335111473243
30
0.000000000000000
11
-41.8707710011507
21
0.827085656833377
31
0.000000000000000
  0
LINE
  5
F101BA
330
F101BB
100
AcDbEntity
8
Geo
100
AcDbLine
10
-41.8707710011507
20
0.827085656833377
30
0.000000000000000
11
-41.7707710011507
21
0.770931573768700
31
0.000000000000000
  0
LINE
  5
F101BC
330
F101BD
100
AcDbEntity
8
Geo
100
AcDbLine
10
-41.7707710011507
20
0.770931573768700
30
0.000000000000000
11
-41.6707710011507
21
0.714875786958343
31
0.000000000000000
  0
LINE
  5
F101BE
330
F101BF
100
AcDbEntity
8
Geo
100
AcDbLine
10
-41.6707710011507
20
0.714875786958343
30
0.000000000000000
11
-41.5707710011507
21
0.658921215961865
31
0.000000000000000
  0
LINE
  5
F101C0
330
F101C1
100
AcDbEntity
8
Geo
100
AcDbLine
10
-41.5707710011507
20
0.658921215961865
30
0.000000000000000
11
-41.4707710011507
21
0.603070775067189
31
0.000000000000000
  0
LINE
  5
F101C2
330
F101C3
100
AcDbEntity
8
Geo
100
AcDbLine
10
-41.4707710011507
20
0.603070775067189
30
0.000000000000000
11
-41.3707710011507
21
0.547327373138820
31
0.000000000000000
  0
LINE
  5
F101C4
330
F101C5
100
AcDbEntity
8
Geo
100
AcDbLine
10
-41.3707710011507
20
0.547327373138820
30
0.000000000000000
11
-41.2707710011507
21
0.491693913466342
31
0.000000000000000
  0
LINE
  5
F101C6
330
F101C7
100
AcDbEntity
8
Geo
100
AcDbLine
10
-41.2707710011507
20
0.491693913466342
30
0.000000000000000
11
-41.1707710011507
21
0.436173293613201
31
0.000000000000000
  0
LINE
  5
F101C8
330
F101C9
100
AcDbEntity
8
Geo
100
AcDbLine
10
-41.1707710011507
20
0.436173293613201
30
0.000000000000000
11
-41.0707710011507
21
0.380768405265799
31
0.000000000000000
  0
LINE
  5
F101CA
330
F101CB
100
AcDbEntity
8
Geo
100
AcDbLine
10
-41.0707710011507
20
0.380768405265799
30
0.000000000000000
11
-40.9707710011507
21
0.325482134082879
31
0.000000000000000
  0
LINE
  5
F101CC
330
F101CD
100
AcDbEntity
8
Geo
100
AcDbLine
10
-40.9707710011507
20
0.325482134082879
30
0.000000000000000
11
-40.8707710011507
21
0.270317359545233
31
0.000000000000000
  0
LINE
  5
F101CE
330
F101CF
100
AcDbEntity
8
Geo
100
AcDbLine
10
-40.8707710011507
20
0.270317359545233
30
0.000000000000000
11
-40.7707710011507
21
0.215276954805732
31
0.000000000000000
  0
LINE
  5
F101D0
330
F101D1
100
AcDbEntity
8
Geo
100
AcDbLine
10
-40.7707710011507
20
0.215276954805732
30
0.000000000000000
11
-40.6707710011507
21
0.160363786539679
31
0.000000000000000
  0
LINE
  5
F101D2
330
F101D3
100
AcDbEntity
8
Geo
100
AcDbLine
10
-40.6707710011507
20
0.160363786539679
30
0.000000000000000
11
-40.5707710011507
21
0.105580714795511
31
0.000000000000000
  0
LINE
  5
F101D4
330
F101D5
100
AcDbEntity
8
Geo
100
AcDbLine
10
-40.5707710011507
20
0.105580714795511
30
0.000000000000000
11
-40.4707710011507
21
0.0509305928458286
31
0.000000000000000
  0
LINE
  5
F101D6
330
F101D7
100
AcDbEntity
8
Geo
100
AcDbLine
10
-40.4707710011507
20
0.0509305928458286
30
0.000000000000000
11
-40.3707710011507
21
-0.00358373296120451
31
0.000000000000000
  0
LINE
  5
F101D8
330
F101D9
100
AcDbEntity
8
Geo
100
AcDbLine
10
-40.3707710011507
20
-0.00358373296120451
30
0.000000000000000
11
-40.2707710011507
21
-0.0579594233501082
31
0.000000000000000
  0
LINE
  5
F101DA
330
F101DB
100
AcDbEntity
8
Geo
100
AcDbLine
10
-40.2707710011507
20
-0.0579594233501082
30
0.000000000000000
11
-40.1707710011507
21
-0.112193646265967
31
0.000000000000000
  0
LINE
  5
F101DC
330
F101DD
100
AcDbEntity
8
Geo
100
AcDbLine
10
-40.1707710011507
20
-0.112193646265967
30
0.000000000000000
11
-40.0707710011507
21
-0.166283577021930
31
0.000000000000000
  0
LINE
  5
F101DE
330
F101DF
100
AcDbEntity
8
Geo
100
AcDbLine
10
-40.0707710011507
20
-0.166283577021930
30
0.000000000000000
11
-39.9707710011507
21
-0.220226398446332
31
0.000000000000000
  0
LINE
  5
F101E0
330
F101E1
100
AcDbEntity
8
Geo
100
AcDbLine
10
-39.9707710011507
20
-0.220226398446332
30
0.000000000000000
11
-39.8707710011507
21
-0.274019301029417
31
0.000000000000000
  0
LINE
  5
F101E2
330
F101E3
100
AcDbEntity
8
Geo
100
AcDbLine
10
-39.8707710011507
20
-0.274019301029417
30
0.000000000000000
11
-39.7707710011507
21
-0.327659483069670
31
0.000000000000000
  0
LINE
  5
F101E4
330
F101E5
100
AcDbEntity
8
Geo
100
AcDbLine
10
-39.7707710011507
20
-0.327659483069670
30
0.000000000000000
11
-39.6707710011507
21
-0.381144150819734
31
0.000000000000000
  0
LINE
  5
F101E6
330
F101E7
100
AcDbEntity
8
Geo
100
AcDbLine
10
-39.6707710011507
20
-0.381144150819734
30
0.000000000000000
11
-39.5707710011507
21
-0.434470518631923
31
0.000000000000000
  0
LINE
  5
F101E8
330
F101E9
100
AcDbEntity
8
Geo
100
AcDbLine
10
-39.5707710011507
20
-0.434470518631923
30
0.000000000000000
11
-39.4707710011507
21
-0.487635809103300
31
0.000000000000000
  0
LINE
  5
F101EA
330
F101EB
100
AcDbEntity
8
Geo
100
AcDbLine
10
-39.4707710011507
20
-0.487635809103300
30
0.000000000000000
11
-39.3707710011507
21
-0.540637253220337
31
0.000000000000000
  0
LINE
  5
F101EC
330
F101ED
100
AcDbEntity
8
Geo
100
AcDbLine
10
-39.3707710011507
20
-0.540637253220337
30
0.000000000000000
11
-39.2707710011507
21
-0.593472090503135
31
0.000000000000000
  0
LINE
  5
F101EE
330
F101EF
100
AcDbEntity
8
Geo
100
AcDbLine
10
-39.2707710011507
20
-0.593472090503135
30
0.000000000000000
11
-39.1707710011507
21
-0.646137569149198
31
0.000000000000000
  0
LINE
  5
F101F0
330
F101F1
100
AcDbEntity
8
Geo
100
AcDbLine
10
-39.1707710011507
20
-0.646137569149198
30
0.000000000000000
11
-39.0707710011507
21
-0.698630946176749
31
0.000000000000000
  0
LINE
  5
F101F2
330
F101F3
100
AcDbEntity
8
Geo
100
AcDbLine
10
-39.0707710011507
20
-0.698630946176749
30
0.000000000000000
11
-38.9707710011507
21
-0.750949487567602
31
0.000000000000000
  0
LINE
  5
F101F4
330
F101F5
100
AcDbEntity
8
Geo
100
AcDbLine
10
-38.9707710011507
20
-0.750949487567602
30
0.000000000000000
11
-38.8707710011507
21
-0.803090468409553
31
0.000000000000000
  0
LINE
  5
F101F6
330
F101F7
100
AcDbEntity
8
Geo
100
AcDbLine
10
-38.8707710011507
20
-0.803090468409553
30
0.000000000000000
11
-38.7707710011507
21
-0.855051173038303
31
0.000000000000000
  0
LINE
  5
F101F8
330
F101F9
100
AcDbEntity
8
Geo
100
AcDbLine
10
-38.7707710011507
20
-0.855051173038303
30
0.000000000000000
11
-38.6707710011507
21
-0.906828895178899
31
0.000000000000000
  0
LINE
  5
F101FA
330
F101FB
100
AcDbEntity
8
Geo
100
AcDbLine
10
-38.6707710011507
20
-0.906828895178899
30
0.000000000000000
11
-38.5707710011507
21
-0.958420938086684
31
0.000000000000000
  0
LINE
  5
F101FC
330
F101FD
100
AcDbEntity
8
Geo
100
AcDbLine
10
-38.5707710011507
20
-0.958420938086684
30
0.000000000000000
11
-38.4707710011507
21
-1.00982461468775
31
0.000000000000000
  0
LINE
  5
F101FE
330
F101FF
100
AcDbEntity
8
Geo
100
AcDbLine
10
-38.4707710011507
20
-1.00982461468775
30
0.000000000000000
11
-38.3707710011507
21
-1.06103724771890
31
0.000000000000000
  0
LINE
  5
F10200
330
F10201
100
AcDbEntity
8
Geo
100
AcDbLine
10
-38.3707710011507
20
-1.06103724771890
30
0.000000000000000
11
-38.2707710011507
21
-1.11205616986707
31
0.000000000000000
  0
LINE
  5
F10202
330
F10203
100
AcDbEntity
8
Geo
100
AcDbLine
10
-38.2707710011507
20
-1.11205616986707
30
0.000000000000000
11
-38.1707710011507
21
-1.16287872390827
31
0.000000000000000
  0
LINE
  5
F10204
330
F10205
100
AcDbEntity
8
Geo
100
AcDbLine
10
-38.1707710011507
20
-1.16287872390827
30
0.000000000000000
11
-38.0707710011507
21
-1.21350226284595
31
0.000000000000000
  0
LINE
  5
F10206
330
F10207
100
AcDbEntity
8
Geo
100
AcDbLine
10
-38.0707710011507
20
-1.21350226284595
30
0.000000000000000
11
-37.9707710011507
21
-1.26392415004892
31
0.000000000000000
  0
LINE
  5
F10208
330
F10209
100
AcDbEntity
8
Geo
100
AcDbLine
10
-37.9707710011507
20
-1.26392415004892
30
0.000000000000000
11
-37.8707710011507
21
-1.31414175938861
31
0.000000000000000
  0
LINE
  5
F1020A
330
F1020B
100
AcDbEntity
8
Geo
100
AcDbLine
10
-37.8707710011507
20
-1.31414175938861
30
0.000000000000000
11
-37.7707710011507
21
-1.36415247537589
31
0.000000000000000
  0
LINE
  5
F1020C
330
F1020D
100
AcDbEntity
8
Geo
100
AcDbLine
10
-37.7707710011507
20
-1.36415247537589
30
0.000000000000000
11
-37.6707710011507
21
-1.41395369329726
31
0.000000000000000
  0
LINE
  5
F1020E
330
F1020F
100
AcDbEntity
8
Geo
100
AcDbLine
10
-37.6707710011507
20
-1.41395369329726
30
0.000000000000000
11
-37.5707710011507
21
-1.46354281935057
31
0.000000000000000
  0
LINE
  5
F10210
330
F10211
100
AcDbEntity
8
Geo
100
AcDbLine
10
-37.5707710011507
20
-1.46354281935057
30
0.000000000000000
11
-37.4707710011507
21
-1.51291727078002
31
0.000000000000000
  0
LINE
  5
F10212
330
F10213
100
AcDbEntity
8
Geo
100
AcDbLine
10
-37.4707710011507
20
-1.51291727078002
30
0.000000000000000
11
-37.3707710011507
21
-1.56207447601078
31
0.000000000000000
  0
LINE
  5
F10214
330
F10215
100
AcDbEntity
8
Geo
100
AcDbLine
10
-37.3707710011507
20
-1.56207447601078
30
0.000000000000000
11
-37.2707710011507
21
-1.61101187478285
31
0.000000000000000
  0
LINE
  5
F10216
330
F10217
100
AcDbEntity
8
Geo
100
AcDbLine
10
-37.2707710011507
20
-1.61101187478285
30
0.000000000000000
11
-37.1707710011507
21
-1.65972691828444
31
0.000000000000000
  0
LINE
  5
F10218
330
F10219
100
AcDbEntity
8
Geo
100
AcDbLine
10
-37.1707710011507
20
-1.65972691828444
30
0.000000000000000
11
-37.0707710011507
21
-1.70821706928471
31
0.000000000000000
  0
LINE
  5
F1021A
330
F1021B
100
AcDbEntity
8
Geo
100
AcDbLine
10
-37.0707710011507
20
-1.70821706928471
30
0.000000000000000
11
-36.9707710011507
21
-1.75647980226592
31
0.000000000000000
  0
LINE
  5
F1021C
330
F1021D
100
AcDbEntity
8
Geo
100
AcDbLine
10
-36.9707710011507
20
-1.75647980226592
30
0.000000000000000
11
-36.8707710011507
21
-1.80451260355499
31
0.000000000000000
  0
LINE
  5
F1021E
330
F1021F
100
AcDbEntity
8
Geo
100
AcDbLine
10
-36.8707710011507
20
-1.80451260355499
30
0.000000000000000
11
-36.7707710011507
21
-1.85231297145435
31
0.000000000000000
  0
LINE
  5
F10220
330
F10221
100
AcDbEntity
8
Geo
100
AcDbLine
10
-36.7707710011507
20
-1.85231297145435
30
0.000000000000000
11
-36.6707710011507
21
-1.89987841637234
31
0.000000000000000
  0
LINE
  5
F10222
330
F10223
100
AcDbEntity
8
Geo
100
AcDbLine
10
-36.6707710011507
20
-1.89987841637234
30
0.000000000000000
11
-36.5707710011507
21
-1.94720646095276
31
0.000000000000000
  0
LINE
  5
F10224
330
F10225
100
AcDbEntity
8
Geo
100
AcDbLine
10
-36.5707710011507
20
-1.94720646095276
30
0.000000000000000
11
-36.4707710011507
21
-1.99429464020401
31
0.000000000000000
  0
LINE
  5
F10226
330
F10227
100
AcDbEntity
8
Geo
100
AcDbLine
10
-36.4707710011507
20
-1.99429464020401
30
0.000000000000000
11
-36.3707710011507
21
-2.04114050162739
31
0.000000000000000
  0
LINE
  5
F10228
330
F10229
100
AcDbEntity
8
Geo
100
AcDbLine
10
-36.3707710011507
20
-2.04114050162739
30
0.000000000000000
11
-36.2707710011507
21
-2.08774160534487
31
0.000000000000000
  0
LINE
  5
F1022A
330
F1022B
100
AcDbEntity
8
Geo
100
AcDbLine
10
-36.2707710011507
20
-2.08774160534487
30
0.000000000000000
11
-36.1707710011507
21
-2.13409552422618
31
0.000000000000000
  0
LINE
  5
F1022C
330
F1022D
100
AcDbEntity
8
Geo
100
AcDbLine
10
-36.1707710011507
20
-2.13409552422618
30
0.000000000000000
11
-36.0707710011507
21
-2.18019984401517
31
0.000000000000000
  0
LINE
  5
F1022E
330
F1022F
100
AcDbEntity
8
Geo
100
AcDbLine
10
-36.0707710011507
20
-2.18019984401517
30
0.000000000000000
11
-35.9707710011508
21
-2.22605216345562
31
0.000000000000000
  0
LINE
  5
F10230
330
F10231
100
AcDbEntity
8
Geo
100
AcDbLine
10
-35.9707710011508
20
-2.22605216345562
30
0.000000000000000
11
-35.8707710011508
21
-2.27165009441626
31
0.000000000000000
  0
LINE
  5
F10232
330
F10233
100
AcDbEntity
8
Geo
100
AcDbLine
10
-35.8707710011508
20
-2.27165009441626
30
0.000000000000000
11
-35.7707710011507
21
-2.31699126201515
31
0.000000000000000
  0
LINE
  5
F10234
330
F10235
100
AcDbEntity
8
Geo
100
AcDbLine
10
-35.7707710011507
20
-2.31699126201515
30
0.000000000000000
11
-35.6707710011507
21
-2.36207330474339
31
0.000000000000000
  0
LINE
  5
F10236
330
F10237
100
AcDbEntity
8
Geo
100
AcDbLine
10
-35.6707710011507
20
-2.36207330474339
30
0.000000000000000
11
-35.5707710011507
21
-2.40689387458813
31
0.000000000000000
  0
LINE
  5
F10238
330
F10239
100
AcDbEntity
8
Geo
100
AcDbLine
10
-35.5707710011507
20
-2.40689387458813
30
0.000000000000000
11
-35.4707710011508
21
-2.45145063715481
31
0.000000000000000
  0
LINE
  5
F1023A
330
F1023B
100
AcDbEntity
8
Geo
100
AcDbLine
10
-35.4707710011508
20
-2.45145063715481
30
0.000000000000000
11
-35.3707710011508
21
-2.49574127178879
31
0.000000000000000
  0
LINE
  5
F1023C
330
F1023D
100
AcDbEntity
8
Geo
100
AcDbLine
10
-35.3707710011508
20
-2.49574127178879
30
0.000000000000000
11
-35.2707710011507
21
-2.53976347169619
31
0.000000000000000
  0
LINE
  5
F1023E
330
F1023F
100
AcDbEntity
8
Geo
100
AcDbLine
10
-35.2707710011507
20
-2.53976347169619
30
0.000000000000000
11
-35.1707710011508
21
-2.58351494406406
31
0.000000000000000
  0
LINE
  5
F10240
330
F10241
100
AcDbEntity
8
Geo
100
AcDbLine
10
-35.1707710011508
20
-2.58351494406406
30
0.000000000000000
11
-35.0707710011508
21
-2.62699341017976
31
0.000000000000000
  0
LINE
  5
F10242
330
F10243
100
AcDbEntity
8
Geo
100
AcDbLine
10
-35.0707710011508
20
-2.62699341017976
30
0.000000000000000
11
-34.9707710011508
21
-2.67019660554968
31
0.000000000000000
  0
LINE
  5
F10244
330
F10245
100
AcDbEntity
8
Geo
100
AcDbLine
10
-34.9707710011508
20
-2.67019660554968
30
0.000000000000000
11
-34.8707710011508
21
-2.71312228001715
31
0.000000000000000
  0
LINE
  5
F10246
330
F10247
100
AcDbEntity
8
Geo
100
AcDbLine
10
-34.8707710011508
20
-2.71312228001715
30
0.000000000000000
11
-34.7707710011507
21
-2.75576819787968
31
0.000000000000000
  0
LINE
  5
F10248
330
F10249
100
AcDbEntity
8
Geo
100
AcDbLine
10
-34.7707710011507
20
-2.75576819787968
30
0.000000000000000
11
-34.6707710011508
21
-2.79813213800535
31
0.000000000000000
  0
LINE
  5
F1024A
330
F1024B
100
AcDbEntity
8
Geo
100
AcDbLine
10
-34.6707710011508
20
-2.79813213800535
30
0.000000000000000
11
-34.5707710011508
21
-2.84021189394852
31
0.000000000000000
  0
LINE
  5
F1024C
330
F1024D
100
AcDbEntity
8
Geo
100
AcDbLine
10
-34.5707710011508
20
-2.84021189394852
30
0.000000000000000
11
-34.4707710011508
21
-2.88200527406474
31
0.000000000000000
  0
LINE
  5
F1024E
330
F1024F
100
AcDbEntity
8
Geo
100
AcDbLine
10
-34.4707710011508
20
-2.88200527406474
30
0.000000000000000
11
-34.3707710011508
21
-2.92351010162492
31
0.000000000000000
  0
LINE
  5
F10250
330
F10251
100
AcDbEntity
8
Geo
100
AcDbLine
10
-34.3707710011508
20
-2.92351010162492
30
0.000000000000000
11
-34.2707710011508
21
-2.96472421492866
31
0.000000000000000
  0
LINE
  5
F10252
330
F10253
100
AcDbEntity
8
Geo
100
AcDbLine
10
-34.2707710011508
20
-2.96472421492866
30
0.000000000000000
11
-34.1707710011508
21
-3.00564546741689
31
0.000000000000000
  0
LINE
  5
F10254
330
F10255
100
AcDbEntity
8
Geo
100
AcDbLine
10
-34.1707710011508
20
-3.00564546741689
30
0.000000000000000
11
-34.0707710011508
21
-3.04627172778362
31
0.000000000000000
  0
LINE
  5
F10256
330
F10257
100
AcDbEntity
8
Geo
100
AcDbLine
10
-34.0707710011508
20
-3.04627172778362
30
0.000000000000000
11
-33.9707710011508
21
-3.08660088008698
31
0.000000000000000
  0
LINE
  5
F10258
330
F10259
100
AcDbEntity
8
Geo
100
AcDbLine
10
-33.9707710011508
20
-3.08660088008698
30
0.000000000000000
11
-33.8707710011508
21
-3.12663082385939
31
0.000000000000000
  0
LINE
  5
F1025A
330
F1025B
100
AcDbEntity
8
Geo
100
AcDbLine
10
-33.8707710011508
20
-3.12663082385939
30
0.000000000000000
11
-33.7707710011508
21
-3.16635947421701
31
0.000000000000000
  0
LINE
  5
F1025C
330
F1025D
100
AcDbEntity
8
Geo
100
AcDbLine
10
-33.7707710011508
20
-3.16635947421701
30
0.000000000000000
11
-33.6707710011508
21
-3.20578476196827
31
0.000000000000000
  0
LINE
  5
F1025E
330
F1025F
100
AcDbEntity
8
Geo
100
AcDbLine
10
-33.6707710011508
20
-3.20578476196827
30
0.000000000000000
11
-33.5707710011508
21
-3.24490463372168
31
0.000000000000000
  0
LINE
  5
F10260
330
F10261
100
AcDbEntity
8
Geo
100
AcDbLine
10
-33.5707710011508
20
-3.24490463372168
30
0.000000000000000
11
-33.4707710011508
21
-3.28371705199277
31
0.000000000000000
  0
LINE
  5
F10262
330
F10263
100
AcDbEntity
8
Geo
100
AcDbLine
10
-33.4707710011508
20
-3.28371705199277
30
0.000000000000000
11
-33.3707710011508
21
-3.32221999531019
31
0.000000000000000
  0
LINE
  5
F10264
330
F10265
100
AcDbEntity
8
Geo
100
AcDbLine
10
-33.3707710011508
20
-3.32221999531019
30
0.000000000000000
11
-33.2707710011508
21
-3.36041145832101
31
0.000000000000000
  0
LINE
  5
F10266
330
F10267
100
AcDbEntity
8
Geo
100
AcDbLine
10
-33.2707710011508
20
-3.36041145832101
30
0.000000000000000
11
-33.1707710011508
21
-3.39828945189517
31
0.000000000000000
  0
LINE
  5
F10268
330
F10269
100
AcDbEntity
8
Geo
100
AcDbLine
10
-33.1707710011508
20
-3.39828945189517
30
0.000000000000000
11
-33.0707710011508
21
-3.43585200322907
31
0.000000000000000
  0
LINE
  5
F1026A
330
F1026B
100
AcDbEntity
8
Geo
100
AcDbLine
10
-33.0707710011508
20
-3.43585200322907
30
0.000000000000000
11
-32.9707710011508
21
-3.47309715594831
31
0.000000000000000
  0
LINE
  5
F1026C
330
F1026D
100
AcDbEntity
8
Geo
100
AcDbLine
10
-32.9707710011508
20
-3.47309715594831
30
0.000000000000000
11
-32.8707710011508
21
-3.51002297020961
31
0.000000000000000
  0
LINE
  5
F1026E
330
F1026F
100
AcDbEntity
8
Geo
100
AcDbLine
10
-32.8707710011508
20
-3.51002297020961
30
0.000000000000000
11
-32.7707710011508
21
-3.54662752280183
31
0.000000000000000
  0
LINE
  5
F10270
330
F10271
100
AcDbEntity
8
Geo
100
AcDbLine
10
-32.7707710011508
20
-3.54662752280183
30
0.000000000000000
11
-32.6707710011508
21
-3.58290890724612
31
0.000000000000000
  0
LINE
  5
F10272
330
F10273
100
AcDbEntity
8
Geo
100
AcDbLine
10
-32.6707710011508
20
-3.58290890724612
30
0.000000000000000
11
-32.5707710011508
21
-3.61886523389525
31
0.000000000000000
  0
LINE
  5
F10274
330
F10275
100
AcDbEntity
8
Geo
100
AcDbLine
10
-32.5707710011508
20
-3.61886523389525
30
0.000000000000000
11
-32.4707710011508
21
-3.65449463003200
31
0.000000000000000
  0
LINE
  5
F10276
330
F10277
100
AcDbEntity
8
Geo
100
AcDbLine
10
-32.4707710011508
20
-3.65449463003200
30
0.000000000000000
11
-32.3707710011508
21
-3.68979523996671
31
0.000000000000000
  0
LINE
  5
F10278
330
F10279
100
AcDbEntity
8
Geo
100
AcDbLine
10
-32.3707710011508
20
-3.68979523996671
30
0.000000000000000
11
-32.2707710011508
21
-3.72476522513392
31
0.000000000000000
  0
LINE
  5
F1027A
330
F1027B
100
AcDbEntity
8
Geo
100
AcDbLine
10
-32.2707710011508
20
-3.72476522513392
30
0.000000000000000
11
-32.1707710011508
21
-3.75940276418814
31
0.000000000000000
  0
LINE
  5
F1027C
330
F1027D
100
AcDbEntity
8
Geo
100
AcDbLine
10
-32.1707710011508
20
-3.75940276418814
30
0.000000000000000
11
-32.0707710011508
21
-3.79370605309872
31
0.000000000000000
  0
LINE
  5
F1027E
330
F1027F
100
AcDbEntity
8
Geo
100
AcDbLine
10
-32.0707710011508
20
-3.79370605309872
30
0.000000000000000
11
-31.9707710011508
21
-3.82767330524377
31
0.000000000000000
  0
LINE
  5
F10280
330
F10281
100
AcDbEntity
8
Geo
100
AcDbLine
10
-31.9707710011508
20
-3.82767330524377
30
0.000000000000000
11
-31.8707710011508
21
-3.86130275150326
31
0.000000000000000
  0
LINE
  5
F10282
330
F10283
100
AcDbEntity
8
Geo
100
AcDbLine
10
-31.8707710011508
20
-3.86130275150326
30
0.000000000000000
11
-31.7707710011508
21
-3.89459264035113
31
0.000000000000000
  0
LINE
  5
F10284
330
F10285
100
AcDbEntity
8
Geo
100
AcDbLine
10
-31.7707710011508
20
-3.89459264035113
30
0.000000000000000
11
-31.6707710011508
21
-3.92754123794653
31
0.000000000000000
  0
LINE
  5
F10286
330
F10287
100
AcDbEntity
8
Geo
100
AcDbLine
10
-31.6707710011508
20
-3.92754123794653
30
0.000000000000000
11
-31.5707710011508
21
-3.96014682822412
31
0.000000000000000
  0
LINE
  5
F10288
330
F10289
100
AcDbEntity
8
Geo
100
AcDbLine
10
-31.5707710011508
20
-3.96014682822412
30
0.000000000000000
11
-31.4707710011508
21
-3.99240771298344
31
0.000000000000000
  0
LINE
  5
F1028A
330
F1028B
100
AcDbEntity
8
Geo
100
AcDbLine
10
-31.4707710011508
20
-3.99240771298344
30
0.000000000000000
11
-31.3707710011508
21
-4.02432221197736
31
0.000000000000000
  0
LINE
  5
F1028C
330
F1028D
100
AcDbEntity
8
Geo
100
AcDbLine
10
-31.3707710011508
20
-4.02432221197736
30
0.000000000000000
11
-31.2707710011508
21
-4.05588866299962
31
0.000000000000000
  0
LINE
  5
F1028E
330
F1028F
100
AcDbEntity
8
Geo
100
AcDbLine
10
-31.2707710011508
20
-4.05588866299962
30
0.000000000000000
11
-31.1707710011508
21
-4.08710542197136
31
0.000000000000000
  0
LINE
  5
F10290
330
F10291
100
AcDbEntity
8
Geo
100
AcDbLine
10
-31.1707710011508
20
-4.08710542197136
30
0.000000000000000
11
-31.0707710011508
21
-4.11797086302676
31
0.000000000000000
  0
LINE
  5
F10292
330
F10293
100
AcDbEntity
8
Geo
100
AcDbLine
10
-31.0707710011508
20
-4.11797086302676
30
0.000000000000000
11
-30.9707710011508
21
-4.14848337859777
31
0.000000000000000
  0
LINE
  5
F10294
330
F10295
100
AcDbEntity
8
Geo
100
AcDbLine
10
-30.9707710011508
20
-4.14848337859777
30
0.000000000000000
11
-30.8707710011508
21
-4.17864137949774
31
0.000000000000000
  0
LINE
  5
F10296
330
F10297
100
AcDbEntity
8
Geo
100
AcDbLine
10
-30.8707710011508
20
-4.17864137949774
30
0.000000000000000
11
-30.7707710011508
21
-4.20844329500429
31
0.000000000000000
  0
LINE
  5
F10298
330
F10299
100
AcDbEntity
8
Geo
100
AcDbLine
10
-30.7707710011508
20
-4.20844329500429
30
0.000000000000000
11
-30.6707710011508
21
-4.23788757294105
31
0.000000000000000
  0
LINE
  5
F1029A
330
F1029B
100
AcDbEntity
8
Geo
100
AcDbLine
10
-30.6707710011508
20
-4.23788757294105
30
0.000000000000000
11
-30.5707710011508
21
-4.26697267975854
31
0.000000000000000
  0
LINE
  5
F1029C
330
F1029D
100
AcDbEntity
8
Geo
100
AcDbLine
10
-30.5707710011508
20
-4.26697267975854
30
0.000000000000000
11
-30.4707710011508
21
-4.29569710061402
31
0.000000000000000
  0
LINE
  5
F1029E
330
F1029F
100
AcDbEntity
8
Geo
100
AcDbLine
10
-30.4707710011508
20
-4.29569710061402
30
0.000000000000000
11
-30.3707710011508
21
-4.32405933945040
31
0.000000000000000
  0
LINE
  5
F102A0
330
F102A1
100
AcDbEntity
8
Geo
100
AcDbLine
10
-30.3707710011508
20
-4.32405933945040
30
0.000000000000000
11
-30.2707710011508
21
-4.35205791907414
31
0.000000000000000
  0
LINE
  5
F102A2
330
F102A3
100
AcDbEntity
8
Geo
100
AcDbLine
10
-30.2707710011508
20
-4.35205791907414
30
0.000000000000000
11
-30.1707710011508
21
-4.37969138123222
31
0.000000000000000
  0
LINE
  5
F102A4
330
F102A5
100
AcDbEntity
8
Geo
100
AcDbLine
10
-30.1707710011508
20
-4.37969138123222
30
0.000000000000000
11
-30.0707710011508
21
-4.40695828668808
31
0.000000000000000
  0
LINE
  5
F102A6
330
F102A7
100
AcDbEntity
8
Geo
100
AcDbLine
10
-45.0707710011507
20
-5.34177215189875
30
0.000000000000000
11
-45.0707710011507
21
-5.34177215189875
31
0.000000000000000
  0
LINE
  5
F102A8
330
F102A9
100
AcDbEntity
8
Geo
100
AcDbLine
10
-45.0707710011507
20
10.2666799784625
30
0.000000000000000
11
-44.9707710011507
21
10.2486408929298
31
0.000000000000000
  0
LINE
  5
F102AA
330
F102AB
100
AcDbEntity
8
Geo
100
AcDbLine
10
-44.9707710011507
20
10.2486408929298
30
0.000000000000000
11
-44.8707710011507
21
10.2302064751003
31
0.000000000000000
  0
LINE
  5
F102AC
330
F102AD
100
AcDbEntity
8
Geo
100
AcDbLine
10
-44.8707710011507
20
10.2302064751003
30
0.000000000000000
11
-44.7707710011507
21
10.2113776850957
31
0.000000000000000
  0
LINE
  5
F102AE
330
F102AF
100
AcDbEntity
8
Geo
100
AcDbLine
10
-44.7707710011507
20
10.2113776850957
30
0.000000000000000
11
-44.6707710011507
21
10.1921555035778
31
0.000000000000000
  0
LINE
  5
F102B0
330
F102B1
100
AcDbEntity
8
Geo
100
AcDbLine
10
-44.6707710011507
20
10.1921555035778
30
0.000000000000000
11
-44.5707710011507
21
10.1725409316976
31
0.000000000000000
  0
LINE
  5
F102B2
330
F102B3
100
AcDbEntity
8
Geo
100
AcDbLine
10
-44.5707710011507
20
10.1725409316976
30
0.000000000000000
11
-44.4707710011507
21
10.1525349910430
31
0.000000000000000
  0
LINE
  5
F102B4
330
F102B5
100
AcDbEntity
8
Geo
100
AcDbLine
10
-44.4707710011507
20
10.1525349910430
30
0.000000000000000
11
-44.3707710011507
21
10.1321387235854
31
0.000000000000000
  0
LINE
  5
F102B6
330
F102B7
100
AcDbEntity
8
Geo
100
AcDbLine
10
-44.3707710011507
20
10.1321387235854
30
0.000000000000000
11
-44.2707710011507
21
10.1113531916260
31
0.000000000000000
  0
LINE
  5
F102B8
330
F102B9
100
AcDbEntity
8
Geo
100
AcDbLine
10
-44.2707710011507
20
10.1113531916260
30
0.000000000000000
11
-44.1707710011507
21
10.0901794777397
31
0.000000000000000
  0
LINE
  5
F102BA
330
F102BB
100
AcDbEntity
8
Geo
100
AcDbLine
10
-44.1707710011507
20
10.0901794777397
30
0.000000000000000
11
-44.0707710011507
21
10.0686186847194
31
0.000000000000000
  0
LINE
  5
F102BC
330
F102BD
100
AcDbEntity
8
Geo
100
AcDbLine
10
-44.0707710011507
20
10.0686186847194
30
0.000000000000000
11
-43.9707710011507
21
10.0466719355182
31
0.000000000000000
  0
LINE
  5
F102BE
330
F102BF
100
AcDbEntity
8
Geo
100
AcDbLine
10
-43.9707710011507
20
10.0466719355182
30
0.000000000000000
11
-43.8707710011507
21
10.0243403731910
31
0.000000000000000
  0
LINE
  5
F102C0
330
F102C1
100
AcDbEntity
8
Geo
100
AcDbLine
10
-43.8707710011507
20
10.0243403731910
30
0.000000000000000
11
-43.7707710011507
21
10.0016251608349
31
0.000000000000000
  0
LINE
  5
F102C2
330
F102C3
100
AcDbEntity
8
Geo
100
AcDbLine
10
-43.7707710011507
20
10.0016251608349
30
0.000000000000000
11
-43.6707710011507
21
9.97852748152882
31
0.000000000000000
  0
LINE
  5
F102C4
330
F102C5
100
AcDbEntity
8
Geo
100
AcDbLine
10
-43.6707710011507
20
9.97852748152882
30
0.000000000000000
11
-43.5707710011507
21
9.95504853827161
31
0.000000000000000
  0
LINE
  5
F102C6
330
F102C7
100
AcDbEntity
8
Geo
100
AcDbLine
10
-43.5707710011507
20
9.95504853827161
30
0.000000000000000
11
-43.4707710011507
21
9.93118955391961
31
0.000000000000000
  0
LINE
  5
F102C8
330
F102C9
100
AcDbEntity
8
Geo
100
AcDbLine
10
-43.4707710011507
20
9.93118955391961
30
0.000000000000000
11
-43.3707710011507
21
9.90695177112286
31
0.000000000000000
  0
LINE
  5
F102CA
330
F102CB
100
AcDbEntity
8
Geo
100
AcDbLine
10
-43.3707710011507
20
9.90695177112286
30
0.000000000000000
11
-43.2707710011507
21
9.88233645226040
31
0.000000000000000
  0
LINE
  5
F102CC
330
F102CD
100
AcDbEntity
8
Geo
100
AcDbLine
10
-43.2707710011507
20
9.88233645226040
30
0.000000000000000
11
-43.1707710011507
21
9.85734487937452
31
0.000000000000000
  0
LINE
  5
F102CE
330
F102CF
100
AcDbEntity
8
Geo
100
AcDbLine
10
-43.1707710011507
20
9.85734487937452
30
0.000000000000000
11
-43.0707710011507
21
9.83197835410401
31
0.000000000000000
  0
LINE
  5
F102D0
330
F102D1
100
AcDbEntity
8
Geo
100
AcDbLine
10
-43.0707710011507
20
9.83197835410401
30
0.000000000000000
11
-42.9707710011507
21
9.80623819761630
31
0.000000000000000
  0
LINE
  5
F102D2
330
F102D3
100
AcDbEntity
8
Geo
100
AcDbLine
10
-42.9707710011507
20
9.80623819761630
30
0.000000000000000
11
-42.8707710011507
21
9.78012575053874
31
0.000000000000000
  0
LINE
  5
F102D4
330
F102D5
100
AcDbEntity
8
Geo
100
AcDbLine
10
-42.8707710011507
20
9.78012575053874
30
0.000000000000000
11
-42.7707710011507
21
9.75364237288871
31
0.000000000000000
  0
LINE
  5
F102D6
330
F102D7
100
AcDbEntity
8
Geo
100
AcDbLine
10
-42.7707710011507
20
9.75364237288871
30
0.000000000000000
11
-42.6707710011507
21
9.72678944400280
31
0.000000000000000
  0
LINE
  5
F102D8
330
F102D9
100
AcDbEntity
8
Geo
100
AcDbLine
10
-42.6707710011507
20
9.72678944400280
30
0.000000000000000
11
-42.5707710011507
21
9.69956836246499
31
0.000000000000000
  0
LINE
  5
F102DA
330
F102DB
100
AcDbEntity
8
Geo
100
AcDbLine
10
-42.5707710011507
20
9.69956836246499
30
0.000000000000000
11
-42.4707710011507
21
9.67198054603380
31
0.000000000000000
  0
LINE
  5
F102DC
330
F102DD
100
AcDbEntity
8
Geo
100
AcDbLine
10
-42.4707710011507
20
9.67198054603380
30
0.000000000000000
11
-42.3707710011507
21
9.64402743156843
31
0.000000000000000
  0
LINE
  5
F102DE
330
F102DF
100
AcDbEntity
8
Geo
100
AcDbLine
10
-42.3707710011507
20
9.64402743156843
30
0.000000000000000
11
-42.2707710011507
21
9.61571047495392
31
0.000000000000000
  0
LINE
  5
F102E0
330
F102E1
100
AcDbEntity
8
Geo
100
AcDbLine
10
-42.2707710011507
20
9.61571047495392
30
0.000000000000000
11
-42.1707710011507
21
9.58703115102539
31
0.000000000000000
  0
LINE
  5
F102E2
330
F102E3
100
AcDbEntity
8
Geo
100
AcDbLine
10
-42.1707710011507
20
9.58703115102539
30
0.000000000000000
11
-42.0707710011507
21
9.55799095349111
31
0.000000000000000
  0
LINE
  5
F102E4
330
F102E5
100
AcDbEntity
8
Geo
100
AcDbLine
10
-42.0707710011507
20
9.55799095349111
30
0.000000000000000
11
-41.9707710011507
21
9.52859139485484
31
0.000000000000000
  0
LINE
  5
F102E6
330
F102E7
100
AcDbEntity
8
Geo
100
AcDbLine
10
-41.9707710011507
20
9.52859139485484
30
0.000000000000000
11
-41.8707710011507
21
9.49883400633692
31
0.000000000000000
  0
LINE
  5
F102E8
330
F102E9
100
AcDbEntity
8
Geo
100
AcDbLine
10
-41.8707710011507
20
9.49883400633692
30
0.000000000000000
11
-41.7707710011507
21
9.46872033779461
31
0.000000000000000
  0
LINE
  5
F102EA
330
F102EB
100
AcDbEntity
8
Geo
100
AcDbLine
10
-41.7707710011507
20
9.46872033779461
30
0.000000000000000
11
-41.6707710011507
21
9.43825195764136
31
0.000000000000000
  0
LINE
  5
F102EC
330
F102ED
100
AcDbEntity
8
Geo
100
AcDbLine
10
-41.6707710011507
20
9.43825195764136
30
0.000000000000000
11
-41.5707710011507
21
9.40743045276506
31
0.000000000000000
  0
LINE
  5
F102EE
330
F102EF
100
AcDbEntity
8
Geo
100
AcDbLine
10
-41.5707710011507
20
9.40743045276506
30
0.000000000000000
11
-41.4707710011507
21
9.37625742844546
31
0.000000000000000
  0
LINE
  5
F102F0
330
F102F1
100
AcDbEntity
8
Geo
100
AcDbLine
10
-41.4707710011507
20
9.37625742844546
30
0.000000000000000
11
-41.3707710011507
21
9.34473450827054
31
0.000000000000000
  0
LINE
  5
F102F2
330
F102F3
100
AcDbEntity
8
Geo
100
AcDbLine
10
-41.3707710011507
20
9.34473450827054
30
0.000000000000000
11
-41.2707710011507
21
9.31286333405192
31
0.000000000000000
  0
LINE
  5
F102F4
330
F102F5
100
AcDbEntity
8
Geo
100
AcDbLine
10
-41.2707710011507
20
9.31286333405192
30
0.000000000000000
11
-41.1707710011507
21
9.28064556573940
31
0.000000000000000
  0
LINE
  5
F102F6
330
F102F7
100
AcDbEntity
8
Geo
100
AcDbLine
10
-41.1707710011507
20
9.28064556573940
30
0.000000000000000
11
-41.0707710011507
21
9.24808288133445
31
0.000000000000000
  0
LINE
  5
F102F8
330
F102F9
100
AcDbEntity
8
Geo
100
AcDbLine
10
-41.0707710011507
20
9.24808288133445
30
0.000000000000000
11
-40.9707710011507
21
9.21517697680286
31
0.000000000000000
  0
LINE
  5
F102FA
330
F102FB
100
AcDbEntity
8
Geo
100
AcDbLine
10
-40.9707710011507
20
9.21517697680286
30
0.000000000000000
11
-40.8707710011507
21
9.18192956598639
31
0.000000000000000
  0
LINE
  5
F102FC
330
F102FD
100
AcDbEntity
8
Geo
100
AcDbLine
10
-40.8707710011507
20
9.18192956598639
30
0.000000000000000
11
-40.7707710011507
21
9.14834238051350
31
0.000000000000000
  0
LINE
  5
F102FE
330
F102FF
100
AcDbEntity
8
Geo
100
AcDbLine
10
-40.7707710011507
20
9.14834238051350
30
0.000000000000000
11
-40.6707710011507
21
9.11441716970917
31
0.000000000000000
  0
LINE
  5
F10300
330
F10301
100
AcDbEntity
8
Geo
100
AcDbLine
10
-40.6707710011507
20
9.11441716970917
30
0.000000000000000
11
-40.5707710011507
21
9.08015570050380
31
0.000000000000000
  0
LINE
  5
F10302
330
F10303
100
AcDbEntity
8
Geo
100
AcDbLine
10
-40.5707710011507
20
9.08015570050380
30
0.000000000000000
11
-40.4707710011507
21
9.04555975734116
31
0.000000000000000
  0
LINE
  5
F10304
330
F10305
100
AcDbEntity
8
Geo
100
AcDbLine
10
-40.4707710011507
20
9.04555975734116
30
0.000000000000000
11
-40.3707710011507
21
9.01063114208548
31
0.000000000000000
  0
LINE
  5
F10306
330
F10307
100
AcDbEntity
8
Geo
100
AcDbLine
10
-40.3707710011507
20
9.01063114208548
30
0.000000000000000
11
-40.2707710011507
21
8.97537167392757
31
0.000000000000000
  0
LINE
  5
F10308
330
F10309
100
AcDbEntity
8
Geo
100
AcDbLine
10
-40.2707710011507
20
8.97537167392757
30
0.000000000000000
11
-40.1707710011507
21
8.93978318929009
31
0.000000000000000
  0
LINE
  5
F1030A
330
F1030B
100
AcDbEntity
8
Geo
100
AcDbLine
10
-40.1707710011507
20
8.93978318929009
30
0.000000000000000
11
-40.0707710011507
21
8.90386754173190
31
0.000000000000000
  0
LINE
  5
F1030C
330
F1030D
100
AcDbEntity
8
Geo
100
AcDbLine
10
-40.0707710011507
20
8.90386754173190
30
0.000000000000000
11
-39.9707710011507
21
8.86762660185153
31
0.000000000000000
  0
LINE
  5
F1030E
330
F1030F
100
AcDbEntity
8
Geo
100
AcDbLine
10
-39.9707710011507
20
8.86762660185153
30
0.000000000000000
11
-39.8707710011507
21
8.83106225718974
31
0.000000000000000
  0
LINE
  5
F10310
330
F10311
100
AcDbEntity
8
Geo
100
AcDbLine
10
-39.8707710011507
20
8.83106225718974
30
0.000000000000000
11
-39.7707710011507
21
8.79417641213122
31
0.000000000000000
  0
LINE
  5
F10312
330
F10313
100
AcDbEntity
8
Geo
100
AcDbLine
10
-39.7707710011507
20
8.79417641213122
30
0.000000000000000
11
-39.6707710011507
21
8.75697098780539
31
0.000000000000000
  0
LINE
  5
F10314
330
F10315
100
AcDbEntity
8
Geo
100
AcDbLine
10
-39.6707710011507
20
8.75697098780539
30
0.000000000000000
11
-39.5707710011507
21
8.71944792198635
31
0.000000000000000
  0
LINE
  5
F10316
330
F10317
100
AcDbEntity
8
Geo
100
AcDbLine
10
-39.5707710011507
20
8.71944792198635
30
0.000000000000000
11
-39.4707710011507
21
8.68160916899197
31
0.000000000000000
  0
LINE
  5
F10318
330
F10319
100
AcDbEntity
8
Geo
100
AcDbLine
10
-39.4707710011507
20
8.68160916899197
30
0.000000000000000
11
-39.3707710011507
21
8.64345669958208
31
0.000000000000000
  0
LINE
  5
F1031A
330
F1031B
100
AcDbEntity
8
Geo
100
AcDbLine
10
-39.3707710011507
20
8.64345669958208
30
0.000000000000000
11
-39.2707710011507
21
8.60499250085584
31
0.000000000000000
  0
LINE
  5
F1031C
330
F1031D
100
AcDbEntity
8
Geo
100
AcDbLine
10
-39.2707710011507
20
8.60499250085584
30
0.000000000000000
11
-39.1707710011507
21
8.56621857614824
31
0.000000000000000
  0
LINE
  5
F1031E
330
F1031F
100
AcDbEntity
8
Geo
100
AcDbLine
10
-39.1707710011507
20
8.56621857614824
30
0.000000000000000
11
-39.0707710011507
21
8.52713694492575
31
0.000000000000000
  0
LINE
  5
F10320
330
F10321
100
AcDbEntity
8
Geo
100
AcDbLine
10
-39.0707710011507
20
8.52713694492575
30
0.000000000000000
11
-38.9707710011507
21
8.48774964268117
31
0.000000000000000
  0
LINE
  5
F10322
330
F10323
100
AcDbEntity
8
Geo
100
AcDbLine
10
-38.9707710011507
20
8.48774964268117
30
0.000000000000000
11
-38.8707710011507
21
8.44805872082758
31
0.000000000000000
  0
LINE
  5
F10324
330
F10325
100
AcDbEntity
8
Geo
100
AcDbLine
10
-38.8707710011507
20
8.44805872082758
30
0.000000000000000
11
-38.7707710011507
21
8.40806624659153
31
0.000000000000000
  0
LINE
  5
F10326
330
F10327
100
AcDbEntity
8
Geo
100
AcDbLine
10
-38.7707710011507
20
8.40806624659153
30
0.000000000000000
11
-38.6707710011507
21
8.36777430290535
31
0.000000000000000
  0
LINE
  5
F10328
330
F10329
100
AcDbEntity
8
Geo
100
AcDbLine
10
-38.6707710011507
20
8.36777430290535
30
0.000000000000000
11
-38.5707710011507
21
8.32718498829865
31
0.000000000000000
  0
LINE
  5
F1032A
330
F1032B
100
AcDbEntity
8
Geo
100
AcDbLine
10
-38.5707710011507
20
8.32718498829865
30
0.000000000000000
11
-38.4707710011507
21
8.28630041678907
31
0.000000000000000
  0
LINE
  5
F1032C
330
F1032D
100
AcDbEntity
8
Geo
100
AcDbLine
10
-38.4707710011507
20
8.28630041678907
30
0.000000000000000
11
-38.3707710011507
21
8.24512271777212
31
0.000000000000000
  0
LINE
  5
F1032E
330
F1032F
100
AcDbEntity
8
Geo
100
AcDbLine
10
-38.3707710011507
20
8.24512271777212
30
0.000000000000000
11
-38.2707710011507
21
8.20365403591033
31
0.000000000000000
  0
LINE
  5
F10330
330
F10331
100
AcDbEntity
8
Geo
100
AcDbLine
10
-38.2707710011507
20
8.20365403591033
30
0.000000000000000
11
-38.1707710011507
21
8.16189653102150
31
0.000000000000000
  0
LINE
  5
F10332
330
F10333
100
AcDbEntity
8
Geo
100
AcDbLine
10
-38.1707710011507
20
8.16189653102150
30
0.000000000000000
11
-38.0707710011507
21
8.11985237796624
31
0.000000000000000
  0
LINE
  5
F10334
330
F10335
100
AcDbEntity
8
Geo
100
AcDbLine
10
-38.0707710011507
20
8.11985237796624
30
0.000000000000000
11
-37.9707710011507
21
8.07752376653468
31
0.000000000000000
  0
LINE
  5
F10336
330
F10337
100
AcDbEntity
8
Geo
100
AcDbLine
10
-37.9707710011507
20
8.07752376653468
30
0.000000000000000
11
-37.8707710011507
21
8.03491290133243
31
0.000000000000000
  0
LINE
  5
F10338
330
F10339
100
AcDbEntity
8
Geo
100
AcDbLine
10
-37.8707710011507
20
8.03491290133243
30
0.000000000000000
11
-37.7707710011507
21
7.99202200166576
31
0.000000000000000
  0
LINE
  5
F1033A
330
F1033B
100
AcDbEntity
8
Geo
100
AcDbLine
10
-37.7707710011507
20
7.99202200166576
30
0.000000000000000
11
-37.6707710011507
21
7.94885330142598
31
0.000000000000000
  0
LINE
  5
F1033C
330
F1033D
100
AcDbEntity
8
Geo
100
AcDbLine
10
-37.6707710011507
20
7.94885330142598
30
0.000000000000000
11
-37.5707710011507
21
7.90540904897316
31
0.000000000000000
  0
LINE
  5
F1033E
330
F1033F
100
AcDbEntity
8
Geo
100
AcDbLine
10
-37.5707710011507
20
7.90540904897316
30
0.000000000000000
11
-37.4707710011507
21
7.86169150701895
31
0.000000000000000
  0
LINE
  5
F10340
330
F10341
100
AcDbEntity
8
Geo
100
AcDbLine
10
-37.4707710011507
20
7.86169150701895
30
0.000000000000000
11
-37.3707710011507
21
7.81770295250877
31
0.000000000000000
  0
LINE
  5
F10342
330
F10343
100
AcDbEntity
8
Geo
100
AcDbLine
10
-37.3707710011507
20
7.81770295250877
30
0.000000000000000
11
-37.2707710011507
21
7.77344567650324
31
0.000000000000000
  0
LINE
  5
F10344
330
F10345
100
AcDbEntity
8
Geo
100
AcDbLine
10
-37.2707710011507
20
7.77344567650324
30
0.000000000000000
11
-37.1707710011507
21
7.72892198405880
31
0.000000000000000
  0
LINE
  5
F10346
330
F10347
100
AcDbEntity
8
Geo
100
AcDbLine
10
-37.1707710011507
20
7.72892198405880
30
0.000000000000000
11
-37.0707710011507
21
7.68413419410771
31
0.000000000000000
  0
LINE
  5
F10348
330
F10349
100
AcDbEntity
8
Geo
100
AcDbLine
10
-37.0707710011507
20
7.68413419410771
30
0.000000000000000
11
-36.9707710011507
21
7.63908463933723
31
0.000000000000000
  0
LINE
  5
F1034A
330
F1034B
100
AcDbEntity
8
Geo
100
AcDbLine
10
-36.9707710011507
20
7.63908463933723
30
0.000000000000000
11
-36.8707710011507
21
7.59377566606815
31
0.000000000000000
  0
LINE
  5
F1034C
330
F1034D
100
AcDbEntity
8
Geo
100
AcDbLine
10
-36.8707710011507
20
7.59377566606815
30
0.000000000000000
11
-36.7707710011507
21
7.54820963413261
31
0.000000000000000
  0
LINE
  5
F1034E
330
F1034F
100
AcDbEntity
8
Geo
100
AcDbLine
10
-36.7707710011507
20
7.54820963413261
30
0.000000000000000
11
-36.6707710011507
21
7.50238891675111
31
0.000000000000000
  0
LINE
  5
F10350
330
F10351
100
AcDbEntity
8
Geo
100
AcDbLine
10
-36.6707710011507
20
7.50238891675111
30
0.000000000000000
11
-36.5707710011507
21
7.45631590040900
31
0.000000000000000
  0
LINE
  5
F10352
330
F10353
100
AcDbEntity
8
Geo
100
AcDbLine
10
-36.5707710011507
20
7.45631590040900
30
0.000000000000000
11
-36.4707710011507
21
7.40999298473214
31
0.000000000000000
  0
LINE
  5
F10354
330
F10355
100
AcDbEntity
8
Geo
100
AcDbLine
10
-36.4707710011507
20
7.40999298473214
30
0.000000000000000
11
-36.3707710011507
21
7.36342258236191
31
0.000000000000000
  0
LINE
  5
F10356
330
F10357
100
AcDbEntity
8
Geo
100
AcDbLine
10
-36.3707710011507
20
7.36342258236191
30
0.000000000000000
11
-36.2707710011507
21
7.31660711882958
31
0.000000000000000
  0
LINE
  5
F10358
330
F10359
100
AcDbEntity
8
Geo
100
AcDbLine
10
-36.2707710011507
20
7.31660711882958
30
0.000000000000000
11
-36.1707710011507
21
7.26954903242994
31
0.000000000000000
  0
LINE
  5
F1035A
330
F1035B
100
AcDbEntity
8
Geo
100
AcDbLine
10
-36.1707710011507
20
7.26954903242994
30
0.000000000000000
11
-36.0707710011507
21
7.22225077409437
31
0.000000000000000
  0
LINE
  5
F1035C
330
F1035D
100
AcDbEntity
8
Geo
100
AcDbLine
10
-36.0707710011507
20
7.22225077409437
30
0.000000000000000
11
-35.9707710011508
21
7.17471480726314
31
0.000000000000000
  0
LINE
  5
F1035E
330
F1035F
100
AcDbEntity
8
Geo
100
AcDbLine
10
-35.9707710011508
20
7.17471480726314
30
0.000000000000000
11
-35.8707710011508
21
7.12694360775708
31
0.000000000000000
  0
LINE
  5
F10360
330
F10361
100
AcDbEntity
8
Geo
100
AcDbLine
10
-35.8707710011508
20
7.12694360775708
30
0.000000000000000
11
-35.7707710011507
21
7.07893966364873
31
0.000000000000000
  0
LINE
  5
F10362
330
F10363
100
AcDbEntity
8
Geo
100
AcDbLine
10
-35.7707710011507
20
7.07893966364873
30
0.000000000000000
11
-35.6707710011507
21
7.03070547513264
31
0.000000000000000
  0
LINE
  5
F10364
330
F10365
100
AcDbEntity
8
Geo
100
AcDbLine
10
-35.6707710011507
20
7.03070547513264
30
0.000000000000000
11
-35.5707710011507
21
6.98224355439524
31
0.000000000000000
  0
LINE
  5
F10366
330
F10367
100
AcDbEntity
8
Geo
100
AcDbLine
10
-35.5707710011507
20
6.98224355439524
30
0.000000000000000
11
-35.4707710011508
21
6.93355642548393
31
0.000000000000000
  0
LINE
  5
F10368
330
F10369
100
AcDbEntity
8
Geo
100
AcDbLine
10
-35.4707710011508
20
6.93355642548393
30
0.000000000000000
11
-35.3707710011508
21
6.88464662417568
31
0.000000000000000
  0
LINE
  5
F1036A
330
F1036B
100
AcDbEntity
8
Geo
100
AcDbLine
10
-35.3707710011508
20
6.88464662417568
30
0.000000000000000
11
-35.2707710011507
21
6.83551669784492
31
0.000000000000000
  0
LINE
  5
F1036C
330
F1036D
100
AcDbEntity
8
Geo
100
AcDbLine
10
-35.2707710011507
20
6.83551669784492
30
0.000000000000000
11
-35.1707710011508
21
6.78616920533086
31
0.000000000000000
  0
LINE
  5
F1036E
330
F1036F
100
AcDbEntity
8
Geo
100
AcDbLine
10
-35.1707710011508
20
6.78616920533086
30
0.000000000000000
11
-35.0707710011508
21
6.73660671680427
31
0.000000000000000
  0
LINE
  5
F10370
330
F10371
100
AcDbEntity
8
Geo
100
AcDbLine
10
-35.0707710011508
20
6.73660671680427
30
0.000000000000000
11
-34.9707710011508
21
6.68683181363353
31
0.000000000000000
  0
LINE
  5
F10372
330
F10373
100
AcDbEntity
8
Geo
100
AcDbLine
10
-34.9707710011508
20
6.68683181363353
30
0.000000000000000
11
-34.8707710011508
21
6.63684708825028
31
0.000000000000000
  0
LINE
  5
F10374
330
F10375
100
AcDbEntity
8
Geo
100
AcDbLine
10
-34.8707710011508
20
6.63684708825028
30
0.000000000000000
11
-34.7707710011507
21
6.58665514401433
31
0.000000000000000
  0
LINE
  5
F10376
330
F10377
100
AcDbEntity
8
Geo
100
AcDbLine
10
-34.7707710011507
20
6.58665514401433
30
0.000000000000000
11
-34.6707710011508
21
6.53625859507809
31
0.000000000000000
  0
LINE
  5
F10378
330
F10379
100
AcDbEntity
8
Geo
100
AcDbLine
10
-34.6707710011508
20
6.53625859507809
30
0.000000000000000
11
-34.5707710011508
21
6.48566006625043
31
0.000000000000000
  0
LINE
  5
F1037A
330
F1037B
100
AcDbEntity
8
Geo
100
AcDbLine
10
-34.5707710011508
20
6.48566006625043
30
0.000000000000000
11
-34.4707710011508
21
6.43486219285996
31
0.000000000000000
  0
LINE
  5
F1037C
330
F1037D
100
AcDbEntity
8
Geo
100
AcDbLine
10
-34.4707710011508
20
6.43486219285996
30
0.000000000000000
11
-34.3707710011508
21
6.38386762061776
31
0.000000000000000
  0
LINE
  5
F1037E
330
F1037F
100
AcDbEntity
8
Geo
100
AcDbLine
10
-34.3707710011508
20
6.38386762061776
30
0.000000000000000
11
-34.2707710011508
21
6.33267900547961
31
0.000000000000000
  0
LINE
  5
F10380
330
F10381
100
AcDbEntity
8
Geo
100
AcDbLine
10
-34.2707710011508
20
6.33267900547961
30
0.000000000000000
11
-34.1707710011508
21
6.28129901350764
31
0.000000000000000
  0
LINE
  5
F10382
330
F10383
100
AcDbEntity
8
Geo
100
AcDbLine
10
-34.1707710011508
20
6.28129901350764
30
0.000000000000000
11
-34.0707710011508
21
6.22973032073149
31
0.000000000000000
  0
LINE
  5
F10384
330
F10385
100
AcDbEntity
8
Geo
100
AcDbLine
10
-34.0707710011508
20
6.22973032073149
30
0.000000000000000
11
-33.9707710011508
21
6.17797561300892
31
0.000000000000000
  0
LINE
  5
F10386
330
F10387
100
AcDbEntity
8
Geo
100
AcDbLine
10
-33.9707710011508
20
6.17797561300892
30
0.000000000000000
11
-33.8707710011508
21
6.12603758588592
31
0.000000000000000
  0
LINE
  5
F10388
330
F10389
100
AcDbEntity
8
Geo
100
AcDbLine
10
-33.8707710011508
20
6.12603758588592
30
0.000000000000000
11
-33.7707710011508
21
6.07391894445633
31
0.000000000000000
  0
LINE
  5
F1038A
330
F1038B
100
AcDbEntity
8
Geo
100
AcDbLine
10
-33.7707710011508
20
6.07391894445633
30
0.000000000000000
11
-33.6707710011508
21
6.02162240322093
31
0.000000000000000
  0
LINE
  5
F1038C
330
F1038D
100
AcDbEntity
8
Geo
100
AcDbLine
10
-33.6707710011508
20
6.02162240322093
30
0.000000000000000
11
-33.5707710011508
21
5.96915068594611
31
0.000000000000000
  0
LINE
  5
F1038E
330
F1038F
100
AcDbEntity
8
Geo
100
AcDbLine
10
-33.5707710011508
20
5.96915068594611
30
0.000000000000000
11
-33.4707710011508
21
5.91650652552194
31
0.000000000000000
  0
LINE
  5
F10390
330
F10391
100
AcDbEntity
8
Geo
100
AcDbLine
10
-33.4707710011508
20
5.91650652552194
30
0.000000000000000
11
-33.3707710011508
21
5.86369266381987
31
0.000000000000000
  0
LINE
  5
F10392
330
F10393
100
AcDbEntity
8
Geo
100
AcDbLine
10
-33.3707710011508
20
5.86369266381987
30
0.000000000000000
11
-33.2707710011508
21
5.81071185154993
31
0.000000000000000
  0
LINE
  5
F10394
330
F10395
100
AcDbEntity
8
Geo
100
AcDbLine
10
-33.2707710011508
20
5.81071185154993
30
0.000000000000000
11
-33.1707710011508
21
5.75756684811744
31
0.000000000000000
  0
LINE
  5
F10396
330
F10397
100
AcDbEntity
8
Geo
100
AcDbLine
10
-33.1707710011508
20
5.75756684811744
30
0.000000000000000
11
-33.0707710011508
21
5.70426042147933
31
0.000000000000000
  0
LINE
  5
F10398
330
F10399
100
AcDbEntity
8
Geo
100
AcDbLine
10
-33.0707710011508
20
5.70426042147933
30
0.000000000000000
11
-32.9707710011508
21
5.65079534799993
31
0.000000000000000
  0
LINE
  5
F1039A
330
F1039B
100
AcDbEntity
8
Geo
100
AcDbLine
10
-32.9707710011508
20
5.65079534799993
30
0.000000000000000
11
-32.8707710011508
21
5.59717441230639
31
0.000000000000000
  0
LINE
  5
F1039C
330
F1039D
100
AcDbEntity
8
Geo
100
AcDbLine
10
-32.8707710011508
20
5.59717441230639
30
0.000000000000000
11
-32.7707710011508
21
5.54340040714367
31
0.000000000000000
  0
LINE
  5
F1039E
330
F1039F
100
AcDbEntity
8
Geo
100
AcDbLine
10
-32.7707710011508
20
5.54340040714367
30
0.000000000000000
11
-32.6707710011508
21
5.48947613322904
31
0.000000000000000
  0
LINE
  5
F103A0
330
F103A1
100
AcDbEntity
8
Geo
100
AcDbLine
10
-32.6707710011508
20
5.48947613322904
30
0.000000000000000
11
-32.5707710011508
21
5.43540439910625
31
0.000000000000000
  0
LINE
  5
F103A2
330
F103A3
100
AcDbEntity
8
Geo
100
AcDbLine
10
-32.5707710011508
20
5.43540439910625
30
0.000000000000000
11
-32.4707710011508
21
5.38118802099922
31
0.000000000000000
  0
LINE
  5
F103A4
330
F103A5
100
AcDbEntity
8
Geo
100
AcDbLine
10
-32.4707710011508
20
5.38118802099922
30
0.000000000000000
11
-32.3707710011508
21
5.32682982266540
31
0.000000000000000
  0
LINE
  5
F103A6
330
F103A7
100
AcDbEntity
8
Geo
100
AcDbLine
10
-32.3707710011508
20
5.32682982266540
30
0.000000000000000
11
-32.2707710011508
21
5.27233263524865
31
0.000000000000000
  0
LINE
  5
F103A8
330
F103A9
100
AcDbEntity
8
Geo
100
AcDbLine
10
-32.2707710011508
20
5.27233263524865
30
0.000000000000000
11
-32.1707710011508
21
5.21769929713184
31
0.000000000000000
  0
LINE
  5
F103AA
330
F103AB
100
AcDbEntity
8
Geo
100
AcDbLine
10
-32.1707710011508
20
5.21769929713184
30
0.000000000000000
11
-32.0707710011508
21
5.16293265378897
31
0.000000000000000
  0
LINE
  5
F103AC
330
F103AD
100
AcDbEntity
8
Geo
100
AcDbLine
10
-32.0707710011508
20
5.16293265378897
30
0.000000000000000
11
-31.9707710011508
21
5.10803555763701
31
0.000000000000000
  0
LINE
  5
F103AE
330
F103AF
100
AcDbEntity
8
Geo
100
AcDbLine
10
-31.9707710011508
20
5.10803555763701
30
0.000000000000000
11
-31.8707710011508
21
5.05301086788731
31
0.000000000000000
  0
LINE
  5
F103B0
330
F103B1
100
AcDbEntity
8
Geo
100
AcDbLine
10
-31.8707710011508
20
5.05301086788731
30
0.000000000000000
11
-31.7707710011508
21
4.99786145039668
31
0.000000000000000
  0
LINE
  5
F103B2
330
F103B3
100
AcDbEntity
8
Geo
100
AcDbLine
10
-31.7707710011508
20
4.99786145039668
30
0.000000000000000
11
-31.6707710011508
21
4.94259017751815
31
0.000000000000000
  0
LINE
  5
F103B4
330
F103B5
100
AcDbEntity
8
Geo
100
AcDbLine
10
-31.6707710011508
20
4.94259017751815
30
0.000000000000000
11
-31.5707710011508
21
4.88719992795136
31
0.000000000000000
  0
LINE
  5
F103B6
330
F103B7
100
AcDbEntity
8
Geo
100
AcDbLine
10
-31.5707710011508
20
4.88719992795136
30
0.000000000000000
11
-31.4707710011508
21
4.83169358659261
31
0.000000000000000
  0
LINE
  5
F103B8
330
F103B9
100
AcDbEntity
8
Geo
100
AcDbLine
10
-31.4707710011508
20
4.83169358659261
30
0.000000000000000
11
-31.3707710011508
21
4.77607404438465
31
0.000000000000000
  0
LINE
  5
F103BA
330
F103BB
100
AcDbEntity
8
Geo
100
AcDbLine
10
-31.3707710011508
20
4.77607404438465
30
0.000000000000000
11
-31.2707710011508
21
4.72034419816604
31
0.000000000000000
  0
LINE
  5
F103BC
330
F103BD
100
AcDbEntity
8
Geo
100
AcDbLine
10
-31.2707710011508
20
4.72034419816604
30
0.000000000000000
11
-31.1707710011508
21
4.66450695052035
31
0.000000000000000
  0
LINE
  5
F103BE
330
F103BF
100
AcDbEntity
8
Geo
100
AcDbLine
10
-31.1707710011508
20
4.66450695052035
30
0.000000000000000
11
-31.0707710011508
21
4.60856520962495
31
0.000000000000000
  0
LINE
  5
F103C0
330
F103C1
100
AcDbEntity
8
Geo
100
AcDbLine
10
-31.0707710011508
20
4.60856520962495
30
0.000000000000000
11
-30.9707710011508
21
4.55252188909951
31
0.000000000000000
  0
LINE
  5
F103C2
330
F103C3
100
AcDbEntity
8
Geo
100
AcDbLine
10
-30.9707710011508
20
4.55252188909951
30
0.000000000000000
11
-30.8707710011508
21
4.49637990785433
31
0.000000000000000
  0
LINE
  5
F103C4
330
F103C5
100
AcDbEntity
8
Geo
100
AcDbLine
10
-30.8707710011508
20
4.49637990785433
30
0.000000000000000
11
-30.7707710011508
21
4.44014218993822
31
0.000000000000000
  0
LINE
  5
F103C6
330
F103C7
100
AcDbEntity
8
Geo
100
AcDbLine
10
-30.7707710011508
20
4.44014218993822
30
0.000000000000000
11
-30.6707710011508
21
4.38381166438629
31
0.000000000000000
  0
LINE
  5
F103C8
330
F103C9
100
AcDbEntity
8
Geo
100
AcDbLine
10
-30.6707710011508
20
4.38381166438629
30
0.000000000000000
11
-30.5707710011508
21
4.32739126506734
31
0.000000000000000
  0
LINE
  5
F103CA
330
F103CB
100
AcDbEntity
8
Geo
100
AcDbLine
10
-30.5707710011508
20
4.32739126506734
30
0.000000000000000
11
-30.4707710011508
21
4.27088393053108
31
0.000000000000000
  0
LINE
  5
F103CC
330
F103CD
100
AcDbEntity
8
Geo
100
AcDbLine
10
-30.4707710011508
20
4.27088393053108
30
0.000000000000000
11
-30.3707710011508
21
4.21429260385507
31
0.000000000000000
  0
LINE
  5
F103CE
330
F103CF
100
AcDbEntity
8
Geo
100
AcDbLine
10
-30.3707710011508
20
4.21429260385507
30
0.000000000000000
11
-30.2707710011508
21
4.15762023249146
31
0.000000000000000
  0
LINE
  5
F103D0
330
F103D1
100
AcDbEntity
8
Geo
100
AcDbLine
10
-30.2707710011508
20
4.15762023249146
30
0.000000000000000
11
-30.1707710011508
21
4.10086976811345
31
0.000000000000000
  0
LINE
  5
F103D2
330
F103D3
100
AcDbEntity
8
Geo
100
AcDbLine
10
-30.1707710011508
20
4.10086976811345
30
0.000000000000000
11
-30.0707710011508
21
4.04404416646155
31
0.000000000000000
  0
LINE
  5
F103D4
330
F103D5
100
AcDbEntity
8
Geo
100
AcDbLine
10
-45.0707710011507
20
0.186091893101693
30
0.000000000000000
11
-44.9707710011507
21
0.131247474434771
31
0.000000000000000
  0
LINE
  5
F103D6
330
F103D7
100
AcDbEntity
8
Geo
100
AcDbLine
10
-44.9707710011507
20
0.131247474434771
30
0.000000000000000
11
-44.8707710011507
21
0.0765346687577382
31
0.000000000000000
  0
LINE
  5
F103D8
330
F103D9
100
AcDbEntity
8
Geo
100
AcDbLine
10
-44.8707710011507
20
0.0765346687577382
30
0.000000000000000
11
-44.7707710011507
21
0.0219563256835236
31
0.000000000000000
  0
LINE
  5
F103DA
330
F103DB
100
AcDbEntity
8
Geo
100
AcDbLine
10
-44.7707710011507
20
0.0219563256835236
30
0.000000000000000
11
-44.6707710011507
21
-0.0324847121781762
31
0.000000000000000
  0
LINE
  5
F103DC
330
F103DD
100
AcDbEntity
8
Geo
100
AcDbLine
10
-44.6707710011507
20
-0.0324847121781762
30
0.000000000000000
11
-44.5707710011507
21
-0.0867856093689463
31
0.000000000000000
  0
LINE
  5
F103DE
330
F103DF
100
AcDbEntity
8
Geo
100
AcDbLine
10
-44.5707710011507
20
-0.0867856093689463
30
0.000000000000000
11
-44.4707710011507
21
-0.140943537729332
31
0.000000000000000
  0
LINE
  5
F103E0
330
F103E1
100
AcDbEntity
8
Geo
100
AcDbLine
10
-44.4707710011507
20
-0.140943537729332
30
0.000000000000000
11
-44.3707710011507
21
-0.194955676546142
31
0.000000000000000
  0
LINE
  5
F103E2
330
F103E3
100
AcDbEntity
8
Geo
100
AcDbLine
10
-44.3707710011507
20
-0.194955676546142
30
0.000000000000000
11
-44.2707710011507
21
-0.248819212699354
31
0.000000000000000
  0
LINE
  5
F103E4
330
F103E5
100
AcDbEntity
8
Geo
100
AcDbLine
10
-44.2707710011507
20
-0.248819212699354
30
0.000000000000000
11
-44.1707710011507
21
-0.302531340808638
31
0.000000000000000
  0
LINE
  5
F103E6
330
F103E7
100
AcDbEntity
8
Geo
100
AcDbLine
10
-44.1707710011507
20
-0.302531340808638
30
0.000000000000000
11
-44.0707710011507
21
-0.356089263379463
31
0.000000000000000
  0
LINE
  5
F103E8
330
F103E9
100
AcDbEntity
8
Geo
100
AcDbLine
10
-44.0707710011507
20
-0.356089263379463
30
0.000000000000000
11
-43.9707710011507
21
-0.409490190948801
31
0.000000000000000
  0
LINE
  5
F103EA
330
F103EB
100
AcDbEntity
8
Geo
100
AcDbLine
10
-43.9707710011507
20
-0.409490190948801
30
0.000000000000000
11
-43.8707710011507
21
-0.462731342230414
31
0.000000000000000
  0
LINE
  5
F103EC
330
F103ED
100
AcDbEntity
8
Geo
100
AcDbLine
10
-43.8707710011507
20
-0.462731342230414
30
0.000000000000000
11
-43.7707710011507
21
-0.515809944259709
31
0.000000000000000
  0
LINE
  5
F103EE
330
F103EF
100
AcDbEntity
8
Geo
100
AcDbLine
10
-43.7707710011507
20
-0.515809944259709
30
0.000000000000000
11
-43.6707710011507
21
-0.568723232538161
31
0.000000000000000
  0
LINE
  5
F103F0
330
F103F1
100
AcDbEntity
8
Geo
100
AcDbLine
10
-43.6707710011507
20
-0.568723232538161
30
0.000000000000000
11
-43.5707710011507
21
-0.621468451177301
31
0.000000000000000
  0
LINE
  5
F103F2
330
F103F3
100
AcDbEntity
8
Geo
100
AcDbLine
10
-43.5707710011507
20
-0.621468451177301
30
0.000000000000000
11
-43.4707710011507
21
-0.674042853042246
31
0.000000000000000
  0
LINE
  5
F103F4
330
F103F5
100
AcDbEntity
8
Geo
100
AcDbLine
10
-43.4707710011507
20
-0.674042853042246
30
0.000000000000000
11
-43.3707710011507
21
-0.726443699894787
31
0.000000000000000
  0
LINE
  5
F103F6
330
F103F7
100
AcDbEntity
8
Geo
100
AcDbLine
10
-43.3707710011507
20
-0.726443699894787
30
0.000000000000000
11
-43.2707710011507
21
-0.778668262535993
31
0.000000000000000
  0
LINE
  5
F103F8
330
F103F9
100
AcDbEntity
8
Geo
100
AcDbLine
10
-43.2707710011507
20
-0.778668262535993
30
0.000000000000000
11
-43.1707710011507
21
-0.830713820948368
31
0.000000000000000
  0
LINE
  5
F103FA
330
F103FB
100
AcDbEntity
8
Geo
100
AcDbLine
10
-43.1707710011507
20
-0.830713820948368
30
0.000000000000000
11
-43.0707710011507
21
-0.882577664437509
31
0.000000000000000
  0
LINE
  5
F103FC
330
F103FD
100
AcDbEntity
8
Geo
100
AcDbLine
10
-43.0707710011507
20
-0.882577664437509
30
0.000000000000000
11
-42.9707710011507
21
-0.934257091773290
31
0.000000000000000
  0
LINE
  5
F103FE
330
F103FF
100
AcDbEntity
8
Geo
100
AcDbLine
10
-42.9707710011507
20
-0.934257091773290
30
0.000000000000000
11
-42.8707710011507
21
-0.985749411330555
31
0.000000000000000
  0
LINE
  5
F10400
330
F10401
100
AcDbEntity
8
Geo
100
AcDbLine
10
-42.8707710011507
20
-0.985749411330555
30
0.000000000000000
11
-42.7707710011507
21
-1.03705194122930
31
0.000000000000000
  0
LINE
  5
F10402
330
F10403
100
AcDbEntity
8
Geo
100
AcDbLine
10
-42.7707710011507
20
-1.03705194122930
30
0.000000000000000
11
-42.6707710011507
21
-1.08816200947436
31
0.000000000000000
  0
LINE
  5
F10404
330
F10405
100
AcDbEntity
8
Geo
100
AcDbLine
10
-42.6707710011507
20
-1.08816200947436
30
0.000000000000000
11
-42.5707710011507
21
-1.13907695409456
31
0.000000000000000
  0
LINE
  5
F10406
330
F10407
100
AcDbEntity
8
Geo
100
AcDbLine
10
-42.5707710011507
20
-1.13907695409456
30
0.000000000000000
11
-42.4707710011507
21
-1.18979412328138
31
0.000000000000000
  0
LINE
  5
F10408
330
F10409
100
AcDbEntity
8
Geo
100
AcDbLine
10
-42.4707710011507
20
-1.18979412328138
30
0.000000000000000
11
-42.3707710011507
21
-1.24031087552706
31
0.000000000000000
  0
LINE
  5
F1040A
330
F1040B
100
AcDbEntity
8
Geo
100
AcDbLine
10
-42.3707710011507
20
-1.24031087552706
30
0.000000000000000
11
-42.2707710011507
21
-1.29062457976217
31
0.000000000000000
  0
LINE
  5
F1040C
330
F1040D
100
AcDbEntity
8
Geo
100
AcDbLine
10
-42.2707710011507
20
-1.29062457976217
30
0.000000000000000
11
-42.1707710011507
21
-1.34073261549266
31
0.000000000000000
  0
LINE
  5
F1040E
330
F1040F
100
AcDbEntity
8
Geo
100
AcDbLine
10
-42.1707710011507
20
-1.34073261549266
30
0.000000000000000
11
-42.0707710011507
21
-1.39063237293632
31
0.000000000000000
  0
LINE
  5
F10410
330
F10411
100
AcDbEntity
8
Geo
100
AcDbLine
10
-42.0707710011507
20
-1.39063237293632
30
0.000000000000000
11
-41.9707710011507
21
-1.44032125315874
31
0.000000000000000
  0
LINE
  5
F10412
330
F10413
100
AcDbEntity
8
Geo
100
AcDbLine
10
-41.9707710011507
20
-1.44032125315874
30
0.000000000000000
11
-41.8707710011507
21
-1.48979666820864
31
0.000000000000000
  0
LINE
  5
F10414
330
F10415
100
AcDbEntity
8
Geo
100
AcDbLine
10
-41.8707710011507
20
-1.48979666820864
30
0.000000000000000
11
-41.7707710011507
21
-1.53905604125266
31
0.000000000000000
  0
LINE
  5
F10416
330
F10417
100
AcDbEntity
8
Geo
100
AcDbLine
10
-41.7707710011507
20
-1.53905604125266
30
0.000000000000000
11
-41.6707710011507
21
-1.58809680670960
31
0.000000000000000
  0
LINE
  5
F10418
330
F10419
100
AcDbEntity
8
Geo
100
AcDbLine
10
-41.6707710011507
20
-1.58809680670960
30
0.000000000000000
11
-41.5707710011507
21
-1.63691641038401
31
0.000000000000000
  0
LINE
  5
F1041A
330
F1041B
100
AcDbEntity
8
Geo
100
AcDbLine
10
-41.5707710011507
20
-1.63691641038401
30
0.000000000000000
11
-41.4707710011507
21
-1.68551230959923
31
0.000000000000000
  0
LINE
  5
F1041C
330
F1041D
100
AcDbEntity
8
Geo
100
AcDbLine
10
-41.4707710011507
20
-1.68551230959923
30
0.000000000000000
11
-41.3707710011507
21
-1.73388197332983
31
0.000000000000000
  0
LINE
  5
F1041E
330
F1041F
100
AcDbEntity
8
Geo
100
AcDbLine
10
-41.3707710011507
20
-1.73388197332983
30
0.000000000000000
11
-41.2707710011507
21
-1.78202288233342
31
0.000000000000000
  0
LINE
  5
F10420
330
F10421
100
AcDbEntity
8
Geo
100
AcDbLine
10
-41.2707710011507
20
-1.78202288233342
30
0.000000000000000
11
-41.1707710011507
21
-1.82993252928189
31
0.000000000000000
  0
LINE
  5
F10422
330
F10423
100
AcDbEntity
8
Geo
100
AcDbLine
10
-41.1707710011507
20
-1.82993252928189
30
0.000000000000000
11
-41.0707710011507
21
-1.87760841889193
31
0.000000000000000
  0
LINE
  5
F10424
330
F10425
100
AcDbEntity
8
Geo
100
AcDbLine
10
-41.0707710011507
20
-1.87760841889193
30
0.000000000000000
11
-40.9707710011507
21
-1.92504806805509
31
0.000000000000000
  0
LINE
  5
F10426
330
F10427
100
AcDbEntity
8
Geo
100
AcDbLine
10
-40.9707710011507
20
-1.92504806805509
30
0.000000000000000
11
-40.8707710011507
21
-1.97224900596703
31
0.000000000000000
  0
LINE
  5
F10428
330
F10429
100
AcDbEntity
8
Geo
100
AcDbLine
10
-40.8707710011507
20
-1.97224900596703
30
0.000000000000000
11
-40.7707710011507
21
-2.01920877425623
31
0.000000000000000
  0
LINE
  5
F1042A
330
F1042B
100
AcDbEntity
8
Geo
100
AcDbLine
10
-40.7707710011507
20
-2.01920877425623
30
0.000000000000000
11
-40.6707710011507
21
-2.06592492711205
31
0.000000000000000
  0
LINE
  5
F1042C
330
F1042D
100
AcDbEntity
8
Geo
100
AcDbLine
10
-40.6707710011507
20
-2.06592492711205
30
0.000000000000000
11
-40.5707710011507
21
-2.11239503141207
31
0.000000000000000
  0
LINE
  5
F1042E
330
F1042F
100
AcDbEntity
8
Geo
100
AcDbLine
10
-40.5707710011507
20
-2.11239503141207
30
0.000000000000000
11
-40.4707710011507
21
-2.15861666684888
31
0.000000000000000
  0
LINE
  5
F10430
330
F10431
100
AcDbEntity
8
Geo
100
AcDbLine
10
-40.4707710011507
20
-2.15861666684888
30
0.000000000000000
11
-40.3707710011507
21
-2.20458742605608
31
0.000000000000000
  0
LINE
  5
F10432
330
F10433
100
AcDbEntity
8
Geo
100
AcDbLine
10
-40.3707710011507
20
-2.20458742605608
30
0.000000000000000
11
-40.2707710011507
21
-2.25030491473369
31
0.000000000000000
  0
LINE
  5
F10434
330
F10435
100
AcDbEntity
8
Geo
100
AcDbLine
10
-40.2707710011507
20
-2.25030491473369
30
0.000000000000000
11
-40.1707710011507
21
-2.29576675177283
31
0.000000000000000
  0
LINE
  5
F10436
330
F10437
100
AcDbEntity
8
Geo
100
AcDbLine
10
-40.1707710011507
20
-2.29576675177283
30
0.000000000000000
11
-40.0707710011507
21
-2.34097056937978
31
0.000000000000000
  0
LINE
  5
F10438
330
F10439
100
AcDbEntity
8
Geo
100
AcDbLine
10
-40.0707710011507
20
-2.34097056937978
30
0.000000000000000
11
-39.9707710011507
21
-2.38591401319924
31
0.000000000000000
  0
LINE
  5
F1043A
330
F1043B
100
AcDbEntity
8
Geo
100
AcDbLine
10
-39.9707710011507
20
-2.38591401319924
30
0.000000000000000
11
-39.8707710011507
21
-2.43059474243702
31
0.000000000000000
  0
LINE
  5
F1043C
330
F1043D
100
AcDbEntity
8
Geo
100
AcDbLine
10
-39.8707710011507
20
-2.43059474243702
30
0.000000000000000
11
-39.7707710011507
21
-2.47501042998190
31
0.000000000000000
  0
LINE
  5
F1043E
330
F1043F
100
AcDbEntity
8
Geo
100
AcDbLine
10
-39.7707710011507
20
-2.47501042998190
30
0.000000000000000
11
-39.6707710011507
21
-2.51915876252687
31
0.000000000000000
  0
LINE
  5
F10440
330
F10441
100
AcDbEntity
8
Geo
100
AcDbLine
10
-39.6707710011507
20
-2.51915876252687
30
0.000000000000000
11
-39.5707710011507
21
-2.56303744068957
31
0.000000000000000
  0
LINE
  5
F10442
330
F10443
100
AcDbEntity
8
Geo
100
AcDbLine
10
-39.5707710011507
20
-2.56303744068957
30
0.000000000000000
11
-39.4707710011507
21
-2.60664417913211
31
0.000000000000000
  0
LINE
  5
F10444
330
F10445
100
AcDbEntity
8
Geo
100
AcDbLine
10
-39.4707710011507
20
-2.60664417913211
30
0.000000000000000
11
-39.3707710011507
21
-2.64997670668005
31
0.000000000000000
  0
LINE
  5
F10446
330
F10447
100
AcDbEntity
8
Geo
100
AcDbLine
10
-39.3707710011507
20
-2.64997670668005
30
0.000000000000000
11
-39.2707710011507
21
-2.69303276644072
31
0.000000000000000
  0
LINE
  5
F10448
330
F10449
100
AcDbEntity
8
Geo
100
AcDbLine
10
-39.2707710011507
20
-2.69303276644072
30
0.000000000000000
11
-39.1707710011507
21
-2.73581011592073
31
0.000000000000000
  0
LINE
  5
F1044A
330
F1044B
100
AcDbEntity
8
Geo
100
AcDbLine
10
-39.1707710011507
20
-2.73581011592073
30
0.000000000000000
11
-39.0707710011507
21
-2.77830652714280
31
0.000000000000000
  0
LINE
  5
F1044C
330
F1044D
100
AcDbEntity
8
Geo
100
AcDbLine
10
-39.0707710011507
20
-2.77830652714280
30
0.000000000000000
11
-38.9707710011507
21
-2.82051978676179
31
0.000000000000000
  0
LINE
  5
F1044E
330
F1044F
100
AcDbEntity
8
Geo
100
AcDbLine
10
-38.9707710011507
20
-2.82051978676179
30
0.000000000000000
11
-38.8707710011507
21
-2.86244769617996
31
0.000000000000000
  0
LINE
  5
F10450
330
F10451
100
AcDbEntity
8
Geo
100
AcDbLine
10
-38.8707710011507
20
-2.86244769617996
30
0.000000000000000
11
-38.7707710011507
21
-2.90408807166151
31
0.000000000000000
  0
LINE
  5
F10452
330
F10453
100
AcDbEntity
8
Geo
100
AcDbLine
10
-38.7707710011507
20
-2.90408807166151
30
0.000000000000000
11
-38.6707710011507
21
-2.94543874444630
31
0.000000000000000
  0
LINE
  5
F10454
330
F10455
100
AcDbEntity
8
Geo
100
AcDbLine
10
-38.6707710011507
20
-2.94543874444630
30
0.000000000000000
11
-38.5707710011507
21
-2.98649756086281
31
0.000000000000000
  0
LINE
  5
F10456
330
F10457
100
AcDbEntity
8
Geo
100
AcDbLine
10
-38.5707710011507
20
-2.98649756086281
30
0.000000000000000
11
-38.4707710011507
21
-3.02726238244029
31
0.000000000000000
  0
LINE
  5
F10458
330
F10459
100
AcDbEntity
8
Geo
100
AcDbLine
10
-38.4707710011507
20
-3.02726238244029
30
0.000000000000000
11
-38.3707710011507
21
-3.06773108602017
31
0.000000000000000
  0
LINE
  5
F1045A
330
F1045B
100
AcDbEntity
8
Geo
100
AcDbLine
10
-38.3707710011507
20
-3.06773108602017
30
0.000000000000000
11
-38.2707710011507
21
-3.10790156386661
31
0.000000000000000
  0
LINE
  5
F1045C
330
F1045D
100
AcDbEntity
8
Geo
100
AcDbLine
10
-38.2707710011507
20
-3.10790156386661
30
0.000000000000000
11
-38.1707710011507
21
-3.14777172377631
31
0.000000000000000
  0
LINE
  5
F1045E
330
F1045F
100
AcDbEntity
8
Geo
100
AcDbLine
10
-38.1707710011507
20
-3.14777172377631
30
0.000000000000000
11
-38.0707710011507
21
-3.18733948918746
31
0.000000000000000
  0
LINE
  5
F10460
330
F10461
100
AcDbEntity
8
Geo
100
AcDbLine
10
-38.0707710011507
20
-3.18733948918746
30
0.000000000000000
11
-37.9707710011507
21
-3.22660279928788
31
0.000000000000000
  0
LINE
  5
F10462
330
F10463
100
AcDbEntity
8
Geo
100
AcDbLine
10
-37.9707710011507
20
-3.22660279928788
30
0.000000000000000
11
-37.8707710011507
21
-3.26555960912238
31
0.000000000000000
  0
LINE
  5
F10464
330
F10465
100
AcDbEntity
8
Geo
100
AcDbLine
10
-37.8707710011507
20
-3.26555960912238
30
0.000000000000000
11
-37.7707710011507
21
-3.30420788969926
31
0.000000000000000
  0
LINE
  5
F10466
330
F10467
100
AcDbEntity
8
Geo
100
AcDbLine
10
-37.7707710011507
20
-3.30420788969926
30
0.000000000000000
11
-37.6707710011507
21
-3.34254562809597
31
0.000000000000000
  0
LINE
  5
F10468
330
F10469
100
AcDbEntity
8
Geo
100
AcDbLine
10
-37.6707710011507
20
-3.34254562809597
30
0.000000000000000
11
-37.5707710011507
21
-3.38057082756397
31
0.000000000000000
  0
LINE
  5
F1046A
330
F1046B
100
AcDbEntity
8
Geo
100
AcDbLine
10
-37.5707710011507
20
-3.38057082756397
30
0.000000000000000
11
-37.4707710011507
21
-3.41828150763272
31
0.000000000000000
  0
LINE
  5
F1046C
330
F1046D
100
AcDbEntity
8
Geo
100
AcDbLine
10
-37.4707710011507
20
-3.41828150763272
30
0.000000000000000
11
-37.3707710011507
21
-3.45567570421281
31
0.000000000000000
  0
LINE
  5
F1046E
330
F1046F
100
AcDbEntity
8
Geo
100
AcDbLine
10
-37.3707710011507
20
-3.45567570421281
30
0.000000000000000
11
-37.2707710011507
21
-3.49275146969832
31
0.000000000000000
  0
LINE
  5
F10470
330
F10471
100
AcDbEntity
8
Geo
100
AcDbLine
10
-37.2707710011507
20
-3.49275146969832
30
0.000000000000000
11
-37.1707710011507
21
-3.52950687306815
31
0.000000000000000
  0
LINE
  5
F10472
330
F10473
100
AcDbEntity
8
Geo
100
AcDbLine
10
-37.1707710011507
20
-3.52950687306815
30
0.000000000000000
11
-37.0707710011507
21
-3.56593999998669
31
0.000000000000000
  0
LINE
  5
F10474
330
F10475
100
AcDbEntity
8
Geo
100
AcDbLine
10
-37.0707710011507
20
-3.56593999998669
30
0.000000000000000
11
-36.9707710011507
21
-3.60204895290348
31
0.000000000000000
  0
LINE
  5
F10476
330
F10477
100
AcDbEntity
8
Geo
100
AcDbLine
10
-36.9707710011507
20
-3.60204895290348
30
0.000000000000000
11
-36.8707710011507
21
-3.63783185115206
31
0.000000000000000
  0
LINE
  5
F10478
330
F10479
100
AcDbEntity
8
Geo
100
AcDbLine
10
-36.8707710011507
20
-3.63783185115206
30
0.000000000000000
11
-36.7707710011507
21
-3.67328683104790
31
0.000000000000000
  0
LINE
  5
F1047A
330
F1047B
100
AcDbEntity
8
Geo
100
AcDbLine
10
-36.7707710011507
20
-3.67328683104790
30
0.000000000000000
11
-36.6707710011507
21
-3.70841204598548
31
0.000000000000000
  0
LINE
  5
F1047C
330
F1047D
100
AcDbEntity
8
Geo
100
AcDbLine
10
-36.6707710011507
20
-3.70841204598548
30
0.000000000000000
11
-36.5707710011507
21
-3.74320566653445
31
0.000000000000000
  0
LINE
  5
F1047E
330
F1047F
100
AcDbEntity
8
Geo
100
AcDbLine
10
-36.5707710011507
20
-3.74320566653445
30
0.000000000000000
11
-36.4707710011507
21
-3.77766588053495
31
0.000000000000000
  0
LINE
  5
F10480
330
F10481
100
AcDbEntity
8
Geo
100
AcDbLine
10
-36.4707710011507
20
-3.77766588053495
30
0.000000000000000
11
-36.3707710011507
21
-3.81179089319196
31
0.000000000000000
  0
LINE
  5
F10482
330
F10483
100
AcDbEntity
8
Geo
100
AcDbLine
10
-36.3707710011507
20
-3.81179089319196
30
0.000000000000000
11
-36.2707710011507
21
-3.84557892716877
31
0.000000000000000
  0
LINE
  5
F10484
330
F10485
100
AcDbEntity
8
Geo
100
AcDbLine
10
-36.2707710011507
20
-3.84557892716877
30
0.000000000000000
11
-36.1707710011507
21
-3.87902822267960
31
0.000000000000000
  0
LINE
  5
F10486
330
F10487
100
AcDbEntity
8
Geo
100
AcDbLine
10
-36.1707710011507
20
-3.87902822267960
30
0.000000000000000
11
-36.0707710011507
21
-3.91213703758118
31
0.000000000000000
  0
LINE
  5
F10488
330
F10489
100
AcDbEntity
8
Geo
100
AcDbLine
10
-36.0707710011507
20
-3.91213703758118
30
0.000000000000000
11
-35.9707710011508
21
-3.94490364746358
31
0.000000000000000
  0
LINE
  5
F1048A
330
F1048B
100
AcDbEntity
8
Geo
100
AcDbLine
10
-35.9707710011508
20
-3.94490364746358
30
0.000000000000000
11
-35.8707710011508
21
-3.97732634573992
31
0.000000000000000
  0
LINE
  5
F1048C
330
F1048D
100
AcDbEntity
8
Geo
100
AcDbLine
10
-35.8707710011508
20
-3.97732634573992
30
0.000000000000000
11
-35.7707710011507
21
-4.00940344373534
31
0.000000000000000
  0
LINE
  5
F1048E
330
F1048F
100
AcDbEntity
8
Geo
100
AcDbLine
10
-35.7707710011507
20
-4.00940344373534
30
0.000000000000000
11
-35.6707710011507
21
-4.04113327077490
31
0.000000000000000
  0
LINE
  5
F10490
330
F10491
100
AcDbEntity
8
Geo
100
AcDbLine
10
-35.6707710011507
20
-4.04113327077490
30
0.000000000000000
11
-35.5707710011507
21
-4.07251417427062
31
0.000000000000000
  0
LINE
  5
F10492
330
F10493
100
AcDbEntity
8
Geo
100
AcDbLine
10
-35.5707710011507
20
-4.07251417427062
30
0.000000000000000
11
-35.4707710011508
21
-4.10354451980752
31
0.000000000000000
  0
LINE
  5
F10494
330
F10495
100
AcDbEntity
8
Geo
100
AcDbLine
10
-35.4707710011508
20
-4.10354451980752
30
0.000000000000000
11
-35.3707710011508
21
-4.13422269122880
31
0.000000000000000
  0
LINE
  5
F10496
330
F10497
100
AcDbEntity
8
Geo
100
AcDbLine
10
-35.3707710011508
20
-4.13422269122880
30
0.000000000000000
11
-35.2707710011507
21
-4.16454709071997
31
0.000000000000000
  0
LINE
  5
F10498
330
F10499
100
AcDbEntity
8
Geo
100
AcDbLine
10
-35.2707710011507
20
-4.16454709071997
30
0.000000000000000
11
-35.1707710011508
21
-4.19451613889206
31
0.000000000000000
  0
LINE
  5
F1049A
330
F1049B
100
AcDbEntity
8
Geo
100
AcDbLine
10
-35.1707710011508
20
-4.19451613889206
30
0.000000000000000
11
-35.0707710011508
21
-4.22412827486393
31
0.000000000000000
  0
LINE
  5
F1049C
330
F1049D
100
AcDbEntity
8
Geo
100
AcDbLine
10
-35.0707710011508
20
-4.22412827486393
30
0.000000000000000
11
-34.9707710011508
21
-4.25338195634353
31
0.000000000000000
  0
LINE
  5
F1049E
330
F1049F
100
AcDbEntity
8
Geo
100
AcDbLine
10
-34.9707710011508
20
-4.25338195634353
30
0.000000000000000
11
-34.8707710011508
21
-4.28227565970822
31
0.000000000000000
  0
LINE
  5
F104A0
330
F104A1
100
AcDbEntity
8
Geo
100
AcDbLine
10
-34.8707710011508
20
-4.28227565970822
30
0.000000000000000
11
-34.7707710011507
21
-4.31080788008416
31
0.000000000000000
  0
LINE
  5
F104A2
330
F104A3
100
AcDbEntity
8
Geo
100
AcDbLine
10
-34.7707710011507
20
-4.31080788008416
30
0.000000000000000
11
-34.6707710011508
21
-4.33897713142464
31
0.000000000000000
  0
LINE
  5
F104A4
330
F104A5
100
AcDbEntity
8
Geo
100
AcDbLine
10
-34.6707710011508
20
-4.33897713142464
30
0.000000000000000
11
-34.5707710011508
21
-4.36678194658753
31
0.000000000000000
  0
LINE
  5
F104A6
330
F104A7
100
AcDbEntity
8
Geo
100
AcDbLine
10
-34.5707710011508
20
-4.36678194658753
30
0.000000000000000
11
-34.4707710011508
21
-4.39422087741166
31
0.000000000000000
  0
LINE
  5
F104A8
330
F104A9
100
AcDbEntity
8
Geo
100
AcDbLine
10
-34.4707710011508
20
-4.39422087741166
30
0.000000000000000
11
-34.3707710011508
21
-4.42129249479224
31
0.000000000000000
  0
LINE
  5
F104AA
330
F104AB
100
AcDbEntity
8
Geo
100
AcDbLine
10
-34.3707710011508
20
-4.42129249479224
30
0.000000000000000
11
-34.2707710011508
21
-4.44799538875534
31
0.000000000000000
  0
LINE
  5
F104AC
330
F104AD
100
AcDbEntity
8
Geo
100
AcDbLine
10
-34.2707710011508
20
-4.44799538875534
30
0.000000000000000
11
-34.1707710011508
21
-4.47432816853125
31
0.000000000000000
  0
LINE
  5
F104AE
330
F104AF
100
AcDbEntity
8
Geo
100
AcDbLine
10
-34.1707710011508
20
-4.47432816853125
30
0.000000000000000
11
-34.0707710011508
21
-4.50028946262698
31
0.000000000000000
  0
LINE
  5
F104B0
330
F104B1
100
AcDbEntity
8
Geo
100
AcDbLine
10
-34.0707710011508
20
-4.50028946262698
30
0.000000000000000
11
-33.9707710011508
21
-4.52587791889767
31
0.000000000000000
  0
LINE
  5
F104B2
330
F104B3
100
AcDbEntity
8
Geo
100
AcDbLine
10
-33.9707710011508
20
-4.52587791889767
30
0.000000000000000
11
-33.8707710011508
21
-4.55109220461700
31
0.000000000000000
  0
LINE
  5
F104B4
330
F104B5
100
AcDbEntity
8
Geo
100
AcDbLine
10
-33.8707710011508
20
-4.55109220461700
30
0.000000000000000
11
-33.7707710011508
21
-4.57593100654663
31
0.000000000000000
  0
LINE
  5
F104B6
330
F104B7
100
AcDbEntity
8
Geo
100
AcDbLine
10
-33.7707710011508
20
-4.57593100654663
30
0.000000000000000
11
-33.6707710011508
21
-4.60039303100457
31
0.000000000000000
  0
LINE
  5
F104B8
330
F104B9
100
AcDbEntity
8
Geo
100
AcDbLine
10
-33.6707710011508
20
-4.60039303100457
30
0.000000000000000
11
-33.5707710011508
21
-4.62447700393257
31
0.000000000000000
  0
LINE
  5
F104BA
330
F104BB
100
AcDbEntity
8
Geo
100
AcDbLine
10
-33.5707710011508
20
-4.62447700393257
30
0.000000000000000
11
-33.4707710011508
21
-4.64818167096250
31
0.000000000000000
  0
LINE
  5
F104BC
330
F104BD
100
AcDbEntity
8
Geo
100
AcDbLine
10
-33.4707710011508
20
-4.64818167096250
30
0.000000000000000
11
-33.3707710011508
21
-4.67150579748163
31
0.000000000000000
  0
LINE
  5
F104BE
330
F104BF
100
AcDbEntity
8
Geo
100
AcDbLine
10
-33.3707710011508
20
-4.67150579748163
30
0.000000000000000
11
-33.2707710011508
21
-4.69444816869698
31
0.000000000000000
  0
LINE
  5
F104C0
330
F104C1
100
AcDbEntity
8
Geo
100
AcDbLine
10
-33.2707710011508
20
-4.69444816869698
30
0.000000000000000
11
-33.1707710011508
21
-4.71700758969857
31
0.000000000000000
  0
LINE
  5
F104C2
330
F104C3
100
AcDbEntity
8
Geo
100
AcDbLine
10
-33.1707710011508
20
-4.71700758969857
30
0.000000000000000
11
-33.0707710011508
21
-4.73918288552166
31
0.000000000000000
  0
LINE
  5
F104C4
330
F104C5
100
AcDbEntity
8
Geo
100
AcDbLine
10
-33.0707710011508
20
-4.73918288552166
30
0.000000000000000
11
-32.9707710011508
21
-4.76097290120793
31
0.000000000000000
  0
LINE
  5
F104C6
330
F104C7
100
AcDbEntity
8
Geo
100
AcDbLine
10
-32.9707710011508
20
-4.76097290120793
30
0.000000000000000
11
-32.8707710011508
21
-4.78237650186566
31
0.000000000000000
  0
LINE
  5
F104C8
330
F104C9
100
AcDbEntity
8
Geo
100
AcDbLine
10
-32.8707710011508
20
-4.78237650186566
30
0.000000000000000
11
-32.7707710011508
21
-4.80339257272882
31
0.000000000000000
  0
LINE
  5
F104CA
330
F104CB
100
AcDbEntity
8
Geo
100
AcDbLine
10
-32.7707710011508
20
-4.80339257272882
30
0.000000000000000
11
-32.6707710011508
21
-4.82402001921514
31
0.000000000000000
  0
LINE
  5
F104CC
330
F104CD
100
AcDbEntity
8
Geo
100
AcDbLine
10
-32.6707710011508
20
-4.82402001921514
30
0.000000000000000
11
-32.5707710011508
21
-4.84425776698311
31
0.000000000000000
  0
LINE
  5
F104CE
330
F104CF
100
AcDbEntity
8
Geo
100
AcDbLine
10
-32.5707710011508
20
-4.84425776698311
30
0.000000000000000
11
-32.4707710011508
21
-4.86410476198794
31
0.000000000000000
  0
LINE
  5
F104D0
330
F104D1
100
AcDbEntity
8
Geo
100
AcDbLine
10
-32.4707710011508
20
-4.86410476198794
30
0.000000000000000
11
-32.3707710011508
21
-4.88355997053645
31
0.000000000000000
  0
LINE
  5
F104D2
330
F104D3
100
AcDbEntity
8
Geo
100
AcDbLine
10
-32.3707710011508
20
-4.88355997053645
30
0.000000000000000
11
-32.2707710011508
21
-4.90262237934095
31
0.000000000000000
  0
LINE
  5
F104D4
330
F104D5
100
AcDbEntity
8
Geo
100
AcDbLine
10
-32.2707710011508
20
-4.90262237934095
30
0.000000000000000
11
-32.1707710011508
21
-4.92129099557194
31
0.000000000000000
  0
LINE
  5
F104D6
330
F104D7
100
AcDbEntity
8
Geo
100
AcDbLine
10
-32.1707710011508
20
-4.92129099557194
30
0.000000000000000
11
-32.0707710011508
21
-4.93956484690989
31
0.000000000000000
  0
LINE
  5
F104D8
330
F104D9
100
AcDbEntity
8
Geo
100
AcDbLine
10
-32.0707710011508
20
-4.93956484690989
30
0.000000000000000
11
-31.9707710011508
21
-4.95744298159582
31
0.000000000000000
  0
LINE
  5
F104DA
330
F104DB
100
AcDbEntity
8
Geo
100
AcDbLine
10
-31.9707710011508
20
-4.95744298159582
30
0.000000000000000
11
-31.8707710011508
21
-4.97492446848094
31
0.000000000000000
  0
LINE
  5
F104DC
330
F104DD
100
AcDbEntity
8
Geo
100
AcDbLine
10
-31.8707710011508
20
-4.97492446848094
30
0.000000000000000
11
-31.7707710011508
21
-4.99200839707510
31
0.000000000000000
  0
LINE
  5
F104DE
330
F104DF
100
AcDbEntity
8
Geo
100
AcDbLine
10
-31.7707710011508
20
-4.99200839707510
30
0.000000000000000
11
-31.6707710011508
21
-5.00869387759419
31
0.000000000000000
  0
LINE
  5
F104E0
330
F104E1
100
AcDbEntity
8
Geo
100
AcDbLine
10
-31.6707710011508
20
-5.00869387759419
30
0.000000000000000
11
-31.5707710011508
21
-5.02498004100656
31
0.000000000000000
  0
LINE
  5
F104E2
330
F104E3
100
AcDbEntity
8
Geo
100
AcDbLine
10
-31.5707710011508
20
-5.02498004100656
30
0.000000000000000
11
-31.4707710011508
21
-5.04086603907820
31
0.000000000000000
  0
LINE
  5
F104E4
330
F104E5
100
AcDbEntity
8
Geo
100
AcDbLine
10
-31.4707710011508
20
-5.04086603907820
30
0.000000000000000
11
-31.3707710011508
21
-5.05635104441698
31
0.000000000000000
  0
LINE
  5
F104E6
330
F104E7
100
AcDbEntity
8
Geo
100
AcDbLine
10
-31.3707710011508
20
-5.05635104441698
30
0.000000000000000
11
-31.2707710011508
21
-5.07143425051569
31
0.000000000000000
  0
LINE
  5
F104E8
330
F104E9
100
AcDbEntity
8
Geo
100
AcDbLine
10
-31.2707710011508
20
-5.07143425051569
30
0.000000000000000
11
-31.1707710011508
21
-5.08611487179411
31
0.000000000000000
  0
LINE
  5
F104EA
330
F104EB
100
AcDbEntity
8
Geo
100
AcDbLine
10
-31.1707710011508
20
-5.08611487179411
30
0.000000000000000
11
-31.0707710011508
21
-5.10039214363985
31
0.000000000000000
  0
LINE
  5
F104EC
330
F104ED
100
AcDbEntity
8
Geo
100
AcDbLine
10
-31.0707710011508
20
-5.10039214363985
30
0.000000000000000
11
-30.9707710011508
21
-5.11426532244823
31
0.000000000000000
  0
LINE
  5
F104EE
330
F104EF
100
AcDbEntity
8
Geo
100
AcDbLine
10
-30.9707710011508
20
-5.11426532244823
30
0.000000000000000
11
-30.8707710011508
21
-5.12773368566100
31
0.000000000000000
  0
LINE
  5
F104F0
330
F104F1
100
AcDbEntity
8
Geo
100
AcDbLine
10
-30.8707710011508
20
-5.12773368566100
30
0.000000000000000
11
-30.7707710011508
21
-5.14079653180394
31
0.000000000000000
  0
LINE
  5
F104F2
330
F104F3
100
AcDbEntity
8
Geo
100
AcDbLine
10
-30.7707710011508
20
-5.14079653180394
30
0.000000000000000
11
-30.6707710011508
21
-5.15345318052345
31
0.000000000000000
  0
LINE
  5
F104F4
330
F104F5
100
AcDbEntity
8
Geo
100
AcDbLine
10
-30.6707710011508
20
-5.15345318052345
30
0.000000000000000
11
-30.5707710011508
21
-5.16570297262192
31
0.000000000000000
  0
LINE
  5
F104F6
330
F104F7
100
AcDbEntity
8
Geo
100
AcDbLine
10
-30.5707710011508
20
-5.16570297262192
30
0.000000000000000
11
-30.4707710011508
21
-5.17754527009212
31
0.000000000000000
  0
LINE
  5
F104F8
330
F104F9
100
AcDbEntity
8
Geo
100
AcDbLine
10
-30.4707710011508
20
-5.17754527009212
30
0.000000000000000
11
-30.3707710011508
21
-5.18897945615041
31
0.000000000000000
  0
LINE
  5
F104FA
330
F104FB
100
AcDbEntity
8
Geo
100
AcDbLine
10
-30.3707710011508
20
-5.18897945615041
30
0.000000000000000
11
-30.2707710011508
21
-5.20000493526884
31
0.000000000000000
  0
LINE
  5
F104FC
330
F104FD
100
AcDbEntity
8
Geo
100
AcDbLine
10
-30.2707710011508
20
-5.20000493526884
30
0.000000000000000
11
-30.1707710011508
21
-5.21062113320621
31
0.000000000000000
  0
LINE
  5
F104FE
330
F104FF
100
AcDbEntity
8
Geo
100
AcDbLine
10
-30.1707710011508
20
-5.21062113320621
30
0.000000000000000
11
-30.0707710011508
21
-5.22082749703792
31
0.000000000000000
  0
LINE
  5
F10500
330
F10501
100
AcDbEntity
8
Geo
100
AcDbLine
10
-30.0707710011508
20
6.41097948933477
30
0.000000000000000
11
-29.9707710011508
21
6.35989361549979
31
0.000000000000000
  0
LINE
  5
F10502
330
F10503
100
AcDbEntity
8
Geo
100
AcDbLine
10
-29.9707710011508
20
6.35989361549979
30
0.000000000000000
11
-29.8707710011508
21
6.30861494740955
31
0.000000000000000
  0
LINE
  5
F10504
330
F10505
100
AcDbEntity
8
Geo
100
AcDbLine
10
-29.8707710011508
20
6.30861494740955
30
0.000000000000000
11
-29.7707710011508
21
6.25714615581642
31
0.000000000000000
  0
LINE
  5
F10506
330
F10507
100
AcDbEntity
8
Geo
100
AcDbLine
10
-29.7707710011508
20
6.25714615581642
30
0.000000000000000
11
-29.6707710011508
21
6.20548992137520
31
0.000000000000000
  0
LINE
  5
F10508
330
F10509
100
AcDbEntity
8
Geo
100
AcDbLine
10
-29.6707710011508
20
6.20548992137520
30
0.000000000000000
11
-29.5707710011508
21
6.15364893450594
31
0.000000000000000
  0
LINE
  5
F1050A
330
F1050B
100
AcDbEntity
8
Geo
100
AcDbLine
10
-29.5707710011508
20
6.15364893450594
30
0.000000000000000
11
-29.4707710011508
21
6.10162589526999
31
0.000000000000000
  0
LINE
  5
F1050C
330
F1050D
100
AcDbEntity
8
Geo
100
AcDbLine
10
-29.4707710011508
20
6.10162589526999
30
0.000000000000000
11
-29.3707710011508
21
6.04942351330590
31
0.000000000000000
  0
LINE
  5
F1050E
330
F1050F
100
AcDbEntity
8
Geo
100
AcDbLine
10
-29.3707710011508
20
6.04942351330590
30
0.000000000000000
11
-29.2707710011508
21
5.99704450796597
31
0.000000000000000
  0
LINE
  5
F10510
330
F10511
100
AcDbEntity
8
Geo
100
AcDbLine
10
-29.2707710011508
20
5.99704450796597
30
0.000000000000000
11
-29.1707710011508
21
5.94449160901065
31
0.000000000000000
  0
LINE
  5
F10512
330
F10513
100
AcDbEntity
8
Geo
100
AcDbLine
10
-29.1707710011508
20
5.94449160901065
30
0.000000000000000
11
-29.0707710011508
21
5.89176755864885
31
0.000000000000000
  0
LINE
  5
F10514
330
F10515
100
AcDbEntity
8
Geo
100
AcDbLine
10
-29.0707710011508
20
5.89176755864885
30
0.000000000000000
11
-28.9707710011508
21
5.83887511649558
31
0.000000000000000
  0
LINE
  5
F10516
330
F10517
100
AcDbEntity
8
Geo
100
AcDbLine
10
-28.9707710011508
20
5.83887511649558
30
0.000000000000000
11
-28.8707710011508
21
5.78581707033852
31
0.000000000000000
  0
LINE
  5
F10518
330
F10519
100
AcDbEntity
8
Geo
100
AcDbLine
10
-28.8707710011508
20
5.78581707033852
30
0.000000000000000
11
-28.7707710011508
21
5.73259625770785
31
0.000000000000000
  0
LINE
  5
F1051A
330
F1051B
100
AcDbEntity
8
Geo
100
AcDbLine
10
-28.7707710011508
20
5.73259625770785
30
0.000000000000000
11
-28.6707710011508
21
5.67921560643788
31
0.000000000000000
  0
LINE
  5
F1051C
330
F1051D
100
AcDbEntity
8
Geo
100
AcDbLine
10
-28.6707710011508
20
5.67921560643788
30
0.000000000000000
11
-28.5707710011508
21
5.62567820708258
31
0.000000000000000
  0
LINE
  5
F1051E
330
F1051F
100
AcDbEntity
8
Geo
100
AcDbLine
10
-28.5707710011508
20
5.62567820708258
30
0.000000000000000
11
-28.4707710011508
21
5.57198743666674
31
0.000000000000000
  0
LINE
  5
F10520
330
F10521
100
AcDbEntity
8
Geo
100
AcDbLine
10
-28.4707710011508
20
5.57198743666674
30
0.000000000000000
11
-28.3707710011508
21
5.51814716238407
31
0.000000000000000
  0
LINE
  5
F10522
330
F10523
100
AcDbEntity
8
Geo
100
AcDbLine
10
-28.3707710011508
20
5.51814716238407
30
0.000000000000000
11
-28.2707710011508
21
5.46416206615139
31
0.000000000000000
  0
LINE
  5
F10524
330
F10525
100
AcDbEntity
8
Geo
100
AcDbLine
10
-28.2707710011508
20
5.46416206615139
30
0.000000000000000
11
-28.1707710011508
21
5.41003814716635
31
0.000000000000000
  0
LINE
  5
F10526
330
F10527
100
AcDbEntity
8
Geo
100
AcDbLine
10
-28.1707710011508
20
5.41003814716635
30
0.000000000000000
11
-28.0707710011508
21
5.35578348067848
31
0.000000000000000
  0
LINE
  5
F10528
330
F10529
100
AcDbEntity
8
Geo
100
AcDbLine
10
-28.0707710011508
20
5.35578348067848
30
0.000000000000000
11
-27.9707710011508
21
5.30140933807822
31
0.000000000000000
  0
LINE
  5
F1052A
330
F1052B
100
AcDbEntity
8
Geo
100
AcDbLine
10
-27.9707710011508
20
5.30140933807822
30
0.000000000000000
11
-27.8707710011508
21
5.24693180727445
31
0.000000000000000
  0
LINE
  5
F1052C
330
F1052D
100
AcDbEntity
8
Geo
100
AcDbLine
10
-27.8707710011508
20
5.24693180727445
30
0.000000000000000
11
-27.7707710011508
21
5.19237409443517
31
0.000000000000000
  0
LINE
  5
F1052E
330
F1052F
100
AcDbEntity
8
Geo
100
AcDbLine
10
-27.7707710011508
20
5.19237409443517
30
0.000000000000000
11
-27.6707710011508
21
5.13776973991320
31
0.000000000000000
  0
LINE
  5
F10530
330
F10531
100
AcDbEntity
8
Geo
100
AcDbLine
10
-27.6707710011508
20
5.13776973991320
30
0.000000000000000
11
-27.5707710011508
21
5.08316704409850
31
0.000000000000000
  0
LINE
  5
F10532
330
F10533
100
AcDbEntity
8
Geo
100
AcDbLine
10
-27.5707710011508
20
5.08316704409850
30
0.000000000000000
11
-27.4707710011508
21
5.02863507467611
31
0.000000000000000
  0
LINE
  5
F10534
330
F10535
100
AcDbEntity
8
Geo
100
AcDbLine
10
-27.4707710011508
20
5.02863507467611
30
0.000000000000000
11
-27.3707710011508
21
4.97427171705492
31
0.000000000000000
  0
LINE
  5
F10536
330
F10537
100
AcDbEntity
8
Geo
100
AcDbLine
10
-27.3707710011508
20
4.97427171705492
30
0.000000000000000
11
-27.2707710011507
21
4.92021433633470
31
0.000000000000000
  0
LINE
  5
F10538
330
F10539
100
AcDbEntity
8
Geo
100
AcDbLine
10
-27.2707710011507
20
4.92021433633470
30
0.000000000000000
11
-27.1707710011507
21
4.86665374381743
31
0.000000000000000
  0
LINE
  5
F1053A
330
F1053B
100
AcDbEntity
8
Geo
100
AcDbLine
10
-27.1707710011507
20
4.86665374381743
30
0.000000000000000
11
-27.0707710011507
21
4.81385230528270
31
0.000000000000000
  0
LINE
  5
F1053C
330
F1053D
100
AcDbEntity
8
Geo
100
AcDbLine
10
-27.0707710011507
20
4.81385230528270
30
0.000000000000000
11
-26.9707710011507
21
4.76216719317620
31
0.000000000000000
  0
LINE
  5
F1053E
330
F1053F
100
AcDbEntity
8
Geo
100
AcDbLine
10
-26.9707710011507
20
4.76216719317620
30
0.000000000000000
11
-26.8707710011507
21
4.71207997089963
31
0.000000000000000
  0
LINE
  5
F10540
330
F10541
100
AcDbEntity
8
Geo
100
AcDbLine
10
-26.8707710011507
20
4.71207997089963
30
0.000000000000000
11
-26.7707710011507
21
4.66423390361741
31
0.000000000000000
  0
LINE
  5
F10542
330
F10543
100
AcDbEntity
8
Geo
100
AcDbLine
10
-26.7707710011507
20
4.66423390361741
30
0.000000000000000
11
-26.6707710011507
21
4.61948061319595
31
0.000000000000000
  0
LINE
  5
F10544
330
F10545
100
AcDbEntity
8
Geo
100
AcDbLine
10
-26.6707710011507
20
4.61948061319595
30
0.000000000000000
11
-26.5707710011507
21
4.57893792782479
31
0.000000000000000
  0
LINE
  5
F10546
330
F10547
100
AcDbEntity
8
Geo
100
AcDbLine
10
-26.5707710011507
20
4.57893792782479
30
0.000000000000000
11
-26.4707710011507
21
4.54406100505514
31
0.000000000000000
  0
LINE
  5
F10548
330
F10549
100
AcDbEntity
8
Geo
100
AcDbLine
10
-26.4707710011507
20
4.54406100505514
30
0.000000000000000
11
-26.3707710011507
21
4.51672900255733
31
0.000000000000000
  0
LINE
  5
F1054A
330
F1054B
100
AcDbEntity
8
Geo
100
AcDbLine
10
-26.3707710011507
20
4.51672900255733
30
0.000000000000000
11
-26.2707710011507
21
4.49934968058505
31
0.000000000000000
  0
LINE
  5
F1054C
330
F1054D
100
AcDbEntity
8
Geo
100
AcDbLine
10
-26.2707710011507
20
4.49934968058505
30
0.000000000000000
11
-26.1707710011507
21
4.49498424174689
31
0.000000000000000
  0
LINE
  5
F1054E
330
F1054F
100
AcDbEntity
8
Geo
100
AcDbLine
10
-26.1707710011507
20
4.49498424174689
30
0.000000000000000
11
-26.0707710011507
21
4.50749425000398
31
0.000000000000000
  0
LINE
  5
F10550
330
F10551
100
AcDbEntity
8
Geo
100
AcDbLine
10
-26.0707710011507
20
4.50749425000398
30
0.000000000000000
11
-25.9707710011507
21
4.54171124021255
31
0.000000000000000
  0
LINE
  5
F10552
330
F10553
100
AcDbEntity
8
Geo
100
AcDbLine
10
-25.9707710011507
20
4.54171124021255
30
0.000000000000000
11
-25.8707710011507
21
4.60362689522069
31
0.000000000000000
  0
LINE
  5
F10554
330
F10555
100
AcDbEntity
8
Geo
100
AcDbLine
10
-25.8707710011507
20
4.60362689522069
30
0.000000000000000
11
-25.7707710011507
21
4.70059601723794
31
0.000000000000000
  0
LINE
  5
F10556
330
F10557
100
AcDbEntity
8
Geo
100
AcDbLine
10
-25.7707710011507
20
4.70059601723794
30
0.000000000000000
11
-25.6707710011507
21
4.84153327906661
31
0.000000000000000
  0
LINE
  5
F10558
330
F10559
100
AcDbEntity
8
Geo
100
AcDbLine
10
-25.6707710011507
20
4.84153327906661
30
0.000000000000000
11
-25.5707710011507
21
5.03706292635881
31
0.000000000000000
  0
LINE
  5
F1055A
330
F1055B
100
AcDbEntity
8
Geo
100
AcDbLine
10
-25.5707710011507
20
5.03706292635881
30
0.000000000000000
11
-25.4707710011507
21
5.29953913846293
31
0.000000000000000
  0
LINE
  5
F1055C
330
F1055D
100
AcDbEntity
8
Geo
100
AcDbLine
10
-25.4707710011507
20
5.29953913846293
30
0.000000000000000
11
-25.3707710011507
21
5.64277760847505
31
0.000000000000000
  0
LINE
  5
F1055E
330
F1055F
100
AcDbEntity
8
Geo
100
AcDbLine
10
-25.3707710011507
20
5.64277760847505
30
0.000000000000000
11
-25.2707710011507
21
6.08119898720964
31
0.000000000000000
  0
LINE
  5
F10560
330
F10561
100
AcDbEntity
8
Geo
100
AcDbLine
10
-25.2707710011507
20
6.08119898720964
30
0.000000000000000
11
-25.1707710011507
21
6.62783961851683
31
0.000000000000000
  0
LINE
  5
F10562
330
F10563
100
AcDbEntity
8
Geo
100
AcDbLine
10
-25.1707710011507
20
6.62783961851683
30
0.000000000000000
11
-25.0707710011507
21
7.29027646082496
31
0.000000000000000
  0
LINE
  5
F10564
330
F10565
100
AcDbEntity
8
Geo
100
AcDbLine
10
-25.0707710011507
20
7.29027646082496
30
0.000000000000000
11
-25.0707710011507
21
7.45272681417651
31
0.000000000000000
  0
LINE
  5
F10566
330
F10567
100
AcDbEntity
8
Geo
100
AcDbLine
10
-25.0707710011507
20
7.45272681417651
30
0.000000000000000
11
-25.1707710011507
21
8.01993927260891
31
0.000000000000000
  0
LINE
  5
F10568
330
F10569
100
AcDbEntity
8
Geo
100
AcDbLine
10
-25.1707710011507
20
8.01993927260891
30
0.000000000000000
11
-25.2707710011507
21
8.49724619620739
31
0.000000000000000
  0
LINE
  5
F1056A
330
F1056B
100
AcDbEntity
8
Geo
100
AcDbLine
10
-25.2707710011507
20
8.49724619620739
30
0.000000000000000
11
-25.3707710011507
21
8.89603517837205
31
0.000000000000000
  0
LINE
  5
F1056C
330
F1056D
100
AcDbEntity
8
Geo
100
AcDbLine
10
-25.3707710011507
20
8.89603517837205
30
0.000000000000000
11
-25.4707710011507
21
9.22715790009283
31
0.000000000000000
  0
LINE
  5
F1056E
330
F1056F
100
AcDbEntity
8
Geo
100
AcDbLine
10
-25.4707710011507
20
9.22715790009283
30
0.000000000000000
11
-25.5707710011507
21
9.50060195262342
31
0.000000000000000
  0
LINE
  5
F10570
330
F10571
100
AcDbEntity
8
Geo
100
AcDbLine
10
-25.5707710011507
20
9.50060195262342
30
0.000000000000000
11
-25.6707710011507
21
9.72532948833160
31
0.000000000000000
  0
LINE
  5
F10572
330
F10573
100
AcDbEntity
8
Geo
100
AcDbLine
10
-25.6707710011507
20
9.72532948833160
30
0.000000000000000
11
-25.7707710011507
21
9.90922857938562
31
0.000000000000000
  0
LINE
  5
F10574
330
F10575
100
AcDbEntity
8
Geo
100
AcDbLine
10
-25.7707710011507
20
9.90922857938562
30
0.000000000000000
11
-25.8707710011507
21
10.0591370479076
31
0.000000000000000
  0
LINE
  5
F10576
330
F10577
100
AcDbEntity
8
Geo
100
AcDbLine
10
-25.8707710011507
20
10.0591370479076
30
0.000000000000000
11
-25.9707710011507
21
10.1809097835588
31
0.000000000000000
  0
LINE
  5
F10578
330
F10579
100
AcDbEntity
8
Geo
100
AcDbLine
10
-25.9707710011507
20
10.1809097835588
30
0.000000000000000
11
-26.0707710011507
21
10.2795093095476
31
0.000000000000000
  0
LINE
  5
F1057A
330
F1057B
100
AcDbEntity
8
Geo
100
AcDbLine
10
-26.0707710011507
20
10.2795093095476
30
0.000000000000000
11
-26.1707710011507
21
10.3591059336032
31
0.000000000000000
  0
LINE
  5
F1057C
330
F1057D
100
AcDbEntity
8
Geo
100
AcDbLine
10
-26.1707710011507
20
10.3591059336032
30
0.000000000000000
11
-26.2707710011507
21
10.4231786275456
31
0.000000000000000
  0
LINE
  5
F1057E
330
F1057F
100
AcDbEntity
8
Geo
100
AcDbLine
10
-26.2707710011507
20
10.4231786275456
30
0.000000000000000
11
-26.3707710011507
21
10.4746112034914
31
0.000000000000000
  0
LINE
  5
F10580
330
F10581
100
AcDbEntity
8
Geo
100
AcDbLine
10
-26.3707710011507
20
10.4746112034914
30
0.000000000000000
11
-26.4707710011507
21
10.5157807319378
31
0.000000000000000
  0
LINE
  5
F10582
330
F10583
100
AcDbEntity
8
Geo
100
AcDbLine
10
-26.4707710011507
20
10.5157807319378
30
0.000000000000000
11
-26.5707710011507
21
10.5486367514031
31
0.000000000000000
  0
LINE
  5
F10584
330
F10585
100
AcDbEntity
8
Geo
100
AcDbLine
10
-26.5707710011507
20
10.5486367514031
30
0.000000000000000
11
-26.6707710011507
21
10.5747708663024
31
0.000000000000000
  0
LINE
  5
F10586
330
F10587
100
AcDbEntity
8
Geo
100
AcDbLine
10
-26.6707710011507
20
10.5747708663024
30
0.000000000000000
11
-26.7707710011507
21
10.5954769830865
31
0.000000000000000
  0
LINE
  5
F10588
330
F10589
100
AcDbEntity
8
Geo
100
AcDbLine
10
-26.7707710011507
20
10.5954769830865
30
0.000000000000000
11
-26.8707710011507
21
10.6118028159170
31
0.000000000000000
  0
LINE
  5
F1058A
330
F1058B
100
AcDbEntity
8
Geo
100
AcDbLine
10
-26.8707710011507
20
10.6118028159170
30
0.000000000000000
11
-26.9707710011507
21
10.6245934906072
31
0.000000000000000
  0
LINE
  5
F1058C
330
F1058D
100
AcDbEntity
8
Geo
100
AcDbLine
10
-26.9707710011507
20
10.6245934906072
30
0.000000000000000
11
-27.0707710011507
21
10.6345281522822
31
0.000000000000000
  0
LINE
  5
F1058E
330
F1058F
100
AcDbEntity
8
Geo
100
AcDbLine
10
-27.0707710011507
20
10.6345281522822
30
0.000000000000000
11
-27.1707710011507
21
10.6421504823704
31
0.000000000000000
  0
LINE
  5
F10590
330
F10591
100
AcDbEntity
8
Geo
100
AcDbLine
10
-27.1707710011507
20
10.6421504823704
30
0.000000000000000
11
-27.2707710011507
21
10.6478939846135
31
0.000000000000000
  0
LINE
  5
F10592
330
F10593
100
AcDbEntity
8
Geo
100
AcDbLine
10
-27.2707710011507
20
10.6478939846135
30
0.000000000000000
11
-27.3707710011508
21
10.6521028283531
31
0.000000000000000
  0
LINE
  5
F10594
330
F10595
100
AcDbEntity
8
Geo
100
AcDbLine
10
-27.3707710011508
20
10.6521028283531
30
0.000000000000000
11
-27.4707710011508
21
10.6550489540606
31
0.000000000000000
  0
LINE
  5
F10596
330
F10597
100
AcDbEntity
8
Geo
100
AcDbLine
10
-27.4707710011508
20
10.6550489540606
30
0.000000000000000
11
-27.5707710011508
21
10.6569460596982
31
0.000000000000000
  0
LINE
  5
F10598
330
F10599
100
AcDbEntity
8
Geo
100
AcDbLine
10
-27.5707710011508
20
10.6569460596982
30
0.000000000000000
11
-27.6707710011508
21
10.6579610024702
31
0.000000000000000
  0
LINE
  5
F1059A
330
F1059B
100
AcDbEntity
8
Geo
100
AcDbLine
10
-27.6707710011508
20
10.6579610024702
30
0.000000000000000
11
-27.7589711189017
21
10.6582278481012
31
0.000000000000000
  0
LINE
  5
F1059C
330
F1059D
100
AcDbEntity
8
Geo
100
AcDbLine
10
-30.0707710011508
20
-4.40695828668808
30
0.000000000000000
11
-29.9707710011508
21
-4.43385721529653
31
0.000000000000000
  0
LINE
  5
F1059E
330
F1059F
100
AcDbEntity
8
Geo
100
AcDbLine
10
-29.9707710011508
20
-4.43385721529653
30
0.000000000000000
11
-29.8707710011508
21
-4.46038676607781
31
0.000000000000000
  0
LINE
  5
F105A0
330
F105A1
100
AcDbEntity
8
Geo
100
AcDbLine
10
-29.8707710011508
20
-4.46038676607781
30
0.000000000000000
11
-29.7707710011508
21
-4.48654555729047
31
0.000000000000000
  0
LINE
  5
F105A2
330
F105A3
100
AcDbEntity
8
Geo
100
AcDbLine
10
-29.7707710011508
20
-4.48654555729047
30
0.000000000000000
11
-29.6707710011508
21
-4.51233222650327
31
0.000000000000000
  0
LINE
  5
F105A4
330
F105A5
100
AcDbEntity
8
Geo
100
AcDbLine
10
-29.6707710011508
20
-4.51233222650327
30
0.000000000000000
11
-29.5707710011508
21
-4.53774543066498
31
0.000000000000000
  0
LINE
  5
F105A6
330
F105A7
100
AcDbEntity
8
Geo
100
AcDbLine
10
-29.5707710011508
20
-4.53774543066498
30
0.000000000000000
11
-29.4707710011508
21
-4.56278384616671
31
0.000000000000000
  0
LINE
  5
F105A8
330
F105A9
100
AcDbEntity
8
Geo
100
AcDbLine
10
-29.4707710011508
20
-4.56278384616671
30
0.000000000000000
11
-29.3707710011508
21
-4.58744616887587
31
0.000000000000000
  0
LINE
  5
F105AA
330
F105AB
100
AcDbEntity
8
Geo
100
AcDbLine
10
-29.3707710011508
20
-4.58744616887587
30
0.000000000000000
11
-29.2707710011508
21
-4.61173111408072
31
0.000000000000000
  0
LINE
  5
F105AC
330
F105AD
100
AcDbEntity
8
Geo
100
AcDbLine
10
-29.2707710011508
20
-4.61173111408072
30
0.000000000000000
11
-29.1707710011508
21
-4.63563741619681
31
0.000000000000000
  0
LINE
  5
F105AE
330
F105AF
100
AcDbEntity
8
Geo
100
AcDbLine
10
-29.1707710011508
20
-4.63563741619681
30
0.000000000000000
11
-29.0707710011508
21
-4.65916382792047
31
0.000000000000000
  0
LINE
  5
F105B0
330
F105B1
100
AcDbEntity
8
Geo
100
AcDbLine
10
-29.0707710011508
20
-4.65916382792047
30
0.000000000000000
11
-28.9707710011508
21
-4.68230911822866
31
0.000000000000000
  0
LINE
  5
F105B2
330
F105B3
100
AcDbEntity
8
Geo
100
AcDbLine
10
-28.9707710011508
20
-4.68230911822866
30
0.000000000000000
11
-28.8707710011508
21
-4.70507206816900
31
0.000000000000000
  0
LINE
  5
F105B4
330
F105B5
100
AcDbEntity
8
Geo
100
AcDbLine
10
-28.8707710011508
20
-4.70507206816900
30
0.000000000000000
11
-28.7707710011508
21
-4.72745146270105
31
0.000000000000000
  0
LINE
  5
F105B6
330
F105B7
100
AcDbEntity
8
Geo
100
AcDbLine
10
-28.7707710011508
20
-4.72745146270105
30
0.000000000000000
11
-28.6707710011508
21
-4.74944607587653
31
0.000000000000000
  0
LINE
  5
F105B8
330
F105B9
100
AcDbEntity
8
Geo
100
AcDbLine
10
-28.6707710011508
20
-4.74944607587653
30
0.000000000000000
11
-28.5707710011508
21
-4.77105464531504
31
0.000000000000000
  0
LINE
  5
F105BA
330
F105BB
100
AcDbEntity
8
Geo
100
AcDbLine
10
-28.5707710011508
20
-4.77105464531504
30
0.000000000000000
11
-28.4707710011508
21
-4.79227583017734
31
0.000000000000000
  0
LINE
  5
F105BC
330
F105BD
100
AcDbEntity
8
Geo
100
AcDbLine
10
-28.4707710011508
20
-4.79227583017734
30
0.000000000000000
11
-28.3707710011508
21
-4.81310814459726
31
0.000000000000000
  0
LINE
  5
F105BE
330
F105BF
100
AcDbEntity
8
Geo
100
AcDbLine
10
-28.3707710011508
20
-4.81310814459726
30
0.000000000000000
11
-28.2707710011508
21
-4.83354985575353
31
0.000000000000000
  0
LINE
  5
F105C0
330
F105C1
100
AcDbEntity
8
Geo
100
AcDbLine
10
-28.2707710011508
20
-4.83354985575353
30
0.000000000000000
11
-28.1707710011508
21
-4.85359883240459
31
0.000000000000000
  0
LINE
  5
F105C2
330
F105C3
100
AcDbEntity
8
Geo
100
AcDbLine
10
-28.1707710011508
20
-4.85359883240459
30
0.000000000000000
11
-28.0707710011508
21
-4.87325232575243
31
0.000000000000000
  0
LINE
  5
F105C4
330
F105C5
100
AcDbEntity
8
Geo
100
AcDbLine
10
-28.0707710011508
20
-4.87325232575243
30
0.000000000000000
11
-27.9707710011508
21
-4.89250665994784
31
0.000000000000000
  0
LINE
  5
F105C6
330
F105C7
100
AcDbEntity
8
Geo
100
AcDbLine
10
-27.9707710011508
20
-4.89250665994784
30
0.000000000000000
11
-27.8707710011508
21
-4.91135680442501
31
0.000000000000000
  0
LINE
  5
F105C8
330
F105C9
100
AcDbEntity
8
Geo
100
AcDbLine
10
-27.8707710011508
20
-4.91135680442501
30
0.000000000000000
11
-27.7707710011508
21
-4.92979579459991
31
0.000000000000000
  0
LINE
  5
F105CA
330
F105CB
100
AcDbEntity
8
Geo
100
AcDbLine
10
-27.7707710011508
20
-4.92979579459991
30
0.000000000000000
11
-27.6707710011508
21
-4.94781396132563
31
0.000000000000000
  0
LINE
  5
F105CC
330
F105CD
100
AcDbEntity
8
Geo
100
AcDbLine
10
-27.6707710011508
20
-4.94781396132563
30
0.000000000000000
11
-27.5707710011508
21
-4.96539792286340
31
0.000000000000000
  0
LINE
  5
F105CE
330
F105CF
100
AcDbEntity
8
Geo
100
AcDbLine
10
-27.5707710011508
20
-4.96539792286340
30
0.000000000000000
11
-27.4707710011508
21
-4.98252928586145
31
0.000000000000000
  0
LINE
  5
F105D0
330
F105D1
100
AcDbEntity
8
Geo
100
AcDbLine
10
-27.4707710011508
20
-4.98252928586145
30
0.000000000000000
11
-27.3707710011508
21
-4.99918299350065
31
0.000000000000000
  0
LINE
  5
F105D2
330
F105D3
100
AcDbEntity
8
Geo
100
AcDbLine
10
-27.3707710011508
20
-4.99918299350065
30
0.000000000000000
11
-27.2707710011507
21
-5.01532524854501
31
0.000000000000000
  0
LINE
  5
F105D4
330
F105D5
100
AcDbEntity
8
Geo
100
AcDbLine
10
-27.2707710011507
20
-5.01532524854501
30
0.000000000000000
11
-27.1707710011507
21
-5.03091092442265
31
0.000000000000000
  0
LINE
  5
F105D6
330
F105D7
100
AcDbEntity
8
Geo
100
AcDbLine
10
-27.1707710011507
20
-5.03091092442265
30
0.000000000000000
11
-27.0707710011507
21
-5.04588035464365
31
0.000000000000000
  0
LINE
  5
F105D8
330
F105D9
100
AcDbEntity
8
Geo
100
AcDbLine
10
-27.0707710011507
20
-5.04588035464365
30
0.000000000000000
11
-26.9707710011507
21
-5.06015535255973
31
0.000000000000000
  0
LINE
  5
F105DA
330
F105DB
100
AcDbEntity
8
Geo
100
AcDbLine
10
-26.9707710011507
20
-5.06015535255973
30
0.000000000000000
11
-26.8707710011507
21
-5.07363424700085
31
0.000000000000000
  0
LINE
  5
F105DC
330
F105DD
100
AcDbEntity
8
Geo
100
AcDbLine
10
-26.8707710011507
20
-5.07363424700085
30
0.000000000000000
11
-26.7707710011507
21
-5.08618560323466
31
0.000000000000000
  0
LINE
  5
F105DE
330
F105DF
100
AcDbEntity
8
Geo
100
AcDbLine
10
-26.7707710011507
20
-5.08618560323466
30
0.000000000000000
11
-26.6707710011507
21
-5.09764009761627
31
0.000000000000000
  0
LINE
  5
F105E0
330
F105E1
100
AcDbEntity
8
Geo
100
AcDbLine
10
-26.6707710011507
20
-5.09764009761627
30
0.000000000000000
11
-26.5707710011507
21
-5.10777967118744
31
0.000000000000000
  0
LINE
  5
F105E2
330
F105E3
100
AcDbEntity
8
Geo
100
AcDbLine
10
-26.5707710011507
20
-5.10777967118744
30
0.000000000000000
11
-26.4707710011507
21
-5.11632251215326
31
0.000000000000000
  0
LINE
  5
F105E4
330
F105E5
100
AcDbEntity
8
Geo
100
AcDbLine
10
-26.4707710011507
20
-5.11632251215326
30
0.000000000000000
11
-26.3707710011507
21
-5.12290146960614
31
0.000000000000000
  0
LINE
  5
F105E6
330
F105E7
100
AcDbEntity
8
Geo
100
AcDbLine
10
-26.3707710011507
20
-5.12290146960614
30
0.000000000000000
11
-26.2707710011507
21
-5.12703196759865
31
0.000000000000000
  0
LINE
  5
F105E8
330
F105E9
100
AcDbEntity
8
Geo
100
AcDbLine
10
-26.2707710011507
20
-5.12703196759865
30
0.000000000000000
11
-26.1707710011507
21
-5.12806305003516
31
0.000000000000000
  0
LINE
  5
F105EA
330
F105EB
100
AcDbEntity
8
Geo
100
AcDbLine
10
-26.1707710011507
20
-5.12806305003516
30
0.000000000000000
11
-26.0707710011507
21
-5.12510137369027
31
0.000000000000000
  0
LINE
  5
F105EC
330
F105ED
100
AcDbEntity
8
Geo
100
AcDbLine
10
-26.0707710011507
20
-5.12510137369027
30
0.000000000000000
11
-25.9707710011507
21
-5.11689210670594
31
0.000000000000000
  0
LINE
  5
F105EE
330
F105EF
100
AcDbEntity
8
Geo
100
AcDbLine
10
-25.9707710011507
20
-5.11689210670594
30
0.000000000000000
11
-25.8707710011507
21
-5.10163185085381
31
0.000000000000000
  0
LINE
  5
F105F0
330
F105F1
100
AcDbEntity
8
Geo
100
AcDbLine
10
-25.8707710011507
20
-5.10163185085381
30
0.000000000000000
11
-25.7707710011507
21
-5.07667565884034
31
0.000000000000000
  0
LINE
  5
F105F2
330
F105F3
100
AcDbEntity
8
Geo
100
AcDbLine
10
-25.7707710011507
20
-5.07667565884034
30
0.000000000000000
11
-25.6707710011507
21
-5.03808148788034
31
0.000000000000000
  0
LINE
  5
F105F4
330
F105F5
100
AcDbEntity
8
Geo
100
AcDbLine
10
-25.6707710011507
20
-5.03808148788034
30
0.000000000000000
11
-25.5707710011507
21
-4.97990959963112
31
0.000000000000000
  0
LINE
  5
F105F6
330
F105F7
100
AcDbEntity
8
Geo
100
AcDbLine
10
-25.5707710011507
20
-4.97990959963112
30
0.000000000000000
11
-25.4707710011507
21
-4.89316107496503
31
0.000000000000000
  0
LINE
  5
F105F8
330
F105F9
100
AcDbEntity
8
Geo
100
AcDbLine
10
-25.4707710011507
20
-4.89316107496503
30
0.000000000000000
11
-25.3707710011507
21
-4.76420185704604
31
0.000000000000000
  0
LINE
  5
F105FA
330
F105FB
100
AcDbEntity
8
Geo
100
AcDbLine
10
-25.3707710011507
20
-4.76420185704604
30
0.000000000000000
11
-25.2707710011507
21
-4.57248916896083
31
0.000000000000000
  0
LINE
  5
F105FC
330
F105FD
100
AcDbEntity
8
Geo
100
AcDbLine
10
-25.2707710011507
20
-4.57248916896083
30
0.000000000000000
11
-25.1707710011507
21
-4.28743140010394
31
0.000000000000000
  0
LINE
  5
F105FE
330
F105FF
100
AcDbEntity
8
Geo
100
AcDbLine
10
-25.1707710011507
20
-4.28743140010394
30
0.000000000000000
11
-25.0707710011507
21
-3.86435796194101
31
0.000000000000000
  0
LINE
  5
F10600
330
F10601
100
AcDbEntity
8
Geo
100
AcDbLine
10
-25.0707710011507
20
-3.86435796194101
30
0.000000000000000
11
-25.0707710011507
21
-3.74589423570567
31
0.000000000000000
  0
LINE
  5
F10602
330
F10603
100
AcDbEntity
8
Geo
100
AcDbLine
10
-25.0707710011507
20
-3.74589423570567
30
0.000000000000000
11
-25.1707710011507
21
-3.27911588460484
31
0.000000000000000
  0
LINE
  5
F10604
330
F10605
100
AcDbEntity
8
Geo
100
AcDbLine
10
-25.1707710011507
20
-3.27911588460484
30
0.000000000000000
11
-25.2707710011507
21
-2.81039764012521
31
0.000000000000000
  0
LINE
  5
F10606
330
F10607
100
AcDbEntity
8
Geo
100
AcDbLine
10
-25.2707710011507
20
-2.81039764012521
30
0.000000000000000
11
-25.3707710011507
21
-2.35074008056630
31
0.000000000000000
  0
LINE
  5
F10608
330
F10609
100
AcDbEntity
8
Geo
100
AcDbLine
10
-25.3707710011507
20
-2.35074008056630
30
0.000000000000000
11
-25.4707710011507
21
-1.90785997103255
31
0.000000000000000
  0
LINE
  5
F1060A
330
F1060B
100
AcDbEntity
8
Geo
100
AcDbLine
10
-25.4707710011507
20
-1.90785997103255
30
0.000000000000000
11
-25.5707710011507
21
-1.48687970343039
31
0.000000000000000
  0
LINE
  5
F1060C
330
F1060D
100
AcDbEntity
8
Geo
100
AcDbLine
10
-25.5707710011507
20
-1.48687970343039
30
0.000000000000000
11
-25.6707710011507
21
-1.09091530822843
31
0.000000000000000
  0
LINE
  5
F1060E
330
F1060F
100
AcDbEntity
8
Geo
100
AcDbLine
10
-25.6707710011507
20
-1.09091530822843
30
0.000000000000000
11
-25.7707710011507
21
-0.721563328127494
31
0.000000000000000
  0
LINE
  5
F10610
330
F10611
100
AcDbEntity
8
Geo
100
AcDbLine
10
-25.7707710011507
20
-0.721563328127494
30
0.000000000000000
11
-25.8707710011507
21
-0.379294664773687
31
0.000000000000000
  0
LINE
  5
F10612
330
F10613
100
AcDbEntity
8
Geo
100
AcDbLine
10
-25.8707710011507
20
-0.379294664773687
30
0.000000000000000
11
-25.9707710011507
21
-0.0637671000830125
31
0.000000000000000
  0
LINE
  5
F10614
330
F10615
100
AcDbEntity
8
Geo
100
AcDbLine
10
-25.9707710011507
20
-0.0637671000830125
30
0.000000000000000
11
-26.0707710011507
21
0.225930809206832
31
0.000000000000000
  0
LINE
  5
F10616
330
F10617
100
AcDbEntity
8
Geo
100
AcDbLine
10
-26.0707710011507
20
0.225930809206832
30
0.000000000000000
11
-26.1707710011507
21
0.491092247305442
31
0.000000000000000
  0
LINE
  5
F10618
330
F10619
100
AcDbEntity
8
Geo
100
AcDbLine
10
-26.1707710011507
20
0.491092247305442
30
0.000000000000000
11
-26.2707710011507
21
0.733250083864184
31
0.000000000000000
  0
LINE
  5
F1061A
330
F1061B
100
AcDbEntity
8
Geo
100
AcDbLine
10
-26.2707710011507
20
0.733250083864184
30
0.000000000000000
11
-26.3707710011507
21
0.954070800883956
31
0.000000000000000
  0
LINE
  5
F1061C
330
F1061D
100
AcDbEntity
8
Geo
100
AcDbLine
10
-26.3707710011507
20
0.954070800883956
30
0.000000000000000
11
-26.4707710011507
21
1.15527652563187
31
0.000000000000000
  0
LINE
  5
F1061E
330
F1061F
100
AcDbEntity
8
Geo
100
AcDbLine
10
-26.4707710011507
20
1.15527652563187
30
0.000000000000000
11
-26.5707710011507
21
1.33858875399477
31
0.000000000000000
  0
LINE
  5
F10620
330
F10621
100
AcDbEntity
8
Geo
100
AcDbLine
10
-26.5707710011507
20
1.33858875399477
30
0.000000000000000
11
-26.6707710011507
21
1.50568863359643
31
0.000000000000000
  0
LINE
  5
F10622
330
F10623
100
AcDbEntity
8
Geo
100
AcDbLine
10
-26.6707710011507
20
1.50568863359643
30
0.000000000000000
11
-26.7707710011507
21
1.65818976423851
31
0.000000000000000
  0
LINE
  5
F10624
330
F10625
100
AcDbEntity
8
Geo
100
AcDbLine
10
-26.7707710011507
20
1.65818976423851
30
0.000000000000000
11
-26.8707710011507
21
1.79762037001670
31
0.000000000000000
  0
LINE
  5
F10626
330
F10627
100
AcDbEntity
8
Geo
100
AcDbLine
10
-26.8707710011507
20
1.79762037001670
30
0.000000000000000
11
-26.9707710011507
21
1.92541242120282
31
0.000000000000000
  0
LINE
  5
F10628
330
F10629
100
AcDbEntity
8
Geo
100
AcDbLine
10
-26.9707710011507
20
1.92541242120282
30
0.000000000000000
11
-27.0707710011507
21
2.04289585842194
31
0.000000000000000
  0
LINE
  5
F1062A
330
F1062B
100
AcDbEntity
8
Geo
100
AcDbLine
10
-27.0707710011507
20
2.04289585842194
30
0.000000000000000
11
-27.1707710011507
21
2.15129652138614
31
0.000000000000000
  0
LINE
  5
F1062C
330
F1062D
100
AcDbEntity
8
Geo
100
AcDbLine
10
-27.1707710011507
20
2.15129652138614
30
0.000000000000000
11
-27.2707710011507
21
2.25173673249121
31
0.000000000000000
  0
LINE
  5
F1062E
330
F1062F
100
AcDbEntity
8
Geo
100
AcDbLine
10
-27.2707710011507
20
2.25173673249121
30
0.000000000000000
11
-27.3707710011508
21
2.34523775224481
31
0.000000000000000
  0
LINE
  5
F10630
330
F10631
100
AcDbEntity
8
Geo
100
AcDbLine
10
-27.3707710011508
20
2.34523775224481
30
0.000000000000000
11
-27.4707710011508
21
2.43272352600839
31
0.000000000000000
  0
LINE
  5
F10632
330
F10633
100
AcDbEntity
8
Geo
100
AcDbLine
10
-27.4707710011508
20
2.43272352600839
30
0.000000000000000
11
-27.5707710011508
21
2.51502529411997
31
0.000000000000000
  0
LINE
  5
F10634
330
F10635
100
AcDbEntity
8
Geo
100
AcDbLine
10
-27.5707710011508
20
2.51502529411997
30
0.000000000000000
11
-27.6707710011508
21
2.59288675160956
31
0.000000000000000
  0
LINE
  5
F10636
330
F10637
100
AcDbEntity
8
Geo
100
AcDbLine
10
-27.6707710011508
20
2.59288675160956
30
0.000000000000000
11
-27.7707710011508
21
2.66696952854659
31
0.000000000000000
  0
LINE
  5
F10638
330
F10639
100
AcDbEntity
8
Geo
100
AcDbLine
10
-27.7707710011508
20
2.66696952854659
30
0.000000000000000
11
-27.8707710011508
21
2.73785882471478
31
0.000000000000000
  0
LINE
  5
F1063A
330
F1063B
100
AcDbEntity
8
Geo
100
AcDbLine
10
-27.8707710011508
20
2.73785882471478
30
0.000000000000000
11
-27.9707710011508
21
2.80606907832346
31
0.000000000000000
  0
LINE
  5
F1063C
330
F1063D
100
AcDbEntity
8
Geo
100
AcDbLine
10
-27.9707710011508
20
2.80606907832346
30
0.000000000000000
11
-28.0707710011508
21
2.87204958207033
31
0.000000000000000
  0
LINE
  5
F1063E
330
F1063F
100
AcDbEntity
8
Geo
100
AcDbLine
10
-28.0707710011508
20
2.87204958207033
30
0.000000000000000
11
-28.1707710011508
21
2.93618998428279
31
0.000000000000000
  0
LINE
  5
F10640
330
F10641
100
AcDbEntity
8
Geo
100
AcDbLine
10
-28.1707710011508
20
2.93618998428279
30
0.000000000000000
11
-28.2707710011508
21
2.99882563050466
31
0.000000000000000
  0
LINE
  5
F10642
330
F10643
100
AcDbEntity
8
Geo
100
AcDbLine
10
-28.2707710011508
20
2.99882563050466
30
0.000000000000000
11
-28.3707710011508
21
3.06024271357169
31
0.000000000000000
  0
LINE
  5
F10644
330
F10645
100
AcDbEntity
8
Geo
100
AcDbLine
10
-28.3707710011508
20
3.06024271357169
30
0.000000000000000
11
-28.4707710011508
21
3.12068320927938
31
0.000000000000000
  0
LINE
  5
F10646
330
F10647
100
AcDbEntity
8
Geo
100
AcDbLine
10
-28.4707710011508
20
3.12068320927938
30
0.000000000000000
11
-28.5707710011508
21
3.18034958118651
31
0.000000000000000
  0
LINE
  5
F10648
330
F10649
100
AcDbEntity
8
Geo
100
AcDbLine
10
-28.5707710011508
20
3.18034958118651
30
0.000000000000000
11
-28.6707710011508
21
3.23940924265069
31
0.000000000000000
  0
LINE
  5
F1064A
330
F1064B
100
AcDbEntity
8
Geo
100
AcDbLine
10
-28.6707710011508
20
3.23940924265069
30
0.000000000000000
11
-28.7707710011508
21
3.29799876739804
31
0.000000000000000
  0
LINE
  5
F1064C
330
F1064D
100
AcDbEntity
8
Geo
100
AcDbLine
10
-28.7707710011508
20
3.29799876739804
30
0.000000000000000
11
-28.8707710011508
21
3.35622784218167
31
0.000000000000000
  0
LINE
  5
F1064E
330
F1064F
100
AcDbEntity
8
Geo
100
AcDbLine
10
-28.8707710011508
20
3.35622784218167
30
0.000000000000000
11
-28.9707710011508
21
3.41418295667190
31
0.000000000000000
  0
LINE
  5
F10650
330
F10651
100
AcDbEntity
8
Geo
100
AcDbLine
10
-28.9707710011508
20
3.41418295667190
30
0.000000000000000
11
-29.0707710011508
21
3.47193082685302
31
0.000000000000000
  0
LINE
  5
F10652
330
F10653
100
AcDbEntity
8
Geo
100
AcDbLine
10
-29.0707710011508
20
3.47193082685302
30
0.000000000000000
11
-29.1707710011508
21
3.52952154902882
31
0.000000000000000
  0
LINE
  5
F10654
330
F10655
100
AcDbEntity
8
Geo
100
AcDbLine
10
-29.1707710011508
20
3.52952154902882
30
0.000000000000000
11
-29.2707710011508
21
3.58699148216873
31
0.000000000000000
  0
LINE
  5
F10656
330
F10657
100
AcDbEntity
8
Geo
100
AcDbLine
10
-29.2707710011508
20
3.58699148216873
30
0.000000000000000
11
-29.3707710011508
21
3.64436585683427
31
0.000000000000000
  0
LINE
  5
F10658
330
F10659
100
AcDbEntity
8
Geo
100
AcDbLine
10
-29.3707710011508
20
3.64436585683427
30
0.000000000000000
11
-29.4707710011508
21
3.70166110936321
31
0.000000000000000
  0
LINE
  5
F1065A
330
F1065B
100
AcDbEntity
8
Geo
100
AcDbLine
10
-29.4707710011508
20
3.70166110936321
30
0.000000000000000
11
-29.5707710011508
21
3.75888694038959
31
0.000000000000000
  0
LINE
  5
F1065C
330
F1065D
100
AcDbEntity
8
Geo
100
AcDbLine
10
-29.5707710011508
20
3.75888694038959
30
0.000000000000000
11
-29.6707710011508
21
3.81604809716407
31
0.000000000000000
  0
LINE
  5
F1065E
330
F1065F
100
AcDbEntity
8
Geo
100
AcDbLine
10
-29.6707710011508
20
3.81604809716407
30
0.000000000000000
11
-29.7707710011508
21
3.87314587952119
31
0.000000000000000
  0
LINE
  5
F10660
330
F10661
100
AcDbEntity
8
Geo
100
AcDbLine
10
-29.7707710011508
20
3.87314587952119
30
0.000000000000000
11
-29.8707710011508
21
3.93017936972528
31
0.000000000000000
  0
LINE
  5
F10662
330
F10663
100
AcDbEntity
8
Geo
100
AcDbLine
10
-29.8707710011508
20
3.93017936972528
30
0.000000000000000
11
-29.9707710011508
21
3.98714638681534
31
0.000000000000000
  0
LINE
  5
F10664
330
F10665
100
AcDbEntity
8
Geo
100
AcDbLine
10
-29.9707710011508
20
3.98714638681534
30
0.000000000000000
11
-30.0707710011508
21
4.04404416646155
31
0.000000000000000
  0
LINE
  5
F10666
330
F10667
100
AcDbEntity
8
Geo
100
AcDbLine
10
-27.7589711189017
20
-5.34177215189875
30
0.000000000000000
11
-27.7707710011508
21
-5.34176737583626
31
0.000000000000000
  0
LINE
  5
F10668
330
F10669
100
AcDbEntity
8
Geo
100
AcDbLine
10
-27.7707710011508
20
-5.34176737583626
30
0.000000000000000
11
-27.8707710011508
21
-5.34137582380423
31
0.000000000000000
  0
LINE
  5
F1066A
330
F1066B
100
AcDbEntity
8
Geo
100
AcDbLine
10
-27.8707710011508
20
-5.34137582380423
30
0.000000000000000
11
-27.9707710011508
21
-5.34040597091099
31
0.000000000000000
  0
LINE
  5
F1066C
330
F1066D
100
AcDbEntity
8
Geo
100
AcDbLine
10
-27.9707710011508
20
-5.34040597091099
30
0.000000000000000
11
-28.0707710011508
21
-5.33891415802084
31
0.000000000000000
  0
LINE
  5
F1066E
330
F1066F
100
AcDbEntity
8
Geo
100
AcDbLine
10
-28.0707710011508
20
-5.33891415802084
30
0.000000000000000
11
-28.1707710011508
21
-5.33694175928354
31
0.000000000000000
  0
LINE
  5
F10670
330
F10671
100
AcDbEntity
8
Geo
100
AcDbLine
10
-28.1707710011508
20
-5.33694175928354
30
0.000000000000000
11
-28.2707710011508
21
-5.33451843528733
31
0.000000000000000
  0
LINE
  5
F10672
330
F10673
100
AcDbEntity
8
Geo
100
AcDbLine
10
-28.2707710011508
20
-5.33451843528733
30
0.000000000000000
11
-28.3707710011508
21
-5.33166476994693
31
0.000000000000000
  0
LINE
  5
F10674
330
F10675
100
AcDbEntity
8
Geo
100
AcDbLine
10
-28.3707710011508
20
-5.33166476994693
30
0.000000000000000
11
-28.4707710011508
21
-5.32839440657673
31
0.000000000000000
  0
LINE
  5
F10676
330
F10677
100
AcDbEntity
8
Geo
100
AcDbLine
10
-28.4707710011508
20
-5.32839440657673
30
0.000000000000000
11
-28.5707710011508
21
-5.32471577539003
31
0.000000000000000
  0
LINE
  5
F10678
330
F10679
100
AcDbEntity
8
Geo
100
AcDbLine
10
-28.5707710011508
20
-5.32471577539003
30
0.000000000000000
11
-28.6707710011508
21
-5.32063348586298
31
0.000000000000000
  0
LINE
  5
F1067A
330
F1067B
100
AcDbEntity
8
Geo
100
AcDbLine
10
-28.6707710011508
20
-5.32063348586298
30
0.000000000000000
11
-28.7707710011508
21
-5.31614944237241
31
0.000000000000000
  0
LINE
  5
F1067C
330
F1067D
100
AcDbEntity
8
Geo
100
AcDbLine
10
-28.7707710011508
20
-5.31614944237241
30
0.000000000000000
11
-28.8707710011508
21
-5.31126372967607
31
0.000000000000000
  0
LINE
  5
F1067E
330
F1067F
100
AcDbEntity
8
Geo
100
AcDbLine
10
-28.8707710011508
20
-5.31126372967607
30
0.000000000000000
11
-28.9707710011508
21
-5.30597530562517
31
0.000000000000000
  0
LINE
  5
F10680
330
F10681
100
AcDbEntity
8
Geo
100
AcDbLine
10
-28.9707710011508
20
-5.30597530562517
30
0.000000000000000
11
-29.0707710011508
21
-5.30028253150940
31
0.000000000000000
  0
LINE
  5
F10682
330
F10683
100
AcDbEntity
8
Geo
100
AcDbLine
10
-29.0707710011508
20
-5.30028253150940
30
0.000000000000000
11
-29.1707710011508
21
-5.29418356522011
31
0.000000000000000
  0
LINE
  5
F10684
330
F10685
100
AcDbEntity
8
Geo
100
AcDbLine
10
-29.1707710011508
20
-5.29418356522011
30
0.000000000000000
11
-29.2707710011508
21
-5.28767663861602
31
0.000000000000000
  0
LINE
  5
F10686
330
F10687
100
AcDbEntity
8
Geo
100
AcDbLine
10
-29.2707710011508
20
-5.28767663861602
30
0.000000000000000
11
-29.3707710011508
21
-5.28076023777796
31
0.000000000000000
  0
LINE
  5
F10688
330
F10689
100
AcDbEntity
8
Geo
100
AcDbLine
10
-29.3707710011508
20
-5.28076023777796
30
0.000000000000000
11
-29.4707710011508
21
-5.27343320298333
31
0.000000000000000
  0
LINE
  5
F1068A
330
F1068B
100
AcDbEntity
8
Geo
100
AcDbLine
10
-29.4707710011508
20
-5.27343320298333
30
0.000000000000000
11
-29.5707710011508
21
-5.26569476399959
31
0.000000000000000
  0
LINE
  5
F1068C
330
F1068D
100
AcDbEntity
8
Geo
100
AcDbLine
10
-29.5707710011508
20
-5.26569476399959
30
0.000000000000000
11
-29.6707710011508
21
-5.25754452551208
31
0.000000000000000
  0
LINE
  5
F1068E
330
F1068F
100
AcDbEntity
8
Geo
100
AcDbLine
10
-29.6707710011508
20
-5.25754452551208
30
0.000000000000000
11
-29.7707710011508
21
-5.24898241702580
31
0.000000000000000
  0
LINE
  5
F10690
330
F10691
100
AcDbEntity
8
Geo
100
AcDbLine
10
-29.7707710011508
20
-5.24898241702580
30
0.000000000000000
11
-29.8707710011508
21
-5.24000862130369
31
0.000000000000000
  0
LINE
  5
F10692
330
F10693
100
AcDbEntity
8
Geo
100
AcDbLine
10
-29.8707710011508
20
-5.24000862130369
30
0.000000000000000
11
-29.9707710011508
21
-5.23062349524791
31
0.000000000000000
  0
LINE
  5
F10694
330
F10695
100
AcDbEntity
8
Geo
100
AcDbLine
10
-29.9707710011508
20
-5.23062349524791
30
0.000000000000000
11
-30.0707710011508
21
-5.22082749703792
31
0.000000000000000
  0
LINE
  5
F10696
330
F10697
100
AcDbEntity
8
Geo
100
AcDbLine
10
-45.0707710011507
20
1.87038164569148
30
0.000000000000000
11
-44.9707710011507
21
1.81367018620090
31
0.000000000000000
  0
LINE
  5
F10698
330
F10699
100
AcDbEntity
8
Geo
100
AcDbLine
10
-44.9707710011507
20
1.81367018620090
30
0.000000000000000
11
-44.8707710011507
21
1.75700271389765
31
0.000000000000000
  0
LINE
  5
F1069A
330
F1069B
100
AcDbEntity
8
Geo
100
AcDbLine
10
-44.8707710011507
20
1.75700271389765
30
0.000000000000000
11
-44.7707710011507
21
1.70038218019974
31
0.000000000000000
  0
LINE
  5
F1069C
330
F1069D
100
AcDbEntity
8
Geo
100
AcDbLine
10
-44.7707710011507
20
1.70038218019974
30
0.000000000000000
11
-44.6707710011507
21
1.64381153408052
31
0.000000000000000
  0
LINE
  5
F1069E
330
F1069F
100
AcDbEntity
8
Geo
100
AcDbLine
10
-44.6707710011507
20
1.64381153408052
30
0.000000000000000
11
-44.5707710011507
21
1.58729372191500
31
0.000000000000000
  0
LINE
  5
F106A0
330
F106A1
100
AcDbEntity
8
Geo
100
AcDbLine
10
-44.5707710011507
20
1.58729372191500
30
0.000000000000000
11
-44.4707710011507
21
1.53083168732646
31
0.000000000000000
  0
LINE
  5
F106A2
330
F106A3
100
AcDbEntity
8
Geo
100
AcDbLine
10
-44.4707710011507
20
1.53083168732646
30
0.000000000000000
11
-44.3707710011507
21
1.47442837103311
31
0.000000000000000
  0
LINE
  5
F106A4
330
F106A5
100
AcDbEntity
8
Geo
100
AcDbLine
10
-44.3707710011507
20
1.47442837103311
30
0.000000000000000
11
-44.2707710011507
21
1.41808671069491
31
0.000000000000000
  0
LINE
  5
F106A6
330
F106A7
100
AcDbEntity
8
Geo
100
AcDbLine
10
-44.2707710011507
20
1.41808671069491
30
0.000000000000000
11
-44.1707710011507
21
1.36180964076062
31
0.000000000000000
  0
LINE
  5
F106A8
330
F106A9
100
AcDbEntity
8
Geo
100
AcDbLine
10
-44.1707710011507
20
1.36180964076062
30
0.000000000000000
11
-44.0707710011507
21
1.30560009231489
31
0.000000000000000
  0
LINE
  5
F106AA
330
F106AB
100
AcDbEntity
8
Geo
100
AcDbLine
10
-44.0707710011507
20
1.30560009231489
30
0.000000000000000
11
-43.9707710011507
21
1.24946099292568
31
0.000000000000000
  0
LINE
  5
F106AC
330
F106AD
100
AcDbEntity
8
Geo
100
AcDbLine
10
-43.9707710011507
20
1.24946099292568
30
0.000000000000000
11
-43.8707710011507
21
1.19339526649171
31
0.000000000000000
  0
LINE
  5
F106AE
330
F106AF
100
AcDbEntity
8
Geo
100
AcDbLine
10
-43.8707710011507
20
1.19339526649171
30
0.000000000000000
11
-43.7707710011507
21
1.13740583309024
31
0.000000000000000
  0
LINE
  5
F106B0
330
F106B1
100
AcDbEntity
8
Geo
100
AcDbLine
10
-43.7707710011507
20
1.13740583309024
30
0.000000000000000
11
-43.6707710011507
21
1.08149560882492
31
0.000000000000000
  0
LINE
  5
F106B2
330
F106B3
100
AcDbEntity
8
Geo
100
AcDbLine
10
-43.6707710011507
20
1.08149560882492
30
0.000000000000000
11
-43.5707710011507
21
1.02566750567397
31
0.000000000000000
  0
LINE
  5
F106B4
330
F106B5
100
AcDbEntity
8
Geo
100
AcDbLine
10
-43.5707710011507
20
1.02566750567397
30
0.000000000000000
11
-43.4707710011507
21
0.969924431338475
31
0.000000000000000
  0
LINE
  5
F106B6
330
F106B7
100
AcDbEntity
8
Geo
100
AcDbLine
10
-43.4707710011507
20
0.969924431338475
30
0.000000000000000
11
-43.3707710011507
21
0.914269289090949
31
0.000000000000000
  0
LINE
  5
F106B8
330
F106B9
100
AcDbEntity
8
Geo
100
AcDbLine
10
-43.3707710011507
20
0.914269289090949
30
0.000000000000000
11
-43.2707710011507
21
0.858704977624139
31
0.000000000000000
  0
LINE
  5
F106BA
330
F106BB
100
AcDbEntity
8
Geo
100
AcDbLine
10
-43.2707710011507
20
0.858704977624139
30
0.000000000000000
11
-43.1707710011507
21
0.803234390900040
31
0.000000000000000
  0
LINE
  5
F106BC
330
F106BD
100
AcDbEntity
8
Geo
100
AcDbLine
10
-43.1707710011507
20
0.803234390900040
30
0.000000000000000
11
-43.0707710011507
21
0.747860417999173
31
0.000000000000000
  0
LINE
  5
F106BE
330
F106BF
100
AcDbEntity
8
Geo
100
AcDbLine
10
-43.0707710011507
20
0.747860417999173
30
0.000000000000000
11
-42.9707710011507
21
0.692585942970108
31
0.000000000000000
  0
LINE
  5
F106C0
330
F106C1
100
AcDbEntity
8
Geo
100
AcDbLine
10
-42.9707710011507
20
0.692585942970108
30
0.000000000000000
11
-42.8707710011507
21
0.637413844679256
31
0.000000000000000
  0
LINE
  5
F106C2
330
F106C3
100
AcDbEntity
8
Geo
100
AcDbLine
10
-42.8707710011507
20
0.637413844679256
30
0.000000000000000
11
-42.7707710011507
21
0.582346996660934
31
0.000000000000000
  0
LINE
  5
F106C4
330
F106C5
100
AcDbEntity
8
Geo
100
AcDbLine
10
-42.7707710011507
20
0.582346996660934
30
0.000000000000000
11
-42.6707710011507
21
0.527388266967690
31
0.000000000000000
  0
LINE
  5
F106C6
330
F106C7
100
AcDbEntity
8
Geo
100
AcDbLine
10
-42.6707710011507
20
0.527388266967690
30
0.000000000000000
11
-42.5707710011507
21
0.472540518020944
31
0.000000000000000
  0
LINE
  5
F106C8
330
F106C9
100
AcDbEntity
8
Geo
100
AcDbLine
10
-42.5707710011507
20
0.472540518020944
30
0.000000000000000
11
-42.4707710011507
21
0.417806606461885
31
0.000000000000000
  0
LINE
  5
F106CA
330
F106CB
100
AcDbEntity
8
Geo
100
AcDbLine
10
-42.4707710011507
20
0.417806606461885
30
0.000000000000000
11
-42.3707710011507
21
0.363189383002700
31
0.000000000000000
  0
LINE
  5
F106CC
330
F106CD
100
AcDbEntity
8
Geo
100
AcDbLine
10
-42.3707710011507
20
0.363189383002700
30
0.000000000000000
11
-42.2707710011507
21
0.308691692278101
31
0.000000000000000
  0
LINE
  5
F106CE
330
F106CF
100
AcDbEntity
8
Geo
100
AcDbLine
10
-42.2707710011507
20
0.308691692278101
30
0.000000000000000
11
-42.1707710011507
21
0.254316372697158
31
0.000000000000000
  0
LINE
  5
F106D0
330
F106D1
100
AcDbEntity
8
Geo
100
AcDbLine
10
-42.1707710011507
20
0.254316372697158
30
0.000000000000000
11
-42.0707710011507
21
0.200066256295475
31
0.000000000000000
  0
LINE
  5
F106D2
330
F106D3
100
AcDbEntity
8
Geo
100
AcDbLine
10
-42.0707710011507
20
0.200066256295475
30
0.000000000000000
11
-41.9707710011507
21
0.145944168587683
31
0.000000000000000
  0
LINE
  5
F106D4
330
F106D5
100
AcDbEntity
8
Geo
100
AcDbLine
10
-41.9707710011507
20
0.145944168587683
30
0.000000000000000
11
-41.8707710011507
21
0.0919529284202811
31
0.000000000000000
  0
LINE
  5
F106D6
330
F106D7
100
AcDbEntity
8
Geo
100
AcDbLine
10
-41.8707710011507
20
0.0919529284202811
30
0.000000000000000
11
-41.7707710011507
21
0.0380953478248265
31
0.000000000000000
  0
LINE
  5
F106D8
330
F106D9
100
AcDbEntity
8
Geo
100
AcDbLine
10
-41.7707710011507
20
0.0380953478248265
30
0.000000000000000
11
-41.6707710011507
21
-0.0156257681285346
31
0.000000000000000
  0
LINE
  5
F106DA
330
F106DB
100
AcDbEntity
8
Geo
100
AcDbLine
10
-41.6707710011507
20
-0.0156257681285346
30
0.000000000000000
11
-41.5707710011507
21
-0.0692076214771586
31
0.000000000000000
  0
LINE
  5
F106DC
330
F106DD
100
AcDbEntity
8
Geo
100
AcDbLine
10
-41.5707710011507
20
-0.0692076214771586
30
0.000000000000000
11
-41.4707710011507
21
-0.122647421511626
31
0.000000000000000
  0
LINE
  5
F106DE
330
F106DF
100
AcDbEntity
8
Geo
100
AcDbLine
10
-41.4707710011507
20
-0.122647421511626
30
0.000000000000000
11
-41.3707710011507
21
-0.175942384921102
31
0.000000000000000
  0
LINE
  5
F106E0
330
F106E1
100
AcDbEntity
8
Geo
100
AcDbLine
10
-41.3707710011507
20
-0.175942384921102
30
0.000000000000000
11
-41.2707710011507
21
-0.229089735938287
31
0.000000000000000
  0
LINE
  5
F106E2
330
F106E3
100
AcDbEntity
8
Geo
100
AcDbLine
10
-41.2707710011507
20
-0.229089735938287
30
0.000000000000000
11
-41.1707710011507
21
-0.282086706483998
31
0.000000000000000
  0
LINE
  5
F106E4
330
F106E5
100
AcDbEntity
8
Geo
100
AcDbLine
10
-41.1707710011507
20
-0.282086706483998
30
0.000000000000000
11
-41.0707710011507
21
-0.334930536311335
31
0.000000000000000
  0
LINE
  5
F106E6
330
F106E7
100
AcDbEntity
8
Geo
100
AcDbLine
10
-41.0707710011507
20
-0.334930536311335
30
0.000000000000000
11
-40.9707710011507
21
-0.387618473149435
31
0.000000000000000
  0
LINE
  5
F106E8
330
F106E9
100
AcDbEntity
8
Geo
100
AcDbLine
10
-40.9707710011507
20
-0.387618473149435
30
0.000000000000000
11
-40.8707710011507
21
-0.440147772846834
31
0.000000000000000
  0
LINE
  5
F106EA
330
F106EB
100
AcDbEntity
8
Geo
100
AcDbLine
10
-40.8707710011507
20
-0.440147772846834
30
0.000000000000000
11
-40.7707710011507
21
-0.492515699514382
31
0.000000000000000
  0
LINE
  5
F106EC
330
F106ED
100
AcDbEntity
8
Geo
100
AcDbLine
10
-40.7707710011507
20
-0.492515699514382
30
0.000000000000000
11
-40.6707710011507
21
-0.544719525667737
31
0.000000000000000
  0
LINE
  5
F106EE
330
F106EF
100
AcDbEntity
8
Geo
100
AcDbLine
10
-40.6707710011507
20
-0.544719525667737
30
0.000000000000000
11
-40.5707710011507
21
-0.596756532369417
31
0.000000000000000
  0
LINE
  5
F106F0
330
F106F1
100
AcDbEntity
8
Geo
100
AcDbLine
10
-40.5707710011507
20
-0.596756532369417
30
0.000000000000000
11
-40.4707710011507
21
-0.648624009370423
31
0.000000000000000
  0
LINE
  5
F106F2
330
F106F3
100
AcDbEntity
8
Geo
100
AcDbLine
10
-40.4707710011507
20
-0.648624009370423
30
0.000000000000000
11
-40.3707710011507
21
-0.700319255251384
31
0.000000000000000
  0
LINE
  5
F106F4
330
F106F5
100
AcDbEntity
8
Geo
100
AcDbLine
10
-40.3707710011507
20
-0.700319255251384
30
0.000000000000000
11
-40.2707710011507
21
-0.751839577563267
31
0.000000000000000
  0
LINE
  5
F106F6
330
F106F7
100
AcDbEntity
8
Geo
100
AcDbLine
10
-40.2707710011507
20
-0.751839577563267
30
0.000000000000000
11
-40.1707710011507
21
-0.803182292967594
31
0.000000000000000
  0
LINE
  5
F106F8
330
F106F9
100
AcDbEntity
8
Geo
100
AcDbLine
10
-40.1707710011507
20
-0.803182292967594
30
0.000000000000000
11
-40.0707710011507
21
-0.854344727376210
31
0.000000000000000
  0
LINE
  5
F106FA
330
F106FB
100
AcDbEntity
8
Geo
100
AcDbLine
10
-40.0707710011507
20
-0.854344727376210
30
0.000000000000000
11
-39.9707710011507
21
-0.905324216090559
31
0.000000000000000
  0
LINE
  5
F106FC
330
F106FD
100
AcDbEntity
8
Geo
100
AcDbLine
10
-39.9707710011507
20
-0.905324216090559
30
0.000000000000000
11
-39.8707710011507
21
-0.956118103940461
31
0.000000000000000
  0
LINE
  5
F106FE
330
F106FF
100
AcDbEntity
8
Geo
100
AcDbLine
10
-39.8707710011507
20
-0.956118103940461
30
0.000000000000000
11
-39.7707710011507
21
-1.00672374542240
31
0.000000000000000
  0
LINE
  5
F10700
330
F10701
100
AcDbEntity
8
Geo
100
AcDbLine
10
-39.7707710011507
20
-1.00672374542240
30
0.000000000000000
11
-39.6707710011507
21
-1.05713850483733
31
0.000000000000000
  0
LINE
  5
F10702
330
F10703
100
AcDbEntity
8
Geo
100
AcDbLine
10
-39.6707710011507
20
-1.05713850483733
30
0.000000000000000
11
-39.5707710011507
21
-1.10735975642792
31
0.000000000000000
  0
LINE
  5
F10704
330
F10705
100
AcDbEntity
8
Geo
100
AcDbLine
10
-39.5707710011507
20
-1.10735975642792
30
0.000000000000000
11
-39.4707710011507
21
-1.15738488451535
31
0.000000000000000
  0
LINE
  5
F10706
330
F10707
100
AcDbEntity
8
Geo
100
AcDbLine
10
-39.4707710011507
20
-1.15738488451535
30
0.000000000000000
11
-39.3707710011507
21
-1.20721128363549
31
0.000000000000000
  0
LINE
  5
F10708
330
F10709
100
AcDbEntity
8
Geo
100
AcDbLine
10
-39.3707710011507
20
-1.20721128363549
30
0.000000000000000
11
-39.2707710011507
21
-1.25683635867466
31
0.000000000000000
  0
LINE
  5
F1070A
330
F1070B
100
AcDbEntity
8
Geo
100
AcDbLine
10
-39.2707710011507
20
-1.25683635867466
30
0.000000000000000
11
-39.1707710011507
21
-1.30625752500474
31
0.000000000000000
  0
LINE
  5
F1070C
330
F1070D
100
AcDbEntity
8
Geo
100
AcDbLine
10
-39.1707710011507
20
-1.30625752500474
30
0.000000000000000
11
-39.0707710011507
21
-1.35547220861784
31
0.000000000000000
  0
LINE
  5
F1070E
330
F1070F
100
AcDbEntity
8
Geo
100
AcDbLine
10
-39.0707710011507
20
-1.35547220861784
30
0.000000000000000
11
-38.9707710011507
21
-1.40447784626031
31
0.000000000000000
  0
LINE
  5
F10710
330
F10711
100
AcDbEntity
8
Geo
100
AcDbLine
10
-38.9707710011507
20
-1.40447784626031
30
0.000000000000000
11
-38.8707710011507
21
-1.45327188556626
31
0.000000000000000
  0
LINE
  5
F10712
330
F10713
100
AcDbEntity
8
Geo
100
AcDbLine
10
-38.8707710011507
20
-1.45327188556626
30
0.000000000000000
11
-38.7707710011507
21
-1.50185178519050
31
0.000000000000000
  0
LINE
  5
F10714
330
F10715
100
AcDbEntity
8
Geo
100
AcDbLine
10
-38.7707710011507
20
-1.50185178519050
30
0.000000000000000
11
-38.6707710011507
21
-1.55021501494093
31
0.000000000000000
  0
LINE
  5
F10716
330
F10717
100
AcDbEntity
8
Geo
100
AcDbLine
10
-38.6707710011507
20
-1.55021501494093
30
0.000000000000000
11
-38.5707710011507
21
-1.59835905591025
31
0.000000000000000
  0
LINE
  5
F10718
330
F10719
100
AcDbEntity
8
Geo
100
AcDbLine
10
-38.5707710011507
20
-1.59835905591025
30
0.000000000000000
11
-38.4707710011507
21
-1.64628140060720
31
0.000000000000000
  0
LINE
  5
F1071A
330
F1071B
100
AcDbEntity
8
Geo
100
AcDbLine
10
-38.4707710011507
20
-1.64628140060720
30
0.000000000000000
11
-38.3707710011507
21
-1.69397955308718
31
0.000000000000000
  0
LINE
  5
F1071C
330
F1071D
100
AcDbEntity
8
Geo
100
AcDbLine
10
-38.3707710011507
20
-1.69397955308718
30
0.000000000000000
11
-38.2707710011507
21
-1.74145102908220
31
0.000000000000000
  0
LINE
  5
F1071E
330
F1071F
100
AcDbEntity
8
Geo
100
AcDbLine
10
-38.2707710011507
20
-1.74145102908220
30
0.000000000000000
11
-38.1707710011507
21
-1.78869335613026
31
0.000000000000000
  0
LINE
  5
F10720
330
F10721
100
AcDbEntity
8
Geo
100
AcDbLine
10
-38.1707710011507
20
-1.78869335613026
30
0.000000000000000
11
-38.0707710011507
21
-1.83570407370419
31
0.000000000000000
  0
LINE
  5
F10722
330
F10723
100
AcDbEntity
8
Geo
100
AcDbLine
10
-38.0707710011507
20
-1.83570407370419
30
0.000000000000000
11
-37.9707710011507
21
-1.88248073333973
31
0.000000000000000
  0
LINE
  5
F10724
330
F10725
100
AcDbEntity
8
Geo
100
AcDbLine
10
-37.9707710011507
20
-1.88248073333973
30
0.000000000000000
11
-37.8707710011507
21
-1.92902089876312
31
0.000000000000000
  0
LINE
  5
F10726
330
F10727
100
AcDbEntity
8
Geo
100
AcDbLine
10
-37.8707710011507
20
-1.92902089876312
30
0.000000000000000
11
-37.7707710011507
21
-1.97532214601791
31
0.000000000000000
  0
LINE
  5
F10728
330
F10729
100
AcDbEntity
8
Geo
100
AcDbLine
10
-37.7707710011507
20
-1.97532214601791
30
0.000000000000000
11
-37.6707710011507
21
-2.02138206359128
31
0.000000000000000
  0
LINE
  5
F1072A
330
F1072B
100
AcDbEntity
8
Geo
100
AcDbLine
10
-37.6707710011507
20
-2.02138206359128
30
0.000000000000000
11
-37.5707710011507
21
-2.06719825253960
31
0.000000000000000
  0
LINE
  5
F1072C
330
F1072D
100
AcDbEntity
8
Geo
100
AcDbLine
10
-37.5707710011507
20
-2.06719825253960
30
0.000000000000000
11
-37.4707710011507
21
-2.11276832661339
31
0.000000000000000
  0
LINE
  5
F1072E
330
F1072F
100
AcDbEntity
8
Geo
100
AcDbLine
10
-37.4707710011507
20
-2.11276832661339
30
0.000000000000000
11
-37.3707710011507
21
-2.15808991238160
31
0.000000000000000
  0
LINE
  5
F10730
330
F10731
100
AcDbEntity
8
Geo
100
AcDbLine
10
-37.3707710011507
20
-2.15808991238160
30
0.000000000000000
11
-37.2707710011507
21
-2.20316064935520
31
0.000000000000000
  0
LINE
  5
F10732
330
F10733
100
AcDbEntity
8
Geo
100
AcDbLine
10
-37.2707710011507
20
-2.20316064935520
30
0.000000000000000
11
-37.1707710011507
21
-2.24797819011017
31
0.000000000000000
  0
LINE
  5
F10734
330
F10735
100
AcDbEntity
8
Geo
100
AcDbLine
10
-37.1707710011507
20
-2.24797819011017
30
0.000000000000000
11
-37.0707710011507
21
-2.29254020040972
31
0.000000000000000
  0
LINE
  5
F10736
330
F10737
100
AcDbEntity
8
Geo
100
AcDbLine
10
-37.0707710011507
20
-2.29254020040972
30
0.000000000000000
11
-36.9707710011507
21
-2.33684435932590
31
0.000000000000000
  0
LINE
  5
F10738
330
F10739
100
AcDbEntity
8
Geo
100
AcDbLine
10
-36.9707710011507
20
-2.33684435932590
30
0.000000000000000
11
-36.8707710011507
21
-2.38088835936044
31
0.000000000000000
  0
LINE
  5
F1073A
330
F1073B
100
AcDbEntity
8
Geo
100
AcDbLine
10
-36.8707710011507
20
-2.38088835936044
30
0.000000000000000
11
-36.7707710011507
21
-2.42466990656496
31
0.000000000000000
  0
LINE
  5
F1073C
330
F1073D
100
AcDbEntity
8
Geo
100
AcDbLine
10
-36.7707710011507
20
-2.42466990656496
30
0.000000000000000
11
-36.6707710011507
21
-2.46818672066045
31
0.000000000000000
  0
LINE
  5
F1073E
330
F1073F
100
AcDbEntity
8
Geo
100
AcDbLine
10
-36.6707710011507
20
-2.46818672066045
30
0.000000000000000
11
-36.5707710011507
21
-2.51143653515600
31
0.000000000000000
  0
LINE
  5
F10740
330
F10741
100
AcDbEntity
8
Geo
100
AcDbLine
10
-36.5707710011507
20
-2.51143653515600
30
0.000000000000000
11
-36.4707710011507
21
-2.55441709746689
31
0.000000000000000
  0
LINE
  5
F10742
330
F10743
100
AcDbEntity
8
Geo
100
AcDbLine
10
-36.4707710011507
20
-2.55441709746689
30
0.000000000000000
11
-36.3707710011507
21
-2.59712616903187
31
0.000000000000000
  0
LINE
  5
F10744
330
F10745
100
AcDbEntity
8
Geo
100
AcDbLine
10
-36.3707710011507
20
-2.59712616903187
30
0.000000000000000
11
-36.2707710011507
21
-2.63956152542981
31
0.000000000000000
  0
LINE
  5
F10746
330
F10747
100
AcDbEntity
8
Geo
100
AcDbLine
10
-36.2707710011507
20
-2.63956152542981
30
0.000000000000000
11
-36.1707710011507
21
-2.68172095649546
31
0.000000000000000
  0
LINE
  5
F10748
330
F10749
100
AcDbEntity
8
Geo
100
AcDbLine
10
-36.1707710011507
20
-2.68172095649546
30
0.000000000000000
11
-36.0707710011507
21
-2.72360226643467
31
0.000000000000000
  0
LINE
  5
F1074A
330
F1074B
100
AcDbEntity
8
Geo
100
AcDbLine
10
-36.0707710011507
20
-2.72360226643467
30
0.000000000000000
11
-35.9707710011508
21
-2.76520327393868
31
0.000000000000000
  0
LINE
  5
F1074C
330
F1074D
100
AcDbEntity
8
Geo
100
AcDbLine
10
-35.9707710011508
20
-2.76520327393868
30
0.000000000000000
11
-35.8707710011508
21
-2.80652181229774
31
0.000000000000000
  0
LINE
  5
F1074E
330
F1074F
100
AcDbEntity
8
Geo
100
AcDbLine
10
-35.8707710011508
20
-2.80652181229774
30
0.000000000000000
11
-35.7707710011507
21
-2.84755572951400
31
0.000000000000000
  0
LINE
  5
F10750
330
F10751
100
AcDbEntity
8
Geo
100
AcDbLine
10
-35.7707710011507
20
-2.84755572951400
30
0.000000000000000
11
-35.6707710011507
21
-2.88830288841353
31
0.000000000000000
  0
LINE
  5
F10752
330
F10753
100
AcDbEntity
8
Geo
100
AcDbLine
10
-35.6707710011507
20
-2.88830288841353
30
0.000000000000000
11
-35.5707710011507
21
-2.92876116675770
31
0.000000000000000
  0
LINE
  5
F10754
330
F10755
100
AcDbEntity
8
Geo
100
AcDbLine
10
-35.5707710011507
20
-2.92876116675770
30
0.000000000000000
11
-35.4707710011508
21
-2.96892845735364
31
0.000000000000000
  0
LINE
  5
F10756
330
F10757
100
AcDbEntity
8
Geo
100
AcDbLine
10
-35.4707710011508
20
-2.96892845735364
30
0.000000000000000
11
-35.3707710011508
21
-3.00880266816407
31
0.000000000000000
  0
LINE
  5
F10758
330
F10759
100
AcDbEntity
8
Geo
100
AcDbLine
10
-35.3707710011508
20
-3.00880266816407
30
0.000000000000000
11
-35.2707710011507
21
-3.04838172241616
31
0.000000000000000
  0
LINE
  5
F1075A
330
F1075B
100
AcDbEntity
8
Geo
100
AcDbLine
10
-35.2707710011507
20
-3.04838172241616
30
0.000000000000000
11
-35.1707710011508
21
-3.08766355870981
31
0.000000000000000
  0
LINE
  5
F1075C
330
F1075D
100
AcDbEntity
8
Geo
100
AcDbLine
10
-35.1707710011508
20
-3.08766355870981
30
0.000000000000000
11
-35.0707710011508
21
-3.12664613112491
31
0.000000000000000
  0
LINE
  5
F1075E
330
F1075F
100
AcDbEntity
8
Geo
100
AcDbLine
10
-35.0707710011508
20
-3.12664613112491
30
0.000000000000000
11
-34.9707710011508
21
-3.16532740932796
31
0.000000000000000
  0
LINE
  5
F10760
330
F10761
100
AcDbEntity
8
Geo
100
AcDbLine
10
-34.9707710011508
20
-3.16532740932796
30
0.000000000000000
11
-34.8707710011508
21
-3.20370537867780
31
0.000000000000000
  0
LINE
  5
F10762
330
F10763
100
AcDbEntity
8
Geo
100
AcDbLine
10
-34.8707710011508
20
-3.20370537867780
30
0.000000000000000
11
-34.7707710011507
21
-3.24177804033054
31
0.000000000000000
  0
LINE
  5
F10764
330
F10765
100
AcDbEntity
8
Geo
100
AcDbLine
10
-34.7707710011507
20
-3.24177804033054
30
0.000000000000000
11
-34.6707710011508
21
-3.27954341134365
31
0.000000000000000
  0
LINE
  5
F10766
330
F10767
100
AcDbEntity
8
Geo
100
AcDbLine
10
-34.6707710011508
20
-3.27954341134365
30
0.000000000000000
11
-34.5707710011508
21
-3.31699952477927
31
0.000000000000000
  0
LINE
  5
F10768
330
F10769
100
AcDbEntity
8
Geo
100
AcDbLine
10
-34.5707710011508
20
-3.31699952477927
30
0.000000000000000
11
-34.4707710011508
21
-3.35414442980662
31
0.000000000000000
  0
LINE
  5
F1076A
330
F1076B
100
AcDbEntity
8
Geo
100
AcDbLine
10
-34.4707710011508
20
-3.35414442980662
30
0.000000000000000
11
-34.3707710011508
21
-3.39097619180362
31
0.000000000000000
  0
LINE
  5
F1076C
330
F1076D
100
AcDbEntity
8
Geo
100
AcDbLine
10
-34.3707710011508
20
-3.39097619180362
30
0.000000000000000
11
-34.2707710011508
21
-3.42749289245767
31
0.000000000000000
  0
LINE
  5
F1076E
330
F1076F
100
AcDbEntity
8
Geo
100
AcDbLine
10
-34.2707710011508
20
-3.42749289245767
30
0.000000000000000
11
-34.1707710011508
21
-3.46369262986553
31
0.000000000000000
  0
LINE
  5
F10770
330
F10771
100
AcDbEntity
8
Geo
100
AcDbLine
10
-34.1707710011508
20
-3.46369262986553
30
0.000000000000000
11
-34.0707710011508
21
-3.49957351863239
31
0.000000000000000
  0
LINE
  5
F10772
330
F10773
100
AcDbEntity
8
Geo
100
AcDbLine
10
-34.0707710011508
20
-3.49957351863239
30
0.000000000000000
11
-33.9707710011508
21
-3.53513368997007
31
0.000000000000000
  0
LINE
  5
F10774
330
F10775
100
AcDbEntity
8
Geo
100
AcDbLine
10
-33.9707710011508
20
-3.53513368997007
30
0.000000000000000
11
-33.8707710011508
21
-3.57037129179435
31
0.000000000000000
  0
LINE
  5
F10776
330
F10777
100
AcDbEntity
8
Geo
100
AcDbLine
10
-33.8707710011508
20
-3.57037129179435
30
0.000000000000000
11
-33.7707710011508
21
-3.60528448882145
31
0.000000000000000
  0
LINE
  5
F10778
330
F10779
100
AcDbEntity
8
Geo
100
AcDbLine
10
-33.7707710011508
20
-3.60528448882145
30
0.000000000000000
11
-33.6707710011508
21
-3.63987146266356
31
0.000000000000000
  0
LINE
  5
F1077A
330
F1077B
100
AcDbEntity
8
Geo
100
AcDbLine
10
-33.6707710011508
20
-3.63987146266356
30
0.000000000000000
11
-33.5707710011508
21
-3.67413041192363
31
0.000000000000000
  0
LINE
  5
F1077C
330
F1077D
100
AcDbEntity
8
Geo
100
AcDbLine
10
-33.5707710011508
20
-3.67413041192363
30
0.000000000000000
11
-33.4707710011508
21
-3.70805955228912
31
0.000000000000000
  0
LINE
  5
F1077E
330
F1077F
100
AcDbEntity
8
Geo
100
AcDbLine
10
-33.4707710011508
20
-3.70805955228912
30
0.000000000000000
11
-33.3707710011508
21
-3.74165711662497
31
0.000000000000000
  0
LINE
  5
F10780
330
F10781
100
AcDbEntity
8
Geo
100
AcDbLine
10
-33.3707710011508
20
-3.74165711662497
30
0.000000000000000
11
-33.2707710011508
21
-3.77492135506565
31
0.000000000000000
  0
LINE
  5
F10782
330
F10783
100
AcDbEntity
8
Geo
100
AcDbLine
10
-33.2707710011508
20
-3.77492135506565
30
0.000000000000000
11
-33.1707710011508
21
-3.80785053510624
31
0.000000000000000
  0
LINE
  5
F10784
330
F10785
100
AcDbEntity
8
Geo
100
AcDbLine
10
-33.1707710011508
20
-3.80785053510624
30
0.000000000000000
11
-33.0707710011508
21
-3.84044294169273
31
0.000000000000000
  0
LINE
  5
F10786
330
F10787
100
AcDbEntity
8
Geo
100
AcDbLine
10
-33.0707710011508
20
-3.84044294169273
30
0.000000000000000
11
-32.9707710011508
21
-3.87269687731131
31
0.000000000000000
  0
LINE
  5
F10788
330
F10789
100
AcDbEntity
8
Geo
100
AcDbLine
10
-32.9707710011508
20
-3.87269687731131
30
0.000000000000000
11
-32.8707710011508
21
-3.90461066207681
31
0.000000000000000
  0
LINE
  5
F1078A
330
F1078B
100
AcDbEntity
8
Geo
100
AcDbLine
10
-32.8707710011508
20
-3.90461066207681
30
0.000000000000000
11
-32.7707710011508
21
-3.93618263382013
31
0.000000000000000
  0
LINE
  5
F1078C
330
F1078D
100
AcDbEntity
8
Geo
100
AcDbLine
10
-32.7707710011508
20
-3.93618263382013
30
0.000000000000000
11
-32.6707710011508
21
-3.96741114817489
31
0.000000000000000
  0
LINE
  5
F1078E
330
F1078F
100
AcDbEntity
8
Geo
100
AcDbLine
10
-32.6707710011508
20
-3.96741114817489
30
0.000000000000000
11
-32.5707710011508
21
-3.99829457866302
31
0.000000000000000
  0
LINE
  5
F10790
330
F10791
100
AcDbEntity
8
Geo
100
AcDbLine
10
-32.5707710011508
20
-3.99829457866302
30
0.000000000000000
11
-32.4707710011508
21
-4.02883131677950
31
0.000000000000000
  0
LINE
  5
F10792
330
F10793
100
AcDbEntity
8
Geo
100
AcDbLine
10
-32.4707710011508
20
-4.02883131677950
30
0.000000000000000
11
-32.3707710011508
21
-4.05901977207613
31
0.000000000000000
  0
LINE
  5
F10794
330
F10795
100
AcDbEntity
8
Geo
100
AcDbLine
10
-32.3707710011508
20
-4.05901977207613
30
0.000000000000000
11
-32.2707710011508
21
-4.08885837224435
31
0.000000000000000
  0
LINE
  5
F10796
330
F10797
100
AcDbEntity
8
Geo
100
AcDbLine
10
-32.2707710011508
20
-4.08885837224435
30
0.000000000000000
11
-32.1707710011508
21
-4.11834556319714
31
0.000000000000000
  0
LINE
  5
F10798
330
F10799
100
AcDbEntity
8
Geo
100
AcDbLine
10
-32.1707710011508
20
-4.11834556319714
30
0.000000000000000
11
-32.0707710011508
21
-4.14747980914997
31
0.000000000000000
  0
LINE
  5
F1079A
330
F1079B
100
AcDbEntity
8
Geo
100
AcDbLine
10
-32.0707710011508
20
-4.14747980914997
30
0.000000000000000
11
-31.9707710011508
21
-4.17625959270079
31
0.000000000000000
  0
LINE
  5
F1079C
330
F1079D
100
AcDbEntity
8
Geo
100
AcDbLine
10
-31.9707710011508
20
-4.17625959270079
30
0.000000000000000
11
-31.8707710011508
21
-4.20468341490905
31
0.000000000000000
  0
LINE
  5
F1079E
330
F1079F
100
AcDbEntity
8
Geo
100
AcDbLine
10
-31.8707710011508
20
-4.20468341490905
30
0.000000000000000
11
-31.7707710011508
21
-4.23274979537376
31
0.000000000000000
  0
LINE
  5
F107A0
330
F107A1
100
AcDbEntity
8
Geo
100
AcDbLine
10
-31.7707710011508
20
-4.23274979537376
30
0.000000000000000
11
-31.6707710011508
21
-4.26045727231061
31
0.000000000000000
  0
LINE
  5
F107A2
330
F107A3
100
AcDbEntity
8
Geo
100
AcDbLine
10
-31.6707710011508
20
-4.26045727231061
30
0.000000000000000
11
-31.5707710011508
21
-4.28780440262812
31
0.000000000000000
  0
LINE
  5
F107A4
330
F107A5
100
AcDbEntity
8
Geo
100
AcDbLine
10
-31.5707710011508
20
-4.28780440262812
30
0.000000000000000
11
-31.4707710011508
21
-4.31478976200276
31
0.000000000000000
  0
LINE
  5
F107A6
330
F107A7
100
AcDbEntity
8
Geo
100
AcDbLine
10
-31.4707710011508
20
-4.31478976200276
30
0.000000000000000
11
-31.3707710011508
21
-4.34141194495317
31
0.000000000000000
  0
LINE
  5
F107A8
330
F107A9
100
AcDbEntity
8
Geo
100
AcDbLine
10
-31.3707710011508
20
-4.34141194495317
30
0.000000000000000
11
-31.2707710011508
21
-4.36766956491333
31
0.000000000000000
  0
LINE
  5
F107AA
330
F107AB
100
AcDbEntity
8
Geo
100
AcDbLine
10
-31.2707710011508
20
-4.36766956491333
30
0.000000000000000
11
-31.1707710011508
21
-4.39356125430480
31
0.000000000000000
  0
LINE
  5
F107AC
330
F107AD
100
AcDbEntity
8
Geo
100
AcDbLine
10
-31.1707710011508
20
-4.39356125430480
30
0.000000000000000
11
-31.0707710011508
21
-4.41908566460796
31
0.000000000000000
  0
LINE
  5
F107AE
330
F107AF
100
AcDbEntity
8
Geo
100
AcDbLine
10
-31.0707710011508
20
-4.41908566460796
30
0.000000000000000
11
-30.9707710011508
21
-4.44424146643220
31
0.000000000000000
  0
LINE
  5
F107B0
330
F107B1
100
AcDbEntity
8
Geo
100
AcDbLine
10
-30.9707710011508
20
-4.44424146643220
30
0.000000000000000
11
-30.8707710011508
21
-4.46902734958519
31
0.000000000000000
  0
LINE
  5
F107B2
330
F107B3
100
AcDbEntity
8
Geo
100
AcDbLine
10
-30.8707710011508
20
-4.46902734958519
30
0.000000000000000
11
-30.7707710011508
21
-4.49344202314113
31
0.000000000000000
  0
LINE
  5
F107B4
330
F107B5
100
AcDbEntity
8
Geo
100
AcDbLine
10
-30.7707710011508
20
-4.49344202314113
30
0.000000000000000
11
-30.6707710011508
21
-4.51748421550794
31
0.000000000000000
  0
LINE
  5
F107B6
330
F107B7
100
AcDbEntity
8
Geo
100
AcDbLine
10
-30.6707710011508
20
-4.51748421550794
30
0.000000000000000
11
-30.5707710011508
21
-4.54115267449356
31
0.000000000000000
  0
LINE
  5
F107B8
330
F107B9
100
AcDbEntity
8
Geo
100
AcDbLine
10
-30.5707710011508
20
-4.54115267449356
30
0.000000000000000
11
-30.4707710011508
21
-4.56444616737108
31
0.000000000000000
  0
LINE
  5
F107BA
330
F107BB
100
AcDbEntity
8
Geo
100
AcDbLine
10
-30.4707710011508
20
-4.56444616737108
30
0.000000000000000
11
-30.3707710011508
21
-4.58736348094303
31
0.000000000000000
  0
LINE
  5
F107BC
330
F107BD
100
AcDbEntity
8
Geo
100
AcDbLine
10
-30.3707710011508
20
-4.58736348094303
30
0.000000000000000
11
-30.2707710011508
21
-4.60990342160450
31
0.000000000000000
  0
LINE
  5
F107BE
330
F107BF
100
AcDbEntity
8
Geo
100
AcDbLine
10
-30.2707710011508
20
-4.60990342160450
30
0.000000000000000
11
-30.1707710011508
21
-4.63206481540534
31
0.000000000000000
  0
LINE
  5
F107C0
330
F107C1
100
AcDbEntity
8
Geo
100
AcDbLine
10
-30.1707710011508
20
-4.63206481540534
30
0.000000000000000
11
-30.0707710011508
21
-4.65384650811130
31
0.000000000000000
  0
LINE
  5
F107C2
330
F107C3
100
AcDbEntity
8
Geo
100
AcDbLine
10
-45.0707710011507
20
10.5193093059677
30
0.000000000000000
11
-44.9707710011507
21
10.5134188503359
31
0.000000000000000
  0
LINE
  5
F107C4
330
F107C5
100
AcDbEntity
8
Geo
100
AcDbLine
10
-44.9707710011507
20
10.5134188503359
30
0.000000000000000
11
-44.8707710011507
21
10.5071192719485
31
0.000000000000000
  0
LINE
  5
F107C6
330
F107C7
100
AcDbEntity
8
Geo
100
AcDbLine
10
-44.8707710011507
20
10.5071192719485
30
0.000000000000000
11
-44.7707710011507
21
10.5004108989070
31
0.000000000000000
  0
LINE
  5
F107C8
330
F107C9
100
AcDbEntity
8
Geo
100
AcDbLine
10
-44.7707710011507
20
10.5004108989070
30
0.000000000000000
11
-44.6707710011507
21
10.4932940806045
31
0.000000000000000
  0
LINE
  5
F107CA
330
F107CB
100
AcDbEntity
8
Geo
100
AcDbLine
10
-44.6707710011507
20
10.4932940806045
30
0.000000000000000
11
-44.5707710011507
21
10.4857691877067
31
0.000000000000000
  0
LINE
  5
F107CC
330
F107CD
100
AcDbEntity
8
Geo
100
AcDbLine
10
-44.5707710011507
20
10.4857691877067
30
0.000000000000000
11
-44.4707710011507
21
10.4778366121337
31
0.000000000000000
  0
LINE
  5
F107CE
330
F107CF
100
AcDbEntity
8
Geo
100
AcDbLine
10
-44.4707710011507
20
10.4778366121337
30
0.000000000000000
11
-44.3707710011507
21
10.4694967670386
31
0.000000000000000
  0
LINE
  5
F107D0
330
F107D1
100
AcDbEntity
8
Geo
100
AcDbLine
10
-44.3707710011507
20
10.4694967670386
30
0.000000000000000
11
-44.2707710011507
21
10.4607500867864
31
0.000000000000000
  0
LINE
  5
F107D2
330
F107D3
100
AcDbEntity
8
Geo
100
AcDbLine
10
-44.2707710011507
20
10.4607500867864
30
0.000000000000000
11
-44.1707710011507
21
10.4515970269314
31
0.000000000000000
  0
LINE
  5
F107D4
330
F107D5
100
AcDbEntity
8
Geo
100
AcDbLine
10
-44.1707710011507
20
10.4515970269314
30
0.000000000000000
11
-44.0707710011507
21
10.4420380641933
31
0.000000000000000
  0
LINE
  5
F107D6
330
F107D7
100
AcDbEntity
8
Geo
100
AcDbLine
10
-44.0707710011507
20
10.4420380641933
30
0.000000000000000
11
-43.9707710011507
21
10.4320736964328
31
0.000000000000000
  0
LINE
  5
F107D8
330
F107D9
100
AcDbEntity
8
Geo
100
AcDbLine
10
-43.9707710011507
20
10.4320736964328
30
0.000000000000000
11
-43.8707710011507
21
10.4217044426250
31
0.000000000000000
  0
LINE
  5
F107DA
330
F107DB
100
AcDbEntity
8
Geo
100
AcDbLine
10
-43.8707710011507
20
10.4217044426250
30
0.000000000000000
11
-43.7707710011507
21
10.4109308428329
31
0.000000000000000
  0
LINE
  5
F107DC
330
F107DD
100
AcDbEntity
8
Geo
100
AcDbLine
10
-43.7707710011507
20
10.4109308428329
30
0.000000000000000
11
-43.6707710011507
21
10.3997534581790
31
0.000000000000000
  0
LINE
  5
F107DE
330
F107DF
100
AcDbEntity
8
Geo
100
AcDbLine
10
-43.6707710011507
20
10.3997534581790
30
0.000000000000000
11
-43.5707710011507
21
10.3881728708163
31
0.000000000000000
  0
LINE
  5
F107E0
330
F107E1
100
AcDbEntity
8
Geo
100
AcDbLine
10
-43.5707710011507
20
10.3881728708163
30
0.000000000000000
11
-43.4707710011507
21
10.3761896838977
31
0.000000000000000
  0
LINE
  5
F107E2
330
F107E3
100
AcDbEntity
8
Geo
100
AcDbLine
10
-43.4707710011507
20
10.3761896838977
30
0.000000000000000
11
-43.3707710011507
21
10.3638045215448
31
0.000000000000000
  0
LINE
  5
F107E4
330
F107E5
100
AcDbEntity
8
Geo
100
AcDbLine
10
-43.3707710011507
20
10.3638045215448
30
0.000000000000000
11
-43.2707710011507
21
10.3510180288155
31
0.000000000000000
  0
LINE
  5
F107E6
330
F107E7
100
AcDbEntity
8
Geo
100
AcDbLine
10
-43.2707710011507
20
10.3510180288155
30
0.000000000000000
11
-43.1707710011507
21
10.3378308716699
31
0.000000000000000
  0
LINE
  5
F107E8
330
F107E9
100
AcDbEntity
8
Geo
100
AcDbLine
10
-43.1707710011507
20
10.3378308716699
30
0.000000000000000
11
-43.0707710011507
21
10.3242437369361
31
0.000000000000000
  0
LINE
  5
F107EA
330
F107EB
100
AcDbEntity
8
Geo
100
AcDbLine
10
-43.0707710011507
20
10.3242437369361
30
0.000000000000000
11
-42.9707710011507
21
10.3102573322744
31
0.000000000000000
  0
LINE
  5
F107EC
330
F107ED
100
AcDbEntity
8
Geo
100
AcDbLine
10
-42.9707710011507
20
10.3102573322744
30
0.000000000000000
11
-42.8707710011507
21
10.2958723861402
31
0.000000000000000
  0
LINE
  5
F107EE
330
F107EF
100
AcDbEntity
8
Geo
100
AcDbLine
10
-42.8707710011507
20
10.2958723861402
30
0.000000000000000
11
-42.7707710011507
21
10.2810896477462
31
0.000000000000000
  0
LINE
  5
F107F0
330
F107F1
100
AcDbEntity
8
Geo
100
AcDbLine
10
-42.7707710011507
20
10.2810896477462
30
0.000000000000000
11
-42.6707710011507
21
10.2659098870234
31
0.000000000000000
  0
LINE
  5
F107F2
330
F107F3
100
AcDbEntity
8
Geo
100
AcDbLine
10
-42.6707710011507
20
10.2659098870234
30
0.000000000000000
11
-42.5707710011507
21
10.2503338945807
31
0.000000000000000
  0
LINE
  5
F107F4
330
F107F5
100
AcDbEntity
8
Geo
100
AcDbLine
10
-42.5707710011507
20
10.2503338945807
30
0.000000000000000
11
-42.4707710011507
21
10.2343624816644
31
0.000000000000000
  0
LINE
  5
F107F6
330
F107F7
100
AcDbEntity
8
Geo
100
AcDbLine
10
-42.4707710011507
20
10.2343624816644
30
0.000000000000000
11
-42.3707710011507
21
10.2179964801152
31
0.000000000000000
  0
LINE
  5
F107F8
330
F107F9
100
AcDbEntity
8
Geo
100
AcDbLine
10
-42.3707710011507
20
10.2179964801152
30
0.000000000000000
11
-42.2707710011507
21
10.2012367423253
31
0.000000000000000
  0
LINE
  5
F107FA
330
F107FB
100
AcDbEntity
8
Geo
100
AcDbLine
10
-42.2707710011507
20
10.2012367423253
30
0.000000000000000
11
-42.1707710011507
21
10.1840841411940
31
0.000000000000000
  0
LINE
  5
F107FC
330
F107FD
100
AcDbEntity
8
Geo
100
AcDbLine
10
-42.1707710011507
20
10.1840841411940
30
0.000000000000000
11
-42.0707710011507
21
10.1665395700821
31
0.000000000000000
  0
LINE
  5
F107FE
330
F107FF
100
AcDbEntity
8
Geo
100
AcDbLine
10
-42.0707710011507
20
10.1665395700821
30
0.000000000000000
11
-41.9707710011507
21
10.1486039427652
31
0.000000000000000
  0
LINE
  5
F10800
330
F10801
100
AcDbEntity
8
Geo
100
AcDbLine
10
-41.9707710011507
20
10.1486039427652
30
0.000000000000000
11
-41.8707710011507
21
10.1302781933867
31
0.000000000000000
  0
LINE
  5
F10802
330
F10803
100
AcDbEntity
8
Geo
100
AcDbLine
10
-41.8707710011507
20
10.1302781933867
30
0.000000000000000
11
-41.7707710011507
21
10.1115632764084
31
0.000000000000000
  0
LINE
  5
F10804
330
F10805
100
AcDbEntity
8
Geo
100
AcDbLine
10
-41.7707710011507
20
10.1115632764084
30
0.000000000000000
11
-41.6707710011507
21
10.0924601665615
31
0.000000000000000
  0
LINE
  5
F10806
330
F10807
100
AcDbEntity
8
Geo
100
AcDbLine
10
-41.6707710011507
20
10.0924601665615
30
0.000000000000000
11
-41.5707710011507
21
10.0729698587951
31
0.000000000000000
  0
LINE
  5
F10808
330
F10809
100
AcDbEntity
8
Geo
100
AcDbLine
10
-41.5707710011507
20
10.0729698587951
30
0.000000000000000
11
-41.4707710011507
21
10.0530933682253
31
0.000000000000000
  0
LINE
  5
F1080A
330
F1080B
100
AcDbEntity
8
Geo
100
AcDbLine
10
-41.4707710011507
20
10.0530933682253
30
0.000000000000000
11
-41.3707710011507
21
10.0328317300812
31
0.000000000000000
  0
LINE
  5
F1080C
330
F1080D
100
AcDbEntity
8
Geo
100
AcDbLine
10
-41.3707710011507
20
10.0328317300812
30
0.000000000000000
11
-41.2707710011507
21
10.0121859996520
31
0.000000000000000
  0
LINE
  5
F1080E
330
F1080F
100
AcDbEntity
8
Geo
100
AcDbLine
10
-41.2707710011507
20
10.0121859996520
30
0.000000000000000
11
-41.1707710011507
21
9.99115725223147
31
0.000000000000000
  0
LINE
  5
F10810
330
F10811
100
AcDbEntity
8
Geo
100
AcDbLine
10
-41.1707710011507
20
9.99115725223147
30
0.000000000000000
11
-41.0707710011507
21
9.96974658306214
31
0.000000000000000
  0
LINE
  5
F10812
330
F10813
100
AcDbEntity
8
Geo
100
AcDbLine
10
-41.0707710011507
20
9.96974658306214
30
0.000000000000000
11
-40.9707710011507
21
9.94795510727817
31
0.000000000000000
  0
LINE
  5
F10814
330
F10815
100
AcDbEntity
8
Geo
100
AcDbLine
10
-40.9707710011507
20
9.94795510727817
30
0.000000000000000
11
-40.8707710011507
21
9.92578395984734
31
0.000000000000000
  0
LINE
  5
F10816
330
F10817
100
AcDbEntity
8
Geo
100
AcDbLine
10
-40.8707710011507
20
9.92578395984734
30
0.000000000000000
11
-40.7707710011507
21
9.90323429551190
31
0.000000000000000
  0
LINE
  5
F10818
330
F10819
100
AcDbEntity
8
Geo
100
AcDbLine
10
-40.7707710011507
20
9.90323429551190
30
0.000000000000000
11
-40.6707710011507
21
9.88030728872843
31
0.000000000000000
  0
LINE
  5
F1081A
330
F1081B
100
AcDbEntity
8
Geo
100
AcDbLine
10
-40.6707710011507
20
9.88030728872843
30
0.000000000000000
11
-40.5707710011507
21
9.85700413360669
31
0.000000000000000
  0
LINE
  5
F1081C
330
F1081D
100
AcDbEntity
8
Geo
100
AcDbLine
10
-40.5707710011507
20
9.85700413360669
30
0.000000000000000
11
-40.4707710011507
21
9.83332604384740
31
0.000000000000000
  0
LINE
  5
F1081E
330
F1081F
100
AcDbEntity
8
Geo
100
AcDbLine
10
-40.4707710011507
20
9.83332604384740
30
0.000000000000000
11
-40.3707710011507
21
9.80927425267905
31
0.000000000000000
  0
LINE
  5
F10820
330
F10821
100
AcDbEntity
8
Geo
100
AcDbLine
10
-40.3707710011507
20
9.80927425267905
30
0.000000000000000
11
-40.2707710011507
21
9.78485001279367
31
0.000000000000000
  0
LINE
  5
F10822
330
F10823
100
AcDbEntity
8
Geo
100
AcDbLine
10
-40.2707710011507
20
9.78485001279367
30
0.000000000000000
11
-40.1707710011507
21
9.76005459628155
31
0.000000000000000
  0
LINE
  5
F10824
330
F10825
100
AcDbEntity
8
Geo
100
AcDbLine
10
-40.1707710011507
20
9.76005459628155
30
0.000000000000000
11
-40.0707710011507
21
9.73488929456505
31
0.000000000000000
  0
LINE
  5
F10826
330
F10827
100
AcDbEntity
8
Geo
100
AcDbLine
10
-40.0707710011507
20
9.73488929456505
30
0.000000000000000
11
-39.9707710011507
21
9.70935541833126
31
0.000000000000000
  0
LINE
  5
F10828
330
F10829
100
AcDbEntity
8
Geo
100
AcDbLine
10
-39.9707710011507
20
9.70935541833126
30
0.000000000000000
11
-39.8707710011507
21
9.68345429746380
31
0.000000000000000
  0
LINE
  5
F1082A
330
F1082B
100
AcDbEntity
8
Geo
100
AcDbLine
10
-39.8707710011507
20
9.68345429746380
30
0.000000000000000
11
-39.7707710011507
21
9.65718728097353
31
0.000000000000000
  0
LINE
  5
F1082C
330
F1082D
100
AcDbEntity
8
Geo
100
AcDbLine
10
-39.7707710011507
20
9.65718728097353
30
0.000000000000000
11
-39.6707710011507
21
9.63055573692829
31
0.000000000000000
  0
LINE
  5
F1082E
330
F1082F
100
AcDbEntity
8
Geo
100
AcDbLine
10
-39.6707710011507
20
9.63055573692829
30
0.000000000000000
11
-39.5707710011507
21
9.60356105238164
31
0.000000000000000
  0
LINE
  5
F10830
330
F10831
100
AcDbEntity
8
Geo
100
AcDbLine
10
-39.5707710011507
20
9.60356105238164
30
0.000000000000000
11
-39.4707710011507
21
9.57620463330063
31
0.000000000000000
  0
LINE
  5
F10832
330
F10833
100
AcDbEntity
8
Geo
100
AcDbLine
10
-39.4707710011507
20
9.57620463330063
30
0.000000000000000
11
-39.3707710011507
21
9.54848790449257
31
0.000000000000000
  0
LINE
  5
F10834
330
F10835
100
AcDbEntity
8
Geo
100
AcDbLine
10
-39.3707710011507
20
9.54848790449257
30
0.000000000000000
11
-39.2707710011507
21
9.52041230953083
31
0.000000000000000
  0
LINE
  5
F10836
330
F10837
100
AcDbEntity
8
Geo
100
AcDbLine
10
-39.2707710011507
20
9.52041230953083
30
0.000000000000000
11
-39.1707710011507
21
9.49197931067963
31
0.000000000000000
  0
LINE
  5
F10838
330
F10839
100
AcDbEntity
8
Geo
100
AcDbLine
10
-39.1707710011507
20
9.49197931067963
30
0.000000000000000
11
-39.0707710011507
21
9.46319038881789
31
0.000000000000000
  0
LINE
  5
F1083A
330
F1083B
100
AcDbEntity
8
Geo
100
AcDbLine
10
-39.0707710011507
20
9.46319038881789
30
0.000000000000000
11
-38.9707710011507
21
9.43404704336212
31
0.000000000000000
  0
LINE
  5
F1083C
330
F1083D
100
AcDbEntity
8
Geo
100
AcDbLine
10
-38.9707710011507
20
9.43404704336212
30
0.000000000000000
11
-38.8707710011507
21
9.40455079218831
31
0.000000000000000
  0
LINE
  5
F1083E
330
F1083F
100
AcDbEntity
8
Geo
100
AcDbLine
10
-38.8707710011507
20
9.40455079218831
30
0.000000000000000
11
-38.7707710011507
21
9.37470317155287
31
0.000000000000000
  0
LINE
  5
F10840
330
F10841
100
AcDbEntity
8
Geo
100
AcDbLine
10
-38.7707710011507
20
9.37470317155287
30
0.000000000000000
11
-38.6707710011507
21
9.34450573601264
31
0.000000000000000
  0
LINE
  5
F10842
330
F10843
100
AcDbEntity
8
Geo
100
AcDbLine
10
-38.6707710011507
20
9.34450573601264
30
0.000000000000000
11
-38.5707710011507
21
9.31396005834388
31
0.000000000000000
  0
LINE
  5
F10844
330
F10845
100
AcDbEntity
8
Geo
100
AcDbLine
10
-38.5707710011507
20
9.31396005834388
30
0.000000000000000
11
-38.4707710011507
21
9.28306772946041
31
0.000000000000000
  0
LINE
  5
F10846
330
F10847
100
AcDbEntity
8
Geo
100
AcDbLine
10
-38.4707710011507
20
9.28306772946041
30
0.000000000000000
11
-38.3707710011507
21
9.25183035833070
31
0.000000000000000
  0
LINE
  5
F10848
330
F10849
100
AcDbEntity
8
Geo
100
AcDbLine
10
-38.3707710011507
20
9.25183035833070
30
0.000000000000000
11
-38.2707710011507
21
9.22024957189410
31
0.000000000000000
  0
LINE
  5
F1084A
330
F1084B
100
AcDbEntity
8
Geo
100
AcDbLine
10
-38.2707710011507
20
9.22024957189410
30
0.000000000000000
11
-38.1707710011507
21
9.18832701497610
31
0.000000000000000
  0
LINE
  5
F1084C
330
F1084D
100
AcDbEntity
8
Geo
100
AcDbLine
10
-38.1707710011507
20
9.18832701497610
30
0.000000000000000
11
-38.0707710011507
21
9.15606435020267
31
0.000000000000000
  0
LINE
  5
F1084E
330
F1084F
100
AcDbEntity
8
Geo
100
AcDbLine
10
-38.0707710011507
20
9.15606435020267
30
0.000000000000000
11
-37.9707710011507
21
9.12346325791362
31
0.000000000000000
  0
LINE
  5
F10850
330
F10851
100
AcDbEntity
8
Geo
100
AcDbLine
10
-37.9707710011507
20
9.12346325791362
30
0.000000000000000
11
-37.8707710011507
21
9.09052543607514
31
0.000000000000000
  0
LINE
  5
F10852
330
F10853
100
AcDbEntity
8
Geo
100
AcDbLine
10
-37.8707710011507
20
9.09052543607514
30
0.000000000000000
11
-37.7707710011507
21
9.05725260019135
31
0.000000000000000
  0
LINE
  5
F10854
330
F10855
100
AcDbEntity
8
Geo
100
AcDbLine
10
-37.7707710011507
20
9.05725260019135
30
0.000000000000000
11
-37.6707710011507
21
9.02364648321493
31
0.000000000000000
  0
LINE
  5
F10856
330
F10857
100
AcDbEntity
8
Geo
100
AcDbLine
10
-37.6707710011507
20
9.02364648321493
30
0.000000000000000
11
-37.5707710011507
21
8.98970883545687
31
0.000000000000000
  0
LINE
  5
F10858
330
F10859
100
AcDbEntity
8
Geo
100
AcDbLine
10
-37.5707710011507
20
8.98970883545687
30
0.000000000000000
11
-37.4707710011507
21
8.95544142449531
31
0.000000000000000
  0
LINE
  5
F1085A
330
F1085B
100
AcDbEntity
8
Geo
100
AcDbLine
10
-37.4707710011507
20
8.95544142449531
30
0.000000000000000
11
-37.3707710011507
21
8.92084603508351
31
0.000000000000000
  0
LINE
  5
F1085C
330
F1085D
100
AcDbEntity
8
Geo
100
AcDbLine
10
-37.3707710011507
20
8.92084603508351
30
0.000000000000000
11
-37.2707710011507
21
8.88592446905684
31
0.000000000000000
  0
LINE
  5
F1085E
330
F1085F
100
AcDbEntity
8
Geo
100
AcDbLine
10
-37.2707710011507
20
8.88592446905684
30
0.000000000000000
11
-37.1707710011507
21
8.85067854523896
31
0.000000000000000
  0
LINE
  5
F10860
330
F10861
100
AcDbEntity
8
Geo
100
AcDbLine
10
-37.1707710011507
20
8.85067854523896
30
0.000000000000000
11
-37.0707710011507
21
8.81511009934712
31
0.000000000000000
  0
LINE
  5
F10862
330
F10863
100
AcDbEntity
8
Geo
100
AcDbLine
10
-37.0707710011507
20
8.81511009934712
30
0.000000000000000
11
-36.9707710011507
21
8.77922098389648
31
0.000000000000000
  0
LINE
  5
F10864
330
F10865
100
AcDbEntity
8
Geo
100
AcDbLine
10
-36.9707710011507
20
8.77922098389648
30
0.000000000000000
11
-36.8707710011507
21
8.74301306810371
31
0.000000000000000
  0
LINE
  5
F10866
330
F10867
100
AcDbEntity
8
Geo
100
AcDbLine
10
-36.8707710011507
20
8.74301306810371
30
0.000000000000000
11
-36.7707710011507
21
8.70648823778957
31
0.000000000000000
  0
LINE
  5
F10868
330
F10869
100
AcDbEntity
8
Geo
100
AcDbLine
10
-36.7707710011507
20
8.70648823778957
30
0.000000000000000
11
-36.6707710011507
21
8.66964839528070
31
0.000000000000000
  0
LINE
  5
F1086A
330
F1086B
100
AcDbEntity
8
Geo
100
AcDbLine
10
-36.6707710011507
20
8.66964839528070
30
0.000000000000000
11
-36.5707710011507
21
8.63249545931059
31
0.000000000000000
  0
LINE
  5
F1086C
330
F1086D
100
AcDbEntity
8
Geo
100
AcDbLine
10
-36.5707710011507
20
8.63249545931059
30
0.000000000000000
11
-36.4707710011507
21
8.59503136491958
31
0.000000000000000
  0
LINE
  5
F1086E
330
F1086F
100
AcDbEntity
8
Geo
100
AcDbLine
10
-36.4707710011507
20
8.59503136491958
30
0.000000000000000
11
-36.3707710011507
21
8.55725806335411
31
0.000000000000000
  0
LINE
  5
F10870
330
F10871
100
AcDbEntity
8
Geo
100
AcDbLine
10
-36.3707710011507
20
8.55725806335411
30
0.000000000000000
11
-36.2707710011507
21
8.51917752196511
31
0.000000000000000
  0
LINE
  5
F10872
330
F10873
100
AcDbEntity
8
Geo
100
AcDbLine
10
-36.2707710011507
20
8.51917752196511
30
0.000000000000000
11
-36.1707710011507
21
8.48079172410550
31
0.000000000000000
  0
LINE
  5
F10874
330
F10875
100
AcDbEntity
8
Geo
100
AcDbLine
10
-36.1707710011507
20
8.48079172410550
30
0.000000000000000
11
-36.0707710011507
21
8.44210266902690
31
0.000000000000000
  0
LINE
  5
F10876
330
F10877
100
AcDbEntity
8
Geo
100
AcDbLine
10
-36.0707710011507
20
8.44210266902690
30
0.000000000000000
11
-35.9707710011508
21
8.40311237177553
31
0.000000000000000
  0
LINE
  5
F10878
330
F10879
100
AcDbEntity
8
Geo
100
AcDbLine
10
-35.9707710011508
20
8.40311237177553
30
0.000000000000000
11
-35.8707710011508
21
8.36382286308721
31
0.000000000000000
  0
LINE
  5
F1087A
330
F1087B
100
AcDbEntity
8
Geo
100
AcDbLine
10
-35.8707710011508
20
8.36382286308721
30
0.000000000000000
11
-35.7707710011507
21
8.32423618928164
31
0.000000000000000
  0
LINE
  5
F1087C
330
F1087D
100
AcDbEntity
8
Geo
100
AcDbLine
10
-35.7707710011507
20
8.32423618928164
30
0.000000000000000
11
-35.6707710011507
21
8.28435441215580
31
0.000000000000000
  0
LINE
  5
F1087E
330
F1087F
100
AcDbEntity
8
Geo
100
AcDbLine
10
-35.6707710011507
20
8.28435441215580
30
0.000000000000000
11
-35.5707710011507
21
8.24417960887657
31
0.000000000000000
  0
LINE
  5
F10880
330
F10881
100
AcDbEntity
8
Geo
100
AcDbLine
10
-35.5707710011507
20
8.24417960887657
30
0.000000000000000
11
-35.4707710011508
21
8.20371387187254
31
0.000000000000000
  0
LINE
  5
F10882
330
F10883
100
AcDbEntity
8
Geo
100
AcDbLine
10
-35.4707710011508
20
8.20371387187254
30
0.000000000000000
11
-35.3707710011508
21
8.16295930872502
31
0.000000000000000
  0
LINE
  5
F10884
330
F10885
100
AcDbEntity
8
Geo
100
AcDbLine
10
-35.3707710011508
20
8.16295930872502
30
0.000000000000000
11
-35.2707710011507
21
8.12191804205831
31
0.000000000000000
  0
LINE
  5
F10886
330
F10887
100
AcDbEntity
8
Geo
100
AcDbLine
10
-35.2707710011507
20
8.12191804205831
30
0.000000000000000
11
-35.1707710011508
21
8.08059220942909
31
0.000000000000000
  0
LINE
  5
F10888
330
F10889
100
AcDbEntity
8
Geo
100
AcDbLine
10
-35.1707710011508
20
8.08059220942909
30
0.000000000000000
11
-35.0707710011508
21
8.03898396321515
31
0.000000000000000
  0
LINE
  5
F1088A
330
F1088B
100
AcDbEntity
8
Geo
100
AcDbLine
10
-35.0707710011508
20
8.03898396321515
30
0.000000000000000
11
-34.9707710011508
21
7.99709547050322
31
0.000000000000000
  0
LINE
  5
F1088C
330
F1088D
100
AcDbEntity
8
Geo
100
AcDbLine
10
-34.9707710011508
20
7.99709547050322
30
0.000000000000000
11
-34.8707710011508
21
7.95492891297618
31
0.000000000000000
  0
LINE
  5
F1088E
330
F1088F
100
AcDbEntity
8
Geo
100
AcDbLine
10
-34.8707710011508
20
7.95492891297618
30
0.000000000000000
11
-34.7707710011507
21
7.91248648679936
31
0.000000000000000
  0
LINE
  5
F10890
330
F10891
100
AcDbEntity
8
Geo
100
AcDbLine
10
-34.7707710011507
20
7.91248648679936
30
0.000000000000000
11
-34.6707710011508
21
7.86977040250619
31
0.000000000000000
  0
LINE
  5
F10892
330
F10893
100
AcDbEntity
8
Geo
100
AcDbLine
10
-34.6707710011508
20
7.86977040250619
30
0.000000000000000
11
-34.5707710011508
21
7.82678288488308
31
0.000000000000000
  0
LINE
  5
F10894
330
F10895
100
AcDbEntity
8
Geo
100
AcDbLine
10
-34.5707710011508
20
7.82678288488308
30
0.000000000000000
11
-34.4707710011508
21
7.78352617285352
31
0.000000000000000
  0
LINE
  5
F10896
330
F10897
100
AcDbEntity
8
Geo
100
AcDbLine
10
-34.4707710011508
20
7.78352617285352
30
0.000000000000000
11
-34.3707710011508
21
7.74000251936149
31
0.000000000000000
  0
LINE
  5
F10898
330
F10899
100
AcDbEntity
8
Geo
100
AcDbLine
10
-34.3707710011508
20
7.74000251936149
30
0.000000000000000
11
-34.2707710011508
21
7.69621419125408
31
0.000000000000000
  0
LINE
  5
F1089A
330
F1089B
100
AcDbEntity
8
Geo
100
AcDbLine
10
-34.2707710011508
20
7.69621419125408
30
0.000000000000000
11
-34.1707710011508
21
7.65216346916351
31
0.000000000000000
  0
LINE
  5
F1089C
330
F1089D
100
AcDbEntity
8
Geo
100
AcDbLine
10
-34.1707710011508
20
7.65216346916351
30
0.000000000000000
11
-34.0707710011508
21
7.60785264738825
31
0.000000000000000
  0
LINE
  5
F1089E
330
F1089F
100
AcDbEntity
8
Geo
100
AcDbLine
10
-34.0707710011508
20
7.60785264738825
30
0.000000000000000
11
-33.9707710011508
21
7.56328403377358
31
0.000000000000000
  0
LINE
  5
F108A0
330
F108A1
100
AcDbEntity
8
Geo
100
AcDbLine
10
-33.9707710011508
20
7.56328403377358
30
0.000000000000000
11
-33.8707710011508
21
7.51845994959139
31
0.000000000000000
  0
LINE
  5
F108A2
330
F108A3
100
AcDbEntity
8
Geo
100
AcDbLine
10
-33.8707710011508
20
7.51845994959139
30
0.000000000000000
11
-33.7707710011508
21
7.47338272941926
31
0.000000000000000
  0
LINE
  5
F108A4
330
F108A5
100
AcDbEntity
8
Geo
100
AcDbLine
10
-33.7707710011508
20
7.47338272941926
30
0.000000000000000
11
-33.6707710011508
21
7.42805472101890
31
0.000000000000000
  0
LINE
  5
F108A6
330
F108A7
100
AcDbEntity
8
Geo
100
AcDbLine
10
-33.6707710011508
20
7.42805472101890
30
0.000000000000000
11
-33.5707710011508
21
7.38247828521381
31
0.000000000000000
  0
LINE
  5
F108A8
330
F108A9
100
AcDbEntity
8
Geo
100
AcDbLine
10
-33.5707710011508
20
7.38247828521381
30
0.000000000000000
11
-33.4707710011508
21
7.33665579576640
31
0.000000000000000
  0
LINE
  5
F108AA
330
F108AB
100
AcDbEntity
8
Geo
100
AcDbLine
10
-33.4707710011508
20
7.33665579576640
30
0.000000000000000
11
-33.3707710011508
21
7.29058963925431
31
0.000000000000000
  0
LINE
  5
F108AC
330
F108AD
100
AcDbEntity
8
Geo
100
AcDbLine
10
-33.3707710011508
20
7.29058963925431
30
0.000000000000000
11
-33.2707710011508
21
7.24428221494609
31
0.000000000000000
  0
LINE
  5
F108AE
330
F108AF
100
AcDbEntity
8
Geo
100
AcDbLine
10
-33.2707710011508
20
7.24428221494609
30
0.000000000000000
11
-33.1707710011508
21
7.19773593467631
31
0.000000000000000
  0
LINE
  5
F108B0
330
F108B1
100
AcDbEntity
8
Geo
100
AcDbLine
10
-33.1707710011508
20
7.19773593467631
30
0.000000000000000
11
-33.0707710011508
21
7.15095322271987
31
0.000000000000000
  0
LINE
  5
F108B2
330
F108B3
100
AcDbEntity
8
Geo
100
AcDbLine
10
-33.0707710011508
20
7.15095322271987
30
0.000000000000000
11
-32.9707710011508
21
7.10393651566577
31
0.000000000000000
  0
LINE
  5
F108B4
330
F108B5
100
AcDbEntity
8
Geo
100
AcDbLine
10
-32.9707710011508
20
7.10393651566577
30
0.000000000000000
11
-32.8707710011508
21
7.05668826229021
31
0.000000000000000
  0
LINE
  5
F108B6
330
F108B7
100
AcDbEntity
8
Geo
100
AcDbLine
10
-32.8707710011508
20
7.05668826229021
30
0.000000000000000
11
-32.7707710011508
21
7.00921092342905
31
0.000000000000000
  0
LINE
  5
F108B8
330
F108B9
100
AcDbEntity
8
Geo
100
AcDbLine
10
-32.7707710011508
20
7.00921092342905
30
0.000000000000000
11
-32.6707710011508
21
6.96150697184961
31
0.000000000000000
  0
LINE
  5
F108BA
330
F108BB
100
AcDbEntity
8
Geo
100
AcDbLine
10
-32.6707710011508
20
6.96150697184961
30
0.000000000000000
11
-32.5707710011508
21
6.91357889212192
31
0.000000000000000
  0
LINE
  5
F108BC
330
F108BD
100
AcDbEntity
8
Geo
100
AcDbLine
10
-32.5707710011508
20
6.91357889212192
30
0.000000000000000
11
-32.4707710011508
21
6.86542918048931
31
0.000000000000000
  0
LINE
  5
F108BE
330
F108BF
100
AcDbEntity
8
Geo
100
AcDbLine
10
-32.4707710011508
20
6.86542918048931
30
0.000000000000000
11
-32.3707710011508
21
6.81706034473835
31
0.000000000000000
  0
LINE
  5
F108C0
330
F108C1
100
AcDbEntity
8
Geo
100
AcDbLine
10
-32.3707710011508
20
6.81706034473835
30
0.000000000000000
11
-32.2707710011508
21
6.76847490406833
31
0.000000000000000
  0
LINE
  5
F108C2
330
F108C3
100
AcDbEntity
8
Geo
100
AcDbLine
10
-32.2707710011508
20
6.76847490406833
30
0.000000000000000
11
-32.1707710011508
21
6.71967538895996
31
0.000000000000000
  0
LINE
  5
F108C4
330
F108C5
100
AcDbEntity
8
Geo
100
AcDbLine
10
-32.1707710011508
20
6.71967538895996
30
0.000000000000000
11
-32.0707710011508
21
6.67066434104361
31
0.000000000000000
  0
LINE
  5
F108C6
330
F108C7
100
AcDbEntity
8
Geo
100
AcDbLine
10
-32.0707710011508
20
6.67066434104361
30
0.000000000000000
11
-31.9707710011508
21
6.62144431296695
31
0.000000000000000
  0
LINE
  5
F108C8
330
F108C9
100
AcDbEntity
8
Geo
100
AcDbLine
10
-31.9707710011508
20
6.62144431296695
30
0.000000000000000
11
-31.8707710011508
21
6.57201786826200
31
0.000000000000000
  0
LINE
  5
F108CA
330
F108CB
100
AcDbEntity
8
Geo
100
AcDbLine
10
-31.8707710011508
20
6.57201786826200
30
0.000000000000000
11
-31.7707710011508
21
6.52238758121156
31
0.000000000000000
  0
LINE
  5
F108CC
330
F108CD
100
AcDbEntity
8
Geo
100
AcDbLine
10
-31.7707710011508
20
6.52238758121156
30
0.000000000000000
11
-31.6707710011508
21
6.47255603671520
31
0.000000000000000
  0
LINE
  5
F108CE
330
F108CF
100
AcDbEntity
8
Geo
100
AcDbLine
10
-31.6707710011508
20
6.47255603671520
30
0.000000000000000
11
-31.5707710011508
21
6.42252583015460
31
0.000000000000000
  0
LINE
  5
F108D0
330
F108D1
100
AcDbEntity
8
Geo
100
AcDbLine
10
-31.5707710011508
20
6.42252583015460
30
0.000000000000000
11
-31.4707710011508
21
6.37229956725838
31
0.000000000000000
  0
LINE
  5
F108D2
330
F108D3
100
AcDbEntity
8
Geo
100
AcDbLine
10
-31.4707710011508
20
6.37229956725838
30
0.000000000000000
11
-31.3707710011508
21
6.32187986396637
31
0.000000000000000
  0
LINE
  5
F108D4
330
F108D5
100
AcDbEntity
8
Geo
100
AcDbLine
10
-31.3707710011508
20
6.32187986396637
30
0.000000000000000
11
-31.2707710011508
21
6.27126934629340
31
0.000000000000000
  0
LINE
  5
F108D6
330
F108D7
100
AcDbEntity
8
Geo
100
AcDbLine
10
-31.2707710011508
20
6.27126934629340
30
0.000000000000000
11
-31.1707710011508
21
6.22047065019247
31
0.000000000000000
  0
LINE
  5
F108D8
330
F108D9
100
AcDbEntity
8
Geo
100
AcDbLine
10
-31.1707710011508
20
6.22047065019247
30
0.000000000000000
11
-31.0707710011508
21
6.16948642141753
31
0.000000000000000
  0
LINE
  5
F108DA
330
F108DB
100
AcDbEntity
8
Geo
100
AcDbLine
10
-31.0707710011508
20
6.16948642141753
30
0.000000000000000
11
-30.9707710011508
21
6.11831931538564
31
0.000000000000000
  0
LINE
  5
F108DC
330
F108DD
100
AcDbEntity
8
Geo
100
AcDbLine
10
-30.9707710011508
20
6.11831931538564
30
0.000000000000000
11
-30.8707710011508
21
6.06697199703867
31
0.000000000000000
  0
LINE
  5
F108DE
330
F108DF
100
AcDbEntity
8
Geo
100
AcDbLine
10
-30.8707710011508
20
6.06697199703867
30
0.000000000000000
11
-30.7707710011508
21
6.01544714070451
31
0.000000000000000
  0
LINE
  5
F108E0
330
F108E1
100
AcDbEntity
8
Geo
100
AcDbLine
10
-30.7707710011508
20
6.01544714070451
30
0.000000000000000
11
-30.6707710011508
21
5.96374742995778
31
0.000000000000000
  0
LINE
  5
F108E2
330
F108E3
100
AcDbEntity
8
Geo
100
AcDbLine
10
-30.6707710011508
20
5.96374742995778
30
0.000000000000000
11
-30.5707710011508
21
5.91187555748006
31
0.000000000000000
  0
LINE
  5
F108E4
330
F108E5
100
AcDbEntity
8
Geo
100
AcDbLine
10
-30.5707710011508
20
5.91187555748006
30
0.000000000000000
11
-30.4707710011508
21
5.85983422491964
31
0.000000000000000
  0
LINE
  5
F108E6
330
F108E7
100
AcDbEntity
8
Geo
100
AcDbLine
10
-30.4707710011508
20
5.85983422491964
30
0.000000000000000
11
-30.3707710011508
21
5.80762614275085
31
0.000000000000000
  0
LINE
  5
F108E8
330
F108E9
100
AcDbEntity
8
Geo
100
AcDbLine
10
-30.3707710011508
20
5.80762614275085
30
0.000000000000000
11
-30.2707710011508
21
5.75525403013281
31
0.000000000000000
  0
LINE
  5
F108EA
330
F108EB
100
AcDbEntity
8
Geo
100
AcDbLine
10
-30.2707710011508
20
5.75525403013281
30
0.000000000000000
11
-30.1707710011508
21
5.70272061476789
31
0.000000000000000
  0
LINE
  5
F108EC
330
F108ED
100
AcDbEntity
8
Geo
100
AcDbLine
10
-30.1707710011508
20
5.70272061476789
30
0.000000000000000
11
-30.0707710011508
21
5.65002863275960
31
0.000000000000000
  0
LINE
  5
F108EE
330
F108EF
100
AcDbEntity
8
Geo
100
AcDbLine
10
37.9292289988493
20
9.95822784810125
30
0.000000000000000
11
37.9292289988493
21
2.65822784810125
31
0.000000000000000
  0
LINE
  5
F108F0
330
F108F1
100
AcDbEntity
8
Geo
100
AcDbLine
10
-45.0707710011507
20
2.65822784810125
30
0.000000000000000
11
-45.0707710011507
21
-5.34177215189875
31
0.000000000000000
  0
LINE
  5
F108F2
330
F108F3
100
AcDbEntity
8
Geo
100
AcDbLine
10
-45.0707710011507
20
-5.34177215189875
30
0.000000000000000
11
-25.0707710011507
21
-5.34177215189875
31
0.000000000000000
  0
LINE
  5
F108F4
330
F108F5
100
AcDbEntity
8
Geo
100
AcDbLine
10
-25.0707710011507
20
-5.34177215189875
30
0.000000000000000
11
37.2292289988493
21
-5.34177215189875
31
0.000000000000000
  0
LINE
  5
F108F6
330
F108F7
100
AcDbEntity
8
Geo
100
AcDbLine
10
37.2292289988493
20
-5.34177215189875
30
0.000000000000000
11
37.9292289988493
21
-4.64177215189875
31
0.000000000000000
  0
LINE
  5
F108F8
330
F108F9
100
AcDbEntity
8
Geo
100
AcDbLine
10
-45.0707710011507
20
10.6582278481012
30
0.000000000000000
11
-45.0707710011507
21
-5.34177215189875
31
0.000000000000000
  0
LINE
  5
F108FA
330
F108FB
100
AcDbEntity
8
Geo
100
AcDbLine
10
-25.0707710011507
20
10.6582278481012
30
0.000000000000000
11
-25.0707710011507
21
-5.34177215189875
31
0.000000000000000
  0
LINE
  5
F108FC
330
F108FD
100
AcDbEntity
8
Geo
100
AcDbLine
10
-25.0707710011507
20
10.6582278481012
30
0.000000000000000
11
-25.0707710011507
21
-5.34177215189875
31
0.000000000000000
  0
LINE
  5
F108FE
330
F108FF
100
AcDbEntity
8
Geo
100
AcDbLine
10
37.2292289988493
20
10.6582278481012
30
0.000000000000000
11
37.2292289988493
21
-5.34177215189875
31
0.000000000000000
  0
LINE
  5
F10900
330
F10901
100
AcDbEntity
8
Geo
100
AcDbLine
10
37.9292289988493
20
9.95822784810125
30
0.000000000000000
11
37.9292289988493
21
-4.64177215189875
31
0.000000000000000
  0
LINE
  5
F10902
330
F10903
100
AcDbEntity
8
Geo
 6
Dashdot
100
AcDbLine
10
-45.0707710011507
20
2.65822784810125
30
0.000000000000000
11
37.9292289988493
21
2.65822784810125
31
0.000000000000000
  0
LWPOLYLINE
  5
F10904
330
F10905
100
AcDbEntity
8
Rahmen
100
AcDbPolyline
90
   4
70
   1
43
   0.0
 10
-134.602991944764
 20
99.9252013808976
 10
143.302646720368
 20
99.9252013808976
 10
143.302646720368
 20
-100.166858457998
 10
-134.602991944764
 20
-100.166858457998
  0
TEXT
  5
F10906
330
F10907
 100
AcDbEntity
8
Text
100
AcDbText
10
-133.636363636364
20
-99.6668584579977
30
0.000000000000000
40
1.00000000000000
1
ISBESketcher - ©ISBE GmbH      lizensiert für: Schmid Werkzeuge
100
AcDbText
  0
LWPOLYLINE
  5
F10908
330
F10909
100
AcDbEntity
8
Rahmen
100
AcDbPolyline
90
   4
70
   1
43
   0.0
 10
103.429228998849
 20
-97.0253164556962
 10
143.302646720368
 20
-97.0253164556962
 10
143.302646720368
 20
-100.166858457998
 10
103.429228998849
 20
-100.166858457998
  0
TEXT
  5
F1090A
330
F1090B
 100
AcDbEntity
8
Text
100
AcDbText
10
104.500000000000
20
-99.4499424626007
30
0.000000000000000
40
1.50000000000000
1
Ers. durch:
100
AcDbText
  0
TEXT
  5
F1090C
330
F1090D
 100
AcDbEntity
8
Text
100
AcDbText
10
0.000000000000000
20
0.500000000000000
30
0.000000000000000
40
1.50000000000000
1

100
AcDbText
  0
LWPOLYLINE
  5
F1090E
330
F1090F
100
AcDbEntity
8
Rahmen
100
AcDbPolyline
90
   4
70
   1
43
   0.0
 10
63.3141542002302
 20
-97.0253164556962
 10
103.429228998849
 20
-97.0253164556962
 10
103.429228998849
 20
-100.166858457998
 10
63.3141542002302
 20
-100.166858457998
  0
TEXT
  5
F10910
330
F10911
 100
AcDbEntity
8
Text
100
AcDbText
10
64.5000000000000
20
-99.4499424626007
30
0.000000000000000
40
1.50000000000000
1
Ers. für:
100
AcDbText
  0
TEXT
  5
F10912
330
F10913
 100
AcDbEntity
8
Text
100
AcDbText
10
0.000000000000000
20
0.500000000000000
30
0.000000000000000
40
1.50000000000000
1

100
AcDbText
  0
LWPOLYLINE
  5
F10914
330
F10915
100
AcDbEntity
8
Rahmen
100
AcDbPolyline
90
   4
70
   1
43
   0.0
 10
130.011507479862
 20
-94.1254315304948
 10
143.302646720368
 20
-94.1254315304948
 10
143.302646720368
 20
-97.0253164556962
 10
130.011507479862
 20
-97.0253164556962
  0
TEXT
  5
F10916
330
F10917
 100
AcDbEntity
8
Text
100
AcDbText
10
131.166666666667
20
-96.4499424626007
30
0.000000000000000
40
1.50000000000000
1
Blätter
100
AcDbText
  0
TEXT
  5
F10918
330
F10919
 100
AcDbEntity
8
Text
100
AcDbText
10
0.000000000000000
20
0.500000000000000
30
0.000000000000000
40
1.50000000000000
1

100
AcDbText
  0
LWPOLYLINE
  5
F1091A
330
F1091B
100
AcDbEntity
8
Rahmen
100
AcDbPolyline
90
   4
70
   1
43
   0.0
 10
130.011507479862
 20
-91.2255466052934
 10
143.302646720368
 20
-91.2255466052934
 10
143.302646720368
 20
-94.1254315304948
 10
130.011507479862
 20
-94.1254315304948
  0
TEXT
  5
F1091C
330
F1091D
 100
AcDbEntity
8
Text
100
AcDbText
10
131.166666666667
20
-93.4499424626007
30
0.000000000000000
40
1.50000000000000
1
Blatt
100
AcDbText
  0
TEXT
  5
F1091E
330
F1091F
 100
AcDbEntity
8
Text
100
AcDbText
10
0.000000000000000
20
0.500000000000000
30
0.000000000000000
40
1.50000000000000
1

100
AcDbText
  0
LWPOLYLINE
  5
F10920
330
F10921
100
AcDbEntity
8
Rahmen
100
AcDbPolyline
90
   4
70
   1
43
   0.0
 10
63.3141542002302
 20
-91.2255466052934
 10
130.011507479862
 20
-91.2255466052934
 10
130.011507479862
 20
-97.0253164556962
 10
63.3141542002302
 20
-97.0253164556962
  0
TEXT
  5
F10922
330
F10923
 100
AcDbEntity
8
Text
100
AcDbText
10
64.5000000000000
20
-93.4499424626007
30
0.000000000000000
40
1.50000000000000
1
Datum:
100
AcDbText
  0
TEXT
  5
F10924
330
F10925
 100
AcDbEntity
8
Text
100
AcDbText
10
91.1543920214806
20
-96.4499424626007
30
0.000000000000000
40
1.50000000000000
1
14.05.2019
100
AcDbText
  0
LWPOLYLINE
  5
F10926
330
F10927
100
AcDbEntity
8
Rahmen
100
AcDbPolyline
90
   4
70
   1
43
   0.0
 10
63.3141542002302
 20
-85.1841196777906
 10
143.302646720368
 20
-85.1841196777906
 10
143.302646720368
 20
-91.2255466052934
 10
63.3141542002302
 20
-91.2255466052934
  0
TEXT
  5
F10928
330
F10929
 100
AcDbEntity
8
Text
100
AcDbText
10
0.000000000000000
20
0.500000000000000
30
0.000000000000000
40
1.50000000000000
1

100
AcDbText
  0
TEXT
  5
F1092A
330
F1092B
 100
AcDbEntity
8
Text
100
AcDbText
10
74.2594936708861
20
-89.7040659762179
30
0.000000000000000
40
2.50000000000000
1
VHM-Schlichtfräser 0140-16-b
100
AcDbText
  0
LWPOLYLINE
  5
F1092C
330
F1092D
100
AcDbEntity
8
Rahmen
100
AcDbPolyline
90
   4
70
   1
43
   0.0
 10
103.429228998849
 20
-79.1426927502877
 10
143.302646720368
 20
-79.1426927502877
 10
143.302646720368
 20
-85.1841196777906
 10
103.429228998849
 20
-85.1841196777906
  0
TEXT
  5
F1092E
330
F1092F
 100
AcDbEntity
8
Text
100
AcDbText
10
104.500000000000
20
-81.4499424626007
30
0.000000000000000
40
1.50000000000000
1
Zu bearb. Material:
100
AcDbText
  0
TEXT
  5
F10930
330
F10931
 100
AcDbEntity
8
Text
100
AcDbText
10
0.000000000000000
20
0.500000000000000
30
0.000000000000000
40
1.50000000000000
1

100
AcDbText
  0
LWPOLYLINE
  5
F10932
330
F10933
100
AcDbEntity
8
Rahmen
100
AcDbPolyline
90
   4
70
   1
43
   0.0
 10
63.3141542002302
 20
-79.1426927502877
 10
103.429228998849
 20
-79.1426927502877
 10
103.429228998849
 20
-85.1841196777906
 10
63.3141542002302
 20
-85.1841196777906
  0
TEXT
  5
F10934
330
F10935
 100
AcDbEntity
8
Text
100
AcDbText
10
64.5000000000000
20
-81.4499424626007
30
0.000000000000000
40
1.50000000000000
1
Werkstoff:
100
AcDbText
  0
TEXT
  5
F10936
330
F10937
 100
AcDbEntity
8
Text
100
AcDbText
10
80.9626006904488
20
-84.4499424626007
30
0.000000000000000
40
1.50000000000000
1
VHM
100
AcDbText
  0
LWPOLYLINE
  5
F10938
330
F10939
100
AcDbEntity
8
Rahmen
100
AcDbPolyline
90
   4
70
   1
43
   0.0
 10
103.429228998849
 20
-76.0011507479862
 10
143.302646720368
 20
-76.0011507479862
 10
143.302646720368
 20
-79.1426927502877
 10
103.429228998849
 20
-79.1426927502877
  0
TEXT
  5
F1093A
330
F1093B
 100
AcDbEntity
8
Text
100
AcDbText
10
0.000000000000000
20
0.500000000000000
30
0.000000000000000
40
1.50000000000000
1

100
AcDbText
  0
TEXT
  5
F1093C
330
F1093D
 100
AcDbEntity
8
Text
100
AcDbText
10
0.000000000000000
20
0.500000000000000
30
0.000000000000000
40
1.50000000000000
1

100
AcDbText
  0
LWPOLYLINE
  5
F1093E
330
F1093F
100
AcDbEntity
8
Rahmen
100
AcDbPolyline
90
   4
70
   1
43
   0.0
 10
63.3141542002302
 20
-76.0011507479862
 10
103.429228998849
 20
-76.0011507479862
 10
103.429228998849
 20
-79.1426927502877
 10
63.3141542002302
 20
-79.1426927502877
  0
TEXT
  5
F10940
330
F10941
 100
AcDbEntity
8
Text
100
AcDbText
10
64.5000000000000
20
-78.4499424626007
30
0.000000000000000
40
1.50000000000000
1
Maßstab:
100
AcDbText
  0
TEXT
  5
F10942
330
F10943
 100
AcDbEntity
8
Text
100
AcDbText
10
89.0834292289989
20
-78.4499424626007
30
0.000000000000000
40
1.50000000000000
1
1 : 1
100
AcDbText
0
VIEWPORT
5
294
102
{ACAD_XDICTIONARY
360
58A
102
}
330
25D
100
AcDbEntity
67
1
8
0
60
1
100
AcDbViewport
10
0.0
20
0.0
30
0.0
40
10.0
41
10.0
68
-1
69
1
12
0.0
22
0.0
13
0.0
23
0.0
14
1.0
24
1.0
15
0.0
25
0.0
16
0.0
26
0.0
36
1.0
17
0.0
27
0.0
37
0.0
42
0.0
43
0.0
44
0.0
45
10.0
50
0.0
51
0.0000000000007958
72
100
90
32800
1

281
0
71
0
74
0
110
0.0
120
0.0
130
0.0
111
1.0
121
0.0
131
0.0
112
0.0
122
1.0
132
0.0
79
0
146
0.0
1001
VD_INVISIBLE_NOT_FOR_READ
1000
VD_INVISIBLE_NOT_FOR_READ
0
VIEWPORT
5
295
102
{ACAD_XDICTIONARY
360
58C
102
}
330
25D
100
AcDbEntity
67
1
8
0
60
1
100
AcDbViewport
10
0.0
20
0.0
30
0.0
40
10.0
41
10.0
68
0
69
2
12
0.0
22
0.0
13
0.0
23
0.0
14
1.0
24
1.0
15
0.0
25
0.0
16
0.0
26
0.0
36
1.0
17
0.0
27
0.0
37
0.0
42
0.0
43
0.0
44
0.0
45
10.0
50
0.0
51
0.0000000000007958
72
100
90
163872
1

281
0
71
0
74
0
110
0.0
120
0.0
130
0.0
111
1.0
121
0.0
131
0.0
112
0.0
122
1.0
132
0.0
79
0
146
0.0
1001
VD_INVISIBLE_NOT_FOR_READ
1000
VD_INVISIBLE_NOT_FOR_READ
0
ENDSEC
0
SECTION
2
OBJECTS
0
DICTIONARY
5
13
330
0
100
AcDbDictionary
281
1
3
ACAD_COLOR
350
FA7
3
ACAD_GROUP
350
14
3
ACAD_LAYOUT
350
FCF
3
ACAD_MATERIAL
350
F7A
3
ACAD_MLEADERSTYLE
350
FCD
3
ACAD_MLINESTYLE
350
16
3
ACAD_PLOTSETTINGS
350
17
3
ACAD_PLOTSTYLENAME
350
18
3
ACAD_SCALELIST
350
FAB
3
ACAD_TABLESTYLE
350
FA8
3
ACAD_VISUALSTYLE
350
F93
3
ACDB_RECOMPOSE_DATA
350
107E
3
AcDbVariableDictionary
350
FF0
3
DWGPROPS
350
107F
0
DICTIONARY
5
F1000F
330
F1000E
100
AcDbDictionary
280
1
281
1
3
ACAD_MTEXT_2008_RT
360
F10010
0
DICTIONARY
5
F10014
330
F10013
100
AcDbDictionary
280
1
281
1
3
ACAD_MTEXT_2008_RT
360
F10015
0
DICTIONARY
5
F10005
330
F10004
100
AcDbDictionary
280
1
281
1
3
ACAD_MTEXT_2008_RT
360
F10006
0
DICTIONARY
5
F1000A
330
F10009
100
AcDbDictionary
280
1
281
1
3
ACAD_MTEXT_2008_RT
360
F1000B
0
DICTIONARY
5
FA7
102
{ACAD_REACTORS
330
13
102
}
330
13
100
AcDbDictionary
281
1
0
DICTIONARY
5
14
330
13
100
AcDbDictionary
281
1
0
DICTIONARY
5
FCF
102
{ACAD_REACTORS
330
13
102
}
330
13
100
AcDbDictionary
281
1
3
Layout1
350
FD1
3
Model
350
FD0
0
DICTIONARY
5
F7A
102
{ACAD_REACTORS
330
13
102
}
330
13
100
AcDbDictionary
281
1
3
ByBlock
350
F83
3
ByLayer
350
F7B
3
Global
350
F8B
0
DICTIONARY
5
FCD
102
{ACAD_REACTORS
330
13
102
}
330
13
100
AcDbDictionary
281
1
3
Standard
350
FCE
0
DICTIONARY
5
16
330
13
100
AcDbDictionary
281
1
3
Standard
350
FAA
0
DICTIONARY
5
17
102
{ACAD_REACTORS
330
13
102
}
330
13
100
AcDbDictionary
281
1
0
ACDBDICTIONARYWDFLT
5
18
102
{ACAD_REACTORS
330
13
102
}
330
13
100
AcDbDictionary
281
1
3
Normal
350
19
100
AcDbDictionaryWithDefault
340
19
0
DICTIONARY
5
FAB
102
{ACAD_REACTORS
330
13
102
}
330
13
100
AcDbDictionary
281
1
3
A0
350
FAC
3
A1
350
FAD
3
A2
350
FAE
3
A3
350
FAF
3
A4
350
FB0
3
A5
350
FB1
3
A6
350
FB2
3
A7
350
FB3
3
A8
350
FB4
3
A9
350
FB5
3
B0
350
FB6
3
B1
350
FB7
3
B2
350
FB8
3
B3
350
FB9
3
B4
350
FBA
3
B5
350
FBB
3
B6
350
FBC
3
B7
350
FBD
3
B8
350
FBE
3
B9
350
FBF
3
C0
350
FC0
3
C1
350
FC1
3
C2
350
FC2
3
C3
350
FC3
3
C4
350
FC4
3
C5
350
FC5
3
C6
350
FC6
3
C7
350
FC7
3
C8
350
FC8
3
C9
350
FC9
3
D0
350
FCA
3
D1
350
FCB
3
D2
350
FCC
0
DICTIONARY
5
FA8
102
{ACAD_REACTORS
330
13
102
}
330
13
100
AcDbDictionary
281
1
3
Standard
350
FA9
0
DICTIONARY
5
F93
102
{ACAD_REACTORS
330
13
102
}
330
13
100
AcDbDictionary
281
1
3
2dWireframe
350
F99
3
3D Hidden
350
F9B
3
3dWireframe
350
F9A
3
Basic
350
F98
3
Brighten
350
F9F
3
ColorChange
350
FA3
3
Conceptual
350
F9C
3
Dim
350
F9E
3
EdgeColorOff
350
FA6
3
Facepattern
350
FA2
3
Flat
350
F94
3
FlatWithEdges
350
F95
3
Gouraud
350
F96
3
GouraudWithEdges
350
F97
3
JitterOff
350
FA4
3
Linepattern
350
FA1
3
OverhangOff
350
FA5
3
Realistic
350
F9D
3
Thicken
350
FA0
0
XRECORD
5
107E
102
{ACAD_REACTORS
330
13
102
}
330
13
100
AcDbXrecord
280
1
90
1
330
FA9
330
F1000E
330
F10013
330
F10004
330
F10009
0
DICTIONARY
5
FF0
102
{ACAD_REACTORS
330
13
102
}
330
13
100
AcDbDictionary
281
1
3
CANNOSCALE
350
FF3
3
CMLEADERSTYLE
350
FF2
3
CTABLESTYLE
350
FF1
3
DIMASSOC
350
FF6
3
INDEXCTL
350
FF5
3
SORTENTS
350
FF4
3
XCLIPFRAME
350
1078
0
XRECORD
5
107F
102
{ACAD_REACTORS
330
13
102
}
330
13
100
AcDbXrecord
280
1
1
DWGPROPS COOKIE
2

3

4

6

7

8

9

300
=
301
=
302
=
303
=
304
=
305
=
306
=
307
=
308
=
309
=
40
0.0
41
0.0
42
0.0
1

90
0
0
XRECORD
5
F10010
102
{ACAD_REACTORS
330
F1000F
102
}
330
F1000F
100
AcDbXrecord
280
1
40
48458.0
1
20
0
XRECORD
5
F10015
102
{ACAD_REACTORS
330
F10014
102
}
330
F10014
100
AcDbXrecord
280
1
40
48458.0
1
83
0
XRECORD
5
F10006
102
{ACAD_REACTORS
330
F10005
102
}
330
F10005
100
AcDbXrecord
280
1
40
48458.0
1
Ø16
0
LAYOUT
5
FD1
102
{ACAD_XDICTIONARY
360
10A9
102
}
102
{ACAD_REACTORS
330
FCF
102
}
330
FCF
100
AcDbPlotSettings
1

2
Microsoft XPS Document Writer
4

6

40
0.0
41
0.0
42
0.0
43
0.0
44
0.0
45
0.0
46
0.0
47
0.0
48
0.0
49
0.0
140
0.0
141
0.0
142
1.0
143
1.0
70
688
72
0
73
0
74
5
7

75
16
147
1.0
148
0.0
149
0.0
100
AcDbLayout
1
Layout1
70
1
71
1
10
0.0
20
0.0
11
12.0
21
9.0
12
0.0
22
0.0
32
0.0
14
1.000000000000000E+20
24
1.000000000000000E+20
34
1.000000000000000E+20
15
-1.000000000000000E+20
25
-1.000000000000000E+20
35
-1.000000000000000E+20
146
0.0
13
0.0
23
0.0
33
0.0
16
1.0
26
0.0
36
0.0
17
0.0
27
1.0
37
0.0
76
0
330
25D
0
LAYOUT
5
FD0
102
{ACAD_XDICTIONARY
360
10A7
102
}
102
{ACAD_REACTORS
330
FCF
102
}
330
FCF
100
AcDbPlotSettings
1

2
Microsoft XPS Document Writer
4

6

40
0.0
41
0.0
42
0.0
43
0.0
44
0.0
45
0.0
46
0.0
47
0.0
48
0.0
49
0.0
140
0.0
141
0.0
142
1.0
143
1.0
70
1712
72
0
73
0
74
0
7

75
0
147
1.0
148
0.0
149
0.0
100
AcDbLayout
1
Model
70
1
71
0
10
0.0
20
0.0
11
12.0
21
9.0
12
0.0
22
0.0
32
0.0
14
0.0
24
0.0
34
0.0
15
0.0
25
0.0
35
0.0
146
0.0
13
0.0
23
0.0
33
0.0
16
1.0
26
0.0
36
0.0
17
0.0
27
1.0
37
0.0
76
0
330
261
331
26B
0
MATERIAL
5
F83
102
{ACAD_XDICTIONARY
360
F84
102
}
102
{ACAD_REACTORS
330
F7A
102
}
330
F7A
100
AcDbMaterial
1
ByBlock
72
0
43
0.0208333333333333
43
0.0
43
0.0
43
0.0
43
0.0
43
0.0208333333333333
43
0.0
43
0.0
43
0.0
43
0.0
43
1.0
43
0.0
43
0.0
43
0.0
43
0.0
43
1.0
77
0
47
0.0208333333333333
47
0.0
47
0.0
47
0.0
47
0.0
47
0.0208333333333333
47
0.0
47
0.0
47
0.0
47
0.0
47
1.0
47
0.0
47
0.0
47
0.0
47
0.0
47
1.0
171
0
49
0.0208333333333333
49
0.0
49
0.0
49
0.0
49
0.0
49
0.0208333333333333
49
0.0
49
0.0
49
0.0
49
0.0
49
1.0
49
0.0
49
0.0
49
0.0
49
0.0
49
1.0
175
0
142
0.0208333333333333
142
0.0
142
0.0
142
0.0
142
0.0
142
0.0208333333333333
142
0.0
142
0.0
142
0.0
142
0.0
142
1.0
142
0.0
142
0.0
142
0.0
142
0.0
142
1.0
179
0
144
0.0208333333333333
144
0.0
144
0.0
144
0.0
144
0.0
144
0.0208333333333333
144
0.0
144
0.0
144
0.0
144
0.0
144
1.0
144
0.0
144
0.0
144
0.0
144
0.0
144
1.0
147
0.0208333333333333
147
0.0
147
0.0
147
0.0
147
0.0
147
0.0208333333333333
147
0.0
147
0.0
147
0.0
147
0.0
147
1.0
147
0.0
147
0.0
147
0.0
147
0.0
147
1.0
0
MATERIAL
5
F7B
102
{ACAD_XDICTIONARY
360
F7C
102
}
102
{ACAD_REACTORS
330
F7A
102
}
330
F7A
100
AcDbMaterial
1
ByLayer
72
0
43
0.0208333333333333
43
0.0
43
0.0
43
0.0
43
0.0
43
0.0208333333333333
43
0.0
43
0.0
43
0.0
43
0.0
43
1.0
43
0.0
43
0.0
43
0.0
43
0.0
43
1.0
77
0
47
0.0208333333333333
47
0.0
47
0.0
47
0.0
47
0.0
47
0.0208333333333333
47
0.0
47
0.0
47
0.0
47
0.0
47
1.0
47
0.0
47
0.0
47
0.0
47
0.0
47
1.0
171
0
49
0.0208333333333333
49
0.0
49
0.0
49
0.0
49
0.0
49
0.0208333333333333
49
0.0
49
0.0
49
0.0
49
0.0
49
1.0
49
0.0
49
0.0
49
0.0
49
0.0
49
1.0
175
0
142
0.0208333333333333
142
0.0
142
0.0
142
0.0
142
0.0
142
0.0208333333333333
142
0.0
142
0.0
142
0.0
142
0.0
142
1.0
142
0.0
142
0.0
142
0.0
142
0.0
142
1.0
179
0
144
0.0208333333333333
144
0.0
144
0.0
144
0.0
144
0.0
144
0.0208333333333333
144
0.0
144
0.0
144
0.0
144
0.0
144
1.0
144
0.0
144
0.0
144
0.0
144
0.0
144
1.0
147
0.0208333333333333
147
0.0
147
0.0
147
0.0
147
0.0
147
0.0208333333333333
147
0.0
147
0.0
147
0.0
147
0.0
147
1.0
147
0.0
147
0.0
147
0.0
147
0.0
147
1.0
0
MATERIAL
5
F8B
102
{ACAD_XDICTIONARY
360
F8C
102
}
102
{ACAD_REACTORS
330
F7A
102
}
330
F7A
100
AcDbMaterial
1
Global
72
0
43
0.0208333333333333
43
0.0
43
0.0
43
0.0
43
0.0
43
0.0208333333333333
43
0.0
43
0.0
43
0.0
43
0.0
43
1.0
43
0.0
43
0.0
43
0.0
43
0.0
43
1.0
77
0
47
0.0208333333333333
47
0.0
47
0.0
47
0.0
47
0.0
47
0.0208333333333333
47
0.0
47
0.0
47
0.0
47
0.0
47
1.0
47
0.0
47
0.0
47
0.0
47
0.0
47
1.0
171
0
49
0.0208333333333333
49
0.0
49
0.0
49
0.0
49
0.0
49
0.0208333333333333
49
0.0
49
0.0
49
0.0
49
0.0
49
1.0
49
0.0
49
0.0
49
0.0
49
0.0
49
1.0
175
0
142
0.0208333333333333
142
0.0
142
0.0
142
0.0
142
0.0
142
0.0208333333333333
142
0.0
142
0.0
142
0.0
142
0.0
142
1.0
142
0.0
142
0.0
142
0.0
142
0.0
142
1.0
179
0
144
0.0208333333333333
144
0.0
144
0.0
144
0.0
144
0.0
144
0.0208333333333333
144
0.0
144
0.0
144
0.0
144
0.0
144
1.0
144
0.0
144
0.0
144
0.0
144
0.0
144
1.0
147
0.0208333333333333
147
0.0
147
0.0
147
0.0
147
0.0
147
0.0208333333333333
147
0.0
147
0.0
147
0.0
147
0.0
147
1.0
147
0.0
147
0.0
147
0.0
147
0.0
147
1.0
0
MLEADERSTYLE
5
FCE
102
{ACAD_REACTORS
330
FCD
102
}
330
FCD
100
AcDbMLeaderStyle
170
2
171
1
172
0
90
2
40
0.0
41
0.0
173
1
91
-1056964608
340
256
92
-2
290
1
42
0.09
291
1
43
0.36
3
Standard
44
0.18
300

342
253
174
1
178
6
175
1
176
0
93
-1056964608
45
0.18
292
0
297
0
46
0.18
94
-1056964608
47
1.0
49
1.0
140
1.0
293
1
141
0.0
294
1
177
0
142
1.0
295
0
296
0
143
0.125
1001
ACAD_MLEADERVER
1070
2
0
MLINESTYLE
5
FAA
102
{ACAD_REACTORS
330
16
102
}
330
16
100
AcDbMlineStyle
2
STANDARD
70
0
3

62
256
51
90.0
52
90.0
71
2
49
0.5
62
256
6
BYLAYER
49
-0.5
62
256
6
BYLAYER
0
ACDBPLACEHOLDER
5
19
102
{ACAD_REACTORS
330
18
102
}
330
18
0
SCALE
5
FAC
102
{ACAD_REACTORS
330
FAB
102
}
330
FAB
100
AcDbScale
70
0
300
1:1
140
1.0
141
1.0
290
1
0
SCALE
5
FAD
102
{ACAD_REACTORS
330
FAB
102
}
330
FAB
100
AcDbScale
70
0
300
1:2
140
1.0
141
2.0
290
0
0
SCALE
5
FAE
102
{ACAD_REACTORS
330
FAB
102
}
330
FAB
100
AcDbScale
70
0
300
1:4
140
1.0
141
4.0
290
0
0
SCALE
5
FAF
102
{ACAD_REACTORS
330
FAB
102
}
330
FAB
100
AcDbScale
70
0
300
1:5
140
1.0
141
5.0
290
0
0
SCALE
5
FB0
102
{ACAD_REACTORS
330
FAB
102
}
330
FAB
100
AcDbScale
70
0
300
1:8
140
1.0
141
8.0
290
0
0
SCALE
5
FB1
102
{ACAD_REACTORS
330
FAB
102
}
330
FAB
100
AcDbScale
70
0
300
1:10
140
1.0
141
10.0
290
0
0
SCALE
5
FB2
102
{ACAD_REACTORS
330
FAB
102
}
330
FAB
100
AcDbScale
70
0
300
1:16
140
1.0
141
16.0
290
0
0
SCALE
5
FB3
102
{ACAD_REACTORS
330
FAB
102
}
330
FAB
100
AcDbScale
70
0
300
1:20
140
1.0
141
20.0
290
0
0
SCALE
5
FB4
102
{ACAD_REACTORS
330
FAB
102
}
330
FAB
100
AcDbScale
70
0
300
1:30
140
1.0
141
30.0
290
0
0
SCALE
5
FB5
102
{ACAD_REACTORS
330
FAB
102
}
330
FAB
100
AcDbScale
70
0
300
1:40
140
1.0
141
40.0
290
0
0
SCALE
5
FB6
102
{ACAD_REACTORS
330
FAB
102
}
330
FAB
100
AcDbScale
70
0
300
1:50
140
1.0
141
50.0
290
0
0
SCALE
5
FB7
102
{ACAD_REACTORS
330
FAB
102
}
330
FAB
100
AcDbScale
70
0
300
1:100
140
1.0
141
100.0
290
0
0
SCALE
5
FB8
102
{ACAD_REACTORS
330
FAB
102
}
330
FAB
100
AcDbScale
70
0
300
2:1
140
2.0
141
1.0
290
0
0
SCALE
5
FB9
102
{ACAD_REACTORS
330
FAB
102
}
330
FAB
100
AcDbScale
70
0
300
4:1
140
4.0
141
1.0
290
0
0
SCALE
5
FBA
102
{ACAD_REACTORS
330
FAB
102
}
330
FAB
100
AcDbScale
70
0
300
8:1
140
8.0
141
1.0
290
0
0
SCALE
5
FBB
102
{ACAD_REACTORS
330
FAB
102
}
330
FAB
100
AcDbScale
70
0
300
10:1
140
10.0
141
1.0
290
0
0
SCALE
5
FBC
102
{ACAD_REACTORS
330
FAB
102
}
330
FAB
100
AcDbScale
70
0
300
100:1
140
100.0
141
1.0
290
0
0
SCALE
5
FBD
102
{ACAD_REACTORS
330
FAB
102
}
330
FAB
100
AcDbScale
70
0
300
1/128" = 1'-0"
140
0.0078125
141
12.0
290
0
0
SCALE
5
FBE
102
{ACAD_REACTORS
330
FAB
102
}
330
FAB
100
AcDbScale
70
0
300
1/64" = 1'-0"
140
0.015625
141
12.0
290
0
0
SCALE
5
FBF
102
{ACAD_REACTORS
330
FAB
102
}
330
FAB
100
AcDbScale
70
0
300
1/32" = 1'-0"
140
0.03125
141
12.0
290
0
0
SCALE
5
FC0
102
{ACAD_REACTORS
330
FAB
102
}
330
FAB
100
AcDbScale
70
0
300
1/16" = 1'-0"
140
0.0625
141
12.0
290
0
0
SCALE
5
FC1
102
{ACAD_REACTORS
330
FAB
102
}
330
FAB
100
AcDbScale
70
0
300
3/32" = 1'-0"
140
0.09375
141
12.0
290
0
0
SCALE
5
FC2
102
{ACAD_REACTORS
330
FAB
102
}
330
FAB
100
AcDbScale
70
0
300
1/8" = 1'-0"
140
0.125
141
12.0
290
0
0
SCALE
5
FC3
102
{ACAD_REACTORS
330
FAB
102
}
330
FAB
100
AcDbScale
70
0
300
3/16" = 1'-0"
140
0.1875
141
12.0
290
0
0
SCALE
5
FC4
102
{ACAD_REACTORS
330
FAB
102
}
330
FAB
100
AcDbScale
70
0
300
1/4" = 1'-0"
140
0.25
141
12.0
290
0
0
SCALE
5
FC5
102
{ACAD_REACTORS
330
FAB
102
}
330
FAB
100
AcDbScale
70
0
300
3/8" = 1'-0"
140
0.375
141
12.0
290
0
0
SCALE
5
FC6
102
{ACAD_REACTORS
330
FAB
102
}
330
FAB
100
AcDbScale
70
0
300
1/2" = 1'-0"
140
0.5
141
12.0
290
0
0
SCALE
5
FC7
102
{ACAD_REACTORS
330
FAB
102
}
330
FAB
100
AcDbScale
70
0
300
3/4" = 1'-0"
140
0.75
141
12.0
290
0
0
SCALE
5
FC8
102
{ACAD_REACTORS
330
FAB
102
}
330
FAB
100
AcDbScale
70
0
300
1" = 1'-0"
140
1.0
141
12.0
290
0
0
SCALE
5
FC9
102
{ACAD_REACTORS
330
FAB
102
}
330
FAB
100
AcDbScale
70
0
300
1-1/2" = 1'-0"
140
1.5
141
12.0
290
0
0
SCALE
5
FCA
102
{ACAD_REACTORS
330
FAB
102
}
330
FAB
100
AcDbScale
70
0
300
3" = 1'-0"
140
3.0
141
12.0
290
0
0
SCALE
5
FCB
102
{ACAD_REACTORS
330
FAB
102
}
330
FAB
100
AcDbScale
70
0
300
6" = 1'-0"
140
6.0
141
12.0
290
0
0
SCALE
5
FCC
102
{ACAD_REACTORS
330
FAB
102
}
330
FAB
100
AcDbScale
70
0
300
1'-0" = 1'-0"
140
12.0
141
12.0
290
0
0
TABLESTYLE
5
FA9
102
{ACAD_XDICTIONARY
360
FF8
102
}
102
{ACAD_REACTORS
330
FA8
102
}
330
FA8
100
AcDbTableStyle
3
Standard
70
0
71
0
40
0.06
41
0.06
280
0
281
0
7
Standard
140
0.18
170
2
62
0
63
7
283
0
274
-2
284
1
64
0
275
-2
285
1
65
0
276
-2
286
1
66
0
277
-2
287
1
67
0
278
-2
288
1
68
0
279
-2
289
1
69
0
7
Standard
140
0.25
170
5
62
0
63
7
283
0
274
-2
284
1
64
0
275
-2
285
1
65
0
276
-2
286
1
66
0
277
-2
287
1
67
0
278
-2
288
1
68
0
279
-2
289
1
69
0
7
Standard
140
0.18
170
5
62
0
63
7
283
0
274
-2
284
1
64
0
275
-2
285
1
65
0
276
-2
286
1
66
0
277
-2
287
1
67
0
278
-2
288
1
68
0
279
-2
289
1
69
0
0
VISUALSTYLE
5
F99
102
{ACAD_XDICTIONARY
360
108A
102
}
102
{ACAD_REACTORS
330
F93
102
}
330
F93
100
AcDbVisualStyle
2

70
4
71
0
72
2
73
0
90
0
40
-0.6
41
-30.0
62
5
63
7
74
1
91
4
64
7
65
257
75
1
175
1
42
1.0
92
0
66
257
43
1.0
76
1
77
6
78
2
67
7
79
5
170
0
171
0
290
0
174
0
93
1
44
0.0
173
0
291
0
45
0.0
1001
ACAD
1000
AcDbSavedByObjectVersion
1070
0
0
VISUALSTYLE
5
F9B
102
{ACAD_XDICTIONARY
360
108E
102
}
102
{ACAD_REACTORS
330
F93
102
}
330
F93
100
AcDbVisualStyle
2

70
6
71
1
72
2
73
2
90
0
40
-0.6
41
-30.0
62
5
63
7
74
2
91
2
64
7
65
257
75
2
175
1
42
179.0
92
0
66
257
43
1.0
76
1
77
6
78
2
67
7
79
3
170
0
171
0
290
0
174
0
93
1
44
0.0
173
0
291
0
45
0.0
1001
ACAD
1000
AcDbSavedByObjectVersion
1070
0
0
VISUALSTYLE
5
F9A
102
{ACAD_XDICTIONARY
360
108C
102
}
102
{ACAD_REACTORS
330
F93
102
}
330
F93
100
AcDbVisualStyle
2

70
5
71
0
72
2
73
0
90
0
40
-0.6
41
-30.0
62
5
63
7
74
1
91
4
64
7
65
257
75
1
175
1
42
1.0
92
0
66
257
43
1.0
76
1
77
6
78
2
67
7
79
5
170
0
171
0
290
0
174
0
93
1
44
0.0
173
0
291
0
45
0.0
1001
ACAD
1000
AcDbSavedByObjectVersion
1070
0
0
VISUALSTYLE
5
F98
102
{ACAD_XDICTIONARY
360
1088
102
}
102
{ACAD_REACTORS
330
F93
102
}
330
F93
100
AcDbVisualStyle
2

70
7
71
1
72
0
73
1
90
0
40
-0.6
41
-30.0
62
5
63
7
74
0
91
4
64
7
65
257
75
1
175
1
42
1.0
92
8
66
7
43
1.0
76
1
77
6
78
2
67
7
79
5
170
0
171
0
290
0
174
0
93
1
44
0.0
173
0
291
1
45
0.0
1001
ACAD
1000
AcDbSavedByObjectVersion
1070
0
0
VISUALSTYLE
5
F9F
102
{ACAD_XDICTIONARY
360
1096
102
}
102
{ACAD_REACTORS
330
F93
102
}
330
F93
100
AcDbVisualStyle
2

70
12
71
2
72
2
73
0
90
0
40
-0.6
41
-30.0
62
5
63
7
74
1
91
4
64
7
65
257
75
1
175
1
42
1.0
92
8
66
7
43
1.0
76
1
77
6
78
2
67
7
79
5
170
0
171
0
290
0
174
0
93
1
44
50.0
173
0
291
1
45
0.0
1001
ACAD
1000
AcDbSavedByObjectVersion
1070
0
0
VISUALSTYLE
5
FA3
102
{ACAD_XDICTIONARY
360
109E
102
}
102
{ACAD_REACTORS
330
F93
102
}
330
F93
100
AcDbVisualStyle
2

70
16
71
2
72
2
73
3
90
0
40
-0.6
41
-30.0
62
5
63
8
74
1
91
4
64
7
65
257
75
1
175
1
42
1.0
92
8
66
8
43
1.0
76
1
77
6
78
2
67
7
79
5
170
0
171
0
290
0
174
0
93
1
44
0.0
173
0
291
1
45
0.0
1001
ACAD
1000
AcDbSavedByObjectVersion
1070
0
0
VISUALSTYLE
5
F9C
102
{ACAD_XDICTIONARY
360
1090
102
}
102
{ACAD_REACTORS
330
F93
102
}
330
F93
100
AcDbVisualStyle
2

70
9
71
3
72
2
73
0
90
0
40
-0.6
41
-30.0
62
5
63
7
74
2
91
2
64
7
65
257
75
1
175
1
42
179.0
92
8
66
7
43
1.0
76
1
77
6
78
2
67
7
79
3
170
0
171
0
290
0
174
0
93
1
44
0.0
173
0
291
0
45
0.0
1001
ACAD
1000
AcDbSavedByObjectVersion
1070
0
0
VISUALSTYLE
5
F9E
102
{ACAD_XDICTIONARY
360
1094
102
}
102
{ACAD_REACTORS
330
F93
102
}
330
F93
100
AcDbVisualStyle
2

70
11
71
2
72
2
73
0
90
0
40
-0.6
41
-30.0
62
5
63
7
74
1
91
4
64
7
65
257
75
1
175
1
42
1.0
92
8
66
7
43
1.0
76
1
77
6
78
2
67
7
79
5
170
0
171
0
290
0
174
0
93
1
44
-50.0
173
0
291
1
45
0.0
1001
ACAD
1000
AcDbSavedByObjectVersion
1070
0
0
VISUALSTYLE
5
FA6
102
{ACAD_XDICTIONARY
360
10A4
102
}
102
{ACAD_REACTORS
330
F93
102
}
330
F93
100
AcDbVisualStyle
2

70
22
71
2
72
2
73
0
90
0
40
-0.6
41
-30.0
62
5
63
7
74
1
91
4
64
7
65
257
75
1
175
1
42
1.0
92
8
66
7
43
1.0
76
1
77
6
78
2
67
7
79
5
170
0
171
0
290
0
174
0
93
1
44
0.0
173
0
291
1
45
0.0
1001
ACAD
1000
AcDbSavedByObjectVersion
1070
0
0
VISUALSTYLE
5
FA2
102
{ACAD_XDICTIONARY
360
109C
102
}
102
{ACAD_REACTORS
330
F93
102
}
330
F93
100
AcDbVisualStyle
2

70
15
71
2
72
2
73
0
90
0
40
-0.6
41
-30.0
62
5
63
7
74
1
91
4
64
7
65
257
75
1
175
1
42
1.0
92
8
66
7
43
1.0
76
1
77
6
78
2
67
7
79
5
170
0
171
0
290
0
174
0
93
1
44
0.0
173
0
291
1
45
0.0
1001
ACAD
1000
AcDbSavedByObjectVersion
1070
0
0
VISUALSTYLE
5
F94
102
{ACAD_XDICTIONARY
360
1080
102
}
102
{ACAD_REACTORS
330
F93
102
}
330
F93
100
AcDbVisualStyle
2

70
0
71
2
72
1
73
1
90
2
40
-0.6
41
30.0
62
5
63
7
74
0
91
4
64
7
65
257
75
1
175
1
42
1.0
92
8
66
7
43
1.0
76
1
77
6
78
2
67
7
79
5
170
0
171
0
290
0
174
0
93
13
44
0.0
173
0
291
1
45
0.0
1001
ACAD
1000
AcDbSavedByObjectVersion
1070
0
0
VISUALSTYLE
5
F95
102
{ACAD_XDICTIONARY
360
1082
102
}
102
{ACAD_REACTORS
330
F93
102
}
330
F93
100
AcDbVisualStyle
2

70
1
71
2
72
1
73
1
90
2
40
-0.6
41
30.0
62
5
63
7
74
1
91
4
64
7
65
257
75
1
175
1
42
1.0
92
0
66
257
43
1.0
76
1
77
6
78
2
67
7
79
5
170
0
171
0
290
0
174
0
93
13
44
0.0
173
0
291
1
45
0.0
1001
ACAD
1000
AcDbSavedByObjectVersion
1070
0
0
VISUALSTYLE
5
F96
102
{ACAD_XDICTIONARY
360
1084
102
}
102
{ACAD_REACTORS
330
F93
102
}
330
F93
100
AcDbVisualStyle
2

70
2
71
2
72
2
73
1
90
2
40
-0.6
41
30.0
62
5
63
7
74
0
91
4
64
7
65
257
75
1
175
1
42
1.0
92
0
66
7
43
1.0
76
1
77
6
78
2
67
7
79
5
170
0
171
0
290
0
174
0
93
13
44
0.0
173
0
291
1
45
0.0
1001
ACAD
1000
AcDbSavedByObjectVersion
1070
0
0
VISUALSTYLE
5
F97
102
{ACAD_XDICTIONARY
360
1086
102
}
102
{ACAD_REACTORS
330
F93
102
}
330
F93
100
AcDbVisualStyle
2

70
3
71
2
72
2
73
1
90
2
40
-0.6
41
30.0
62
5
63
7
74
1
91
4
64
7
65
257
75
1
175
1
42
1.0
92
0
66
257
43
1.0
76
1
77
6
78
2
67
7
79
5
170
0
171
0
290
0
174
0
93
13
44
0.0
173
0
291
1
45
0.0
1001
ACAD
1000
AcDbSavedByObjectVersion
1070
0
0
VISUALSTYLE
5
FA4
102
{ACAD_XDICTIONARY
360
10A0
102
}
102
{ACAD_REACTORS
330
F93
102
}
330
F93
100
AcDbVisualStyle
2

70
20
71
2
72
2
73
0
90
0
40
-0.6
41
-30.0
62
5
63
7
74
1
91
4
64
7
65
257
75
1
175
1
42
1.0
92
10
66
7
43
1.0
76
1
77
6
78
2
67
7
79
5
170
0
171
0
290
0
174
0
93
1
44
0.0
173
0
291
1
45
0.0
1001
ACAD
1000
AcDbSavedByObjectVersion
1070
0
0
VISUALSTYLE
5
FA1
102
{ACAD_XDICTIONARY
360
109A
102
}
102
{ACAD_REACTORS
330
F93
102
}
330
F93
100
AcDbVisualStyle
2

70
14
71
2
72
2
73
0
90
0
40
-0.6
41
-30.0
62
5
63
7
74
1
91
4
64
7
65
257
75
7
175
7
42
1.0
92
8
66
7
43
1.0
76
1
77
6
78
2
67
7
79
5
170
0
171
0
290
0
174
0
93
1
44
0.0
173
0
291
1
45
0.0
1001
ACAD
1000
AcDbSavedByObjectVersion
1070
0
0
VISUALSTYLE
5
FA5
102
{ACAD_XDICTIONARY
360
10A2
102
}
102
{ACAD_REACTORS
330
F93
102
}
330
F93
100
AcDbVisualStyle
2

70
21
71
2
72
2
73
0
90
0
40
-0.6
41
-30.0
62
5
63
7
74
1
91
4
64
7
65
257
75
1
175
1
42
1.0
92
9
66
7
43
1.0
76
1
77
6
78
2
67
7
79
5
170
0
171
0
290
0
174
0
93
1
44
0.0
173
0
291
1
45
0.0
1001
ACAD
1000
AcDbSavedByObjectVersion
1070
0
0
VISUALSTYLE
5
F9D
102
{ACAD_XDICTIONARY
360
1092
102
}
102
{ACAD_REACTORS
330
F93
102
}
330
F93
100
AcDbVisualStyle
2

70
8
71
2
72
2
73
0
90
0
40
-0.6
41
-30.0
62
5
63
7
74
1
91
0
64
7
65
257
75
1
175
1
42
1.0
92
8
66
8
43
1.0
76
1
77
6
78
2
67
7
79
5
170
0
171
0
290
0
174
0
93
13
44
0.0
173
0
291
0
45
0.0
1001
ACAD
1000
AcDbSavedByObjectVersion
1070
0
0
VISUALSTYLE
5
FA0
102
{ACAD_XDICTIONARY
360
1098
102
}
102
{ACAD_REACTORS
330
F93
102
}
330
F93
100
AcDbVisualStyle
2

70
13
71
2
72
2
73
0
90
0
40
-0.6
41
-30.0
62
5
63
7
74
1
91
4
64
7
65
257
75
1
175
1
42
1.0
92
12
66
7
43
1.0
76
1
77
6
78
2
67
7
79
5
170
0
171
0
290
0
174
0
93
1
44
0.0
173
0
291
1
45
0.0
1001
ACAD
1000
AcDbSavedByObjectVersion
1070
0
0
DICTIONARYVAR
5
FF3
102
{ACAD_REACTORS
330
FF0
102
}
330
FF0
100
DictionaryVariables
280
0
1
1:1
0
DICTIONARYVAR
5
FF2
102
{ACAD_REACTORS
330
FF0
102
}
330
FF0
100
DictionaryVariables
280
0
1
STANDARD
0
DICTIONARYVAR
5
FF1
102
{ACAD_REACTORS
330
FF0
102
}
330
FF0
100
DictionaryVariables
280
0
1
STANDARD
0
DICTIONARYVAR
5
FF6
102
{ACAD_REACTORS
330
FF0
102
}
330
FF0
100
DictionaryVariables
280
0
1
1
0
DICTIONARYVAR
5
FF5
102
{ACAD_REACTORS
330
FF0
102
}
330
FF0
100
DictionaryVariables
280
0
1
0
0
DICTIONARYVAR
5
FF4
102
{ACAD_REACTORS
330
FF0
102
}
330
FF0
100
DictionaryVariables
280
0
1
127
0
DICTIONARYVAR
5
1078
102
{ACAD_REACTORS
330
FF0
102
}
330
FF0
100
DictionaryVariables
280
0
1
2
0
DICTIONARY
5
10A9
330
FD1
100
AcDbDictionary
280
1
281
1
3
ACAD_XREC_ROUNDTRIP
360
10AA
0
DICTIONARY
5
10A7
330
FD0
100
AcDbDictionary
280
1
281
1
3
ACAD_XREC_ROUNDTRIP
360
10A8
0
DICTIONARY
5
F84
330
F83
100
AcDbDictionary
280
1
281
1
3
ACAD_XREC_ROUNDTRIP
360
FFF
3
BUMPTILE
360
F86
3
DIFFUSETILE
360
F85
3
OPACITYTILE
360
F89
3
REFLECTIONTILE
360
F88
3
REFRACTIONTILE
360
F8A
3
SPECULARTILE
360
F87
0
DICTIONARY
5
F7C
330
F7B
100
AcDbDictionary
280
1
281
1
3
ACAD_XREC_ROUNDTRIP
360
FFE
3
BUMPTILE
360
F7E
3
DIFFUSETILE
360
F7D
3
OPACITYTILE
360
F81
3
REFLECTIONTILE
360
F80
3
REFRACTIONTILE
360
F82
3
SPECULARTILE
360
F7F
0
DICTIONARY
5
F8C
330
F8B
100
AcDbDictionary
280
1
281
1
3
ACAD_XREC_ROUNDTRIP
360
1000
3
BUMPTILE
360
F8E
3
DIFFUSETILE
360
F8D
3
OPACITYTILE
360
F91
3
REFLECTIONTILE
360
F90
3
REFRACTIONTILE
360
F92
3
SPECULARTILE
360
F8F
0
DICTIONARY
5
FF8
330
FA9
100
AcDbDictionary
280
1
281
1
3
ACAD_ROUNDTRIP_2008_TABLESTYLE_CELLSTYLEMAP
360
1079
3
ACAD_XREC_ROUNDTRIP
360
10A6
0
DICTIONARY
5
108A
330
F99
100
AcDbDictionary
280
1
281
1
3
ACAD_XREC_ROUNDTRIP
360
108B
0
DICTIONARY
5
108E
330
F9B
100
AcDbDictionary
280
1
281
1
3
ACAD_XREC_ROUNDTRIP
360
108F
0
DICTIONARY
5
108C
330
F9A
100
AcDbDictionary
280
1
281
1
3
ACAD_XREC_ROUNDTRIP
360
108D
0
DICTIONARY
5
1088
330
F98
100
AcDbDictionary
280
1
281
1
3
ACAD_XREC_ROUNDTRIP
360
1089
0
DICTIONARY
5
1096
330
F9F
100
AcDbDictionary
280
1
281
1
3
ACAD_XREC_ROUNDTRIP
360
1097
0
DICTIONARY
5
109E
330
FA3
100
AcDbDictionary
280
1
281
1
3
ACAD_XREC_ROUNDTRIP
360
109F
0
DICTIONARY
5
1090
330
F9C
100
AcDbDictionary
280
1
281
1
3
ACAD_XREC_ROUNDTRIP
360
1091
0
DICTIONARY
5
1094
330
F9E
100
AcDbDictionary
280
1
281
1
3
ACAD_XREC_ROUNDTRIP
360
1095
0
DICTIONARY
5
10A4
330
FA6
100
AcDbDictionary
280
1
281
1
3
ACAD_XREC_ROUNDTRIP
360
10A5
0
DICTIONARY
5
109C
330
FA2
100
AcDbDictionary
280
1
281
1
3
ACAD_XREC_ROUNDTRIP
360
109D
0
DICTIONARY
5
1080
330
F94
100
AcDbDictionary
280
1
281
1
3
ACAD_XREC_ROUNDTRIP
360
1081
0
DICTIONARY
5
1082
330
F95
100
AcDbDictionary
280
1
281
1
3
ACAD_XREC_ROUNDTRIP
360
1083
0
DICTIONARY
5
1084
330
F96
100
AcDbDictionary
280
1
281
1
3
ACAD_XREC_ROUNDTRIP
360
1085
0
DICTIONARY
5
1086
330
F97
100
AcDbDictionary
280
1
281
1
3
ACAD_XREC_ROUNDTRIP
360
1087
0
DICTIONARY
5
10A0
330
FA4
100
AcDbDictionary
280
1
281
1
3
ACAD_XREC_ROUNDTRIP
360
10A1
0
DICTIONARY
5
109A
330
FA1
100
AcDbDictionary
280
1
281
1
3
ACAD_XREC_ROUNDTRIP
360
109B
0
DICTIONARY
5
10A2
330
FA5
100
AcDbDictionary
280
1
281
1
3
ACAD_XREC_ROUNDTRIP
360
10A3
0
DICTIONARY
5
1092
330
F9D
100
AcDbDictionary
280
1
281
1
3
ACAD_XREC_ROUNDTRIP
360
1093
0
DICTIONARY
5
1098
330
FA0
100
AcDbDictionary
280
1
281
1
3
ACAD_XREC_ROUNDTRIP
360
1099
0
XRECORD
5
10AA
102
{ACAD_REACTORS
330
10A9
102
}
330
10A9
100
AcDbXrecord
280
1
102
SHADEPLOT
70
0
102
SHADEPLOTRESLEVEL
70
2
102
SHADEPLOTCUSTOMDPI
70
300
0
XRECORD
5
10A8
102
{ACAD_REACTORS
330
10A7
102
}
330
10A7
100
AcDbXrecord
280
1
102
SHADEPLOT
70
0
102
SHADEPLOTRESLEVEL
70
2
102
SHADEPLOTCUSTOMDPI
70
300
0
XRECORD
5
FFF
102
{ACAD_REACTORS
330
F84
102
}
330
F84
100
AcDbXrecord
280
1
102
MATERIAL
148
0.0
149
0.0
149
0.0
93
0
94
127
282
0
72
0
77
0
171
0
175
0
179
0
273
0
0
XRECORD
5
F86
102
{ACAD_REACTORS
330
F84
102
}
330
F84
100
AcDbXrecord
280
1
270
1
271
1
0
XRECORD
5
F85
102
{ACAD_REACTORS
330
F84
102
}
330
F84
100
AcDbXrecord
280
1
270
1
271
1
0
XRECORD
5
F89
102
{ACAD_REACTORS
330
F84
102
}
330
F84
100
AcDbXrecord
280
1
270
1
271
1
0
XRECORD
5
F88
102
{ACAD_REACTORS
330
F84
102
}
330
F84
100
AcDbXrecord
280
1
270
1
271
1
0
XRECORD
5
F8A
102
{ACAD_REACTORS
330
F84
102
}
330
F84
100
AcDbXrecord
280
1
270
1
271
1
0
XRECORD
5
F87
102
{ACAD_REACTORS
330
F84
102
}
330
F84
100
AcDbXrecord
280
1
270
1
271
1
0
XRECORD
5
FFE
102
{ACAD_REACTORS
330
F7C
102
}
330
F7C
100
AcDbXrecord
280
1
102
MATERIAL
148
0.0
149
0.0
149
0.0
93
0
94
127
282
0
72
0
77
0
171
0
175
0
179
0
273
0
0
XRECORD
5
F7E
102
{ACAD_REACTORS
330
F7C
102
}
330
F7C
100
AcDbXrecord
280
1
270
1
271
1
0
XRECORD
5
F7D
102
{ACAD_REACTORS
330
F7C
102
}
330
F7C
100
AcDbXrecord
280
1
270
1
271
1
0
XRECORD
5
F81
102
{ACAD_REACTORS
330
F7C
102
}
330
F7C
100
AcDbXrecord
280
1
270
1
271
1
0
XRECORD
5
F80
102
{ACAD_REACTORS
330
F7C
102
}
330
F7C
100
AcDbXrecord
280
1
270
1
271
1
0
XRECORD
5
F82
102
{ACAD_REACTORS
330
F7C
102
}
330
F7C
100
AcDbXrecord
280
1
270
1
271
1
0
XRECORD
5
F7F
102
{ACAD_REACTORS
330
F7C
102
}
330
F7C
100
AcDbXrecord
280
1
270
1
271
1
0
XRECORD
5
1000
102
{ACAD_REACTORS
330
F8C
102
}
330
F8C
100
AcDbXrecord
280
1
102
MATERIAL
148
0.0
149
0.0
149
0.0
93
0
94
127
282
0
72
0
77
0
171
0
175
0
179
0
273
0
0
XRECORD
5
F8E
102
{ACAD_REACTORS
330
F8C
102
}
330
F8C
100
AcDbXrecord
280
1
270
1
271
1
0
XRECORD
5
F8D
102
{ACAD_REACTORS
330
F8C
102
}
330
F8C
100
AcDbXrecord
280
1
270
1
271
1
0
XRECORD
5
F91
102
{ACAD_REACTORS
330
F8C
102
}
330
F8C
100
AcDbXrecord
280
1
270
1
271
1
0
XRECORD
5
F90
102
{ACAD_REACTORS
330
F8C
102
}
330
F8C
100
AcDbXrecord
280
1
270
1
271
1
0
XRECORD
5
F92
102
{ACAD_REACTORS
330
F8C
102
}
330
F8C
100
AcDbXrecord
280
1
270
1
271
1
0
XRECORD
5
F8F
102
{ACAD_REACTORS
330
F8C
102
}
330
F8C
100
AcDbXrecord
280
1
270
1
271
1
0
CELLSTYLEMAP
5
1079
102
{ACAD_REACTORS
330
FF8
102
}
330
FF8
100
AcDbCellStyleMap
90
3
300
CELLSTYLE
1
TABLEFORMAT_BEGIN
90
5
170
1
91
0
92
32768
62
257
93
1
300
CONTENTFORMAT
1
CONTENTFORMAT_BEGIN
90
0
91
0
92
512
93
0
300

40
0.0
140
1.0
94
5
62
0
340
253
144
0.25
309
CONTENTFORMAT_END
171
1
301
MARGIN
1
CELLMARGIN_BEGIN
40
0.06
40
0.06
40
0.06
40
0.06
40
0.18
40
0.18
309
CELLMARGIN_END
94
6
95
1
302
GRIDFORMAT
1
GRIDFORMAT_BEGIN
90
0
91
1
62
0
92
-2
340
0
93
0
40
0.045
309
GRIDFORMAT_END
95
2
302
GRIDFORMAT
1
GRIDFORMAT_BEGIN
90
0
91
1
62
0
92
-2
340
0
93
0
40
0.045
309
GRIDFORMAT_END
95
4
302
GRIDFORMAT
1
GRIDFORMAT_BEGIN
90
0
91
1
62
0
92
-2
340
0
93
0
40
0.045
309
GRIDFORMAT_END
95
8
302
GRIDFORMAT
1
GRIDFORMAT_BEGIN
90
0
91
1
62
0
92
-2
340
0
93
0
40
0.045
309
GRIDFORMAT_END
95
16
302
GRIDFORMAT
1
GRIDFORMAT_BEGIN
90
0
91
1
62
0
92
-2
340
0
93
0
40
0.045
309
GRIDFORMAT_END
95
32
302
GRIDFORMAT
1
GRIDFORMAT_BEGIN
90
0
91
1
62
0
92
-2
340
0
93
0
40
0.045
309
GRIDFORMAT_END
309
TABLEFORMAT_END
1
CELLSTYLE_BEGIN
90
1
91
1
300
_TITLE
309
CELLSTYLE_END
300
CELLSTYLE
1
TABLEFORMAT_BEGIN
90
5
170
1
91
0
92
0
62
257
93
1
300
CONTENTFORMAT
1
CONTENTFORMAT_BEGIN
90
0
91
0
92
512
93
0
300

40
0.0
140
1.0
94
5
62
0
340
253
144
0.18
309
CONTENTFORMAT_END
171
1
301
MARGIN
1
CELLMARGIN_BEGIN
40
0.06
40
0.06
40
0.06
40
0.06
40
0.18
40
0.18
309
CELLMARGIN_END
94
6
95
1
302
GRIDFORMAT
1
GRIDFORMAT_BEGIN
90
0
91
1
62
0
92
-2
340
0
93
0
40
0.045
309
GRIDFORMAT_END
95
2
302
GRIDFORMAT
1
GRIDFORMAT_BEGIN
90
0
91
1
62
0
92
-2
340
0
93
0
40
0.045
309
GRIDFORMAT_END
95
4
302
GRIDFORMAT
1
GRIDFORMAT_BEGIN
90
0
91
1
62
0
92
-2
340
0
93
0
40
0.045
309
GRIDFORMAT_END
95
8
302
GRIDFORMAT
1
GRIDFORMAT_BEGIN
90
0
91
1
62
0
92
-2
340
0
93
0
40
0.045
309
GRIDFORMAT_END
95
16
302
GRIDFORMAT
1
GRIDFORMAT_BEGIN
90
0
91
1
62
0
92
-2
340
0
93
0
40
0.045
309
GRIDFORMAT_END
95
32
302
GRIDFORMAT
1
GRIDFORMAT_BEGIN
90
0
91
1
62
0
92
-2
340
0
93
0
40
0.045
309
GRIDFORMAT_END
309
TABLEFORMAT_END
1
CELLSTYLE_BEGIN
90
2
91
1
300
_HEADER
309
CELLSTYLE_END
300
CELLSTYLE
1
TABLEFORMAT_BEGIN
90
5
170
1
91
0
92
0
62
257
93
1
300
CONTENTFORMAT
1
CONTENTFORMAT_BEGIN
90
0
91
0
92
512
93
0
300

40
0.0
140
1.0
94
2
62
0
340
253
144
0.18
309
CONTENTFORMAT_END
171
1
301
MARGIN
1
CELLMARGIN_BEGIN
40
0.06
40
0.06
40
0.06
40
0.06
40
0.18
40
0.18
309
CELLMARGIN_END
94
6
95
1
302
GRIDFORMAT
1
GRIDFORMAT_BEGIN
90
0
91
1
62
0
92
-2
340
0
93
0
40
0.045
309
GRIDFORMAT_END
95
2
302
GRIDFORMAT
1
GRIDFORMAT_BEGIN
90
0
91
1
62
0
92
-2
340
0
93
0
40
0.045
309
GRIDFORMAT_END
95
4
302
GRIDFORMAT
1
GRIDFORMAT_BEGIN
90
0
91
1
62
0
92
-2
340
0
93
0
40
0.045
309
GRIDFORMAT_END
95
8
302
GRIDFORMAT
1
GRIDFORMAT_BEGIN
90
0
91
1
62
0
92
-2
340
0
93
0
40
0.045
309
GRIDFORMAT_END
95
16
302
GRIDFORMAT
1
GRIDFORMAT_BEGIN
90
0
91
1
62
0
92
-2
340
0
93
0
40
0.045
309
GRIDFORMAT_END
95
32
302
GRIDFORMAT
1
GRIDFORMAT_BEGIN
90
0
91
1
62
0
92
-2
340
0
93
0
40
0.045
309
GRIDFORMAT_END
309
TABLEFORMAT_END
1
CELLSTYLE_BEGIN
90
3
91
2
300
_DATA
309
CELLSTYLE_END
0
XRECORD
5
10A6
102
{ACAD_REACTORS
330
FF8
102
}
330
FF8
100
AcDbXrecord
280
1
102
ACAD_ROUNDTRIP_PRE2007_TABLESTYLE
90
512
91
0
1

92
512
93
0
2

94
512
95
0
3

0
XRECORD
5
108B
102
{ACAD_REACTORS
330
108A
102
}
330
108A
100
AcDbXrecord
280
1
102
RTVSPropertyOp0
70
1
102
RTVSPropertyOp1
70
1
102
RTVSPropertyOp2
70
1
102
RTVSPropertyOp3
70
1
102
RTVSPropertyOp4
70
1
102
RTVSPropertyOp5
70
1
102
RTVSPropertyOp6
70
1
102
RTVSPropertyOp7
70
1
102
RTVSPropertyOp8
70
1
102
RTVSPropertyOp9
70
1
102
RTVSPropertyOp10
70
1
102
RTVSPropertyOp11
70
1
102
RTVSPropertyOp12
70
1
102
RTVSPropertyOp13
70
1
102
RTVSPropertyOp14
70
1
102
RTVSPropertyOp15
70
1
102
RTVSPropertyOp16
70
1
102
RTVSPropertyOp17
70
1
102
RTVSPropertyOp18
70
1
102
RTVSPropertyOp19
70
1
102
RTVSPropertyOp20
70
1
102
RTVSPropertyOp21
70
1
102
RTVSPropertyOp22
70
1
102
RTVSPropertyOp23
70
1
102
RTVSPropertyOp24
70
1
102
RTVSPropertyOp25
70
1
102
RTVSPropertyOp26
70
1
102
RTVSPropertyOp27
70
1
0
XRECORD
5
108F
102
{ACAD_REACTORS
330
108E
102
}
330
108E
100
AcDbXrecord
280
1
102
RTVSPropertyOp0
70
1
102
RTVSPropertyOp1
70
1
102
RTVSPropertyOp2
70
1
102
RTVSPropertyOp3
70
1
102
RTVSPropertyOp4
70
1
102
RTVSPropertyOp5
70
1
102
RTVSPropertyOp6
70
1
102
RTVSPropertyOp7
70
1
102
RTVSPropertyOp8
70
1
102
RTVSPropertyOp9
70
1
102
RTVSPropertyOp10
70
1
102
RTVSPropertyOp11
70
1
102
RTVSPropertyOp12
70
1
102
RTVSPropertyOp13
70
1
102
RTVSPropertyOp14
70
1
102
RTVSPropertyOp15
70
1
102
RTVSPropertyOp16
70
1
102
RTVSPropertyOp17
70
1
102
RTVSPropertyOp18
70
1
102
RTVSPropertyOp19
70
1
102
RTVSPropertyOp20
70
1
102
RTVSPropertyOp21
70
1
102
RTVSPropertyOp22
70
1
102
RTVSPropertyOp23
70
1
102
RTVSPropertyOp24
70
1
102
RTVSPropertyOp25
70
1
102
RTVSPropertyOp26
70
1
102
RTVSPropertyOp27
70
1
0
XRECORD
5
108D
102
{ACAD_REACTORS
330
108C
102
}
330
108C
100
AcDbXrecord
280
1
102
RTVSPropertyOp0
70
1
102
RTVSPropertyOp1
70
1
102
RTVSPropertyOp2
70
1
102
RTVSPropertyOp3
70
1
102
RTVSPropertyOp4
70
1
102
RTVSPropertyOp5
70
1
102
RTVSPropertyOp6
70
1
102
RTVSPropertyOp7
70
1
102
RTVSPropertyOp8
70
1
102
RTVSPropertyOp9
70
1
102
RTVSPropertyOp10
70
1
102
RTVSPropertyOp11
70
1
102
RTVSPropertyOp12
70
1
102
RTVSPropertyOp13
70
1
102
RTVSPropertyOp14
70
1
102
RTVSPropertyOp15
70
1
102
RTVSPropertyOp16
70
1
102
RTVSPropertyOp17
70
1
102
RTVSPropertyOp18
70
1
102
RTVSPropertyOp19
70
1
102
RTVSPropertyOp20
70
1
102
RTVSPropertyOp21
70
1
102
RTVSPropertyOp22
70
1
102
RTVSPropertyOp23
70
1
102
RTVSPropertyOp24
70
1
102
RTVSPropertyOp25
70
1
102
RTVSPropertyOp26
70
1
102
RTVSPropertyOp27
70
1
0
XRECORD
5
1089
102
{ACAD_REACTORS
330
1088
102
}
330
1088
100
AcDbXrecord
280
1
102
RTVSPropertyOp0
70
1
102
RTVSPropertyOp1
70
1
102
RTVSPropertyOp2
70
1
102
RTVSPropertyOp3
70
1
102
RTVSPropertyOp4
70
1
102
RTVSPropertyOp5
70
1
102
RTVSPropertyOp6
70
1
102
RTVSPropertyOp7
70
1
102
RTVSPropertyOp8
70
1
102
RTVSPropertyOp9
70
1
102
RTVSPropertyOp10
70
1
102
RTVSPropertyOp11
70
1
102
RTVSPropertyOp12
70
1
102
RTVSPropertyOp13
70
1
102
RTVSPropertyOp14
70
1
102
RTVSPropertyOp15
70
1
102
RTVSPropertyOp16
70
1
102
RTVSPropertyOp17
70
1
102
RTVSPropertyOp18
70
1
102
RTVSPropertyOp19
70
1
102
RTVSPropertyOp20
70
1
102
RTVSPropertyOp21
70
1
102
RTVSPropertyOp22
70
1
102
RTVSPropertyOp23
70
1
102
RTVSPropertyOp24
70
1
102
RTVSPropertyOp25
70
1
102
RTVSPropertyOp26
70
1
102
RTVSPropertyOp27
70
1
0
XRECORD
5
1097
102
{ACAD_REACTORS
330
1096
102
}
330
1096
100
AcDbXrecord
280
1
102
RTVSPropertyOp0
70
1
102
RTVSPropertyOp1
70
1
102
RTVSPropertyOp2
70
1
102
RTVSPropertyOp3
70
1
102
RTVSPropertyOp4
70
1
102
RTVSPropertyOp5
70
1
102
RTVSPropertyOp6
70
1
102
RTVSPropertyOp7
70
1
102
RTVSPropertyOp8
70
1
102
RTVSPropertyOp9
70
1
102
RTVSPropertyOp10
70
1
102
RTVSPropertyOp11
70
1
102
RTVSPropertyOp12
70
1
102
RTVSPropertyOp13
70
1
102
RTVSPropertyOp14
70
1
102
RTVSPropertyOp15
70
1
102
RTVSPropertyOp16
70
1
102
RTVSPropertyOp17
70
1
102
RTVSPropertyOp18
70
1
102
RTVSPropertyOp19
70
1
102
RTVSPropertyOp20
70
1
102
RTVSPropertyOp21
70
1
102
RTVSPropertyOp22
70
1
102
RTVSPropertyOp23
70
1
102
RTVSPropertyOp24
70
1
102
RTVSPropertyOp25
70
1
102
RTVSPropertyOp26
70
1
102
RTVSPropertyOp27
70
1
0
XRECORD
5
109F
102
{ACAD_REACTORS
330
109E
102
}
330
109E
100
AcDbXrecord
280
1
102
RTVSPropertyOp0
70
1
102
RTVSPropertyOp1
70
1
102
RTVSPropertyOp2
70
1
102
RTVSPropertyOp3
70
1
102
RTVSPropertyOp4
70
1
102
RTVSPropertyOp5
70
1
102
RTVSPropertyOp6
70
1
102
RTVSPropertyOp7
70
1
102
RTVSPropertyOp8
70
1
102
RTVSPropertyOp9
70
1
102
RTVSPropertyOp10
70
1
102
RTVSPropertyOp11
70
1
102
RTVSPropertyOp12
70
1
102
RTVSPropertyOp13
70
1
102
RTVSPropertyOp14
70
1
102
RTVSPropertyOp15
70
1
102
RTVSPropertyOp16
70
1
102
RTVSPropertyOp17
70
1
102
RTVSPropertyOp18
70
1
102
RTVSPropertyOp19
70
1
102
RTVSPropertyOp20
70
1
102
RTVSPropertyOp21
70
1
102
RTVSPropertyOp22
70
1
102
RTVSPropertyOp23
70
1
102
RTVSPropertyOp24
70
1
102
RTVSPropertyOp25
70
1
102
RTVSPropertyOp26
70
1
102
RTVSPropertyOp27
70
1
0
XRECORD
5
1091
102
{ACAD_REACTORS
330
1090
102
}
330
1090
100
AcDbXrecord
280
1
102
RTVSPropertyOp0
70
1
102
RTVSPropertyOp1
70
1
102
RTVSPropertyOp2
70
1
102
RTVSPropertyOp3
70
1
102
RTVSPropertyOp4
70
1
102
RTVSPropertyOp5
70
1
102
RTVSPropertyOp6
70
1
102
RTVSPropertyOp7
70
1
102
RTVSPropertyOp8
70
1
102
RTVSPropertyOp9
70
1
102
RTVSPropertyOp10
70
1
102
RTVSPropertyOp11
70
1
102
RTVSPropertyOp12
70
1
102
RTVSPropertyOp13
70
1
102
RTVSPropertyOp14
70
1
102
RTVSPropertyOp15
70
1
102
RTVSPropertyOp16
70
1
102
RTVSPropertyOp17
70
1
102
RTVSPropertyOp18
70
1
102
RTVSPropertyOp19
70
1
102
RTVSPropertyOp20
70
1
102
RTVSPropertyOp21
70
1
102
RTVSPropertyOp22
70
1
102
RTVSPropertyOp23
70
1
102
RTVSPropertyOp24
70
1
102
RTVSPropertyOp25
70
1
102
RTVSPropertyOp26
70
1
102
RTVSPropertyOp27
70
1
0
XRECORD
5
1095
102
{ACAD_REACTORS
330
1094
102
}
330
1094
100
AcDbXrecord
280
1
102
RTVSPropertyOp0
70
1
102
RTVSPropertyOp1
70
1
102
RTVSPropertyOp2
70
1
102
RTVSPropertyOp3
70
1
102
RTVSPropertyOp4
70
1
102
RTVSPropertyOp5
70
1
102
RTVSPropertyOp6
70
1
102
RTVSPropertyOp7
70
1
102
RTVSPropertyOp8
70
1
102
RTVSPropertyOp9
70
1
102
RTVSPropertyOp10
70
1
102
RTVSPropertyOp11
70
1
102
RTVSPropertyOp12
70
1
102
RTVSPropertyOp13
70
1
102
RTVSPropertyOp14
70
1
102
RTVSPropertyOp15
70
1
102
RTVSPropertyOp16
70
1
102
RTVSPropertyOp17
70
1
102
RTVSPropertyOp18
70
1
102
RTVSPropertyOp19
70
1
102
RTVSPropertyOp20
70
1
102
RTVSPropertyOp21
70
1
102
RTVSPropertyOp22
70
1
102
RTVSPropertyOp23
70
1
102
RTVSPropertyOp24
70
1
102
RTVSPropertyOp25
70
1
102
RTVSPropertyOp26
70
1
102
RTVSPropertyOp27
70
1
0
XRECORD
5
10A5
102
{ACAD_REACTORS
330
10A4
102
}
330
10A4
100
AcDbXrecord
280
1
102
RTVSPropertyOp0
70
0
102
RTVSPropertyOp1
70
0
102
RTVSPropertyOp2
70
0
102
RTVSPropertyOp3
70
0
102
RTVSPropertyOp4
70
0
102
RTVSPropertyOp5
70
0
102
RTVSPropertyOp6
70
0
102
RTVSPropertyOp7
70
0
102
RTVSPropertyOp8
70
0
102
RTVSPropertyOp9
70
0
102
RTVSPropertyOp10
70
0
102
RTVSPropertyOp11
70
0
102
RTVSPropertyOp12
70
0
102
RTVSPropertyOp13
70
0
102
RTVSPropertyOp14
70
2
102
RTVSPropertyOp15
70
0
102
RTVSPropertyOp16
70
0
102
RTVSPropertyOp17
70
0
102
RTVSPropertyOp18
70
0
102
RTVSPropertyOp19
70
0
102
RTVSPropertyOp20
70
0
102
RTVSPropertyOp21
70
0
102
RTVSPropertyOp22
70
0
102
RTVSPropertyOp23
70
0
102
RTVSPropertyOp24
70
0
102
RTVSPropertyOp25
70
0
102
RTVSPropertyOp26
70
0
102
RTVSPropertyOp27
70
0
0
XRECORD
5
109D
102
{ACAD_REACTORS
330
109C
102
}
330
109C
100
AcDbXrecord
280
1
102
RTVSPropertyOp0
70
1
102
RTVSPropertyOp1
70
1
102
RTVSPropertyOp2
70
1
102
RTVSPropertyOp3
70
1
102
RTVSPropertyOp4
70
1
102
RTVSPropertyOp5
70
1
102
RTVSPropertyOp6
70
1
102
RTVSPropertyOp7
70
1
102
RTVSPropertyOp8
70
1
102
RTVSPropertyOp9
70
1
102
RTVSPropertyOp10
70
1
102
RTVSPropertyOp11
70
1
102
RTVSPropertyOp12
70
1
102
RTVSPropertyOp13
70
1
102
RTVSPropertyOp14
70
1
102
RTVSPropertyOp15
70
1
102
RTVSPropertyOp16
70
1
102
RTVSPropertyOp17
70
1
102
RTVSPropertyOp18
70
1
102
RTVSPropertyOp19
70
1
102
RTVSPropertyOp20
70
1
102
RTVSPropertyOp21
70
1
102
RTVSPropertyOp22
70
1
102
RTVSPropertyOp23
70
1
102
RTVSPropertyOp24
70
1
102
RTVSPropertyOp25
70
1
102
RTVSPropertyOp26
70
1
102
RTVSPropertyOp27
70
1
0
XRECORD
5
1081
102
{ACAD_REACTORS
330
1080
102
}
330
1080
100
AcDbXrecord
280
1
102
RTVSPropertyOp0
70
1
102
RTVSPropertyOp1
70
1
102
RTVSPropertyOp2
70
1
102
RTVSPropertyOp3
70
1
102
RTVSPropertyOp4
70
1
102
RTVSPropertyOp5
70
1
102
RTVSPropertyOp6
70
1
102
RTVSPropertyOp7
70
1
102
RTVSPropertyOp8
70
1
102
RTVSPropertyOp9
70
1
102
RTVSPropertyOp10
70
1
102
RTVSPropertyOp11
70
1
102
RTVSPropertyOp12
70
1
102
RTVSPropertyOp13
70
1
102
RTVSPropertyOp14
70
1
102
RTVSPropertyOp15
70
1
102
RTVSPropertyOp16
70
1
102
RTVSPropertyOp17
70
1
102
RTVSPropertyOp18
70
1
102
RTVSPropertyOp19
70
1
102
RTVSPropertyOp20
70
1
102
RTVSPropertyOp21
70
1
102
RTVSPropertyOp22
70
1
102
RTVSPropertyOp23
70
1
102
RTVSPropertyOp24
70
1
102
RTVSPropertyOp25
70
1
102
RTVSPropertyOp26
70
1
102
RTVSPropertyOp27
70
1
0
XRECORD
5
1083
102
{ACAD_REACTORS
330
1082
102
}
330
1082
100
AcDbXrecord
280
1
102
RTVSPropertyOp0
70
1
102
RTVSPropertyOp1
70
1
102
RTVSPropertyOp2
70
1
102
RTVSPropertyOp3
70
1
102
RTVSPropertyOp4
70
1
102
RTVSPropertyOp5
70
1
102
RTVSPropertyOp6
70
1
102
RTVSPropertyOp7
70
1
102
RTVSPropertyOp8
70
1
102
RTVSPropertyOp9
70
1
102
RTVSPropertyOp10
70
1
102
RTVSPropertyOp11
70
1
102
RTVSPropertyOp12
70
1
102
RTVSPropertyOp13
70
1
102
RTVSPropertyOp14
70
1
102
RTVSPropertyOp15
70
1
102
RTVSPropertyOp16
70
1
102
RTVSPropertyOp17
70
1
102
RTVSPropertyOp18
70
1
102
RTVSPropertyOp19
70
1
102
RTVSPropertyOp20
70
1
102
RTVSPropertyOp21
70
1
102
RTVSPropertyOp22
70
1
102
RTVSPropertyOp23
70
1
102
RTVSPropertyOp24
70
1
102
RTVSPropertyOp25
70
1
102
RTVSPropertyOp26
70
1
102
RTVSPropertyOp27
70
1
0
XRECORD
5
1085
102
{ACAD_REACTORS
330
1084
102
}
330
1084
100
AcDbXrecord
280
1
102
RTVSPropertyOp0
70
1
102
RTVSPropertyOp1
70
1
102
RTVSPropertyOp2
70
1
102
RTVSPropertyOp3
70
1
102
RTVSPropertyOp4
70
1
102
RTVSPropertyOp5
70
1
102
RTVSPropertyOp6
70
1
102
RTVSPropertyOp7
70
1
102
RTVSPropertyOp8
70
1
102
RTVSPropertyOp9
70
1
102
RTVSPropertyOp10
70
1
102
RTVSPropertyOp11
70
1
102
RTVSPropertyOp12
70
1
102
RTVSPropertyOp13
70
1
102
RTVSPropertyOp14
70
1
102
RTVSPropertyOp15
70
1
102
RTVSPropertyOp16
70
1
102
RTVSPropertyOp17
70
1
102
RTVSPropertyOp18
70
1
102
RTVSPropertyOp19
70
1
102
RTVSPropertyOp20
70
1
102
RTVSPropertyOp21
70
1
102
RTVSPropertyOp22
70
1
102
RTVSPropertyOp23
70
1
102
RTVSPropertyOp24
70
1
102
RTVSPropertyOp25
70
1
102
RTVSPropertyOp26
70
1
102
RTVSPropertyOp27
70
1
0
XRECORD
5
1087
102
{ACAD_REACTORS
330
1086
102
}
330
1086
100
AcDbXrecord
280
1
102
RTVSPropertyOp0
70
1
102
RTVSPropertyOp1
70
1
102
RTVSPropertyOp2
70
1
102
RTVSPropertyOp3
70
1
102
RTVSPropertyOp4
70
1
102
RTVSPropertyOp5
70
1
102
RTVSPropertyOp6
70
1
102
RTVSPropertyOp7
70
1
102
RTVSPropertyOp8
70
1
102
RTVSPropertyOp9
70
1
102
RTVSPropertyOp10
70
1
102
RTVSPropertyOp11
70
1
102
RTVSPropertyOp12
70
1
102
RTVSPropertyOp13
70
1
102
RTVSPropertyOp14
70
1
102
RTVSPropertyOp15
70
1
102
RTVSPropertyOp16
70
1
102
RTVSPropertyOp17
70
1
102
RTVSPropertyOp18
70
1
102
RTVSPropertyOp19
70
1
102
RTVSPropertyOp20
70
1
102
RTVSPropertyOp21
70
1
102
RTVSPropertyOp22
70
1
102
RTVSPropertyOp23
70
1
102
RTVSPropertyOp24
70
1
102
RTVSPropertyOp25
70
1
102
RTVSPropertyOp26
70
1
102
RTVSPropertyOp27
70
1
0
XRECORD
5
10A1
102
{ACAD_REACTORS
330
10A0
102
}
330
10A0
100
AcDbXrecord
280
1
102
RTVSPropertyOp0
70
0
102
RTVSPropertyOp1
70
0
102
RTVSPropertyOp2
70
0
102
RTVSPropertyOp3
70
0
102
RTVSPropertyOp4
70
0
102
RTVSPropertyOp5
70
0
102
RTVSPropertyOp6
70
0
102
RTVSPropertyOp7
70
0
102
RTVSPropertyOp8
70
0
102
RTVSPropertyOp9
70
0
102
RTVSPropertyOp10
70
0
102
RTVSPropertyOp11
70
0
102
RTVSPropertyOp12
70
0
102
RTVSPropertyOp13
70
0
102
RTVSPropertyOp14
70
2
102
RTVSPropertyOp15
70
0
102
RTVSPropertyOp16
70
0
102
RTVSPropertyOp17
70
0
102
RTVSPropertyOp18
70
0
102
RTVSPropertyOp19
70
0
102
RTVSPropertyOp20
70
0
102
RTVSPropertyOp21
70
0
102
RTVSPropertyOp22
70
0
102
RTVSPropertyOp23
70
0
102
RTVSPropertyOp24
70
0
102
RTVSPropertyOp25
70
0
102
RTVSPropertyOp26
70
0
102
RTVSPropertyOp27
70
0
0
XRECORD
5
109B
102
{ACAD_REACTORS
330
109A
102
}
330
109A
100
AcDbXrecord
280
1
102
RTVSPropertyOp0
70
1
102
RTVSPropertyOp1
70
1
102
RTVSPropertyOp2
70
1
102
RTVSPropertyOp3
70
1
102
RTVSPropertyOp4
70
1
102
RTVSPropertyOp5
70
1
102
RTVSPropertyOp6
70
1
102
RTVSPropertyOp7
70
1
102
RTVSPropertyOp8
70
1
102
RTVSPropertyOp9
70
1
102
RTVSPropertyOp10
70
1
102
RTVSPropertyOp11
70
1
102
RTVSPropertyOp12
70
1
102
RTVSPropertyOp13
70
1
102
RTVSPropertyOp14
70
1
102
RTVSPropertyOp15
70
1
102
RTVSPropertyOp16
70
1
102
RTVSPropertyOp17
70
1
102
RTVSPropertyOp18
70
1
102
RTVSPropertyOp19
70
1
102
RTVSPropertyOp20
70
1
102
RTVSPropertyOp21
70
1
102
RTVSPropertyOp22
70
1
102
RTVSPropertyOp23
70
1
102
RTVSPropertyOp24
70
1
102
RTVSPropertyOp25
70
1
102
RTVSPropertyOp26
70
1
102
RTVSPropertyOp27
70
1
0
XRECORD
5
10A3
102
{ACAD_REACTORS
330
10A2
102
}
330
10A2
100
AcDbXrecord
280
1
102
RTVSPropertyOp0
70
0
102
RTVSPropertyOp1
70
0
102
RTVSPropertyOp2
70
0
102
RTVSPropertyOp3
70
0
102
RTVSPropertyOp4
70
0
102
RTVSPropertyOp5
70
0
102
RTVSPropertyOp6
70
0
102
RTVSPropertyOp7
70
0
102
RTVSPropertyOp8
70
0
102
RTVSPropertyOp9
70
0
102
RTVSPropertyOp10
70
0
102
RTVSPropertyOp11
70
0
102
RTVSPropertyOp12
70
0
102
RTVSPropertyOp13
70
0
102
RTVSPropertyOp14
70
2
102
RTVSPropertyOp15
70
0
102
RTVSPropertyOp16
70
0
102
RTVSPropertyOp17
70
0
102
RTVSPropertyOp18
70
0
102
RTVSPropertyOp19
70
0
102
RTVSPropertyOp20
70
0
102
RTVSPropertyOp21
70
0
102
RTVSPropertyOp22
70
0
102
RTVSPropertyOp23
70
0
102
RTVSPropertyOp24
70
0
102
RTVSPropertyOp25
70
0
102
RTVSPropertyOp26
70
0
102
RTVSPropertyOp27
70
0
0
XRECORD
5
1093
102
{ACAD_REACTORS
330
1092
102
}
330
1092
100
AcDbXrecord
280
1
102
RTVSPropertyOp0
70
1
102
RTVSPropertyOp1
70
1
102
RTVSPropertyOp2
70
1
102
RTVSPropertyOp3
70
1
102
RTVSPropertyOp4
70
1
102
RTVSPropertyOp5
70
1
102
RTVSPropertyOp6
70
1
102
RTVSPropertyOp7
70
1
102
RTVSPropertyOp8
70
1
102
RTVSPropertyOp9
70
1
102
RTVSPropertyOp10
70
1
102
RTVSPropertyOp11
70
1
102
RTVSPropertyOp12
70
1
102
RTVSPropertyOp13
70
1
102
RTVSPropertyOp14
70
1
102
RTVSPropertyOp15
70
1
102
RTVSPropertyOp16
70
1
102
RTVSPropertyOp17
70
1
102
RTVSPropertyOp18
70
1
102
RTVSPropertyOp19
70
1
102
RTVSPropertyOp20
70
1
102
RTVSPropertyOp21
70
1
102
RTVSPropertyOp22
70
1
102
RTVSPropertyOp23
70
1
102
RTVSPropertyOp24
70
1
102
RTVSPropertyOp25
70
1
102
RTVSPropertyOp26
70
1
102
RTVSPropertyOp27
70
1
0
XRECORD
5
1099
102
{ACAD_REACTORS
330
1098
102
}
330
1098
100
AcDbXrecord
280
1
102
RTVSPropertyOp0
70
1
102
RTVSPropertyOp1
70
1
102
RTVSPropertyOp2
70
1
102
RTVSPropertyOp3
70
1
102
RTVSPropertyOp4
70
1
102
RTVSPropertyOp5
70
1
102
RTVSPropertyOp6
70
1
102
RTVSPropertyOp7
70
1
102
RTVSPropertyOp8
70
1
102
RTVSPropertyOp9
70
1
102
RTVSPropertyOp10
70
1
102
RTVSPropertyOp11
70
1
102
RTVSPropertyOp12
70
1
102
RTVSPropertyOp13
70
1
102
RTVSPropertyOp14
70
1
102
RTVSPropertyOp15
70
1
102
RTVSPropertyOp16
70
1
102
RTVSPropertyOp17
70
1
102
RTVSPropertyOp18
70
1
102
RTVSPropertyOp19
70
1
102
RTVSPropertyOp20
70
1
102
RTVSPropertyOp21
70
1
102
RTVSPropertyOp22
70
1
102
RTVSPropertyOp23
70
1
102
RTVSPropertyOp24
70
1
102
RTVSPropertyOp25
70
1
102
RTVSPropertyOp26
70
1
102
RTVSPropertyOp27
70
1
0
ENDSEC
0
EOF
