0
SECTION
2
HEADER
9
$ACADVER
1
AC1015
9
$ACADMAINTVER
70
20
9
$DWGCODEPAGE
3
ANSI_1252
9
$INSBASE
10
0.0
20
0.0
30
0.0
9
$EXTMIN
10
-150.000000000000
20
-105.000000000000
30
0.0
9
$EXTMAX
10
150.000000000000
20
105.000000000000
30
0.0
9
$LIMMIN
10
0.0
20
0.0
9
$LIMMAX
10
12.0
20
9.0
9
$ORTHOMODE
70
0
9
$REGENMODE
70
1
9
$FILLMODE
70
1
9
$QTEXTMODE
70
0
9
$MIRRTEXT
70
1
9
$LTSCALE
40
1.0
9
$ATTMODE
70
1
9
$TEXTSIZE
40
0.2
9
$TRACEWID
40
0.05
9
$TEXTSTYLE
7
Standard
9
$CLAYER
8
0
9
$CELTYPE
6
ByLayer
9
$CECOLOR
62
256
9
$CELTSCALE
40
1.0
9
$DISPSILH
70
0
9
$DIMSCALE
40
1.0
9
$DIMASZ
40
2.5
9
$DIMEXO
40
0.625
9
$DIMDLI
40
0.38
9
$DIMRND
40
0.0
9
$DIMDLE
40
0.0
9
$DIMEXE
40
1.25
9
$DIMTP
40
0.0
9
$DIMTM
40
0.000000001
9
$DIMTXT
40
2.5
9
$DIMCEN
40
0.09
9
$DIMTSZ
40
0.0
9
$DIMTOL
70
1
9
$DIMLIM
70
0
9
$DIMTIH
70
0
9
$DIMTOH
70
0
9
$DIMSE1
70
0
9
$DIMSE2
70
0
9
$DIMTAD
70
1
9
$DIMZIN
70
0
9
$DIMBLK
1
VDDIM_DEFAULT
9
$DIMASO
70
1
9
$DIMSHO
70
1
9
$DIMPOST
1

9
$DIMAPOST
1

9
$DIMALT
70
0
9
$DIMALTD
70
2
9
$DIMALTF
40
25.4
9
$DIMLFAC
40
1.00000000000000
9
$DIMTOFL
70
0
9
$DIMTVP
40
0.0
9
$DIMTIX
70
0
9
$DIMSOXD
70
0
9
$DIMSAH
70
0
9
$DIMBLK1
1

9
$DIMBLK2
1

9
$DIMSTYLE
2
BEM-ISBE
9
$DIMCLRD
70
0
9
$DIMCLRE
70
0
9
$DIMCLRT
70
0
9
$DIMTFAC
40
0.5
9
$DIMGAP
40
0.625
9
$DIMJUST
70
0
9
$DIMSD1
70
0
9
$DIMSD2
70
0
9
$DIMTOLJ
70
1
9
$DIMTZIN
70
0
9
$DIMALTZ
70
0
9
$DIMALTTZ
70
0
9
$DIMUPT
70
0
9
$DIMDEC
70
3
9
$DIMTDEC
70
3
9
$DIMALTU
70
2
9
$DIMALTTD
70
2
9
$DIMTXSTY
7
Standard
9
$DIMAUNIT
70
0
9
$DIMADEC
70
3
9
$DIMALTRND
40
0.0
9
$DIMAZIN
70
0
9
$DIMDSEP
70
46
9
$DIMATFIT
70
3
9
$DIMFRAC
70
0
9
$DIMLDRBLK
1

9
$DIMLUNIT
70
2
9
$DIMLWD
70
-2
9
$DIMLWE
70
-2
9
$DIMTMOVE
70
0
9
$LUNITS
70
2
9
$LUPREC
70
4
9
$SKETCHINC
40
0.1
9
$FILLETRAD
40
0.5
9
$AUNITS
70
0
9
$AUPREC
70
0
9
$MENU
1
.
9
$ELEVATION
40
0.0
9
$PELEVATION
40
0.0
9
$THICKNESS
40
0.0
9
$LIMCHECK
70
0
9
$CHAMFERA
40
0.5
9
$CHAMFERB
40
0.5
9
$CHAMFERC
40
1.0
9
$CHAMFERD
40
0.0
9
$SKPOLY
70
0
9
$TDCREATE
40
0.0
9
$TDUCREATE
40
0.0
9
$TDUPDATE
40
0.0
9
$TDUUPDATE
40
0.0
9
$TDINDWG
40
0.0
9
$TDUSRTIMER
40
0.0
9
$USRTIMER
70
1
9
$ANGBASE
50
0.0
9
$ANGDIR
70
0
9
$PDMODE
70
0
9
$PDSIZE
40
0.0
9
$PLINEWID
40
0.0
9
$SPLFRAME
70
0
9
$SPLINETYPE
70
6
9
$SPLINESEGS
70
8
9
$HANDSEED
5
10AB
9
$SURFTAB1
70
6
9
$SURFTAB2
70
6
9
$SURFTYPE
70
6
9
$SURFU
70
6
9
$SURFV
70
6
9
$UCSBASE
2

9
$UCSNAME
2

9
$UCSORG
10
0.0
20
0.0
30
0.0
9
$UCSXDIR
10
1.0
20
0.0
30
0.0
9
$UCSYDIR
10
0.0
20
1.0
30
0.0
9
$UCSORTHOREF
2

9
$UCSORTHOVIEW
70
0
9
$UCSORGTOP
10
0.0
20
0.0
30
0.0
9
$UCSORGBOTTOM
10
0.0
20
0.0
30
0.0
9
$UCSORGLEFT
10
0.0
20
0.0
30
0.0
9
$UCSORGRIGHT
10
0.0
20
0.0
30
0.0
9
$UCSORGFRONT
10
0.0
20
0.0
30
0.0
9
$UCSORGBACK
10
0.0
20
0.0
30
0.0
9
$PUCSBASE
2

9
$PUCSNAME
2

9
$PUCSORG
10
0.0
20
0.0
30
0.0
9
$PUCSXDIR
10
1.0
20
0.0
30
0.0
9
$PUCSYDIR
10
0.0
20
1.0
30
0.0
9
$PUCSORTHOREF
2

9
$PUCSORTHOVIEW
70
0
9
$PUCSORGTOP
10
0.0
20
0.0
30
0.0
9
$PUCSORGBOTTOM
10
0.0
20
0.0
30
0.0
9
$PUCSORGLEFT
10
0.0
20
0.0
30
0.0
9
$PUCSORGRIGHT
10
0.0
20
0.0
30
0.0
9
$PUCSORGFRONT
10
0.0
20
0.0
30
0.0
9
$PUCSORGBACK
10
0.0
20
0.0
30
0.0
9
$USERI1
70
0
9
$USERI2
70
0
9
$USERI3
70
0
9
$USERI4
70
0
9
$USERI5
70
0
9
$USERR1
40
0.0
9
$USERR2
40
0.0
9
$USERR3
40
0.0
9
$USERR4
40
0.0
9
$USERR5
40
0.0
9
$WORLDVIEW
70
1
9
$SHADEDGE
70
3
9
$SHADEDIF
70
70
9
$TILEMODE
70
1
9
$MAXACTVP
70
64
9
$PINSBASE
10
0.0
20
0.0
30
0.0
9
$PLIMCHECK
70
0
9
$PEXTMIN
10
1.000000000000000E+20
20
1.000000000000000E+20
30
1.000000000000000E+20
9
$PEXTMAX
10
-1.000000000000000E+20
20
-1.000000000000000E+20
30
-1.000000000000000E+20
9
$PLIMMIN
10
0.0
20
0.0
9
$PLIMMAX
10
12.0
20
9.0
9
$UNITMODE
70
0
9
$VISRETAIN
70
1
9
$PLINEGEN
70
0
9
$PSLTSCALE
70
1
9
$TREEDEPTH
70
3020
9
$CMLSTYLE
2
Standard
9
$CMLJUST
70
0
9
$CMLSCALE
40
1.0
9
$PROXYGRAPHICS
70
1
9
$MEASUREMENT
70
0
9
$CELWEIGHT
370
-1
9
$ENDCAPS
280
0
9
$JOINSTYLE
280
0
9
$LWDISPLAY
290
0
9
$INSUNITS
70
4
9
$HYPERLINKBASE
1

9
$STYLESHEET
1

9
$XEDIT
290
1
9
$CEPSNTYPE
380
0
9
$PSTYLEMODE
290
0
9
$FINGERPRINTGUID
2
{FAEB1C30-E019-11D5-929B-00C0DF256EC4}
9
$VERSIONGUID
2
{04C5C4E4-4947-4D90-8812-D401569E61F7}
9
$EXTNAMES
290
1
9
$PSVPSCALE
40
0.0
9
$OLESTARTUP
290
0
0
ENDSEC
0
SECTION
2
CLASSES
0
CLASS
1
ACDBDICTIONARYWDFLT
2
AcDbDictionaryWithDefault
3
ObjectDBX Classes
90
0
280
0
281
0
0
CLASS
1
ACDBPLACEHOLDER
2
AcDbPlaceHolder
3
ObjectDBX Classes
90
0
280
0
281
0
0
CLASS
1
LAYOUT
2
AcDbLayout
3
ObjectDBX Classes
90
0
280
0
281
0
0
CLASS
1
MATERIAL
2
AcDbMaterial
3
ObjectDBX Classes
90
1153
280
0
281
0
0
CLASS
1
VISUALSTYLE
2
AcDbVisualStyle
3
ObjectDBX Classes
90
4095
280
0
281
0
0
CLASS
1
TABLESTYLE
2
AcDbTableStyle
3
ObjectDBX Classes
90
4095
280
0
281
0
0
CLASS
1
SCALE
2
AcDbScale
3
ObjectDBX Classes
90
1153
280
0
281
0
0
CLASS
1
MLEADERSTYLE
2
AcDbMLeaderStyle
3
ACDB_MLEADERSTYLE_CLASS
90
4095
280
0
281
0
0
CLASS
1
DICTIONARYVAR
2
AcDbDictionaryVar
3
ObjectDBX Classes
90
0
280
0
281
0
0
CLASS
1
CELLSTYLEMAP
2
AcDbCellStyleMap
3
ObjectDBX Classes
90
1152
280
0
281
0
0
ENDSEC
0
SECTION
2
TABLES
0
TABLE
2
VPORT
5
24A
330
0
100
AcDbSymbolTable
70
1
0
VPORT
5
26B
330
24A
100
AcDbSymbolTableRecord
100
AcDbViewportTableRecord
2
*Active
70
0
10
0.0
20
0.0
11
1.0
21
1.0
12
0.000000000000000
22
0.000000000000000
13
0.0
23
0.0
14
10.0
24
10.0
15
10.0
25
10.0
16
0.0
26
0.0
36
1.0
17
0.0
27
0.0
37
0.0
40
210.000000000000
41
1.42857142857143
42
1.0
43
0.0
44
0.0
50
0.0
51
0.0000000000007958
71
0
72
100
73
1
74
3
75
0
76
0
77
0
78
1
281
0
65
1
110
0.0
120
0.0
130
0.0
111
1.0
121
0.0
131
0.0
112
0.0
122
1.0
132
0.0
79
0
146
0.0
0
ENDTAB
0
TABLE
2
LTYPE
5
247
330
0
100
AcDbSymbolTable
70
25
0
LTYPE
5
256
330
247
100
AcDbSymbolTableRecord
100
AcDbLinetypeTableRecord
2
ByBlock
70
0
3

72
65
73
0
40
0.0
0
LTYPE
5
257
330
247
100
AcDbSymbolTableRecord
100
AcDbLinetypeTableRecord
2
ByLayer
70
0
3

72
65
73
0
40
0.0
0
LTYPE
5
258
330
247
100
AcDbSymbolTableRecord
100
AcDbLinetypeTableRecord
2
Continuous
70
0
3
Solid line
72
65
73
0
40
0.0
0
LTYPE
5
273
330
247
100
AcDbSymbolTableRecord
100
AcDbLinetypeTableRecord
2
CENTER
70
0
3
Center ____ _ ____ _ ____ _ ____ _ ____ _ ____
72
65
73
4
40
2.0
49
1.25
74
0
49
-0.25
74
0
49
0.25
74
0
49
-0.25
74
0
0
LTYPE
5
274
330
247
100
AcDbSymbolTableRecord
100
AcDbLinetypeTableRecord
2
DASHDOT
70
0
3
Dashdot __ . __ . __ . __ . __ . __ . __ . __
72
65
73
4
40
1.0
49
0.5
74
0
49
-0.25
74
0
49
0.0
74
0
49
-0.25
74
0
0
LTYPE
5
275
330
247
100
AcDbSymbolTableRecord
100
AcDbLinetypeTableRecord
2
DASHED
70
0
3
Dashed __ __ __ __ __ __ __ __ __ __ __ __ __ _
72
65
73
2
40
0.75
49
0.5
74
0
49
-0.25
74
0
0
LTYPE
5
276
330
247
100
AcDbSymbolTableRecord
100
AcDbLinetypeTableRecord
2
HIDDEN
70
0
3
Hidden __ __ __ __ __ __ __ __ __ __ __ __ __ __
72
65
73
2
40
0.375
49
0.25
74
0
49
-0.125
74
0
0
LTYPE
5
277
330
247
100
AcDbSymbolTableRecord
100
AcDbLinetypeTableRecord
2
HIDDEN2
70
0
3
Hidden2 _ _ _ _ _ _ _ _ _ _ _ _ _ _ _ _ _
72
65
73
2
40
0.1875
49
0.125
74
0
49
-0.0625
74
0
0
LTYPE
5
278
330
247
100
AcDbSymbolTableRecord
100
AcDbLinetypeTableRecord
2
BORDER
70
0
3
Border __ __ . __ __ . __ __ . __ __ . __ __ .
72
65
73
6
40
1.75
49
0.5
74
0
49
-0.25
74
0
49
0.5
74
0
49
-0.25
74
0
49
0.0
74
0
49
-0.25
74
0
0
LTYPE
5
279
330
247
100
AcDbSymbolTableRecord
100
AcDbLinetypeTableRecord
2
BORDER2
70
0
3
Border2 __.__.__.__.__.__.__.__.__.__.__.
72
65
73
6
40
0.875
49
0.25
74
0
49
-0.125
74
0
49
0.25
74
0
49
-0.125
74
0
49
0.0
74
0
49
-0.125
74
0
0
LTYPE
5
27A
330
247
100
AcDbSymbolTableRecord
100
AcDbLinetypeTableRecord
2
BORDERX2
70
0
3
Borderx2  ____  ____  .  ____  ____  .  ___
72
65
73
6
40
3.5
49
1.0
74
0
49
-0.5
74
0
49
1.0
74
0
49
-0.5
74
0
49
0.0
74
0
49
-0.5
74
0
0
LTYPE
5
27B
330
247
100
AcDbSymbolTableRecord
100
AcDbLinetypeTableRecord
2
CENTER2
70
0
3
Center2  ___ _ ___ _ ___ _ ___ _ ___ _ ___
72
65
73
4
40
1.125
49
0.75
74
0
49
-0.125
74
0
49
0.125
74
0
49
-0.125
74
0
0
LTYPE
5
27C
330
247
100
AcDbSymbolTableRecord
100
AcDbLinetypeTableRecord
2
CENTERX2
70
0
3
Centerx2  ________  __  ________  __  _____
72
65
73
4
40
4.0
49
2.5
74
0
49
-0.5
74
0
49
0.5
74
0
49
-0.5
74
0
0
LTYPE
5
27D
330
247
100
AcDbSymbolTableRecord
100
AcDbLinetypeTableRecord
2
DASHDOT2
70
0
3
Dashdot2  _._._._._._._._._._._._._._._.
72
65
73
4
40
0.5
49
0.25
74
0
49
-0.125
74
0
49
0.0
74
0
49
-0.125
74
0
0
LTYPE
5
27E
330
247
100
AcDbSymbolTableRecord
100
AcDbLinetypeTableRecord
2
DASHDOTX2
70
0
3
Dashdotx2 ____  .  ____  .  ____  .  ___
72
65
73
4
40
2.0
49
1.0
74
0
49
-0.5
74
0
49
0.0
74
0
49
-0.5
74
0
0
LTYPE
5
27F
330
247
100
AcDbSymbolTableRecord
100
AcDbLinetypeTableRecord
2
DASHED2
70
0
3
Dashed2 _ _ _ _ _ _ _ _ _ _ _ _ _ _ _ _ _
72
65
73
2
40
0.375
49
0.25
74
0
49
-0.125
74
0
0
LTYPE
5
280
330
247
100
AcDbSymbolTableRecord
100
AcDbLinetypeTableRecord
2
DASHEDX2
70
0
3
Dashedx2 ____  ____  ____  ____  ____  ___
72
65
73
2
40
1.5
49
1.0
74
0
49
-0.5
74
0
0
LTYPE
5
281
330
247
100
AcDbSymbolTableRecord
100
AcDbLinetypeTableRecord
2
DIVIDE
70
0
3
Divide ____ . . ____ . . ____ . . ____ . . ____
72
65
73
6
40
1.25
49
0.5
74
0
49
-0.25
74
0
49
0.0
74
0
49
-0.25
74
0
49
0.0
74
0
49
-0.25
74
0
0
LTYPE
5
282
330
247
100
AcDbSymbolTableRecord
100
AcDbLinetypeTableRecord
2
DIVIDE2
70
0
3
Divide2 __..__..__..__..__..__..__..__.._
72
65
73
6
40
0.625
49
0.25
74
0
49
-0.125
74
0
49
0.0
74
0
49
-0.125
74
0
49
0.0
74
0
49
-0.125
74
0
0
LTYPE
5
283
330
247
100
AcDbSymbolTableRecord
100
AcDbLinetypeTableRecord
2
DIVIDEX2
70
0
3
Dividex2 ________  .  .  ________  .  .  _
72
65
73
6
40
2.5
49
1.0
74
0
49
-0.5
74
0
49
0.0
74
0
49
-0.5
74
0
49
0.0
74
0
49
-0.5
74
0
0
LTYPE
5
284
330
247
100
AcDbSymbolTableRecord
100
AcDbLinetypeTableRecord
2
DOT
70
0
3
Dot . . . . . . . . . . . . . . . . . . . . . . . .
72
65
73
2
40
0.25
49
0.0
74
0
49
-0.25
74
0
0
LTYPE
5
285
330
247
100
AcDbSymbolTableRecord
100
AcDbLinetypeTableRecord
2
DOT2
70
0
3
Dot2 ........................................
72
65
73
2
40
0.125
49
0.0
74
0
49
-0.125
74
0
0
LTYPE
5
286
330
247
100
AcDbSymbolTableRecord
100
AcDbLinetypeTableRecord
2
DOTX2
70
0
3
Dotx2 .  .  .  .  .  .  .  .  .  .  .  .  .  .
72
65
73
2
40
0.5
49
0.0
74
0
49
-0.5
74
0
0
LTYPE
5
287
330
247
100
AcDbSymbolTableRecord
100
AcDbLinetypeTableRecord
2
HIDDENX2
70
0
3
Hiddenx2 ____ ____ ____ ____ ____ ____ ____
72
65
73
2
40
0.75
49
0.5
74
0
49
-0.25
74
0
0
LTYPE
5
288
330
247
100
AcDbSymbolTableRecord
100
AcDbLinetypeTableRecord
2
PHANTOM
70
0
3
Phantom ______  __  __  ______  __  __  ______
72
65
73
6
40
2.5
49
1.25
74
0
49
-0.25
74
0
49
0.25
74
0
49
-0.25
74
0
49
0.25
74
0
49
-0.25
74
0
0
LTYPE
5
289
330
247
100
AcDbSymbolTableRecord
100
AcDbLinetypeTableRecord
2
PHANTOM2
70
0
3
Phantom2 ___ _ _ ___ _ _ ___ _ _ ___ _ _
72
65
73
6
40
1.25
49
0.625
74
0
49
-0.125
74
0
49
0.125
74
0
49
-0.125
74
0
49
0.125
74
0
49
-0.125
74
0
0
LTYPE
5
28A
330
247
100
AcDbSymbolTableRecord
100
AcDbLinetypeTableRecord
2
PHANTOMX2
70
0
3
Phantomx2 ____________    ____    ____   _
72
65
73
6
40
5.0
49
2.5
74
0
49
-0.5
74
0
49
0.5
74
0
49
-0.5
74
0
49
0.5
74
0
49
-0.5
74
0
0
ENDTAB
0
TABLE
2
LAYER
5
244
330
0
100
AcDbSymbolTable
70
6
0
LAYER
5
252
330
244
100
AcDbSymbolTableRecord
100
AcDbLayerTableRecord
2
0
70
0
62
7
6
Continuous
370
0
390
251
0
LAYER
5
23F
330
244
100
AcDbSymbolTableRecord
100
AcDbLayerTableRecord
2
Bemassung
70
0
 62
   7
6
Continuous
370
0
390
251
0
LAYER
5
240
330
244
100
AcDbSymbolTableRecord
100
AcDbLayerTableRecord
2
Rahmen
70
0
 62
   7
6
Continuous
370
0
390
251
0
LAYER
5
241
330
244
100
AcDbSymbolTableRecord
100
AcDbLayerTableRecord
2
Geo
70
0
 62
   7
6
Continuous
370
0
390
251
0
LAYER
5
33A
330
244
100
AcDbSymbolTableRecord
100
AcDbLayerTableRecord
2
Defpoints
70
0
62
7
6
Continuous
290
0
370
-3
390
251
0
LAYER
5
57E
330
244
100
AcDbSymbolTableRecord
100
AcDbLayerTableRecord
2
Text
70
0
 62
   7
6
Continuous
370
0
390
251
1001
AcAecLayerStandard
1000

1000

0
ENDTAB
0
TABLE
2
STYLE
5
245
330
0
100
AcDbSymbolTable
70
2
0
STYLE
5
253
330
245
100
AcDbSymbolTableRecord
100
AcDbTextStyleTableRecord
2
Standard
70
0
40
0.0
41
1.0
50
0.0
71
0
42
0.2
3
Arial
4

1001
ACAD
1000
Arial
1071
0
0
STYLE
5
132
330
245
100
AcDbSymbolTableRecord
100
AcDbTextStyleTableRecord
2
Beschriftung
70
0
40
0.0
41
1.0
50
0.0
71
0
42
0.2
3
Arial
4

1001
ACAD
1000
Arial
1071
0
1001
AcadAnnotative
1000
AnnotativeData
1070
1
1070
1
0
ENDTAB
0
TABLE
2
VIEW
5
248
330
0
100
AcDbSymbolTable
70
0
0
ENDTAB
0
TABLE
2
UCS
5
249
330
0
100
AcDbSymbolTable
70
0
0
ENDTAB
0
TABLE
2
APPID
5
24B
330
0
100
AcDbSymbolTable
70
13
0
APPID
5
254
330
24B
100
AcDbSymbolTableRecord
100
AcDbRegAppTableRecord
2
ACAD
70
0
0
APPID
5
26C
330
24B
100
AcDbSymbolTableRecord
100
AcDbRegAppTableRecord
2
VD_INVISIBLE_NOT_FOR_READ
70
0
0
APPID
5
26D
330
24B
100
AcDbSymbolTableRecord
100
AcDbRegAppTableRecord
2
VD_TEMPHATCH
70
0
0
APPID
5
26E
330
24B
100
AcDbSymbolTableRecord
100
AcDbRegAppTableRecord
2
VDEXTRAPARAM
70
0
0
APPID
5
26F
330
24B
100
AcDbSymbolTableRecord
100
AcDbRegAppTableRecord
2
PE_URL
70
0
0
APPID
5
270
330
24B
100
AcDbSymbolTableRecord
100
AcDbRegAppTableRecord
2
VD_UNKNOWN
70
0
0
APPID
5
28F
330
24B
100
AcDbSymbolTableRecord
100
AcDbRegAppTableRecord
2
AcadAnnotative
70
0
0
APPID
5
290
330
24B
100
AcDbSymbolTableRecord
100
AcDbRegAppTableRecord
2
ACAD_DSTYLE_DIMJAG
70
0
0
APPID
5
291
330
24B
100
AcDbSymbolTableRecord
100
AcDbRegAppTableRecord
2
ACAD_DSTYLE_DIMTALN
70
0
0
APPID
5
293
330
24B
100
AcDbSymbolTableRecord
100
AcDbRegAppTableRecord
2
ACAD_PSEXT
70
0
0
APPID
5
42A
330
24B
100
AcDbSymbolTableRecord
100
AcDbRegAppTableRecord
2
ACAD_MLEADERVER
70
0
0
APPID
5
532
330
24B
100
AcDbSymbolTableRecord
100
AcDbRegAppTableRecord
2
ACAD_EXEMPT_FROM_CAD_STANDARDS
70
0
0
APPID
5
57F
330
24B
100
AcDbSymbolTableRecord
100
AcDbRegAppTableRecord
2
AcAecLayerStandard
70
0
0
ENDTAB
0
TABLE
2
DIMSTYLE
5
24C
330
0
100
AcDbSymbolTable
70
3
100
AcDbDimStyleTable
71
2
340
27
340
269
0
DIMSTYLE
105
269
330
24C
100
AcDbSymbolTableRecord
100
AcDbDimStyleTableRecord
2
Standard
70
0
172
1
174
1
288
1
340
253
342
23C
0
DIMSTYLE
105
137
330
24C
100
AcDbSymbolTableRecord
100
AcDbDimStyleTableRecord
2
Beschriftung
70
0
41
2.5
42
0.625
44
1.25
73
0
74
0
77
1
140
2.5
147
0.625
172
1
174
1
271
2
288
1
340
253
342
23C
1001
AcadAnnotative
1000
AnnotativeData
1070
1
1070
1
1001
ACAD_DSTYLE_DIMJAG
1070
388
1040
1.5
1001
ACAD_DSTYLE_DIMTALN
1070
392
1070
0
0
DIMSTYLE
105
27
102
{ACAD_REACTORS
330
F1000D
330
F10012
330
F10017
330
F1001C
330
F10003
330
F10008
330
F10021
102
}
330
24C
100
AcDbSymbolTableRecord
100
AcDbDimStyleTableRecord
2
BEM-ISBE
70
0
41
2.5
42
0.625
44
1.25
48
0.000000001
71
1
73
0
74
0
77
1
140
2.5
144
1.00000000000000
146
0.5
147
0.625
171
 3
172
 1
179
 3
271
 3
272
 3
274
 3
340
253
342
23C
1001
ACAD_DSTYLE_DIMJAG
1070
388
1040
1.5
1001
ACAD_DSTYLE_DIMTALN
1070
392
1070
1
0
ENDTAB
0
TABLE
2
BLOCK_RECORD
5
243
330
0
100
AcDbSymbolTable
70
5
0
BLOCK_RECORD
5
261
330
243
100
AcDbSymbolTableRecord
100
AcDbBlockTableRecord
2
*Model_Space
340
FD0
0
BLOCK_RECORD
5
25D
330
243
100
AcDbSymbolTableRecord
100
AcDbBlockTableRecord
2
*Paper_Space
340
FD1
0
BLOCK_RECORD
5
265
330
243
100
AcDbSymbolTableRecord
100
AcDbBlockTableRecord
2
*Paper_Space0
340
0
0
BLOCK_RECORD
5
23C
330
243
100
AcDbSymbolTableRecord
100
AcDbBlockTableRecord
2
VDDIM_DEFAULT
340
0
102
{BLKREFS
102
}
0
BLOCK_RECORD
5
23E
330
243
100
AcDbSymbolTableRecord
100
AcDbBlockTableRecord
2
VDDIM_NONE
340
0
0
BLOCK_RECORD
5
F1000C
330
243
100
AcDbSymbolTableRecord
100
AcDbBlockTableRecord
2
*D5
340
0
0
BLOCK_RECORD
5
F10011
330
243
100
AcDbSymbolTableRecord
100
AcDbBlockTableRecord
2
*D6
340
0
0
BLOCK_RECORD
5
F10016
330
243
100
AcDbSymbolTableRecord
100
AcDbBlockTableRecord
2
*D7
340
0
0
BLOCK_RECORD
5
F1001B
330
243
100
AcDbSymbolTableRecord
100
AcDbBlockTableRecord
2
*D8
340
0
0
BLOCK_RECORD
5
F10002
330
243
100
AcDbSymbolTableRecord
100
AcDbBlockTableRecord
2
*D3
340
0
0
BLOCK_RECORD
5
F10007
330
243
100
AcDbSymbolTableRecord
100
AcDbBlockTableRecord
2
*D4
340
0
0
BLOCK_RECORD
5
F10020
330
243
100
AcDbSymbolTableRecord
100
AcDbBlockTableRecord
2
*D9
340
0
0
ENDTAB
0
ENDSEC
0
SECTION
2
BLOCKS
0
BLOCK
5
262
330
261
100
AcDbEntity
8
0
100
AcDbBlockBegin
2
*Model_Space
70
0
10
0.0
20
0.0
30
0.0
3
*Model_Space
1

0
ENDBLK
5
263
330
261
100
AcDbEntity
8
0
100
AcDbBlockEnd
0
BLOCK
5
25E
330
25D
100
AcDbEntity
67
1
8
0
100
AcDbBlockBegin
2
*Paper_Space
70
0
10
0.0
20
0.0
30
0.0
3
*Paper_Space
1

0
ENDBLK
5
25F
330
25D
100
AcDbEntity
67
1
8
0
100
AcDbBlockEnd
0
BLOCK
5
266
330
265
100
AcDbEntity
8
0
100
AcDbBlockBegin
2
*Paper_Space0
70
0
10
0.0
20
0.0
30
0.0
3
*Paper_Space0
1

0
VIEWPORT
5
296
102
{ACAD_XDICTIONARY
360
58E
102
}
330
265
100
AcDbEntity
8
0
60
1
100
AcDbViewport
10
0.0
20
0.0
30
0.0
40
10.0
41
10.0
69
0
12
0.0
22
0.0
13
0.0
23
0.0
14
1.0
24
1.0
15
0.0
25
0.0
16
0.0
26
0.0
36
1.0
17
0.0
27
0.0
37
0.0
42
0.0
43
0.0
44
0.0
45
10.0
50
0.0
51
0.0000000000007958
72
100
90
163872
1

281
0
71
0
74
0
110
0.0
120
0.0
130
0.0
111
1.0
121
0.0
131
0.0
112
0.0
122
1.0
132
0.0
79
0
146
0.0
1001
VD_INVISIBLE_NOT_FOR_READ
1000
VD_INVISIBLE_NOT_FOR_READ
0
VIEWPORT
5
297
102
{ACAD_XDICTIONARY
360
590
102
}
330
265
100
AcDbEntity
8
0
60
1
100
AcDbViewport
10
0.0
20
0.0
30
0.0
40
10.0
41
10.0
69
0
12
0.0
22
0.0
13
0.0
23
0.0
14
1.0
24
1.0
15
0.0
25
0.0
16
0.0
26
0.0
36
1.0
17
0.0
27
0.0
37
0.0
42
0.0
43
0.0
44
0.0
45
10.0
50
0.0
51
0.0000000000007958
72
100
90
163872
1

281
0
71
0
74
0
110
0.0
120
0.0
130
0.0
111
1.0
121
0.0
131
0.0
112
0.0
122
1.0
132
0.0
79
0
146
0.0
1001
VD_INVISIBLE_NOT_FOR_READ
1000
VD_INVISIBLE_NOT_FOR_READ
0
ENDBLK
5
267
330
265
100
AcDbEntity
8
0
100
AcDbBlockEnd
0
BLOCK
5
28B
330
23C
100
AcDbEntity
8
0
100
AcDbBlockBegin
2
VDDIM_DEFAULT
70
0
10
0.0
20
0.0
30
0.0
3
VDDIM_DEFAULT
1

0
LWPOLYLINE
5
23D
330
23C
100
AcDbEntity
8
0
6
Continuous
62
0
100
AcDbPolyline
90
4
70
0
43
0.0
10
0.0
20
0.0
10
-1.0
20
-0.1665
10
-1.0
20
0.1665
10
0.0
20
0.0
1001
VDEXTRAPARAM
1071
1
1071
0
1071
0
1040
1.0
1000

1000

1040
0.0
1040
0.0
0
HATCH
5
292
330
23C
100
AcDbEntity
8
0
6
Continuous
62
0
100
AcDbHatch
10
0.0
20
0.0
30
0.0
210
0.0
220
0.0
230
1.0
2
SOLID
70
1
71
0
91
1
92
2
72
0
73
1
93
3
10
0.0
20
0.0
10
-1.0
20
-0.1665
10
-1.0
20
0.1665
97
0
75
0
76
1
98
1
10
0.0
20
0.0
1001
VDEXTRAPARAM
1071
1
1071
0
1071
0
1040
1.0
1000

1000

1040
0.0
1040
0.0
1001
VD_TEMPHATCH
1000
VD_TEMPHATCH
0
ENDBLK
5
28C
330
23C
100
AcDbEntity
8
0
100
AcDbBlockEnd
0
BLOCK
5
28D
330
23E
100
AcDbEntity
8
0
100
AcDbBlockBegin
2
VDDIM_NONE
70
0
10
0.0
20
0.0
30
0.0
3
VDDIM_NONE
1

0
ENDBLK
5
28E
330
23E
100
AcDbEntity
8
0
100
AcDbBlockEnd
  0
BLOCK
  5
F10025
330
F1000C
100
AcDbEntity
  8
0
100
AcDbBlockBegin
  2
*D5
 70
     1
 10
0.0
 20
0.0
 30
0.0
  3
*D5
  1

  0
LINE
  5
F10026
330
F1000C
100
AcDbEntity
  8
Bemassung
 62
     0
370
    -2
100
AcDbLine
10
-53.2871116225547
20
-17.1081703107020
30
0.000000000000000
11
-53.2871116225547
21
28.8918296892980
31
0.000000000000000
  0
LINE
  5
F10027
330
F1000C
100
AcDbEntity
  8
Bemassung
 62
     0
370
    -2
100
AcDbLine
10
-3.28711162255469
20
1.59182968929804
30
0.000000000000000
11
-3.28711162255469
21
10.8918296892980
31
0.000000000000000
  0
LINE
  5
F10028
330
F1000C
100
AcDbEntity
  8
Bemassung
 62
     0
370
    -2
100
AcDbLine
10
-53.2871116225547
20
8.89182968929804
30
0.000000000000000
11
-3.28711162255469
21
8.89182968929804
31
0.000000000000000
  0
INSERT
  5
F10029
330
F1000C
100
AcDbEntity
  8
Bemassung
 62
     0
370
    -2
100
AcDbBlockReference
  2
VDDIM_DEFAULT
10
-53.2871116225547
20
8.89182968929804
30
0.000000000000000
 41
2.50000000000000
 42
2.50000000000000
 43
2.50000000000000
 50
180.000000000000
  0
INSERT
  5
F1002A
330
F1000C
100
AcDbEntity
  8
Bemassung
 62
     0
370
    -2
100
AcDbBlockReference
  2
VDDIM_DEFAULT
10
-3.28711162255469
20
8.89182968929804
30
0.000000000000000
 41
2.50000000000000
 42
2.50000000000000
 43
2.50000000000000
  0
MTEXT
  5
F1002B
330
F1000C
100
AcDbEntity
  8
Bemassung
 62
     0
100
AcDbMText
10
-28.2871116225547
20
9.55849635596470
30
0.000000000000000
 40
2.50000000000000
 41
0.0
 71
     8
 72
     1
  1
50
 11
1.00000000000000
 21
0.000000000000000
 31
0.0
 73
     1
 44
1.0
1001
ACAD
1000
MTEXTBEGIN
1070
73
1070
1
1070
44
1040
1.0
1070
74
1070
0
1000
MTEXTEND
  0
POINT
  5
F1002C
330
F1000C
100
AcDbEntity
  8
Bemassung
 62
     0
100
AcDbPoint
10
-53.2871116225547
20
-17.1081703107020
30
0.000000000000000
  0
POINT
  5
F1002D
330
F1000C
100
AcDbEntity
  8
Bemassung
 62
     0
100
AcDbPoint
10
-3.28711162255469
20
1.59182968929804
30
0.000000000000000
  0
ENDBLK
  5
F1002E
330
F1000C
100
AcDbEntity
  8
0
100
AcDbBlockEnd
  0
BLOCK
  5
F1002F
330
F10011
100
AcDbEntity
  8
0
100
AcDbBlockBegin
  2
*D6
 70
     1
 10
0.0
 20
0.0
 30
0.0
  3
*D6
  1

  0
LINE
  5
F10030
330
F10011
100
AcDbEntity
  8
Bemassung
 62
     0
370
    -2
100
AcDbLine
10
-53.2871116225547
20
-17.1081703107020
30
0.000000000000000
11
-53.2871116225547
21
28.8918296892980
31
0.000000000000000
  0
LINE
  5
F10031
330
F10011
100
AcDbEntity
  8
Bemassung
 62
     0
370
    -2
100
AcDbLine
10
-2.78711162255469
20
1.89182968929804
30
0.000000000000000
11
-2.78711162255469
21
18.8918296892980
31
0.000000000000000
  0
LINE
  5
F10032
330
F10011
100
AcDbEntity
  8
Bemassung
 62
     0
370
    -2
100
AcDbLine
10
-53.2871116225547
20
16.8918296892980
30
0.000000000000000
11
-2.78711162255469
21
16.8918296892980
31
0.000000000000000
  0
INSERT
  5
F10033
330
F10011
100
AcDbEntity
  8
Bemassung
 62
     0
370
    -2
100
AcDbBlockReference
  2
VDDIM_DEFAULT
10
-53.2871116225547
20
16.8918296892980
30
0.000000000000000
 41
2.50000000000000
 42
2.50000000000000
 43
2.50000000000000
 50
180.000000000000
  0
INSERT
  5
F10034
330
F10011
100
AcDbEntity
  8
Bemassung
 62
     0
370
    -2
100
AcDbBlockReference
  2
VDDIM_DEFAULT
10
-2.78711162255469
20
16.8918296892980
30
0.000000000000000
 41
2.50000000000000
 42
2.50000000000000
 43
2.50000000000000
  0
MTEXT
  5
F10035
330
F10011
100
AcDbEntity
  8
Bemassung
 62
     0
100
AcDbMText
10
-28.0371116225547
20
17.5584963559647
30
0.000000000000000
 40
2.50000000000000
 41
0.0
 71
     8
 72
     1
  1
50.5
 11
1.00000000000000
 21
0.000000000000000
 31
0.0
 73
     1
 44
1.0
1001
ACAD
1000
MTEXTBEGIN
1070
73
1070
1
1070
44
1040
1.0
1070
74
1070
0
1000
MTEXTEND
  0
POINT
  5
F10036
330
F10011
100
AcDbEntity
  8
Bemassung
 62
     0
100
AcDbPoint
10
-53.2871116225547
20
-17.1081703107020
30
0.000000000000000
  0
POINT
  5
F10037
330
F10011
100
AcDbEntity
  8
Bemassung
 62
     0
100
AcDbPoint
10
-2.78711162255469
20
1.89182968929804
30
0.000000000000000
  0
ENDBLK
  5
F10038
330
F10011
100
AcDbEntity
  8
0
100
AcDbBlockEnd
  0
BLOCK
  5
F10039
330
F10016
100
AcDbEntity
  8
0
100
AcDbBlockBegin
  2
*D7
 70
     1
 10
0.0
 20
0.0
 30
0.0
  3
*D7
  1

  0
LINE
  5
F1003A
330
F10016
100
AcDbEntity
  8
Bemassung
 62
     0
370
    -2
100
AcDbLine
10
-23.2871116225547
20
-9.80817031070196
30
0.000000000000000
11
-23.2871116225547
21
-17.1081703107020
31
0.000000000000000
  0
LINE
  5
F1003B
330
F10016
100
AcDbEntity
  8
Bemassung
 62
     0
370
    -2
100
AcDbLine
10
-53.2871116225547
20
-17.1081703107020
30
0.000000000000000
11
-53.2871116225547
21
28.8918296892980
31
0.000000000000000
  0
LINE
  5
F1003C
330
F10016
100
AcDbEntity
  8
Bemassung
 62
     0
370
    -2
100
AcDbLine
10
-23.2871116225547
20
-15.1081703107020
30
0.000000000000000
11
-53.2871116225547
21
-15.1081703107020
31
0.000000000000000
  0
INSERT
  5
F1003D
330
F10016
100
AcDbEntity
  8
Bemassung
 62
     0
370
    -2
100
AcDbBlockReference
  2
VDDIM_DEFAULT
10
-23.2871116225547
20
-15.1081703107020
30
0.000000000000000
 41
2.50000000000000
 42
2.50000000000000
 43
2.50000000000000
  0
INSERT
  5
F1003E
330
F10016
100
AcDbEntity
  8
Bemassung
 62
     0
370
    -2
100
AcDbBlockReference
  2
VDDIM_DEFAULT
10
-53.2871116225547
20
-15.1081703107020
30
0.000000000000000
 41
2.50000000000000
 42
2.50000000000000
 43
2.50000000000000
 50
180.000000000000
  0
MTEXT
  5
F1003F
330
F10016
100
AcDbEntity
  8
Bemassung
 62
     0
100
AcDbMText
10
-38.2871116225547
20
-14.4415036440353
30
0.000000000000000
 40
2.50000000000000
 41
0.0
 71
     8
 72
     1
  1
30
 11
1.00000000000000
 21
0.000000000000000
 31
0.0
 73
     1
 44
1.0
1001
ACAD
1000
MTEXTBEGIN
1070
73
1070
1
1070
44
1040
1.0
1070
74
1070
0
1000
MTEXTEND
  0
POINT
  5
F10040
330
F10016
100
AcDbEntity
  8
Bemassung
 62
     0
100
AcDbPoint
10
-23.2871116225547
20
-9.80817031070196
30
0.000000000000000
  0
POINT
  5
F10041
330
F10016
100
AcDbEntity
  8
Bemassung
 62
     0
100
AcDbPoint
10
-53.2871116225547
20
-17.1081703107020
30
0.000000000000000
  0
ENDBLK
  5
F10042
330
F10016
100
AcDbEntity
  8
0
100
AcDbBlockEnd
  0
BLOCK
  5
F10043
330
F1001B
100
AcDbEntity
  8
0
100
AcDbBlockBegin
  2
*D8
 70
     1
 10
0.0
 20
0.0
 30
0.0
  3
*D8
  1

  0
LINE
  5
F10044
330
F1001B
100
AcDbEntity
  8
Bemassung
 62
     0
370
    -2
100
AcDbLine
10
66.7128883774453
20
1.39182968929804
30
0.000000000000000
11
66.7128883774453
21
28.8918296892980
31
0.000000000000000
  0
LINE
  5
F10045
330
F1001B
100
AcDbEntity
  8
Bemassung
 62
     0
370
    -2
100
AcDbLine
10
-53.2871116225547
20
-17.1081703107020
30
0.000000000000000
11
-53.2871116225547
21
28.8918296892980
31
0.000000000000000
  0
LINE
  5
F10046
330
F1001B
100
AcDbEntity
  8
Bemassung
 62
     0
370
    -2
100
AcDbLine
10
66.7128883774453
20
26.8918296892980
30
0.000000000000000
11
-53.2871116225547
21
26.8918296892980
31
0.000000000000000
  0
INSERT
  5
F10047
330
F1001B
100
AcDbEntity
  8
Bemassung
 62
     0
370
    -2
100
AcDbBlockReference
  2
VDDIM_DEFAULT
10
66.7128883774453
20
26.8918296892980
30
0.000000000000000
 41
2.50000000000000
 42
2.50000000000000
 43
2.50000000000000
  0
INSERT
  5
F10048
330
F1001B
100
AcDbEntity
  8
Bemassung
 62
     0
370
    -2
100
AcDbBlockReference
  2
VDDIM_DEFAULT
10
-53.2871116225547
20
26.8918296892980
30
0.000000000000000
 41
2.50000000000000
 42
2.50000000000000
 43
2.50000000000000
 50
180.000000000000
  0
MTEXT
  5
F10049
330
F1001B
100
AcDbEntity
  8
Bemassung
 62
     0
100
AcDbMText
10
6.71288837744531
20
27.5584963559647
30
0.000000000000000
 40
2.50000000000000
 41
0.0
 71
     8
 72
     1
  1
120
 11
1.00000000000000
 21
0.000000000000000
 31
0.0
 73
     1
 44
1.0
1001
ACAD
1000
MTEXTBEGIN
1070
73
1070
1
1070
44
1040
1.0
1070
74
1070
0
1000
MTEXTEND
  0
POINT
  5
F1004A
330
F1001B
100
AcDbEntity
  8
Bemassung
 62
     0
100
AcDbPoint
10
66.7128883774453
20
1.39182968929804
30
0.000000000000000
  0
POINT
  5
F1004B
330
F1001B
100
AcDbEntity
  8
Bemassung
 62
     0
100
AcDbPoint
10
-53.2871116225547
20
-17.1081703107020
30
0.000000000000000
  0
ENDBLK
  5
F1004C
330
F1001B
100
AcDbEntity
  8
0
100
AcDbBlockEnd
  0
BLOCK
  5
F1004D
330
F10002
100
AcDbEntity
  8
0
100
AcDbBlockBegin
  2
*D3
 70
     1
 10
0.0
 20
0.0
 30
0.0
  3
*D3
  1

  0
LINE
  5
F1004E
330
F10002
100
AcDbEntity
  8
Bemassung
 62
     0
370
    -2
100
AcDbLine
10
-53.2871116225547
20
-10.1081703107020
30
0.000000000000000
11
-65.2871116225547
21
-10.1081703107020
31
0.000000000000000
  0
LINE
  5
F1004F
330
F10002
100
AcDbEntity
  8
Bemassung
 62
     0
370
    -2
100
AcDbLine
10
-53.2871116225547
20
1.89182968929804
30
0.000000000000000
11
-65.2871116225547
21
1.89182968929804
31
0.000000000000000
  0
LINE
  5
F10050
330
F10002
100
AcDbEntity
  8
Bemassung
 62
     0
370
    -2
100
AcDbLine
10
-63.2871116225547
20
-10.1081703107020
30
0.000000000000000
11
-63.2871116225547
21
1.89182968929804
31
0.000000000000000
  0
INSERT
  5
F10051
330
F10002
100
AcDbEntity
  8
Bemassung
 62
     0
370
    -2
100
AcDbBlockReference
  2
VDDIM_DEFAULT
10
-63.2871116225547
20
-10.1081703107020
30
0.000000000000000
 41
2.50000000000000
 42
2.50000000000000
 43
2.50000000000000
 50
90.0000000000000
  0
INSERT
  5
F10052
330
F10002
100
AcDbEntity
  8
Bemassung
 62
     0
370
    -2
100
AcDbBlockReference
  2
VDDIM_DEFAULT
10
-63.2871116225547
20
1.89182968929804
30
0.000000000000000
 41
2.50000000000000
 42
2.50000000000000
 43
2.50000000000000
 50
270.000000000000
  0
MTEXT
  5
F10053
330
F10002
100
AcDbEntity
  8
Bemassung
 62
     0
100
AcDbMText
10
-63.9537782892214
20
-4.22899884925201
30
0.000000000000000
 40
2.50000000000000
 41
0.0
 71
     8
 72
     1
  1
Ø12
 11
6.12323399573677e-17
 21
1.00000000000000
 31
0.0
 73
     1
 44
1.0
1001
ACAD
1000
MTEXTBEGIN
1070
73
1070
1
1070
44
1040
1.0
1070
74
1070
0
1000
MTEXTEND
  0
POINT
  5
F10054
330
F10002
100
AcDbEntity
  8
Bemassung
 62
     0
100
AcDbPoint
10
-53.2871116225547
20
-10.1081703107020
30
0.000000000000000
  0
POINT
  5
F10055
330
F10002
100
AcDbEntity
  8
Bemassung
 62
     0
100
AcDbPoint
10
-53.2871116225547
20
1.89182968929804
30
0.000000000000000
  0
ENDBLK
  5
F10056
330
F10002
100
AcDbEntity
  8
0
100
AcDbBlockEnd
  0
BLOCK
  5
F10057
330
F10007
100
AcDbEntity
  8
0
100
AcDbBlockBegin
  2
*D4
 70
     1
 10
0.0
 20
0.0
 30
0.0
  3
*D4
  1

  0
LINE
  5
F10058
330
F10007
100
AcDbEntity
  8
Bemassung
 62
     0
370
    -2
100
AcDbLine
10
-23.2871116225547
20
-9.80817031070196
30
0.000000000000000
11
-10.2871116225547
21
-9.80817031070196
31
0.000000000000000
  0
LINE
  5
F10059
330
F10007
100
AcDbEntity
  8
Bemassung
 62
     0
370
    -2
100
AcDbLine
10
-23.2871116225547
20
1.59182968929804
30
0.000000000000000
11
-10.2871116225547
21
1.59182968929804
31
0.000000000000000
  0
LINE
  5
F1005A
330
F10007
100
AcDbEntity
  8
Bemassung
 62
     0
370
    -2
100
AcDbLine
10
-12.2871116225547
20
-21.3866513233602
30
0.000000000000000
11
-12.2871116225547
21
1.59182968929804
31
0.000000000000000
  0
INSERT
  5
F1005B
330
F10007
100
AcDbEntity
  8
Bemassung
 62
     0
370
    -2
100
AcDbBlockReference
  2
VDDIM_DEFAULT
10
-12.2871116225547
20
-9.80817031070196
30
0.000000000000000
 41
2.50000000000000
 42
2.50000000000000
 43
2.50000000000000
 50
90.0000000000000
  0
INSERT
  5
F1005C
330
F10007
100
AcDbEntity
  8
Bemassung
 62
     0
370
    -2
100
AcDbBlockReference
  2
VDDIM_DEFAULT
10
-12.2871116225547
20
1.59182968929804
30
0.000000000000000
 41
2.50000000000000
 42
2.50000000000000
 43
2.50000000000000
 50
270.000000000000
  0
MTEXT
  5
F1005D
330
F10007
100
AcDbEntity
  8
Bemassung
 62
     0
100
AcDbMText
10
-12.9537782892214
20
-11.6455696202532
30
0.000000000000000
 40
2.50000000000000
 41
0.0
 71
     8
 72
     1
  1
Ø11.4
 11
6.12323399573677e-17
 21
1.00000000000000
 31
0.0
 73
     1
 44
1.0
1001
ACAD
1000
MTEXTBEGIN
1070
73
1070
1
1070
44
1040
1.0
1070
74
1070
0
1000
MTEXTEND
  0
POINT
  5
F1005E
330
F10007
100
AcDbEntity
  8
Bemassung
 62
     0
100
AcDbPoint
10
-23.2871116225547
20
-9.80817031070196
30
0.000000000000000
  0
POINT
  5
F1005F
330
F10007
100
AcDbEntity
  8
Bemassung
 62
     0
100
AcDbPoint
10
-23.2871116225547
20
1.59182968929804
30
0.000000000000000
  0
ENDBLK
  5
F10060
330
F10007
100
AcDbEntity
  8
0
100
AcDbBlockEnd
  0
BLOCK
  5
F10061
330
F10020
100
AcDbEntity
  8
0
100
AcDbBlockBegin
  2
*D9
 70
     1
 10
0.0
 20
0.0
 30
0.0
  3
*D9
  1

  0
LINE
  5
F10062
330
F10020
100
AcDbEntity
  8
Bemassung
 62
     0
370
    -2
100
AcDbLine
10
66.2128883774453
20
1.89182968929804
30
0.000000000000000
11
77.8688147295741
21
1.89182968929804
31
0.000000000000000
  0
LINE
  5
F10063
330
F10020
100
AcDbEntity
  8
Bemassung
 62
     0
370
    -2
100
AcDbLine
10
66.2128883774453
20
-10.1081703107020
30
0.000000000000000
11
77.8688147295741
21
-10.1081703107020
31
0.000000000000000
  0
LINE
  5
F10064
330
F10020
100
AcDbEntity
  8
Bemassung
 62
     0
370
    -2
100
AcDbLine
10
75.8688147295741
20
1.89182968929804
30
0.000000000000000
11
75.8688147295741
21
-10.1081703107020
31
0.000000000000000
  0
INSERT
  5
F10065
330
F10020
100
AcDbEntity
  8
Bemassung
 62
     0
370
    -2
100
AcDbBlockReference
  2
VDDIM_DEFAULT
10
75.8688147295741
20
1.89182968929804
30
0.000000000000000
 41
2.50000000000000
 42
2.50000000000000
 43
2.50000000000000
 50
270.000000000000
  0
INSERT
  5
F10066
330
F10020
100
AcDbEntity
  8
Bemassung
 62
     0
370
    -2
100
AcDbBlockReference
  2
VDDIM_DEFAULT
10
75.8688147295741
20
-10.1081703107020
30
0.000000000000000
 41
2.50000000000000
 42
2.50000000000000
 43
2.50000000000000
 50
90.0000000000000
  0
MTEXT
  5
F10067
330
F10020
100
AcDbEntity
  8
Bemassung
 62
     0
100
AcDbMText
10
75.2021480629075
20
-4.10817031070196
30
0.000000000000000
 40
2.50000000000000
 41
0.0
 71
     8
 72
     1
  1
Ø12
 11
6.12323399573677e-17
 21
1.00000000000000
 31
0.0
 73
     1
 44
1.0
1001
ACAD
1000
MTEXTBEGIN
1070
73
1070
1
1070
44
1040
1.0
1070
74
1070
0
1000
MTEXTEND
  0
POINT
  5
F10068
330
F10020
100
AcDbEntity
  8
Bemassung
 62
     0
100
AcDbPoint
10
66.2128883774453
20
1.89182968929804
30
0.000000000000000
  0
POINT
  5
F10069
330
F10020
100
AcDbEntity
  8
Bemassung
 62
     0
100
AcDbPoint
10
66.2128883774453
20
-10.1081703107020
30
0.000000000000000
  0
ENDBLK
  5
F1006A
330
F10020
100
AcDbEntity
  8
0
100
AcDbBlockEnd
0
ENDSEC
0
SECTION
2
ENTITIES
  0
DIMENSION
  5
F1000D
330
261
100
AcDbEntity
  8
Bemassung
100
AcDbDimension
  2
*D5
10
-3.28711162255469
20
8.89182968929804
30
0.000000000000000
11
-28.2871116225547
21
9.55849635596470
31
0.000000000000000
 70
32
 1
50
 71
     8
  3
BEM-ISBE
100
AcDbAlignedDimension
13
-53.2871116225547
23
-17.1081703107020
33
0.000000000000000
14
-3.28711162255469
24
1.59182968929804
34
0.000000000000000
100
AcDbRotatedDimension
1001
ACAD
1000
DSTYLE
1002
{
1070
284
1070
8
1070
78
1070
8
1070
144
1040
1.00000000000000
1070
147
1040
0.625
1070
 72
1070
 0
1070
 71
1070
 0
1002
}
  0
DIMENSION
  5
F10012
330
261
100
AcDbEntity
  8
Bemassung
100
AcDbDimension
  2
*D6
10
-2.78711162255469
20
16.8918296892980
30
0.000000000000000
11
-28.0371116225547
21
17.5584963559647
31
0.000000000000000
 70
32
 1
50.5
 71
     8
  3
BEM-ISBE
100
AcDbAlignedDimension
13
-53.2871116225547
23
-17.1081703107020
33
0.000000000000000
14
-2.78711162255469
24
1.89182968929804
34
0.000000000000000
100
AcDbRotatedDimension
1001
ACAD
1000
DSTYLE
1002
{
1070
284
1070
8
1070
78
1070
8
1070
144
1040
1.00000000000000
1070
147
1040
0.625
1070
 72
1070
 0
1070
 71
1070
 0
1002
}
  0
DIMENSION
  5
F10017
330
261
100
AcDbEntity
  8
Bemassung
100
AcDbDimension
  2
*D7
10
-53.2871116225547
20
-15.1081703107020
30
0.000000000000000
11
-38.2871116225547
21
-14.4415036440353
31
0.000000000000000
 70
32
 1
30
 71
     8
  3
BEM-ISBE
100
AcDbAlignedDimension
13
-23.2871116225547
23
-9.80817031070196
33
0.000000000000000
14
-53.2871116225547
24
-17.1081703107020
34
0.000000000000000
100
AcDbRotatedDimension
1001
ACAD
1000
DSTYLE
1002
{
1070
284
1070
8
1070
78
1070
8
1070
144
1040
1.00000000000000
1070
147
1040
0.625
1070
 72
1070
 0
1070
 71
1070
 0
1002
}
  0
DIMENSION
  5
F1001C
330
261
100
AcDbEntity
  8
Bemassung
100
AcDbDimension
  2
*D8
10
-53.2871116225547
20
26.8918296892980
30
0.000000000000000
11
6.71288837744531
21
27.5584963559647
31
0.000000000000000
 70
32
 1
120
 71
     8
  3
BEM-ISBE
100
AcDbAlignedDimension
13
66.7128883774453
23
1.39182968929804
33
0.000000000000000
14
-53.2871116225547
24
-17.1081703107020
34
0.000000000000000
100
AcDbRotatedDimension
1001
ACAD
1000
DSTYLE
1002
{
1070
284
1070
8
1070
78
1070
8
1070
144
1040
1.00000000000000
1070
147
1040
0.625
1070
 72
1070
 0
1070
 71
1070
 0
1002
}
  0
DIMENSION
  5
F10003
330
261
100
AcDbEntity
  8
Bemassung
100
AcDbDimension
  2
*D3
10
-63.2871116225547
20
1.89182968929804
30
0.000000000000000
11
-63.9537782892214
21
-4.22899884925201
31
0.000000000000000
 70
32
 1
Ø12
 71
     8
  3
BEM-ISBE
100
AcDbAlignedDimension
13
-53.2871116225547
23
-10.1081703107020
33
0.000000000000000
14
-53.2871116225547
24
1.89182968929804
34
0.000000000000000
50
90.0000000000000
100
AcDbRotatedDimension
1001
ACAD
1000
DSTYLE
1002
{
1070
284
1070
8
1070
78
1070
8
1070
144
1040
1.00000000000000
1070
147
1040
0.625
1070
 72
1070
 0
1070
 71
1070
 0
1002
}
  0
DIMENSION
  5
F10008
330
261
100
AcDbEntity
  8
Bemassung
100
AcDbDimension
  2
*D4
10
-12.2871116225547
20
1.59182968929804
30
0.000000000000000
11
-12.9537782892214
21
-11.6455696202532
31
0.000000000000000
 70
32
 1
Ø11.4
 71
     8
  3
BEM-ISBE
100
AcDbAlignedDimension
13
-23.2871116225547
23
-9.80817031070196
33
0.000000000000000
14
-23.2871116225547
24
1.59182968929804
34
0.000000000000000
50
90.0000000000000
100
AcDbRotatedDimension
1001
ACAD
1000
DSTYLE
1002
{
1070
284
1070
8
1070
78
1070
8
1070
144
1040
1.00000000000000
1070
147
1040
0.625
1070
 72
1070
 0
1070
 71
1070
 0
1002
}
  0
DIMENSION
  5
F10021
330
261
100
AcDbEntity
  8
Bemassung
100
AcDbDimension
  2
*D9
10
75.8688147295741
20
-10.1081703107020
30
0.000000000000000
11
75.2021480629075
21
-4.10817031070196
31
0.000000000000000
 70
32
 1
Ø12
 71
     8
  3
BEM-ISBE
100
AcDbAlignedDimension
13
66.2128883774453
23
1.89182968929804
33
0.000000000000000
14
66.2128883774453
24
-10.1081703107020
34
0.000000000000000
50
90.0000000000000
100
AcDbRotatedDimension
1001
ACAD
1000
DSTYLE
1002
{
1070
284
1070
8
1070
78
1070
8
1070
144
1040
1.00000000000000
1070
147
1040
0.625
1070
 72
1070
 0
1070
 71
1070
 0
1002
}
  0
LINE
  5
F1006B
330
F1006C
100
AcDbEntity
8
Geo
100
AcDbLine
10
-53.2871116225547
20
-4.10817031070196
30
0.000000000000000
11
-53.2871116225547
21
1.89182968929804
31
0.000000000000000
  0
LINE
  5
F1006D
330
F1006E
100
AcDbEntity
8
Geo
100
AcDbLine
10
-53.2871116225547
20
1.89182968929804
30
0.000000000000000
11
-23.2871116225547
21
1.89182968929804
31
0.000000000000000
  0
LINE
  5
F1006F
330
F10070
100
AcDbEntity
8
Geo
100
AcDbLine
10
-23.2871116225547
20
1.89182968929804
30
0.000000000000000
11
-23.2871116225547
21
1.59182968929804
31
0.000000000000000
  0
LINE
  5
F10071
330
F10072
100
AcDbEntity
8
Geo
100
AcDbLine
10
-23.2871116225547
20
1.59182968929804
30
0.000000000000000
11
-3.28711162255469
21
1.59182968929804
31
0.000000000000000
  0
LINE
  5
F10073
330
F10074
100
AcDbEntity
8
Geo
100
AcDbLine
10
-3.28711162255469
20
1.59182968929804
30
0.000000000000000
11
-2.78711162255469
21
1.89182968929804
31
0.000000000000000
  0
LINE
  5
F10075
330
F10076
100
AcDbEntity
8
Geo
100
AcDbLine
10
-2.78711162255469
20
1.89182968929804
30
0.000000000000000
11
66.2128883774453
21
1.89182968929804
31
0.000000000000000
  0
LINE
  5
F10077
330
F10078
100
AcDbEntity
8
Geo
100
AcDbLine
10
66.2128883774453
20
1.89182968929804
30
0.000000000000000
11
66.7128883774453
21
1.39182968929804
31
0.000000000000000
  0
LINE
  5
F10079
330
F1007A
100
AcDbEntity
8
Geo
100
AcDbLine
10
-53.2871116225547
20
1.89182968929804
30
0.000000000000000
11
-53.1871116225547
21
1.89124295870166
31
0.000000000000000
  0
LINE
  5
F1007B
330
F1007C
100
AcDbEntity
8
Geo
100
AcDbLine
10
-53.1871116225547
20
1.89124295870166
30
0.000000000000000
11
-53.0871116225547
21
1.88948288166347
31
0.000000000000000
  0
LINE
  5
F1007D
330
F1007E
100
AcDbEntity
8
Geo
100
AcDbLine
10
-53.0871116225547
20
1.88948288166347
30
0.000000000000000
11
-52.9871116225547
21
1.88654980241381
31
0.000000000000000
  0
LINE
  5
F1007F
330
F10080
100
AcDbEntity
8
Geo
100
AcDbLine
10
-52.9871116225547
20
1.88654980241381
30
0.000000000000000
11
-52.8871116225547
21
1.88244429459512
31
0.000000000000000
  0
LINE
  5
F10081
330
F10082
100
AcDbEntity
8
Geo
100
AcDbLine
10
-52.8871116225547
20
1.88244429459512
30
0.000000000000000
11
-52.7871116225547
21
1.87716716114977
31
0.000000000000000
  0
LINE
  5
F10083
330
F10084
100
AcDbEntity
8
Geo
100
AcDbLine
10
-52.7871116225547
20
1.87716716114977
30
0.000000000000000
11
-52.6871116225547
21
1.87071943416296
31
0.000000000000000
  0
LINE
  5
F10085
330
F10086
100
AcDbEntity
8
Geo
100
AcDbLine
10
-52.6871116225547
20
1.87071943416296
30
0.000000000000000
11
-52.5871116225547
21
1.86310237466093
31
0.000000000000000
  0
LINE
  5
F10087
330
F10088
100
AcDbEntity
8
Geo
100
AcDbLine
10
-52.5871116225547
20
1.86310237466093
30
0.000000000000000
11
-52.4871116225547
21
1.85431747236430
31
0.000000000000000
  0
LINE
  5
F10089
330
F1008A
100
AcDbEntity
8
Geo
100
AcDbLine
10
-52.4871116225547
20
1.85431747236430
30
0.000000000000000
11
-52.3871116225547
21
1.84436644539672
31
0.000000000000000
  0
LINE
  5
F1008B
330
F1008C
100
AcDbEntity
8
Geo
100
AcDbLine
10
-52.3871116225547
20
1.84436644539672
30
0.000000000000000
11
-52.2871116225547
21
1.83325123994886
31
0.000000000000000
  0
LINE
  5
F1008D
330
F1008E
100
AcDbEntity
8
Geo
100
AcDbLine
10
-52.2871116225547
20
1.83325123994886
30
0.000000000000000
11
-52.1871116225547
21
1.82097402989776
31
0.000000000000000
  0
LINE
  5
F1008F
330
F10090
100
AcDbEntity
8
Geo
100
AcDbLine
10
-52.1871116225547
20
1.82097402989776
30
0.000000000000000
11
-52.0871116225547
21
1.80753721638168
31
0.000000000000000
  0
LINE
  5
F10091
330
F10092
100
AcDbEntity
8
Geo
100
AcDbLine
10
-52.0871116225547
20
1.80753721638168
30
0.000000000000000
11
-51.9871116225547
21
1.79294342733048
31
0.000000000000000
  0
LINE
  5
F10093
330
F10094
100
AcDbEntity
8
Geo
100
AcDbLine
10
-51.9871116225547
20
1.79294342733048
30
0.000000000000000
11
-51.8871116225547
21
1.77719551695169
31
0.000000000000000
  0
LINE
  5
F10095
330
F10096
100
AcDbEntity
8
Geo
100
AcDbLine
10
-51.8871116225547
20
1.77719551695169
30
0.000000000000000
11
-51.7871116225547
21
1.76029656517225
31
0.000000000000000
  0
LINE
  5
F10097
330
F10098
100
AcDbEntity
8
Geo
100
AcDbLine
10
-51.7871116225547
20
1.76029656517225
30
0.000000000000000
11
-51.6871116225547
21
1.74224987703618
31
0.000000000000000
  0
LINE
  5
F10099
330
F1009A
100
AcDbEntity
8
Geo
100
AcDbLine
10
-51.6871116225547
20
1.74224987703618
30
0.000000000000000
11
-51.5871116225547
21
1.72305898205818
31
0.000000000000000
  0
LINE
  5
F1009B
330
F1009C
100
AcDbEntity
8
Geo
100
AcDbLine
10
-51.5871116225547
20
1.72305898205818
30
0.000000000000000
11
-51.4871116225547
21
1.70272763353333
31
0.000000000000000
  0
LINE
  5
F1009D
330
F1009E
100
AcDbEntity
8
Geo
100
AcDbLine
10
-51.4871116225547
20
1.70272763353333
30
0.000000000000000
11
-51.3871116225547
21
1.68125980780305
31
0.000000000000000
  0
LINE
  5
F1009F
330
F100A0
100
AcDbEntity
8
Geo
100
AcDbLine
10
-51.3871116225547
20
1.68125980780305
30
0.000000000000000
11
-51.2871116225547
21
1.65865970347740
31
0.000000000000000
  0
LINE
  5
F100A1
330
F100A2
100
AcDbEntity
8
Geo
100
AcDbLine
10
-51.2871116225547
20
1.65865970347740
30
0.000000000000000
11
-51.1871116225547
21
1.63493174061395
31
0.000000000000000
  0
LINE
  5
F100A3
330
F100A4
100
AcDbEntity
8
Geo
100
AcDbLine
10
-51.1871116225547
20
1.63493174061395
30
0.000000000000000
11
-51.0871116225547
21
1.61008055985330
31
0.000000000000000
  0
LINE
  5
F100A5
330
F100A6
100
AcDbEntity
8
Geo
100
AcDbLine
10
-51.0871116225547
20
1.61008055985330
30
0.000000000000000
11
-50.9871116225547
21
1.58411102151148
31
0.000000000000000
  0
LINE
  5
F100A7
330
F100A8
100
AcDbEntity
8
Geo
100
AcDbLine
10
-50.9871116225547
20
1.58411102151148
30
0.000000000000000
11
-50.8871116225547
21
1.55702820462941
31
0.000000000000000
  0
LINE
  5
F100A9
330
F100AA
100
AcDbEntity
8
Geo
100
AcDbLine
10
-50.8871116225547
20
1.55702820462941
30
0.000000000000000
11
-50.7871116225547
21
1.52883740597950
31
0.000000000000000
  0
LINE
  5
F100AB
330
F100AC
100
AcDbEntity
8
Geo
100
AcDbLine
10
-50.7871116225547
20
1.52883740597950
30
0.000000000000000
11
-50.6871116225547
21
1.49954413902980
31
0.000000000000000
  0
LINE
  5
F100AD
330
F100AE
100
AcDbEntity
8
Geo
100
AcDbLine
10
-50.6871116225547
20
1.49954413902980
30
0.000000000000000
11
-50.5871116225547
21
1.46915413286564
31
0.000000000000000
  0
LINE
  5
F100AF
330
F100B0
100
AcDbEntity
8
Geo
100
AcDbLine
10
-50.5871116225547
20
1.46915413286564
30
0.000000000000000
11
-50.4871116225547
21
1.43767333106916
31
0.000000000000000
  0
LINE
  5
F100B1
330
F100B2
100
AcDbEntity
8
Geo
100
AcDbLine
10
-50.4871116225547
20
1.43767333106916
30
0.000000000000000
11
-50.3871116225547
21
1.40510789055691
31
0.000000000000000
  0
LINE
  5
F100B3
330
F100B4
100
AcDbEntity
8
Geo
100
AcDbLine
10
-50.3871116225547
20
1.40510789055691
30
0.000000000000000
11
-50.2871116225547
21
1.37146418037565
31
0.000000000000000
  0
LINE
  5
F100B5
330
F100B6
100
AcDbEntity
8
Geo
100
AcDbLine
10
-50.2871116225547
20
1.37146418037565
30
0.000000000000000
11
-50.1871116225547
21
1.33674878045677
31
0.000000000000000
  0
LINE
  5
F100B7
330
F100B8
100
AcDbEntity
8
Geo
100
AcDbLine
10
-50.1871116225547
20
1.33674878045677
30
0.000000000000000
11
-50.0871116225547
21
1.30096848032937
31
0.000000000000000
  0
LINE
  5
F100B9
330
F100BA
100
AcDbEntity
8
Geo
100
AcDbLine
10
-50.0871116225547
20
1.30096848032937
30
0.000000000000000
11
-49.9871116225547
21
1.26413027779239
31
0.000000000000000
  0
LINE
  5
F100BB
330
F100BC
100
AcDbEntity
8
Geo
100
AcDbLine
10
-49.9871116225547
20
1.26413027779239
30
0.000000000000000
11
-49.8871116225547
21
1.22624137754601
31
0.000000000000000
  0
LINE
  5
F100BD
330
F100BE
100
AcDbEntity
8
Geo
100
AcDbLine
10
-49.8871116225547
20
1.22624137754601
30
0.000000000000000
11
-49.7871116225547
21
1.18730918978258
31
0.000000000000000
  0
LINE
  5
F100BF
330
F100C0
100
AcDbEntity
8
Geo
100
AcDbLine
10
-49.7871116225547
20
1.18730918978258
30
0.000000000000000
11
-49.6871116225547
21
1.14734132873735
31
0.000000000000000
  0
LINE
  5
F100C1
330
F100C2
100
AcDbEntity
8
Geo
100
AcDbLine
10
-49.6871116225547
20
1.14734132873735
30
0.000000000000000
11
-49.5871116225547
21
1.10634561119930
31
0.000000000000000
  0
LINE
  5
F100C3
330
F100C4
100
AcDbEntity
8
Geo
100
AcDbLine
10
-49.5871116225547
20
1.10634561119930
30
0.000000000000000
11
-49.4871116225547
21
1.06433005498236
31
0.000000000000000
  0
LINE
  5
F100C5
330
F100C6
100
AcDbEntity
8
Geo
100
AcDbLine
10
-49.4871116225547
20
1.06433005498236
30
0.000000000000000
11
-49.3871116225547
21
1.02130287735732
31
0.000000000000000
  0
LINE
  5
F100C7
330
F100C8
100
AcDbEntity
8
Geo
100
AcDbLine
10
-49.3871116225547
20
1.02130287735732
30
0.000000000000000
11
-49.2871116225547
21
0.977272493444706
31
0.000000000000000
  0
LINE
  5
F100C9
330
F100CA
100
AcDbEntity
8
Geo
100
AcDbLine
10
-49.2871116225547
20
0.977272493444706
30
0.000000000000000
11
-49.1871116225547
21
0.932247514568990
31
0.000000000000000
  0
LINE
  5
F100CB
330
F100CC
100
AcDbEntity
8
Geo
100
AcDbLine
10
-49.1871116225547
20
0.932247514568990
30
0.000000000000000
11
-49.0871116225547
21
0.886236746574410
31
0.000000000000000
  0
LINE
  5
F100CD
330
F100CE
100
AcDbEntity
8
Geo
100
AcDbLine
10
-49.0871116225547
20
0.886236746574410
30
0.000000000000000
11
-48.9871116225547
21
0.839249188102744
31
0.000000000000000
  0
LINE
  5
F100CF
330
F100D0
100
AcDbEntity
8
Geo
100
AcDbLine
10
-48.9871116225547
20
0.839249188102744
30
0.000000000000000
11
-48.8871116225547
21
0.791294028833395
31
0.000000000000000
  0
LINE
  5
F100D1
330
F100D2
100
AcDbEntity
8
Geo
100
AcDbLine
10
-48.8871116225547
20
0.791294028833395
30
0.000000000000000
11
-48.7871116225547
21
0.742380647686097
31
0.000000000000000
  0
LINE
  5
F100D3
330
F100D4
100
AcDbEntity
8
Geo
100
AcDbLine
10
-48.7871116225547
20
0.742380647686097
30
0.000000000000000
11
-48.6871116225547
21
0.692518610986610
31
0.000000000000000
  0
LINE
  5
F100D5
330
F100D6
100
AcDbEntity
8
Geo
100
AcDbLine
10
-48.6871116225547
20
0.692518610986610
30
0.000000000000000
11
-48.5871116225547
21
0.641717670595781
31
0.000000000000000
  0
LINE
  5
F100D7
330
F100D8
100
AcDbEntity
8
Geo
100
AcDbLine
10
-48.5871116225547
20
0.641717670595781
30
0.000000000000000
11
-48.4871116225547
21
0.589987762002291
31
0.000000000000000
  0
LINE
  5
F100D9
330
F100DA
100
AcDbEntity
8
Geo
100
AcDbLine
10
-48.4871116225547
20
0.589987762002291
30
0.000000000000000
11
-48.3871116225547
21
0.537339002379515
31
0.000000000000000
  0
LINE
  5
F100DB
330
F100DC
100
AcDbEntity
8
Geo
100
AcDbLine
10
-48.3871116225547
20
0.537339002379515
30
0.000000000000000
11
-48.2871116225547
21
0.483781688606831
31
0.000000000000000
  0
LINE
  5
F100DD
330
F100DE
100
AcDbEntity
8
Geo
100
AcDbLine
10
-48.2871116225547
20
0.483781688606831
30
0.000000000000000
11
-48.1871116225547
21
0.429326295255786
31
0.000000000000000
  0
LINE
  5
F100DF
330
F100E0
100
AcDbEntity
8
Geo
100
AcDbLine
10
-48.1871116225547
20
0.429326295255786
30
0.000000000000000
11
-48.0871116225547
21
0.373983472541521
31
0.000000000000000
  0
LINE
  5
F100E1
330
F100E2
100
AcDbEntity
8
Geo
100
AcDbLine
10
-48.0871116225547
20
0.373983472541521
30
0.000000000000000
11
-47.9871116225547
21
0.317764044239827
31
0.000000000000000
  0
LINE
  5
F100E3
330
F100E4
100
AcDbEntity
8
Geo
100
AcDbLine
10
-47.9871116225547
20
0.317764044239827
30
0.000000000000000
11
-47.8871116225547
21
0.260679005570270
31
0.000000000000000
  0
LINE
  5
F100E5
330
F100E6
100
AcDbEntity
8
Geo
100
AcDbLine
10
-47.8871116225547
20
0.260679005570270
30
0.000000000000000
11
-47.7871116225547
21
0.202739521045778
31
0.000000000000000
  0
LINE
  5
F100E7
330
F100E8
100
AcDbEntity
8
Geo
100
AcDbLine
10
-47.7871116225547
20
0.202739521045778
30
0.000000000000000
11
-47.6871116225547
21
0.143956922289120
31
0.000000000000000
  0
LINE
  5
F100E9
330
F100EA
100
AcDbEntity
8
Geo
100
AcDbLine
10
-47.6871116225547
20
0.143956922289120
30
0.000000000000000
11
-47.5871116225547
21
0.0843427058167032
31
0.000000000000000
  0
LINE
  5
F100EB
330
F100EC
100
AcDbEntity
8
Geo
100
AcDbLine
10
-47.5871116225547
20
0.0843427058167032
30
0.000000000000000
11
-47.4871116225547
21
0.0239085307901235
31
0.000000000000000
  0
LINE
  5
F100ED
330
F100EE
100
AcDbEntity
8
Geo
100
AcDbLine
10
-47.4871116225547
20
0.0239085307901235
30
0.000000000000000
11
-47.3871116225547
21
-0.0373337832641010
31
0.000000000000000
  0
LINE
  5
F100EF
330
F100F0
100
AcDbEntity
8
Geo
100
AcDbLine
10
-47.3871116225547
20
-0.0373337832641010
30
0.000000000000000
11
-47.2871116225547
21
-0.0993722587661559
31
0.000000000000000
  0
LINE
  5
F100F1
330
F100F2
100
AcDbEntity
8
Geo
100
AcDbLine
10
-47.2871116225547
20
-0.0993722587661559
30
0.000000000000000
11
-47.1871116225547
21
-0.162194762425462
31
0.000000000000000
  0
LINE
  5
F100F3
330
F100F4
100
AcDbEntity
8
Geo
100
AcDbLine
10
-47.1871116225547
20
-0.162194762425462
30
0.000000000000000
11
-47.0871116225547
21
-0.225789007613674
31
0.000000000000000
  0
LINE
  5
F100F5
330
F100F6
100
AcDbEntity
8
Geo
100
AcDbLine
10
-47.0871116225547
20
-0.225789007613674
30
0.000000000000000
11
-46.9871116225547
21
-0.290142556767659
31
0.000000000000000
  0
LINE
  5
F100F7
330
F100F8
100
AcDbEntity
8
Geo
100
AcDbLine
10
-46.9871116225547
20
-0.290142556767659
30
0.000000000000000
11
-46.8871116225547
21
-0.355242823821991
31
0.000000000000000
  0
LINE
  5
F100F9
330
F100FA
100
AcDbEntity
8
Geo
100
AcDbLine
10
-46.8871116225547
20
-0.355242823821991
30
0.000000000000000
11
-46.7871116225547
21
-0.421077076670498
31
0.000000000000000
  0
LINE
  5
F100FB
330
F100FC
100
AcDbEntity
8
Geo
100
AcDbLine
10
-46.7871116225547
20
-0.421077076670498
30
0.000000000000000
11
-46.6871116225547
21
-0.487632439656369
31
0.000000000000000
  0
LINE
  5
F100FD
330
F100FE
100
AcDbEntity
8
Geo
100
AcDbLine
10
-46.6871116225547
20
-0.487632439656369
30
0.000000000000000
11
-46.5871116225547
21
-0.554895896090333
31
0.000000000000000
  0
LINE
  5
F100FF
330
F10100
100
AcDbEntity
8
Geo
100
AcDbLine
10
-46.5871116225547
20
-0.554895896090333
30
0.000000000000000
11
-46.4871116225547
21
-0.622854290796417
31
0.000000000000000
  0
LINE
  5
F10101
330
F10102
100
AcDbEntity
8
Geo
100
AcDbLine
10
-46.4871116225547
20
-0.622854290796417
30
0.000000000000000
11
-46.3871116225547
21
-0.691494332684808
31
0.000000000000000
  0
LINE
  5
F10103
330
F10104
100
AcDbEntity
8
Geo
100
AcDbLine
10
-46.3871116225547
20
-0.691494332684808
30
0.000000000000000
11
-46.2871116225547
21
-0.760802597351264
31
0.000000000000000
  0
LINE
  5
F10105
330
F10106
100
AcDbEntity
8
Geo
100
AcDbLine
10
-46.2871116225547
20
-0.760802597351264
30
0.000000000000000
11
-46.1871116225547
21
-0.830765529702635
31
0.000000000000000
  0
LINE
  5
F10107
330
F10108
100
AcDbEntity
8
Geo
100
AcDbLine
10
-46.1871116225547
20
-0.830765529702635
30
0.000000000000000
11
-46.0871116225547
21
-0.901369446607911
31
0.000000000000000
  0
LINE
  5
F10109
330
F1010A
100
AcDbEntity
8
Geo
100
AcDbLine
10
-46.0871116225547
20
-0.901369446607911
30
0.000000000000000
11
-45.9871116225547
21
-0.972600539574334
31
0.000000000000000
  0
LINE
  5
F1010B
330
F1010C
100
AcDbEntity
8
Geo
100
AcDbLine
10
-45.9871116225547
20
-0.972600539574334
30
0.000000000000000
11
-45.8871116225547
21
-1.04444487744802
31
0.000000000000000
  0
LINE
  5
F1010D
330
F1010E
100
AcDbEntity
8
Geo
100
AcDbLine
10
-45.8871116225547
20
-1.04444487744802
30
0.000000000000000
11
-45.7871116225547
21
-1.11688840913857
31
0.000000000000000
  0
LINE
  5
F1010F
330
F10110
100
AcDbEntity
8
Geo
100
AcDbLine
10
-45.7871116225547
20
-1.11688840913857
30
0.000000000000000
11
-45.6871116225547
21
-1.18991696636712
31
0.000000000000000
  0
LINE
  5
F10111
330
F10112
100
AcDbEntity
8
Geo
100
AcDbLine
10
-45.6871116225547
20
-1.18991696636712
30
0.000000000000000
11
-45.5871116225547
21
-1.26351626643738
31
0.000000000000000
  0
LINE
  5
F10113
330
F10114
100
AcDbEntity
8
Geo
100
AcDbLine
10
-45.5871116225547
20
-1.26351626643738
30
0.000000000000000
11
-45.4871116225547
21
-1.33767191502892
31
0.000000000000000
  0
LINE
  5
F10115
330
F10116
100
AcDbEntity
8
Geo
100
AcDbLine
10
-45.4871116225547
20
-1.33767191502892
30
0.000000000000000
11
-45.3871116225547
21
-1.41236940901245
31
0.000000000000000
  0
LINE
  5
F10117
330
F10118
100
AcDbEntity
8
Geo
100
AcDbLine
10
-45.3871116225547
20
-1.41236940901245
30
0.000000000000000
11
-45.2871116225547
21
-1.48759413928623
31
0.000000000000000
  0
LINE
  5
F10119
330
F1011A
100
AcDbEntity
8
Geo
100
AcDbLine
10
-45.2871116225547
20
-1.48759413928623
30
0.000000000000000
11
-45.1871116225547
21
-1.56333139363331
31
0.000000000000000
  0
LINE
  5
F1011B
330
F1011C
100
AcDbEntity
8
Geo
100
AcDbLine
10
-45.1871116225547
20
-1.56333139363331
30
0.000000000000000
11
-45.0871116225547
21
-1.63956635959888
31
0.000000000000000
  0
LINE
  5
F1011D
330
F1011E
100
AcDbEntity
8
Geo
100
AcDbLine
10
-45.0871116225547
20
-1.63956635959888
30
0.000000000000000
11
-44.9871116225547
21
-1.71628412738727
31
0.000000000000000
  0
LINE
  5
F1011F
330
F10120
100
AcDbEntity
8
Geo
100
AcDbLine
10
-44.9871116225547
20
-1.71628412738727
30
0.000000000000000
11
-44.8871116225547
21
-1.79346969277793
31
0.000000000000000
  0
LINE
  5
F10121
330
F10122
100
AcDbEntity
8
Geo
100
AcDbLine
10
-44.8871116225547
20
-1.79346969277793
30
0.000000000000000
11
-44.7871116225547
21
-1.87110796005991
31
0.000000000000000
  0
LINE
  5
F10123
330
F10124
100
AcDbEntity
8
Geo
100
AcDbLine
10
-44.7871116225547
20
-1.87110796005991
30
0.000000000000000
11
-44.6871116225547
21
-1.94918374498427
31
0.000000000000000
  0
LINE
  5
F10125
330
F10126
100
AcDbEntity
8
Geo
100
AcDbLine
10
-44.6871116225547
20
-1.94918374498427
30
0.000000000000000
11
-44.5871116225547
21
-2.02768177773371
31
0.000000000000000
  0
LINE
  5
F10127
330
F10128
100
AcDbEntity
8
Geo
100
AcDbLine
10
-44.5871116225547
20
-2.02768177773371
30
0.000000000000000
11
-44.4871116225547
21
-2.10658670590906
31
0.000000000000000
  0
LINE
  5
F10129
330
F1012A
100
AcDbEntity
8
Geo
100
AcDbLine
10
-44.4871116225547
20
-2.10658670590906
30
0.000000000000000
11
-44.3871116225547
21
-2.18588309753178
31
0.000000000000000
  0
LINE
  5
F1012B
330
F1012C
100
AcDbEntity
8
Geo
100
AcDbLine
10
-44.3871116225547
20
-2.18588309753178
30
0.000000000000000
11
-44.2871116225547
21
-2.26555544406216
31
0.000000000000000
  0
LINE
  5
F1012D
330
F1012E
100
AcDbEntity
8
Geo
100
AcDbLine
10
-44.2871116225547
20
-2.26555544406216
30
0.000000000000000
11
-44.1871116225547
21
-2.34558816343241
31
0.000000000000000
  0
LINE
  5
F1012F
330
F10130
100
AcDbEntity
8
Geo
100
AcDbLine
10
-44.1871116225547
20
-2.34558816343241
30
0.000000000000000
11
-44.0871116225547
21
-2.42596560309414
31
0.000000000000000
  0
LINE
  5
F10131
330
F10132
100
AcDbEntity
8
Geo
100
AcDbLine
10
-44.0871116225547
20
-2.42596560309414
30
0.000000000000000
11
-43.9871116225547
21
-2.50667204307964
31
0.000000000000000
  0
LINE
  5
F10133
330
F10134
100
AcDbEntity
8
Geo
100
AcDbLine
10
-43.9871116225547
20
-2.50667204307964
30
0.000000000000000
11
-43.8871116225547
21
-2.58769169907635
31
0.000000000000000
  0
LINE
  5
F10135
330
F10136
100
AcDbEntity
8
Geo
100
AcDbLine
10
-43.8871116225547
20
-2.58769169907635
30
0.000000000000000
11
-43.7871116225547
21
-2.66900872551393
31
0.000000000000000
  0
LINE
  5
F10137
330
F10138
100
AcDbEntity
8
Geo
100
AcDbLine
10
-43.7871116225547
20
-2.66900872551393
30
0.000000000000000
11
-43.6871116225547
21
-2.75060721866322
31
0.000000000000000
  0
LINE
  5
F10139
330
F1013A
100
AcDbEntity
8
Geo
100
AcDbLine
10
-43.6871116225547
20
-2.75060721866322
30
0.000000000000000
11
-43.5871116225547
21
-2.83247121974672
31
0.000000000000000
  0
LINE
  5
F1013B
330
F1013C
100
AcDbEntity
8
Geo
100
AcDbLine
10
-43.5871116225547
20
-2.83247121974672
30
0.000000000000000
11
-43.4871116225547
21
-2.91458471805969
31
0.000000000000000
  0
LINE
  5
F1013D
330
F1013E
100
AcDbEntity
8
Geo
100
AcDbLine
10
-43.4871116225547
20
-2.91458471805969
30
0.000000000000000
11
-43.3871116225547
21
-2.99693165410153
31
0.000000000000000
  0
LINE
  5
F1013F
330
F10140
100
AcDbEntity
8
Geo
100
AcDbLine
10
-43.3871116225547
20
-2.99693165410153
30
0.000000000000000
11
-43.2871116225547
21
-3.07949592271660
31
0.000000000000000
  0
LINE
  5
F10141
330
F10142
100
AcDbEntity
8
Geo
100
AcDbLine
10
-43.2871116225547
20
-3.07949592271660
30
0.000000000000000
11
-43.1871116225547
21
-3.16226137624405
31
0.000000000000000
  0
LINE
  5
F10143
330
F10144
100
AcDbEntity
8
Geo
100
AcDbLine
10
-43.1871116225547
20
-3.16226137624405
30
0.000000000000000
11
-43.0871116225547
21
-3.24521182767591
31
0.000000000000000
  0
LINE
  5
F10145
330
F10146
100
AcDbEntity
8
Geo
100
AcDbLine
10
-43.0871116225547
20
-3.24521182767591
30
0.000000000000000
11
-42.9871116225547
21
-3.32833105382290
31
0.000000000000000
  0
LINE
  5
F10147
330
F10148
100
AcDbEntity
8
Geo
100
AcDbLine
10
-42.9871116225547
20
-3.32833105382290
30
0.000000000000000
11
-42.8871116225547
21
-3.41160279848731
31
0.000000000000000
  0
LINE
  5
F10149
330
F1014A
100
AcDbEntity
8
Geo
100
AcDbLine
10
-42.8871116225547
20
-3.41160279848731
30
0.000000000000000
11
-42.7871116225547
21
-3.49501077564235
31
0.000000000000000
  0
LINE
  5
F1014B
330
F1014C
100
AcDbEntity
8
Geo
100
AcDbLine
10
-42.7871116225547
20
-3.49501077564235
30
0.000000000000000
11
-42.6871116225547
21
-3.57853867261727
31
0.000000000000000
  0
LINE
  5
F1014D
330
F1014E
100
AcDbEntity
8
Geo
100
AcDbLine
10
-42.6871116225547
20
-3.57853867261727
30
0.000000000000000
11
-42.5871116225547
21
-3.66217015328782
31
0.000000000000000
  0
LINE
  5
F1014F
330
F10150
100
AcDbEntity
8
Geo
100
AcDbLine
10
-42.5871116225547
20
-3.66217015328782
30
0.000000000000000
11
-42.4871116225547
21
-3.74588886127115
31
0.000000000000000
  0
LINE
  5
F10151
330
F10152
100
AcDbEntity
8
Geo
100
AcDbLine
10
-42.4871116225547
20
-3.74588886127115
30
0.000000000000000
11
-42.3871116225547
21
-3.82967842312477
31
0.000000000000000
  0
LINE
  5
F10153
330
F10154
100
AcDbEntity
8
Geo
100
AcDbLine
10
-42.3871116225547
20
-3.82967842312477
30
0.000000000000000
11
-42.2871116225547
21
-3.91352245154883
31
0.000000000000000
  0
LINE
  5
F10155
330
F10156
100
AcDbEntity
8
Geo
100
AcDbLine
10
-42.2871116225547
20
-3.91352245154883
30
0.000000000000000
11
-42.1871116225547
21
-3.99740454859104
31
0.000000000000000
  0
LINE
  5
F10157
330
F10158
100
AcDbEntity
8
Geo
100
AcDbLine
10
-42.1871116225547
20
-3.99740454859104
30
0.000000000000000
11
-42.0871116225547
21
-4.08130830885380
31
0.000000000000000
  0
LINE
  5
F10159
330
F1015A
100
AcDbEntity
8
Geo
100
AcDbLine
10
-42.0871116225547
20
-4.08130830885380
30
0.000000000000000
11
-41.9871116225547
21
-4.16521732270269
31
0.000000000000000
  0
LINE
  5
F1015B
330
F1015C
100
AcDbEntity
8
Geo
100
AcDbLine
10
-41.9871116225547
20
-4.16521732270269
30
0.000000000000000
11
-41.8871116225547
21
-4.24911517947579
31
0.000000000000000
  0
LINE
  5
F1015D
330
F1015E
100
AcDbEntity
8
Geo
100
AcDbLine
10
-41.8871116225547
20
-4.24911517947579
30
0.000000000000000
11
-41.7871116225547
21
-4.33298547069325
31
0.000000000000000
  0
LINE
  5
F1015F
330
F10160
100
AcDbEntity
8
Geo
100
AcDbLine
10
-41.7871116225547
20
-4.33298547069325
30
0.000000000000000
11
-41.6871116225547
21
-4.41681179326641
31
0.000000000000000
  0
LINE
  5
F10161
330
F10162
100
AcDbEntity
8
Geo
100
AcDbLine
10
-41.6871116225547
20
-4.41681179326641
30
0.000000000000000
11
-41.5871116225547
21
-4.50057775270586
31
0.000000000000000
  0
LINE
  5
F10163
330
F10164
100
AcDbEntity
8
Geo
100
AcDbLine
10
-41.5871116225547
20
-4.50057775270586
30
0.000000000000000
11
-41.4871116225547
21
-4.58426696632782
31
0.000000000000000
  0
LINE
  5
F10165
330
F10166
100
AcDbEntity
8
Geo
100
AcDbLine
10
-41.4871116225547
20
-4.58426696632782
30
0.000000000000000
11
-41.3871116225547
21
-4.66786306645822
31
0.000000000000000
  0
LINE
  5
F10167
330
F10168
100
AcDbEntity
8
Geo
100
AcDbLine
10
-41.3871116225547
20
-4.66786306645822
30
0.000000000000000
11
-41.2871116225547
21
-4.75134970363383
31
0.000000000000000
  0
LINE
  5
F10169
330
F1016A
100
AcDbEntity
8
Geo
100
AcDbLine
10
-41.2871116225547
20
-4.75134970363383
30
0.000000000000000
11
-41.1871116225547
21
-4.83471054979984
31
0.000000000000000
  0
LINE
  5
F1016B
330
F1016C
100
AcDbEntity
8
Geo
100
AcDbLine
10
-41.1871116225547
20
-4.83471054979984
30
0.000000000000000
11
-41.0871116225547
21
-4.91792930150326
31
0.000000000000000
  0
LINE
  5
F1016D
330
F1016E
100
AcDbEntity
8
Geo
100
AcDbLine
10
-41.0871116225547
20
-4.91792930150326
30
0.000000000000000
11
-40.9871116225547
21
-5.00098968308148
31
0.000000000000000
  0
LINE
  5
F1016F
330
F10170
100
AcDbEntity
8
Geo
100
AcDbLine
10
-40.9871116225547
20
-5.00098968308148
30
0.000000000000000
11
-40.8871116225547
21
-5.08387544984543
31
0.000000000000000
  0
LINE
  5
F10171
330
F10172
100
AcDbEntity
8
Geo
100
AcDbLine
10
-40.8871116225547
20
-5.08387544984543
30
0.000000000000000
11
-40.7871116225547
21
-5.16657039125666
31
0.000000000000000
  0
LINE
  5
F10173
330
F10174
100
AcDbEntity
8
Geo
100
AcDbLine
10
-40.7871116225547
20
-5.16657039125666
30
0.000000000000000
11
-40.6871116225547
21
-5.24905833409773
31
0.000000000000000
  0
LINE
  5
F10175
330
F10176
100
AcDbEntity
8
Geo
100
AcDbLine
10
-40.6871116225547
20
-5.24905833409773
30
0.000000000000000
11
-40.5871116225547
21
-5.33132314563535
31
0.000000000000000
  0
LINE
  5
F10177
330
F10178
100
AcDbEntity
8
Geo
100
AcDbLine
10
-40.5871116225547
20
-5.33132314563535
30
0.000000000000000
11
-40.4871116225547
21
-5.41334873677553
31
0.000000000000000
  0
LINE
  5
F10179
330
F1017A
100
AcDbEntity
8
Geo
100
AcDbLine
10
-40.4871116225547
20
-5.41334873677553
30
0.000000000000000
11
-40.3871116225547
21
-5.49511906521028
31
0.000000000000000
  0
LINE
  5
F1017B
330
F1017C
100
AcDbEntity
8
Geo
100
AcDbLine
10
-40.3871116225547
20
-5.49511906521028
30
0.000000000000000
11
-40.2871116225547
21
-5.57661813855507
31
0.000000000000000
  0
LINE
  5
F1017D
330
F1017E
100
AcDbEntity
8
Geo
100
AcDbLine
10
-40.2871116225547
20
-5.57661813855507
30
0.000000000000000
11
-40.1871116225547
21
-5.65783001747660
31
0.000000000000000
  0
LINE
  5
F1017F
330
F10180
100
AcDbEntity
8
Geo
100
AcDbLine
10
-40.1871116225547
20
-5.65783001747660
30
0.000000000000000
11
-40.0871116225547
21
-5.73873881881015
31
0.000000000000000
  0
LINE
  5
F10181
330
F10182
100
AcDbEntity
8
Geo
100
AcDbLine
10
-40.0871116225547
20
-5.73873881881015
30
0.000000000000000
11
-39.9871116225547
21
-5.81932871866597
31
0.000000000000000
  0
LINE
  5
F10183
330
F10184
100
AcDbEntity
8
Geo
100
AcDbLine
10
-39.9871116225547
20
-5.81932871866597
30
0.000000000000000
11
-39.8871116225547
21
-5.89958395552406
31
0.000000000000000
  0
LINE
  5
F10185
330
F10186
100
AcDbEntity
8
Geo
100
AcDbLine
10
-39.8871116225547
20
-5.89958395552406
30
0.000000000000000
11
-39.7871116225547
21
-5.97948883331676
31
0.000000000000000
  0
LINE
  5
F10187
330
F10188
100
AcDbEntity
8
Geo
100
AcDbLine
10
-39.7871116225547
20
-5.97948883331676
30
0.000000000000000
11
-39.6871116225547
21
-6.05902772449853
31
0.000000000000000
  0
LINE
  5
F10189
330
F1018A
100
AcDbEntity
8
Geo
100
AcDbLine
10
-39.6871116225547
20
-6.05902772449853
30
0.000000000000000
11
-39.5871116225547
21
-6.13818507310235
31
0.000000000000000
  0
LINE
  5
F1018B
330
F1018C
100
AcDbEntity
8
Geo
100
AcDbLine
10
-39.5871116225547
20
-6.13818507310235
30
0.000000000000000
11
-39.4871116225547
21
-6.21694539778211
31
0.000000000000000
  0
LINE
  5
F1018D
330
F1018E
100
AcDbEntity
8
Geo
100
AcDbLine
10
-39.4871116225547
20
-6.21694539778211
30
0.000000000000000
11
-39.3871116225547
21
-6.29529329484038
31
0.000000000000000
  0
LINE
  5
F1018F
330
F10190
100
AcDbEntity
8
Geo
100
AcDbLine
10
-39.3871116225547
20
-6.29529329484038
30
0.000000000000000
11
-39.2871116225547
21
-6.37321344124105
31
0.000000000000000
  0
LINE
  5
F10191
330
F10192
100
AcDbEntity
8
Geo
100
AcDbLine
10
-39.2871116225547
20
-6.37321344124105
30
0.000000000000000
11
-39.1871116225547
21
-6.45069059760611
31
0.000000000000000
  0
LINE
  5
F10193
330
F10194
100
AcDbEntity
8
Geo
100
AcDbLine
10
-39.1871116225547
20
-6.45069059760611
30
0.000000000000000
11
-39.0871116225547
21
-6.52770961119619
31
0.000000000000000
  0
LINE
  5
F10195
330
F10196
100
AcDbEntity
8
Geo
100
AcDbLine
10
-39.0871116225547
20
-6.52770961119619
30
0.000000000000000
11
-38.9871116225547
21
-6.60425541887403
31
0.000000000000000
  0
LINE
  5
F10197
330
F10198
100
AcDbEntity
8
Geo
100
AcDbLine
10
-38.9871116225547
20
-6.60425541887403
30
0.000000000000000
11
-38.8871116225547
21
-6.68031305005049
31
0.000000000000000
  0
LINE
  5
F10199
330
F1019A
100
AcDbEntity
8
Geo
100
AcDbLine
10
-38.8871116225547
20
-6.68031305005049
30
0.000000000000000
11
-38.7871116225547
21
-6.75586762961248
31
0.000000000000000
  0
LINE
  5
F1019B
330
F1019C
100
AcDbEntity
8
Geo
100
AcDbLine
10
-38.7871116225547
20
-6.75586762961248
30
0.000000000000000
11
-38.6871116225547
21
-6.83090438083216
31
0.000000000000000
  0
LINE
  5
F1019D
330
F1019E
100
AcDbEntity
8
Geo
100
AcDbLine
10
-38.6871116225547
20
-6.83090438083216
30
0.000000000000000
11
-38.5871116225547
21
-6.90540862825692
31
0.000000000000000
  0
LINE
  5
F1019F
330
F101A0
100
AcDbEntity
8
Geo
100
AcDbLine
10
-38.5871116225547
20
-6.90540862825692
30
0.000000000000000
11
-38.4871116225547
21
-6.97936580057960
31
0.000000000000000
  0
LINE
  5
F101A1
330
F101A2
100
AcDbEntity
8
Geo
100
AcDbLine
10
-38.4871116225547
20
-6.97936580057960
30
0.000000000000000
11
-38.3871116225547
21
-7.05276143348824
31
0.000000000000000
  0
LINE
  5
F101A3
330
F101A4
100
AcDbEntity
8
Geo
100
AcDbLine
10
-38.3871116225547
20
-7.05276143348824
30
0.000000000000000
11
-38.2871116225547
21
-7.12558117249504
31
0.000000000000000
  0
LINE
  5
F101A5
330
F101A6
100
AcDbEntity
8
Geo
100
AcDbLine
10
-38.2871116225547
20
-7.12558117249504
30
0.000000000000000
11
-38.1871116225547
21
-7.19781077574369
31
0.000000000000000
  0
LINE
  5
F101A7
330
F101A8
100
AcDbEntity
8
Geo
100
AcDbLine
10
-38.1871116225547
20
-7.19781077574369
30
0.000000000000000
11
-38.0871116225547
21
-7.26943611679479
31
0.000000000000000
  0
LINE
  5
F101A9
330
F101AA
100
AcDbEntity
8
Geo
100
AcDbLine
10
-38.0871116225547
20
-7.26943611679479
30
0.000000000000000
11
-37.9871116225547
21
-7.34044318738866
31
0.000000000000000
  0
LINE
  5
F101AB
330
F101AC
100
AcDbEntity
8
Geo
100
AcDbLine
10
-37.9871116225547
20
-7.34044318738866
30
0.000000000000000
11
-37.8871116225547
21
-7.41081810018500
31
0.000000000000000
  0
LINE
  5
F101AD
330
F101AE
100
AcDbEntity
8
Geo
100
AcDbLine
10
-37.8871116225547
20
-7.41081810018500
30
0.000000000000000
11
-37.7871116225547
21
-7.48054709147896
31
0.000000000000000
  0
LINE
  5
F101AF
330
F101B0
100
AcDbEntity
8
Geo
100
AcDbLine
10
-37.7871116225547
20
-7.48054709147896
30
0.000000000000000
11
-37.6871116225547
21
-7.54961652389299
31
0.000000000000000
  0
LINE
  5
F101B1
330
F101B2
100
AcDbEntity
8
Geo
100
AcDbLine
10
-37.6871116225547
20
-7.54961652389299
30
0.000000000000000
11
-37.5871116225547
21
-7.61801288904401
31
0.000000000000000
  0
LINE
  5
F101B3
330
F101B4
100
AcDbEntity
8
Geo
100
AcDbLine
10
-37.5871116225547
20
-7.61801288904401
30
0.000000000000000
11
-37.4871116225547
21
-7.68572281018530
31
0.000000000000000
  0
LINE
  5
F101B5
330
F101B6
100
AcDbEntity
8
Geo
100
AcDbLine
10
-37.4871116225547
20
-7.68572281018530
30
0.000000000000000
11
-37.3871116225547
21
-7.75273304482272
31
0.000000000000000
  0
LINE
  5
F101B7
330
F101B8
100
AcDbEntity
8
Geo
100
AcDbLine
10
-37.3871116225547
20
-7.75273304482272
30
0.000000000000000
11
-37.2871116225547
21
-7.81903048730465
31
0.000000000000000
  0
LINE
  5
F101B9
330
F101BA
100
AcDbEntity
8
Geo
100
AcDbLine
10
-37.2871116225547
20
-7.81903048730465
30
0.000000000000000
11
-37.1871116225547
21
-7.88460217138507
31
0.000000000000000
  0
LINE
  5
F101BB
330
F101BC
100
AcDbEntity
8
Geo
100
AcDbLine
10
-37.1871116225547
20
-7.88460217138507
30
0.000000000000000
11
-37.0871116225547
21
-7.94943527275957
31
0.000000000000000
  0
LINE
  5
F101BD
330
F101BE
100
AcDbEntity
8
Geo
100
AcDbLine
10
-37.0871116225547
20
-7.94943527275957
30
0.000000000000000
11
-36.9871116225547
21
-8.01351711157340
31
0.000000000000000
  0
LINE
  5
F101BF
330
F101C0
100
AcDbEntity
8
Geo
100
AcDbLine
10
-36.9871116225547
20
-8.01351711157340
30
0.000000000000000
11
-36.8871116225547
21
-8.07683515490139
31
0.000000000000000
  0
LINE
  5
F101C1
330
F101C2
100
AcDbEntity
8
Geo
100
AcDbLine
10
-36.8871116225547
20
-8.07683515490139
30
0.000000000000000
11
-36.7871116225547
21
-8.13937701919909
31
0.000000000000000
  0
LINE
  5
F101C3
330
F101C4
100
AcDbEntity
8
Geo
100
AcDbLine
10
-36.7871116225547
20
-8.13937701919909
30
0.000000000000000
11
-36.6871116225547
21
-8.20113047272473
31
0.000000000000000
  0
LINE
  5
F101C5
330
F101C6
100
AcDbEntity
8
Geo
100
AcDbLine
10
-36.6871116225547
20
-8.20113047272473
30
0.000000000000000
11
-36.5871116225547
21
-8.26208343793144
31
0.000000000000000
  0
LINE
  5
F101C7
330
F101C8
100
AcDbEntity
8
Geo
100
AcDbLine
10
-36.5871116225547
20
-8.26208343793144
30
0.000000000000000
11
-36.4871116225547
21
-8.32222399382933
31
0.000000000000000
  0
LINE
  5
F101C9
330
F101CA
100
AcDbEntity
8
Geo
100
AcDbLine
10
-36.4871116225547
20
-8.32222399382933
30
0.000000000000000
11
-36.3871116225547
21
-8.38154037831701
31
0.000000000000000
  0
LINE
  5
F101CB
330
F101CC
100
AcDbEntity
8
Geo
100
AcDbLine
10
-36.3871116225547
20
-8.38154037831701
30
0.000000000000000
11
-36.2871116225547
21
-8.44002099048192
31
0.000000000000000
  0
LINE
  5
F101CD
330
F101CE
100
AcDbEntity
8
Geo
100
AcDbLine
10
-36.2871116225547
20
-8.44002099048192
30
0.000000000000000
11
-36.1871116225547
21
-8.49765439286925
31
0.000000000000000
  0
LINE
  5
F101CF
330
F101D0
100
AcDbEntity
8
Geo
100
AcDbLine
10
-36.1871116225547
20
-8.49765439286925
30
0.000000000000000
11
-36.0871116225547
21
-8.55442931371881
31
0.000000000000000
  0
LINE
  5
F101D1
330
F101D2
100
AcDbEntity
8
Geo
100
AcDbLine
10
-36.0871116225547
20
-8.55442931371881
30
0.000000000000000
11
-35.9871116225547
21
-8.61033464916954
31
0.000000000000000
  0
LINE
  5
F101D3
330
F101D4
100
AcDbEntity
8
Geo
100
AcDbLine
10
-35.9871116225547
20
-8.61033464916954
30
0.000000000000000
11
-35.8871116225547
21
-8.66535946543118
31
0.000000000000000
  0
LINE
  5
F101D5
330
F101D6
100
AcDbEntity
8
Geo
100
AcDbLine
10
-35.8871116225547
20
-8.66535946543118
30
0.000000000000000
11
-35.7871116225547
21
-8.71949300092264
31
0.000000000000000
  0
LINE
  5
F101D7
330
F101D8
100
AcDbEntity
8
Geo
100
AcDbLine
10
-35.7871116225547
20
-8.71949300092264
30
0.000000000000000
11
-35.6871116225547
21
-8.77272466837672
31
0.000000000000000
  0
LINE
  5
F101D9
330
F101DA
100
AcDbEntity
8
Geo
100
AcDbLine
10
-35.6871116225547
20
-8.77272466837672
30
0.000000000000000
11
-35.5871116225547
21
-8.82504405691077
31
0.000000000000000
  0
LINE
  5
F101DB
330
F101DC
100
AcDbEntity
8
Geo
100
AcDbLine
10
-35.5871116225547
20
-8.82504405691077
30
0.000000000000000
11
-35.4871116225547
21
-8.87644093406278
31
0.000000000000000
  0
LINE
  5
F101DD
330
F101DE
100
AcDbEntity
8
Geo
100
AcDbLine
10
-35.4871116225547
20
-8.87644093406278
30
0.000000000000000
11
-35.3871116225547
21
-8.92690524779261
31
0.000000000000000
  0
LINE
  5
F101DF
330
F101E0
100
AcDbEntity
8
Geo
100
AcDbLine
10
-35.3871116225547
20
-8.92690524779261
30
0.000000000000000
11
-35.2871116225547
21
-8.97642712844798
31
0.000000000000000
  0
LINE
  5
F101E1
330
F101E2
100
AcDbEntity
8
Geo
100
AcDbLine
10
-35.2871116225547
20
-8.97642712844798
30
0.000000000000000
11
-35.1871116225547
21
-9.02499689069468
31
0.000000000000000
  0
LINE
  5
F101E3
330
F101E4
100
AcDbEntity
8
Geo
100
AcDbLine
10
-35.1871116225547
20
-9.02499689069468
30
0.000000000000000
11
-35.0871116225547
21
-9.07260503541087
31
0.000000000000000
  0
LINE
  5
F101E5
330
F101E6
100
AcDbEntity
8
Geo
100
AcDbLine
10
-35.0871116225547
20
-9.07260503541087
30
0.000000000000000
11
-34.9871116225547
21
-9.11924225154482
31
0.000000000000000
  0
LINE
  5
F101E7
330
F101E8
100
AcDbEntity
8
Geo
100
AcDbLine
10
-34.9871116225547
20
-9.11924225154482
30
0.000000000000000
11
-34.8871116225547
21
-9.16489941793601
31
0.000000000000000
  0
LINE
  5
F101E9
330
F101EA
100
AcDbEntity
8
Geo
100
AcDbLine
10
-34.8871116225547
20
-9.16489941793601
30
0.000000000000000
11
-34.7871116225547
21
-9.20956760509892
31
0.000000000000000
  0
LINE
  5
F101EB
330
F101EC
100
AcDbEntity
8
Geo
100
AcDbLine
10
-34.7871116225547
20
-9.20956760509892
30
0.000000000000000
11
-34.6871116225547
21
-9.25323807696954
31
0.000000000000000
  0
LINE
  5
F101ED
330
F101EE
100
AcDbEntity
8
Geo
100
AcDbLine
10
-34.6871116225547
20
-9.25323807696954
30
0.000000000000000
11
-34.5871116225547
21
-9.29590229261387
31
0.000000000000000
  0
LINE
  5
F101EF
330
F101F0
100
AcDbEntity
8
Geo
100
AcDbLine
10
-34.5871116225547
20
-9.29590229261387
30
0.000000000000000
11
-34.4871116225547
21
-9.33755190789833
31
0.000000000000000
  0
LINE
  5
F101F1
330
F101F2
100
AcDbEntity
8
Geo
100
AcDbLine
10
-34.4871116225547
20
-9.33755190789833
30
0.000000000000000
11
-34.3871116225547
21
-9.37817877712173
31
0.000000000000000
  0
LINE
  5
F101F3
330
F101F4
100
AcDbEntity
8
Geo
100
AcDbLine
10
-34.3871116225547
20
-9.37817877712173
30
0.000000000000000
11
-34.2871116225547
21
-9.41777495460833
31
0.000000000000000
  0
LINE
  5
F101F5
330
F101F6
100
AcDbEntity
8
Geo
100
AcDbLine
10
-34.2871116225547
20
-9.41777495460833
30
0.000000000000000
11
-34.1871116225547
21
-9.45633269626186
31
0.000000000000000
  0
LINE
  5
F101F7
330
F101F8
100
AcDbEntity
8
Geo
100
AcDbLine
10
-34.1871116225547
20
-9.45633269626186
30
0.000000000000000
11
-34.0871116225547
21
-9.49384446108005
31
0.000000000000000
  0
LINE
  5
F101F9
330
F101FA
100
AcDbEntity
8
Geo
100
AcDbLine
10
-34.0871116225547
20
-9.49384446108005
30
0.000000000000000
11
-33.9871116225547
21
-9.53030291262953
31
0.000000000000000
  0
LINE
  5
F101FB
330
F101FC
100
AcDbEntity
8
Geo
100
AcDbLine
10
-33.9871116225547
20
-9.53030291262953
30
0.000000000000000
11
-33.8871116225547
21
-9.56570092048063
31
0.000000000000000
  0
LINE
  5
F101FD
330
F101FE
100
AcDbEntity
8
Geo
100
AcDbLine
10
-33.8871116225547
20
-9.56570092048063
30
0.000000000000000
11
-33.7871116225547
21
-9.60003156160193
31
0.000000000000000
  0
LINE
  5
F101FF
330
F10200
100
AcDbEntity
8
Geo
100
AcDbLine
10
-33.7871116225547
20
-9.60003156160193
30
0.000000000000000
11
-33.6871116225547
21
-9.63328812171424
31
0.000000000000000
  0
LINE
  5
F10201
330
F10202
100
AcDbEntity
8
Geo
100
AcDbLine
10
-33.6871116225547
20
-9.63328812171424
30
0.000000000000000
11
-33.5871116225547
21
-9.66546409660380
31
0.000000000000000
  0
LINE
  5
F10203
330
F10204
100
AcDbEntity
8
Geo
100
AcDbLine
10
-33.5871116225547
20
-9.66546409660380
30
0.000000000000000
11
-33.4871116225547
21
-9.69655319339427
31
0.000000000000000
  0
LINE
  5
F10205
330
F10206
100
AcDbEntity
8
Geo
100
AcDbLine
10
-33.4871116225547
20
-9.69655319339427
30
0.000000000000000
11
-33.3871116225547
21
-9.72654933177756
31
0.000000000000000
  0
LINE
  5
F10207
330
F10208
100
AcDbEntity
8
Geo
100
AcDbLine
10
-33.3871116225547
20
-9.72654933177756
30
0.000000000000000
11
-33.2871116225547
21
-9.75544664520296
31
0.000000000000000
  0
LINE
  5
F10209
330
F1020A
100
AcDbEntity
8
Geo
100
AcDbLine
10
-33.2871116225547
20
-9.75544664520296
30
0.000000000000000
11
-33.1871116225547
21
-9.78323948202448
31
0.000000000000000
  0
LINE
  5
F1020B
330
F1020C
100
AcDbEntity
8
Geo
100
AcDbLine
10
-33.1871116225547
20
-9.78323948202448
30
0.000000000000000
11
-33.0871116225547
21
-9.80992240660621
31
0.000000000000000
  0
LINE
  5
F1020D
330
F1020E
100
AcDbEntity
8
Geo
100
AcDbLine
10
-33.0871116225547
20
-9.80992240660621
30
0.000000000000000
11
-32.9871116225547
21
-9.83549020038541
31
0.000000000000000
  0
LINE
  5
F1020F
330
F10210
100
AcDbEntity
8
Geo
100
AcDbLine
10
-32.9871116225547
20
-9.83549020038541
30
0.000000000000000
11
-32.8871116225547
21
-9.85993786289310
31
0.000000000000000
  0
LINE
  5
F10211
330
F10212
100
AcDbEntity
8
Geo
100
AcDbLine
10
-32.8871116225547
20
-9.85993786289310
30
0.000000000000000
11
-32.7871116225547
21
-9.88326061273210
31
0.000000000000000
  0
LINE
  5
F10213
330
F10214
100
AcDbEntity
8
Geo
100
AcDbLine
10
-32.7871116225547
20
-9.88326061273210
30
0.000000000000000
11
-32.6871116225547
21
-9.90545388851208
31
0.000000000000000
  0
LINE
  5
F10215
330
F10216
100
AcDbEntity
8
Geo
100
AcDbLine
10
-32.6871116225547
20
-9.90545388851208
30
0.000000000000000
11
-32.5871116225547
21
-9.92651334974175
31
0.000000000000000
  0
LINE
  5
F10217
330
F10218
100
AcDbEntity
8
Geo
100
AcDbLine
10
-32.5871116225547
20
-9.92651334974175
30
0.000000000000000
11
-32.4871116225547
21
-9.94643487767768
31
0.000000000000000
  0
LINE
  5
F10219
330
F1021A
100
AcDbEntity
8
Geo
100
AcDbLine
10
-32.4871116225547
20
-9.94643487767768
30
0.000000000000000
11
-32.3871116225547
21
-9.96521457612988
31
0.000000000000000
  0
LINE
  5
F1021B
330
F1021C
100
AcDbEntity
8
Geo
100
AcDbLine
10
-32.3871116225547
20
-9.96521457612988
30
0.000000000000000
11
-32.2871116225547
21
-9.98284877222380
31
0.000000000000000
  0
LINE
  5
F1021D
330
F1021E
100
AcDbEntity
8
Geo
100
AcDbLine
10
-32.2871116225547
20
-9.98284877222380
30
0.000000000000000
11
-32.1871116225547
21
-9.99933401711865
31
0.000000000000000
  0
LINE
  5
F1021F
330
F10220
100
AcDbEntity
8
Geo
100
AcDbLine
10
-32.1871116225547
20
-9.99933401711865
30
0.000000000000000
11
-32.0871116225547
21
-10.0146670866819
31
0.000000000000000
  0
LINE
  5
F10221
330
F10222
100
AcDbEntity
8
Geo
100
AcDbLine
10
-32.0871116225547
20
-10.0146670866819
30
0.000000000000000
11
-31.9871116225547
21
-10.0288449821198
31
0.000000000000000
  0
LINE
  5
F10223
330
F10224
100
AcDbEntity
8
Geo
100
AcDbLine
10
-31.9871116225547
20
-10.0288449821198
30
0.000000000000000
11
-31.8871116225547
21
-10.0418649305642
31
0.000000000000000
  0
LINE
  5
F10225
330
F10226
100
AcDbEntity
8
Geo
100
AcDbLine
10
-31.8871116225547
20
-10.0418649305642
30
0.000000000000000
11
-31.7871116225547
21
-10.0537243856141
31
0.000000000000000
  0
LINE
  5
F10227
330
F10228
100
AcDbEntity
8
Geo
100
AcDbLine
10
-31.7871116225547
20
-10.0537243856141
30
0.000000000000000
11
-31.6871116225547
21
-10.0644210278347
31
0.000000000000000
  0
LINE
  5
F10229
330
F1022A
100
AcDbEntity
8
Geo
100
AcDbLine
10
-31.6871116225547
20
-10.0644210278347
30
0.000000000000000
11
-31.5871116225547
21
-10.0739527652102
31
0.000000000000000
  0
LINE
  5
F1022B
330
F1022C
100
AcDbEntity
8
Geo
100
AcDbLine
10
-31.5871116225547
20
-10.0739527652102
30
0.000000000000000
11
-31.4871116225547
21
-10.0823177335532
31
0.000000000000000
  0
LINE
  5
F1022D
330
F1022E
100
AcDbEntity
8
Geo
100
AcDbLine
10
-31.4871116225547
20
-10.0823177335532
30
0.000000000000000
11
-31.3871116225546
21
-10.0895142968695
31
0.000000000000000
  0
LINE
  5
F1022F
330
F10230
100
AcDbEntity
8
Geo
100
AcDbLine
10
-31.3871116225546
20
-10.0895142968695
30
0.000000000000000
11
-31.2871116225546
21
-10.0955410476777
31
0.000000000000000
  0
LINE
  5
F10231
330
F10232
100
AcDbEntity
8
Geo
100
AcDbLine
10
-31.2871116225546
20
-10.0955410476777
30
0.000000000000000
11
-31.1871116225546
21
-10.1003968072848
31
0.000000000000000
  0
LINE
  5
F10233
330
F10234
100
AcDbEntity
8
Geo
100
AcDbLine
10
-31.1871116225546
20
-10.1003968072848
30
0.000000000000000
11
-31.0871116225546
21
-10.1040806260166
31
0.000000000000000
  0
LINE
  5
F10235
330
F10236
100
AcDbEntity
8
Geo
100
AcDbLine
10
-31.0871116225546
20
-10.1040806260166
30
0.000000000000000
11
-30.9871116225546
21
-10.1065917834034
31
0.000000000000000
  0
LINE
  5
F10237
330
F10238
100
AcDbEntity
8
Geo
100
AcDbLine
10
-30.9871116225546
20
-10.1065917834034
30
0.000000000000000
11
-30.8871116225546
21
-10.1079297883209
31
0.000000000000000
  0
LINE
  5
F10239
330
F1023A
100
AcDbEntity
8
Geo
100
AcDbLine
10
-30.8871116225546
20
-10.1079297883209
30
0.000000000000000
11
-30.8230858448678
21
-10.1081703107020
31
0.000000000000000
  0
LINE
  5
F1023B
330
F1023C
100
AcDbEntity
8
Geo
100
AcDbLine
10
-53.2871116225547
20
-7.10817031070199
30
0.000000000000000
11
-53.1871116225547
21
-7.18054273637711
31
0.000000000000000
  0
LINE
  5
F1023D
330
F1023E
100
AcDbEntity
8
Geo
100
AcDbLine
10
-53.1871116225547
20
-7.18054273637711
30
0.000000000000000
11
-53.0871116225547
21
-7.25231427708370
31
0.000000000000000
  0
LINE
  5
F1023F
330
F10240
100
AcDbEntity
8
Geo
100
AcDbLine
10
-53.0871116225547
20
-7.25231427708370
30
0.000000000000000
11
-52.9871116225547
21
-7.32347089596880
31
0.000000000000000
  0
LINE
  5
F10241
330
F10242
100
AcDbEntity
8
Geo
100
AcDbLine
10
-52.9871116225547
20
-7.32347089596880
30
0.000000000000000
11
-52.8871116225547
21
-7.39399867644392
31
0.000000000000000
  0
LINE
  5
F10243
330
F10244
100
AcDbEntity
8
Geo
100
AcDbLine
10
-52.8871116225547
20
-7.39399867644392
30
0.000000000000000
11
-52.7871116225547
21
-7.46388382490683
31
0.000000000000000
  0
LINE
  5
F10245
330
F10246
100
AcDbEntity
8
Geo
100
AcDbLine
10
-52.7871116225547
20
-7.46388382490683
30
0.000000000000000
11
-52.6871116225547
21
-7.53311267343927
31
0.000000000000000
  0
LINE
  5
F10247
330
F10248
100
AcDbEntity
8
Geo
100
AcDbLine
10
-52.6871116225547
20
-7.53311267343927
30
0.000000000000000
11
-52.5871116225547
21
-7.60167168248002
31
0.000000000000000
  0
LINE
  5
F10249
330
F1024A
100
AcDbEntity
8
Geo
100
AcDbLine
10
-52.5871116225547
20
-7.60167168248002
30
0.000000000000000
11
-52.4871116225547
21
-7.66954744347301
31
0.000000000000000
  0
LINE
  5
F1024B
330
F1024C
100
AcDbEntity
8
Geo
100
AcDbLine
10
-52.4871116225547
20
-7.66954744347301
30
0.000000000000000
11
-52.3871116225547
21
-7.73672668148965
31
0.000000000000000
  0
LINE
  5
F1024D
330
F1024E
100
AcDbEntity
8
Geo
100
AcDbLine
10
-52.3871116225547
20
-7.73672668148965
30
0.000000000000000
11
-52.2871116225547
21
-7.80319625782516
31
0.000000000000000
  0
LINE
  5
F1024F
330
F10250
100
AcDbEntity
8
Geo
100
AcDbLine
10
-52.2871116225547
20
-7.80319625782516
30
0.000000000000000
11
-52.1871116225547
21
-7.86894317256815
31
0.000000000000000
  0
LINE
  5
F10251
330
F10252
100
AcDbEntity
8
Geo
100
AcDbLine
10
-52.1871116225547
20
-7.86894317256815
30
0.000000000000000
11
-52.0871116225547
21
-7.93395456714311
31
0.000000000000000
  0
LINE
  5
F10253
330
F10254
100
AcDbEntity
8
Geo
100
AcDbLine
10
-52.0871116225547
20
-7.93395456714311
30
0.000000000000000
11
-51.9871116225547
21
-7.99821772682527
31
0.000000000000000
  0
LINE
  5
F10255
330
F10256
100
AcDbEntity
8
Geo
100
AcDbLine
10
-51.9871116225547
20
-7.99821772682527
30
0.000000000000000
11
-51.8871116225547
21
-8.06172008322731
31
0.000000000000000
  0
LINE
  5
F10257
330
F10258
100
AcDbEntity
8
Geo
100
AcDbLine
10
-51.8871116225547
20
-8.06172008322731
30
0.000000000000000
11
-51.7871116225547
21
-8.12444921675740
31
0.000000000000000
  0
LINE
  5
F10259
330
F1025A
100
AcDbEntity
8
Geo
100
AcDbLine
10
-51.7871116225547
20
-8.12444921675740
30
0.000000000000000
11
-51.6871116225547
21
-8.18639285904824
31
0.000000000000000
  0
LINE
  5
F1025B
330
F1025C
100
AcDbEntity
8
Geo
100
AcDbLine
10
-51.6871116225547
20
-8.18639285904824
30
0.000000000000000
11
-51.5871116225547
21
-8.24753889535643
31
0.000000000000000
  0
LINE
  5
F1025D
330
F1025E
100
AcDbEntity
8
Geo
100
AcDbLine
10
-51.5871116225547
20
-8.24753889535643
30
0.000000000000000
11
-51.4871116225547
21
-8.30787536693187
31
0.000000000000000
  0
LINE
  5
F1025F
330
F10260
100
AcDbEntity
8
Geo
100
AcDbLine
10
-51.4871116225547
20
-8.30787536693187
30
0.000000000000000
11
-51.3871116225547
21
-8.36739047335655
31
0.000000000000000
  0
LINE
  5
F10261
330
F10262
100
AcDbEntity
8
Geo
100
AcDbLine
10
-51.3871116225547
20
-8.36739047335655
30
0.000000000000000
11
-51.2871116225547
21
-8.42607257485253
31
0.000000000000000
  0
LINE
  5
F10263
330
F10264
100
AcDbEntity
8
Geo
100
AcDbLine
10
-51.2871116225547
20
-8.42607257485253
30
0.000000000000000
11
-51.1871116225547
21
-8.48391019455833
31
0.000000000000000
  0
LINE
  5
F10265
330
F10266
100
AcDbEntity
8
Geo
100
AcDbLine
10
-51.1871116225547
20
-8.48391019455833
30
0.000000000000000
11
-51.0871116225547
21
-8.54089202077358
31
0.000000000000000
  0
LINE
  5
F10267
330
F10268
100
AcDbEntity
8
Geo
100
AcDbLine
10
-51.0871116225547
20
-8.54089202077358
30
0.000000000000000
11
-50.9871116225547
21
-8.59700690917133
31
0.000000000000000
  0
LINE
  5
F10269
330
F1026A
100
AcDbEntity
8
Geo
100
AcDbLine
10
-50.9871116225547
20
-8.59700690917133
30
0.000000000000000
11
-50.8871116225547
21
-8.65224388497760
31
0.000000000000000
  0
LINE
  5
F1026B
330
F1026C
100
AcDbEntity
8
Geo
100
AcDbLine
10
-50.8871116225547
20
-8.65224388497760
30
0.000000000000000
11
-50.7871116225547
21
-8.70659214511780
31
0.000000000000000
  0
LINE
  5
F1026D
330
F1026E
100
AcDbEntity
8
Geo
100
AcDbLine
10
-50.7871116225547
20
-8.70659214511780
30
0.000000000000000
11
-50.6871116225547
21
-8.76004106032957
31
0.000000000000000
  0
LINE
  5
F1026F
330
F10270
100
AcDbEntity
8
Geo
100
AcDbLine
10
-50.6871116225547
20
-8.76004106032957
30
0.000000000000000
11
-50.5871116225547
21
-8.81258017724161
31
0.000000000000000
  0
LINE
  5
F10271
330
F10272
100
AcDbEntity
8
Geo
100
AcDbLine
10
-50.5871116225547
20
-8.81258017724161
30
0.000000000000000
11
-50.4871116225547
21
-8.86419922041812
31
0.000000000000000
  0
LINE
  5
F10273
330
F10274
100
AcDbEntity
8
Geo
100
AcDbLine
10
-50.4871116225547
20
-8.86419922041812
30
0.000000000000000
11
-50.3871116225547
21
-8.91488809436844
31
0.000000000000000
  0
LINE
  5
F10275
330
F10276
100
AcDbEntity
8
Geo
100
AcDbLine
10
-50.3871116225547
20
-8.91488809436844
30
0.000000000000000
11
-50.2871116225547
21
-8.96463688552149
31
0.000000000000000
  0
LINE
  5
F10277
330
F10278
100
AcDbEntity
8
Geo
100
AcDbLine
10
-50.2871116225547
20
-8.96463688552149
30
0.000000000000000
11
-50.1871116225547
21
-9.01343586416463
31
0.000000000000000
  0
LINE
  5
F10279
330
F1027A
100
AcDbEntity
8
Geo
100
AcDbLine
10
-50.1871116225547
20
-9.01343586416463
30
0.000000000000000
11
-50.0871116225547
21
-9.06127548634659
31
0.000000000000000
  0
LINE
  5
F1027B
330
F1027C
100
AcDbEntity
8
Geo
100
AcDbLine
10
-50.0871116225547
20
-9.06127548634659
30
0.000000000000000
11
-49.9871116225547
21
-9.10814639574401
31
0.000000000000000
  0
LINE
  5
F1027D
330
F1027E
100
AcDbEntity
8
Geo
100
AcDbLine
10
-49.9871116225547
20
-9.10814639574401
30
0.000000000000000
11
-49.8871116225547
21
-9.15403942549135
31
0.000000000000000
  0
LINE
  5
F1027F
330
F10280
100
AcDbEntity
8
Geo
100
AcDbLine
10
-49.8871116225547
20
-9.15403942549135
30
0.000000000000000
11
-49.7871116225547
21
-9.19894559997371
31
0.000000000000000
  0
LINE
  5
F10281
330
F10282
100
AcDbEntity
8
Geo
100
AcDbLine
10
-49.7871116225547
20
-9.19894559997371
30
0.000000000000000
11
-49.6871116225547
21
-9.24285613658224
31
0.000000000000000
  0
LINE
  5
F10283
330
F10284
100
AcDbEntity
8
Geo
100
AcDbLine
10
-49.6871116225547
20
-9.24285613658224
30
0.000000000000000
11
-49.5871116225547
21
-9.28576244743183
31
0.000000000000000
  0
LINE
  5
F10285
330
F10286
100
AcDbEntity
8
Geo
100
AcDbLine
10
-49.5871116225547
20
-9.28576244743183
30
0.000000000000000
11
-49.4871116225547
21
-9.32765614104070
31
0.000000000000000
  0
LINE
  5
F10287
330
F10288
100
AcDbEntity
8
Geo
100
AcDbLine
10
-49.4871116225547
20
-9.32765614104070
30
0.000000000000000
11
-49.3871116225547
21
-9.36852902397157
31
0.000000000000000
  0
LINE
  5
F10289
330
F1028A
100
AcDbEntity
8
Geo
100
AcDbLine
10
-49.3871116225547
20
-9.36852902397157
30
0.000000000000000
11
-49.2871116225547
21
-9.40837310243412
31
0.000000000000000
  0
LINE
  5
F1028B
330
F1028C
100
AcDbEntity
8
Geo
100
AcDbLine
10
-49.2871116225547
20
-9.40837310243412
30
0.000000000000000
11
-49.1871116225547
21
-9.44718058384836
31
0.000000000000000
  0
LINE
  5
F1028D
330
F1028E
100
AcDbEntity
8
Geo
100
AcDbLine
10
-49.1871116225547
20
-9.44718058384836
30
0.000000000000000
11
-49.0871116225547
21
-9.48494387836873
31
0.000000000000000
  0
LINE
  5
F1028F
330
F10290
100
AcDbEntity
8
Geo
100
AcDbLine
10
-49.0871116225547
20
-9.48494387836873
30
0.000000000000000
11
-48.9871116225547
21
-9.52165560036845
31
0.000000000000000
  0
LINE
  5
F10291
330
F10292
100
AcDbEntity
8
Geo
100
AcDbLine
10
-48.9871116225547
20
-9.52165560036845
30
0.000000000000000
11
-48.8871116225547
21
-9.55730856988403
31
0.000000000000000
  0
LINE
  5
F10293
330
F10294
100
AcDbEntity
8
Geo
100
AcDbLine
10
-48.8871116225547
20
-9.55730856988403
30
0.000000000000000
11
-48.7871116225547
21
-9.59189581401942
31
0.000000000000000
  0
LINE
  5
F10295
330
F10296
100
AcDbEntity
8
Geo
100
AcDbLine
10
-48.7871116225547
20
-9.59189581401942
30
0.000000000000000
11
-48.6871116225547
21
-9.62541056830984
31
0.000000000000000
  0
LINE
  5
F10297
330
F10298
100
AcDbEntity
8
Geo
100
AcDbLine
10
-48.6871116225547
20
-9.62541056830984
30
0.000000000000000
11
-48.5871116225547
21
-9.65784627804469
31
0.000000000000000
  0
LINE
  5
F10299
330
F1029A
100
AcDbEntity
8
Geo
100
AcDbLine
10
-48.5871116225547
20
-9.65784627804469
30
0.000000000000000
11
-48.4871116225547
21
-9.68919659954955
31
0.000000000000000
  0
LINE
  5
F1029B
330
F1029C
100
AcDbEntity
8
Geo
100
AcDbLine
10
-48.4871116225547
20
-9.68919659954955
30
0.000000000000000
11
-48.3871116225547
21
-9.71945540142679
31
0.000000000000000
  0
LINE
  5
F1029D
330
F1029E
100
AcDbEntity
8
Geo
100
AcDbLine
10
-48.3871116225547
20
-9.71945540142679
30
0.000000000000000
11
-48.2871116225547
21
-9.74861676575480
31
0.000000000000000
  0
LINE
  5
F1029F
330
F102A0
100
AcDbEntity
8
Geo
100
AcDbLine
10
-48.2871116225547
20
-9.74861676575480
30
0.000000000000000
11
-48.1871116225547
21
-9.77667498924534
31
0.000000000000000
  0
LINE
  5
F102A1
330
F102A2
100
AcDbEntity
8
Geo
100
AcDbLine
10
-48.1871116225547
20
-9.77667498924534
30
0.000000000000000
11
-48.0871116225547
21
-9.80362458435902
31
0.000000000000000
  0
LINE
  5
F102A3
330
F102A4
100
AcDbEntity
8
Geo
100
AcDbLine
10
-48.0871116225547
20
-9.80362458435902
30
0.000000000000000
11
-47.9871116225547
21
-9.82946028037850
31
0.000000000000000
  0
LINE
  5
F102A5
330
F102A6
100
AcDbEntity
8
Geo
100
AcDbLine
10
-47.9871116225547
20
-9.82946028037850
30
0.000000000000000
11
-47.8871116225547
21
-9.85417702443932
31
0.000000000000000
  0
LINE
  5
F102A7
330
F102A8
100
AcDbEntity
8
Geo
100
AcDbLine
10
-47.8871116225547
20
-9.85417702443932
30
0.000000000000000
11
-47.7871116225547
21
-9.87776998251818
31
0.000000000000000
  0
LINE
  5
F102A9
330
F102AA
100
AcDbEntity
8
Geo
100
AcDbLine
10
-47.7871116225547
20
-9.87776998251818
30
0.000000000000000
11
-47.6871116225547
21
-9.90023454037827
31
0.000000000000000
  0
LINE
  5
F102AB
330
F102AC
100
AcDbEntity
8
Geo
100
AcDbLine
10
-47.6871116225547
20
-9.90023454037827
30
0.000000000000000
11
-47.5871116225547
21
-9.92156630447179
31
0.000000000000000
  0
LINE
  5
F102AD
330
F102AE
100
AcDbEntity
8
Geo
100
AcDbLine
10
-47.5871116225547
20
-9.92156630447179
30
0.000000000000000
11
-47.4871116225547
21
-9.94176110279918
31
0.000000000000000
  0
LINE
  5
F102AF
330
F102B0
100
AcDbEntity
8
Geo
100
AcDbLine
10
-47.4871116225547
20
-9.94176110279918
30
0.000000000000000
11
-47.3871116225547
21
-9.96081498572509
31
0.000000000000000
  0
LINE
  5
F102B1
330
F102B2
100
AcDbEntity
8
Geo
100
AcDbLine
10
-47.3871116225547
20
-9.96081498572509
30
0.000000000000000
11
-47.2871116225547
21
-9.97872422675081
31
0.000000000000000
  0
LINE
  5
F102B3
330
F102B4
100
AcDbEntity
8
Geo
100
AcDbLine
10
-47.2871116225547
20
-9.97872422675081
30
0.000000000000000
11
-47.1871116225547
21
-9.99548532324313
31
0.000000000000000
  0
LINE
  5
F102B5
330
F102B6
100
AcDbEntity
8
Geo
100
AcDbLine
10
-47.1871116225547
20
-9.99548532324313
30
0.000000000000000
11
-47.0871116225547
21
-10.0110949971193
31
0.000000000000000
  0
LINE
  5
F102B7
330
F102B8
100
AcDbEntity
8
Geo
100
AcDbLine
10
-47.0871116225547
20
-10.0110949971193
30
0.000000000000000
11
-46.9871116225547
21
-10.0255501954883
31
0.000000000000000
  0
LINE
  5
F102B9
330
F102BA
100
AcDbEntity
8
Geo
100
AcDbLine
10
-46.9871116225547
20
-10.0255501954883
30
0.000000000000000
11
-46.8871116225547
21
-10.0388480912477
31
0.000000000000000
  0
LINE
  5
F102BB
330
F102BC
100
AcDbEntity
8
Geo
100
AcDbLine
10
-46.8871116225547
20
-10.0388480912477
30
0.000000000000000
11
-46.7871116225547
21
-10.0509860836368
31
0.000000000000000
  0
LINE
  5
F102BD
330
F102BE
100
AcDbEntity
8
Geo
100
AcDbLine
10
-46.7871116225547
20
-10.0509860836368
30
0.000000000000000
11
-46.6871116225547
21
-10.0619617987450
31
0.000000000000000
  0
LINE
  5
F102BF
330
F102C0
100
AcDbEntity
8
Geo
100
AcDbLine
10
-46.6871116225547
20
-10.0619617987450
30
0.000000000000000
11
-46.5871116225547
21
-10.0717730899763
31
0.000000000000000
  0
LINE
  5
F102C1
330
F102C2
100
AcDbEntity
8
Geo
100
AcDbLine
10
-46.5871116225547
20
-10.0717730899763
30
0.000000000000000
11
-46.4871116225547
21
-10.0804180384693
31
0.000000000000000
  0
LINE
  5
F102C3
330
F102C4
100
AcDbEntity
8
Geo
100
AcDbLine
10
-46.4871116225547
20
-10.0804180384693
30
0.000000000000000
11
-46.3871116225547
21
-10.0878949534719
31
0.000000000000000
  0
LINE
  5
F102C5
330
F102C6
100
AcDbEntity
8
Geo
100
AcDbLine
10
-46.3871116225547
20
-10.0878949534719
30
0.000000000000000
11
-46.2871116225547
21
-10.0942023726725
31
0.000000000000000
  0
LINE
  5
F102C7
330
F102C8
100
AcDbEntity
8
Geo
100
AcDbLine
10
-46.2871116225547
20
-10.0942023726725
30
0.000000000000000
11
-46.1871116225547
21
-10.0993390624860
31
0.000000000000000
  0
LINE
  5
F102C9
330
F102CA
100
AcDbEntity
8
Geo
100
AcDbLine
10
-46.1871116225547
20
-10.0993390624860
30
0.000000000000000
11
-46.0871116225547
21
-10.1033040182946
31
0.000000000000000
  0
LINE
  5
F102CB
330
F102CC
100
AcDbEntity
8
Geo
100
AcDbLine
10
-46.0871116225547
20
-10.1033040182946
30
0.000000000000000
11
-45.9871116225547
21
-10.1060964646446
31
0.000000000000000
  0
LINE
  5
F102CD
330
F102CE
100
AcDbEntity
8
Geo
100
AcDbLine
10
-45.9871116225547
20
-10.1060964646446
30
0.000000000000000
11
-45.8871116225547
21
-10.1077158553982
31
0.000000000000000
  0
LINE
  5
F102CF
330
F102D0
100
AcDbEntity
8
Geo
100
AcDbLine
10
-45.8871116225547
20
-10.1077158553982
30
0.000000000000000
11
-45.7991032212965
21
-10.1081703107020
31
0.000000000000000
  0
LINE
  5
F102D1
330
F102D2
100
AcDbEntity
8
Geo
100
AcDbLine
10
-38.3110946062506
20
1.89182968929804
30
0.000000000000000
11
-38.2871116225547
21
1.89179594187370
31
0.000000000000000
  0
LINE
  5
F102D3
330
F102D4
100
AcDbEntity
8
Geo
100
AcDbLine
10
-38.2871116225547
20
1.89179594187370
30
0.000000000000000
11
-38.1871116225547
21
1.89092779231402
31
0.000000000000000
  0
LINE
  5
F102D5
330
F102D6
100
AcDbEntity
8
Geo
100
AcDbLine
10
-38.1871116225547
20
1.89092779231402
30
0.000000000000000
11
-38.0871116225547
21
1.88888635795178
31
0.000000000000000
  0
LINE
  5
F102D7
330
F102D8
100
AcDbEntity
8
Geo
100
AcDbLine
10
-38.0871116225547
20
1.88888635795178
30
0.000000000000000
11
-37.9871116225547
21
1.88567203804430
31
0.000000000000000
  0
LINE
  5
F102D9
330
F102DA
100
AcDbEntity
8
Geo
100
AcDbLine
10
-37.9871116225547
20
1.88567203804430
30
0.000000000000000
11
-37.8871116225547
21
1.88128546123821
31
0.000000000000000
  0
LINE
  5
F102DB
330
F102DC
100
AcDbEntity
8
Geo
100
AcDbLine
10
-37.8871116225547
20
1.88128546123821
30
0.000000000000000
11
-37.7871116225547
21
1.87572748544644
31
0.000000000000000
  0
LINE
  5
F102DD
330
F102DE
100
AcDbEntity
8
Geo
100
AcDbLine
10
-37.7871116225547
20
1.87572748544644
30
0.000000000000000
11
-37.6871116225547
21
1.86899919768047
31
0.000000000000000
  0
LINE
  5
F102DF
330
F102E0
100
AcDbEntity
8
Geo
100
AcDbLine
10
-37.6871116225547
20
1.86899919768047
30
0.000000000000000
11
-37.5871116225547
21
1.86110191383775
31
0.000000000000000
  0
LINE
  5
F102E1
330
F102E2
100
AcDbEntity
8
Geo
100
AcDbLine
10
-37.5871116225547
20
1.86110191383775
30
0.000000000000000
11
-37.4871116225547
21
1.85203717844428
31
0.000000000000000
  0
LINE
  5
F102E3
330
F102E4
100
AcDbEntity
8
Geo
100
AcDbLine
10
-37.4871116225547
20
1.85203717844428
30
0.000000000000000
11
-37.3871116225547
21
1.84180676435261
31
0.000000000000000
  0
LINE
  5
F102E5
330
F102E6
100
AcDbEntity
8
Geo
100
AcDbLine
10
-37.3871116225547
20
1.84180676435261
30
0.000000000000000
11
-37.2871116225547
21
1.83041267239504
31
0.000000000000000
  0
LINE
  5
F102E7
330
F102E8
100
AcDbEntity
8
Geo
100
AcDbLine
10
-37.2871116225547
20
1.83041267239504
30
0.000000000000000
11
-37.1871116225547
21
1.81785713099238
31
0.000000000000000
  0
LINE
  5
F102E9
330
F102EA
100
AcDbEntity
8
Geo
100
AcDbLine
10
-37.1871116225547
20
1.81785713099238
30
0.000000000000000
11
-37.0871116225547
21
1.80414259571806
31
0.000000000000000
  0
LINE
  5
F102EB
330
F102EC
100
AcDbEntity
8
Geo
100
AcDbLine
10
-37.0871116225547
20
1.80414259571806
30
0.000000000000000
11
-36.9871116225547
21
1.78927174881789
31
0.000000000000000
  0
LINE
  5
F102ED
330
F102EE
100
AcDbEntity
8
Geo
100
AcDbLine
10
-36.9871116225547
20
1.78927174881789
30
0.000000000000000
11
-36.8871116225547
21
1.77324749868549
31
0.000000000000000
  0
LINE
  5
F102EF
330
F102F0
100
AcDbEntity
8
Geo
100
AcDbLine
10
-36.8871116225547
20
1.77324749868549
30
0.000000000000000
11
-36.7871116225547
21
1.75607297929349
31
0.000000000000000
  0
LINE
  5
F102F1
330
F102F2
100
AcDbEntity
8
Geo
100
AcDbLine
10
-36.7871116225547
20
1.75607297929349
30
0.000000000000000
11
-36.6871116225547
21
1.73775154958055
31
0.000000000000000
  0
LINE
  5
F102F3
330
F102F4
100
AcDbEntity
8
Geo
100
AcDbLine
10
-36.6871116225547
20
1.73775154958055
30
0.000000000000000
11
-36.5871116225547
21
1.71828679279445
31
0.000000000000000
  0
LINE
  5
F102F5
330
F102F6
100
AcDbEntity
8
Geo
100
AcDbLine
10
-36.5871116225547
20
1.71828679279445
30
0.000000000000000
11
-36.4871116225547
21
1.69768251579133
31
0.000000000000000
  0
LINE
  5
F102F7
330
F102F8
100
AcDbEntity
8
Geo
100
AcDbLine
10
-36.4871116225547
20
1.69768251579133
30
0.000000000000000
11
-36.3871116225547
21
1.67594274829109
31
0.000000000000000
  0
LINE
  5
F102F9
330
F102FA
100
AcDbEntity
8
Geo
100
AcDbLine
10
-36.3871116225547
20
1.67594274829109
30
0.000000000000000
11
-36.2871116225547
21
1.65307174208932
31
0.000000000000000
  0
LINE
  5
F102FB
330
F102FC
100
AcDbEntity
8
Geo
100
AcDbLine
10
-36.2871116225547
20
1.65307174208932
30
0.000000000000000
11
-36.1871116225547
21
1.62907397022572
31
0.000000000000000
  0
LINE
  5
F102FD
330
F102FE
100
AcDbEntity
8
Geo
100
AcDbLine
10
-36.1871116225547
20
1.62907397022572
30
0.000000000000000
11
-36.0871116225547
21
1.60395412610928
31
0.000000000000000
  0
LINE
  5
F102FF
330
F10300
100
AcDbEntity
8
Geo
100
AcDbLine
10
-36.0871116225547
20
1.60395412610928
30
0.000000000000000
11
-35.9871116225547
21
1.57771712260039
31
0.000000000000000
  0
LINE
  5
F10301
330
F10302
100
AcDbEntity
8
Geo
100
AcDbLine
10
-35.9871116225547
20
1.57771712260039
30
0.000000000000000
11
-35.8871116225547
21
1.55036809104994
31
0.000000000000000
  0
LINE
  5
F10303
330
F10304
100
AcDbEntity
8
Geo
100
AcDbLine
10
-35.8871116225547
20
1.55036809104994
30
0.000000000000000
11
-35.7871116225547
21
1.52191238029580
31
0.000000000000000
  0
LINE
  5
F10305
330
F10306
100
AcDbEntity
8
Geo
100
AcDbLine
10
-35.7871116225547
20
1.52191238029580
30
0.000000000000000
11
-35.6871116225547
21
1.49235555561669
31
0.000000000000000
  0
LINE
  5
F10307
330
F10308
100
AcDbEntity
8
Geo
100
AcDbLine
10
-35.6871116225547
20
1.49235555561669
30
0.000000000000000
11
-35.5871116225547
21
1.46170339764373
31
0.000000000000000
  0
LINE
  5
F10309
330
F1030A
100
AcDbEntity
8
Geo
100
AcDbLine
10
-35.5871116225547
20
1.46170339764373
30
0.000000000000000
11
-35.4871116225547
21
1.42996190122989
31
0.000000000000000
  0
LINE
  5
F1030B
330
F1030C
100
AcDbEntity
8
Geo
100
AcDbLine
10
-35.4871116225547
20
1.42996190122989
30
0.000000000000000
11
-35.3871116225547
21
1.39713727427754
31
0.000000000000000
  0
LINE
  5
F1030D
330
F1030E
100
AcDbEntity
8
Geo
100
AcDbLine
10
-35.3871116225547
20
1.39713727427754
30
0.000000000000000
11
-35.2871116225547
21
1.36323593652434
31
0.000000000000000
  0
LINE
  5
F1030F
330
F10310
100
AcDbEntity
8
Geo
100
AcDbLine
10
-35.2871116225547
20
1.36323593652434
30
0.000000000000000
11
-35.1871116225547
21
1.32826451828767
31
0.000000000000000
  0
LINE
  5
F10311
330
F10312
100
AcDbEntity
8
Geo
100
AcDbLine
10
-35.1871116225547
20
1.32826451828767
30
0.000000000000000
11
-35.0871116225547
21
1.29222985916787
31
0.000000000000000
  0
LINE
  5
F10313
330
F10314
100
AcDbEntity
8
Geo
100
AcDbLine
10
-35.0871116225547
20
1.29222985916787
30
0.000000000000000
11
-34.9871116225547
21
1.25513900671062
31
0.000000000000000
  0
LINE
  5
F10315
330
F10316
100
AcDbEntity
8
Geo
100
AcDbLine
10
-34.9871116225547
20
1.25513900671062
30
0.000000000000000
11
-34.8871116225547
21
1.21699921502860
31
0.000000000000000
  0
LINE
  5
F10317
330
F10318
100
AcDbEntity
8
Geo
100
AcDbLine
10
-34.8871116225547
20
1.21699921502860
30
0.000000000000000
11
-34.7871116225547
21
1.17781794338270
31
0.000000000000000
  0
LINE
  5
F10319
330
F1031A
100
AcDbEntity
8
Geo
100
AcDbLine
10
-34.7871116225547
20
1.17781794338270
30
0.000000000000000
11
-34.6871116225547
21
1.13760285472321
31
0.000000000000000
  0
LINE
  5
F1031B
330
F1031C
100
AcDbEntity
8
Geo
100
AcDbLine
10
-34.6871116225547
20
1.13760285472321
30
0.000000000000000
11
-34.5871116225547
21
1.09636181419113
31
0.000000000000000
  0
LINE
  5
F1031D
330
F1031E
100
AcDbEntity
8
Geo
100
AcDbLine
10
-34.5871116225547
20
1.09636181419113
30
0.000000000000000
11
-34.4871116225547
21
1.05410288757989
31
0.000000000000000
  0
LINE
  5
F1031F
330
F10320
100
AcDbEntity
8
Geo
100
AcDbLine
10
-34.4871116225547
20
1.05410288757989
30
0.000000000000000
11
-34.3871116225547
21
1.01083433975788
31
0.000000000000000
  0
LINE
  5
F10321
330
F10322
100
AcDbEntity
8
Geo
100
AcDbLine
10
-34.3871116225547
20
1.01083433975788
30
0.000000000000000
11
-34.2871116225547
21
0.966564633052073
31
0.000000000000000
  0
LINE
  5
F10323
330
F10324
100
AcDbEntity
8
Geo
100
AcDbLine
10
-34.2871116225547
20
0.966564633052073
30
0.000000000000000
11
-34.1871116225547
21
0.921302425592936
31
0.000000000000000
  0
LINE
  5
F10325
330
F10326
100
AcDbEntity
8
Geo
100
AcDbLine
10
-34.1871116225547
20
0.921302425592936
30
0.000000000000000
11
-34.0871116225547
21
0.875056569621126
31
0.000000000000000
  0
LINE
  5
F10327
330
F10328
100
AcDbEntity
8
Geo
100
AcDbLine
10
-34.0871116225547
20
0.875056569621126
30
0.000000000000000
11
-33.9871116225547
21
0.827836109756195
31
0.000000000000000
  0
LINE
  5
F10329
330
F1032A
100
AcDbEntity
8
Geo
100
AcDbLine
10
-33.9871116225547
20
0.827836109756195
30
0.000000000000000
11
-33.8871116225547
21
0.779650281227670
31
0.000000000000000
  0
LINE
  5
F1032B
330
F1032C
100
AcDbEntity
8
Geo
100
AcDbLine
10
-33.8871116225547
20
0.779650281227670
30
0.000000000000000
11
-33.7871116225547
21
0.730508508068853
31
0.000000000000000
  0
LINE
  5
F1032D
330
F1032E
100
AcDbEntity
8
Geo
100
AcDbLine
10
-33.7871116225547
20
0.730508508068853
30
0.000000000000000
11
-33.6871116225547
21
0.680420401273701
31
0.000000000000000
  0
LINE
  5
F1032F
330
F10330
100
AcDbEntity
8
Geo
100
AcDbLine
10
-33.6871116225547
20
0.680420401273701
30
0.000000000000000
11
-33.5871116225547
21
0.629395756917139
31
0.000000000000000
  0
LINE
  5
F10331
330
F10332
100
AcDbEntity
8
Geo
100
AcDbLine
10
-33.5871116225547
20
0.629395756917139
30
0.000000000000000
11
-33.4871116225547
21
0.577444554239172
31
0.000000000000000
  0
LINE
  5
F10333
330
F10334
100
AcDbEntity
8
Geo
100
AcDbLine
10
-33.4871116225547
20
0.577444554239172
30
0.000000000000000
11
-33.3871116225547
21
0.524576953693174
31
0.000000000000000
  0
LINE
  5
F10335
330
F10336
100
AcDbEntity
8
Geo
100
AcDbLine
10
-33.3871116225547
20
0.524576953693174
30
0.000000000000000
11
-33.2871116225547
21
0.470803294958746
31
0.000000000000000
  0
LINE
  5
F10337
330
F10338
100
AcDbEntity
8
Geo
100
AcDbLine
10
-33.2871116225547
20
0.470803294958746
30
0.000000000000000
11
-33.1871116225547
21
0.416134094919507
31
0.000000000000000
  0
LINE
  5
F10339
330
F1033A
100
AcDbEntity
8
Geo
100
AcDbLine
10
-33.1871116225547
20
0.416134094919507
30
0.000000000000000
11
-33.0871116225547
21
0.360580045606238
31
0.000000000000000
  0
LINE
  5
F1033B
330
F1033C
100
AcDbEntity
8
Geo
100
AcDbLine
10
-33.0871116225547
20
0.360580045606238
30
0.000000000000000
11
-32.9871116225547
21
0.304152012105767
31
0.000000000000000
  0
LINE
  5
F1033D
330
F1033E
100
AcDbEntity
8
Geo
100
AcDbLine
10
-32.9871116225547
20
0.304152012105767
30
0.000000000000000
11
-32.8871116225547
21
0.246861030436010
31
0.000000000000000
  0
LINE
  5
F1033F
330
F10340
100
AcDbEntity
8
Geo
100
AcDbLine
10
-32.8871116225547
20
0.246861030436010
30
0.000000000000000
11
-32.7871116225547
21
0.188718305387582
31
0.000000000000000
  0
LINE
  5
F10341
330
F10342
100
AcDbEntity
8
Geo
100
AcDbLine
10
-32.7871116225547
20
0.188718305387582
30
0.000000000000000
11
-32.6871116225547
21
0.129735208332395
31
0.000000000000000
  0
LINE
  5
F10343
330
F10344
100
AcDbEntity
8
Geo
100
AcDbLine
10
-32.6871116225547
20
0.129735208332395
30
0.000000000000000
11
-32.5871116225547
21
0.0699232749996881
31
0.000000000000000
  0
LINE
  5
F10345
330
F10346
100
AcDbEntity
8
Geo
100
AcDbLine
10
-32.5871116225547
20
0.0699232749996881
30
0.000000000000000
11
-32.4871116225547
21
0.00929420321989660
31
0.000000000000000
  0
LINE
  5
F10347
330
F10348
100
AcDbEntity
8
Geo
100
AcDbLine
10
-32.4871116225547
20
0.00929420321989660
30
0.000000000000000
11
-32.3871116225547
21
-0.0521401493631606
31
0.000000000000000
  0
LINE
  5
F10349
330
F1034A
100
AcDbEntity
8
Geo
100
AcDbLine
10
-32.3871116225547
20
-0.0521401493631606
30
0.000000000000000
11
-32.2871116225547
21
-0.114367767611378
31
0.000000000000000
  0
LINE
  5
F1034B
330
F1034C
100
AcDbEntity
8
Geo
100
AcDbLine
10
-32.2871116225547
20
-0.114367767611378
30
0.000000000000000
11
-32.1871116225547
21
-0.177376481242231
31
0.000000000000000
  0
LINE
  5
F1034D
330
F1034E
100
AcDbEntity
8
Geo
100
AcDbLine
10
-32.1871116225547
20
-0.177376481242231
30
0.000000000000000
11
-32.0871116225547
21
-0.241153967209013
31
0.000000000000000
  0
LINE
  5
F1034F
330
F10350
100
AcDbEntity
8
Geo
100
AcDbLine
10
-32.0871116225547
20
-0.241153967209013
30
0.000000000000000
11
-31.9871116225547
21
-0.305687752110931
31
0.000000000000000
  0
LINE
  5
F10351
330
F10352
100
AcDbEntity
8
Geo
100
AcDbLine
10
-31.9871116225547
20
-0.305687752110931
30
0.000000000000000
11
-31.8871116225547
21
-0.370965214632617
31
0.000000000000000
  0
LINE
  5
F10353
330
F10354
100
AcDbEntity
8
Geo
100
AcDbLine
10
-31.8871116225547
20
-0.370965214632617
30
0.000000000000000
11
-31.7871116225547
21
-0.436973588012568
31
0.000000000000000
  0
LINE
  5
F10355
330
F10356
100
AcDbEntity
8
Geo
100
AcDbLine
10
-31.7871116225547
20
-0.436973588012568
30
0.000000000000000
11
-31.6871116225547
21
-0.503699962540021
31
0.000000000000000
  0
LINE
  5
F10357
330
F10358
100
AcDbEntity
8
Geo
100
AcDbLine
10
-31.6871116225547
20
-0.503699962540021
30
0.000000000000000
11
-31.5871116225547
21
-0.571131288079806
31
0.000000000000000
  0
LINE
  5
F10359
330
F1035A
100
AcDbEntity
8
Geo
100
AcDbLine
10
-31.5871116225547
20
-0.571131288079806
30
0.000000000000000
11
-31.4871116225547
21
-0.639254376624639
31
0.000000000000000
  0
LINE
  5
F1035B
330
F1035C
100
AcDbEntity
8
Geo
100
AcDbLine
10
-31.4871116225547
20
-0.639254376624639
30
0.000000000000000
11
-31.3871116225546
21
-0.708055904874396
31
0.000000000000000
  0
LINE
  5
F1035D
330
F1035E
100
AcDbEntity
8
Geo
100
AcDbLine
10
-31.3871116225546
20
-0.708055904874396
30
0.000000000000000
11
-31.2871116225546
21
-0.777522416841844
31
0.000000000000000
  0
LINE
  5
F1035F
330
F10360
100
AcDbEntity
8
Geo
100
AcDbLine
10
-31.2871116225546
20
-0.777522416841844
30
0.000000000000000
11
-31.1871116225546
21
-0.847640326484319
31
0.000000000000000
  0
LINE
  5
F10361
330
F10362
100
AcDbEntity
8
Geo
100
AcDbLine
10
-31.1871116225546
20
-0.847640326484319
30
0.000000000000000
11
-31.0871116225546
21
-0.918395920360839
31
0.000000000000000
  0
LINE
  5
F10363
330
F10364
100
AcDbEntity
8
Geo
100
AcDbLine
10
-31.0871116225546
20
-0.918395920360839
30
0.000000000000000
11
-30.9871116225546
21
-0.989775360314141
31
0.000000000000000
  0
LINE
  5
F10365
330
F10366
100
AcDbEntity
8
Geo
100
AcDbLine
10
-30.9871116225546
20
-0.989775360314141
30
0.000000000000000
11
-30.8871116225546
21
-1.06176468617710
31
0.000000000000000
  0
LINE
  5
F10367
330
F10368
100
AcDbEntity
8
Geo
100
AcDbLine
10
-30.8871116225546
20
-1.06176468617710
30
0.000000000000000
11
-30.7871116225546
21
-1.13434981850302
31
0.000000000000000
  0
LINE
  5
F10369
330
F1036A
100
AcDbEntity
8
Geo
100
AcDbLine
10
-30.7871116225546
20
-1.13434981850302
30
0.000000000000000
11
-30.6871116225546
21
-1.20751656131924
31
0.000000000000000
  0
LINE
  5
F1036B
330
F1036C
100
AcDbEntity
8
Geo
100
AcDbLine
10
-30.6871116225546
20
-1.20751656131924
30
0.000000000000000
11
-30.5871116225546
21
-1.28125060490354
31
0.000000000000000
  0
LINE
  5
F1036D
330
F1036E
100
AcDbEntity
8
Geo
100
AcDbLine
10
-30.5871116225546
20
-1.28125060490354
30
0.000000000000000
11
-30.4871116225546
21
-1.35553752858280
31
0.000000000000000
  0
LINE
  5
F1036F
330
F10370
100
AcDbEntity
8
Geo
100
AcDbLine
10
-30.4871116225546
20
-1.35553752858280
30
0.000000000000000
11
-30.3871116225546
21
-1.43036280355335
31
0.000000000000000
  0
LINE
  5
F10371
330
F10372
100
AcDbEntity
8
Geo
100
AcDbLine
10
-30.3871116225546
20
-1.43036280355335
30
0.000000000000000
11
-30.2871116225546
21
-1.50571179572245
31
0.000000000000000
  0
LINE
  5
F10373
330
F10374
100
AcDbEntity
8
Geo
100
AcDbLine
10
-30.2871116225546
20
-1.50571179572245
30
0.000000000000000
11
-30.1871116225546
21
-1.58156976857039
31
0.000000000000000
  0
LINE
  5
F10375
330
F10376
100
AcDbEntity
8
Geo
100
AcDbLine
10
-30.1871116225546
20
-1.58156976857039
30
0.000000000000000
11
-30.0871116225546
21
-1.65792188603263
31
0.000000000000000
  0
LINE
  5
F10377
330
F10378
100
AcDbEntity
8
Geo
100
AcDbLine
10
-30.0871116225546
20
-1.65792188603263
30
0.000000000000000
11
-29.9871116225546
21
-1.73475321540135
31
0.000000000000000
  0
LINE
  5
F10379
330
F1037A
100
AcDbEntity
8
Geo
100
AcDbLine
10
-29.9871116225546
20
-1.73475321540135
30
0.000000000000000
11
-29.8871116225546
21
-1.81204873024600
31
0.000000000000000
  0
LINE
  5
F1037B
330
F1037C
100
AcDbEntity
8
Geo
100
AcDbLine
10
-29.8871116225546
20
-1.81204873024600
30
0.000000000000000
11
-29.7871116225546
21
-1.88979331335207
31
0.000000000000000
  0
LINE
  5
F1037D
330
F1037E
100
AcDbEntity
8
Geo
100
AcDbLine
10
-29.7871116225546
20
-1.88979331335207
30
0.000000000000000
11
-29.6871116225546
21
-1.96797175967769
31
0.000000000000000
  0
LINE
  5
F1037F
330
F10380
100
AcDbEntity
8
Geo
100
AcDbLine
10
-29.6871116225546
20
-1.96797175967769
30
0.000000000000000
11
-29.5871116225546
21
-2.04656877932737
31
0.000000000000000
  0
LINE
  5
F10381
330
F10382
100
AcDbEntity
8
Geo
100
AcDbLine
10
-29.5871116225546
20
-2.04656877932737
30
0.000000000000000
11
-29.4871116225546
21
-2.12556900054238
31
0.000000000000000
  0
LINE
  5
F10383
330
F10384
100
AcDbEntity
8
Geo
100
AcDbLine
10
-29.4871116225546
20
-2.12556900054238
30
0.000000000000000
11
-29.3871116225546
21
-2.20495697270708
31
0.000000000000000
  0
LINE
  5
F10385
330
F10386
100
AcDbEntity
8
Geo
100
AcDbLine
10
-29.3871116225546
20
-2.20495697270708
30
0.000000000000000
11
-29.2871116225546
21
-2.28471716937073
31
0.000000000000000
  0
LINE
  5
F10387
330
F10388
100
AcDbEntity
8
Geo
100
AcDbLine
10
-29.2871116225546
20
-2.28471716937073
30
0.000000000000000
11
-29.1871116225546
21
-2.36483399128407
31
0.000000000000000
  0
LINE
  5
F10389
330
F1038A
100
AcDbEntity
8
Geo
100
AcDbLine
10
-29.1871116225546
20
-2.36483399128407
30
0.000000000000000
11
-29.0871116225546
21
-2.44529176945020
31
0.000000000000000
  0
LINE
  5
F1038B
330
F1038C
100
AcDbEntity
8
Geo
100
AcDbLine
10
-29.0871116225546
20
-2.44529176945020
30
0.000000000000000
11
-28.9871116225546
21
-2.52607476818907
31
0.000000000000000
  0
LINE
  5
F1038D
330
F1038E
100
AcDbEntity
8
Geo
100
AcDbLine
10
-28.9871116225546
20
-2.52607476818907
30
0.000000000000000
11
-28.8871116225546
21
-2.60716718821500
31
0.000000000000000
  0
LINE
  5
F1038F
330
F10390
100
AcDbEntity
8
Geo
100
AcDbLine
10
-28.8871116225546
20
-2.60716718821500
30
0.000000000000000
11
-28.7871116225546
21
-2.68855316972667
31
0.000000000000000
  0
LINE
  5
F10391
330
F10392
100
AcDbEntity
8
Geo
100
AcDbLine
10
-28.7871116225546
20
-2.68855316972667
30
0.000000000000000
11
-28.6871116225546
21
-2.77021679550892
31
0.000000000000000
  0
LINE
  5
F10393
330
F10394
100
AcDbEntity
8
Geo
100
AcDbLine
10
-28.6871116225546
20
-2.77021679550892
30
0.000000000000000
11
-28.5871116225546
21
-2.85214209404580
31
0.000000000000000
  0
LINE
  5
F10395
330
F10396
100
AcDbEntity
8
Geo
100
AcDbLine
10
-28.5871116225546
20
-2.85214209404580
30
0.000000000000000
11
-28.4871116225546
21
-2.93431304264422
31
0.000000000000000
  0
LINE
  5
F10397
330
F10398
100
AcDbEntity
8
Geo
100
AcDbLine
10
-28.4871116225546
20
-2.93431304264422
30
0.000000000000000
11
-28.3871116225546
21
-3.01671357056762
31
0.000000000000000
  0
LINE
  5
F10399
330
F1039A
100
AcDbEntity
8
Geo
100
AcDbLine
10
-42.3046992234426
20
1.89182968929804
30
0.000000000000000
11
-42.2871116225547
21
1.89181154067531
31
0.000000000000000
  0
LINE
  5
F1039B
330
F1039C
100
AcDbEntity
8
Geo
100
AcDbLine
10
-42.2871116225547
20
1.89181154067531
30
0.000000000000000
11
-42.1871116225547
21
1.89101843534831
31
0.000000000000000
  0
LINE
  5
F1039D
330
F1039E
100
AcDbEntity
8
Geo
100
AcDbLine
10
-42.1871116225547
20
1.89101843534831
30
0.000000000000000
11
-42.0871116225547
21
1.88905202749106
31
0.000000000000000
  0
LINE
  5
F1039F
330
F103A0
100
AcDbEntity
8
Geo
100
AcDbLine
10
-42.0871116225547
20
1.88905202749106
30
0.000000000000000
11
-41.9871116225547
21
1.88591270168746
31
0.000000000000000
  0
LINE
  5
F103A1
330
F103A2
100
AcDbEntity
8
Geo
100
AcDbLine
10
-41.9871116225547
20
1.88591270168746
30
0.000000000000000
11
-41.8871116225547
21
1.88160107191700
31
0.000000000000000
  0
LINE
  5
F103A3
330
F103A4
100
AcDbEntity
8
Geo
100
AcDbLine
10
-41.8871116225547
20
1.88160107191700
30
0.000000000000000
11
-41.7871116225547
21
1.87611798143471
31
0.000000000000000
  0
LINE
  5
F103A5
330
F103A6
100
AcDbEntity
8
Geo
100
AcDbLine
10
-41.7871116225547
20
1.87611798143471
30
0.000000000000000
11
-41.6871116225547
21
1.86946450260625
31
0.000000000000000
  0
LINE
  5
F103A7
330
F103A8
100
AcDbEntity
8
Geo
100
AcDbLine
10
-41.6871116225547
20
1.86946450260625
30
0.000000000000000
11
-41.5871116225547
21
1.86164193669815
31
0.000000000000000
  0
LINE
  5
F103A9
330
F103AA
100
AcDbEntity
8
Geo
100
AcDbLine
10
-41.5871116225547
20
1.86164193669815
30
0.000000000000000
11
-41.4871116225547
21
1.85265181362333
31
0.000000000000000
  0
LINE
  5
F103AB
330
F103AC
100
AcDbEntity
8
Geo
100
AcDbLine
10
-41.4871116225547
20
1.85265181362333
30
0.000000000000000
11
-41.3871116225547
21
1.84249589164188
31
0.000000000000000
  0
LINE
  5
F103AD
330
F103AE
100
AcDbEntity
8
Geo
100
AcDbLine
10
-41.3871116225547
20
1.84249589164188
30
0.000000000000000
11
-41.2871116225547
21
1.83117615701718
31
0.000000000000000
  0
LINE
  5
F103AF
330
F103B0
100
AcDbEntity
8
Geo
100
AcDbLine
10
-41.2871116225547
20
1.83117615701718
30
0.000000000000000
11
-41.1871116225547
21
1.81869482362747
31
0.000000000000000
  0
LINE
  5
F103B1
330
F103B2
100
AcDbEntity
8
Geo
100
AcDbLine
10
-41.1871116225547
20
1.81869482362747
30
0.000000000000000
11
-41.0871116225547
21
1.80505433253278
31
0.000000000000000
  0
LINE
  5
F103B3
330
F103B4
100
AcDbEntity
8
Geo
100
AcDbLine
10
-41.0871116225547
20
1.80505433253278
30
0.000000000000000
11
-40.9871116225547
21
1.79025735149762
31
0.000000000000000
  0
LINE
  5
F103B5
330
F103B6
100
AcDbEntity
8
Geo
100
AcDbLine
10
-40.9871116225547
20
1.79025735149762
30
0.000000000000000
11
-40.8871116225547
21
1.77430677446915
31
0.000000000000000
  0
LINE
  5
F103B7
330
F103B8
100
AcDbEntity
8
Geo
100
AcDbLine
10
-40.8871116225547
20
1.77430677446915
30
0.000000000000000
11
-40.7871116225547
21
1.75720572101124
31
0.000000000000000
  0
LINE
  5
F103B9
330
F103BA
100
AcDbEntity
8
Geo
100
AcDbLine
10
-40.7871116225547
20
1.75720572101124
30
0.000000000000000
11
-40.6871116225547
21
1.73895753569431
31
0.000000000000000
  0
LINE
  5
F103BB
330
F103BC
100
AcDbEntity
8
Geo
100
AcDbLine
10
-40.6871116225547
20
1.73895753569431
30
0.000000000000000
11
-40.5871116225547
21
1.71956578744125
31
0.000000000000000
  0
LINE
  5
F103BD
330
F103BE
100
AcDbEntity
8
Geo
100
AcDbLine
10
-40.5871116225547
20
1.71956578744125
30
0.000000000000000
11
-40.4871116225547
21
1.69903426882940
31
0.000000000000000
  0
LINE
  5
F103BF
330
F103C0
100
AcDbEntity
8
Geo
100
AcDbLine
10
-40.4871116225547
20
1.69903426882940
30
0.000000000000000
11
-40.3871116225547
21
1.67736699534881
31
0.000000000000000
  0
LINE
  5
F103C1
330
F103C2
100
AcDbEntity
8
Geo
100
AcDbLine
10
-40.3871116225547
20
1.67736699534881
30
0.000000000000000
11
-40.2871116225547
21
1.65456820461691
31
0.000000000000000
  0
LINE
  5
F103C3
330
F103C4
100
AcDbEntity
8
Geo
100
AcDbLine
10
-40.2871116225547
20
1.65456820461691
30
0.000000000000000
11
-40.1871116225547
21
1.63064235554973
31
0.000000000000000
  0
LINE
  5
F103C5
330
F103C6
100
AcDbEntity
8
Geo
100
AcDbLine
10
-40.1871116225547
20
1.63064235554973
30
0.000000000000000
11
-40.0871116225547
21
1.60559412748983
31
0.000000000000000
  0
LINE
  5
F103C7
330
F103C8
100
AcDbEntity
8
Geo
100
AcDbLine
10
-40.0871116225547
20
1.60559412748983
30
0.000000000000000
11
-39.9871116225547
21
1.57942841929114
31
0.000000000000000
  0
LINE
  5
F103C9
330
F103CA
100
AcDbEntity
8
Geo
100
AcDbLine
10
-39.9871116225547
20
1.57942841929114
30
0.000000000000000
11
-39.8871116225547
21
1.55215034836086
31
0.000000000000000
  0
LINE
  5
F103CB
330
F103CC
100
AcDbEntity
8
Geo
100
AcDbLine
10
-39.8871116225547
20
1.55215034836086
30
0.000000000000000
11
-39.7871116225547
21
1.52376524965859
31
0.000000000000000
  0
LINE
  5
F103CD
330
F103CE
100
AcDbEntity
8
Geo
100
AcDbLine
10
-39.7871116225547
20
1.52376524965859
30
0.000000000000000
11
-39.6871116225547
21
1.49427867465296
31
0.000000000000000
  0
LINE
  5
F103CF
330
F103D0
100
AcDbEntity
8
Geo
100
AcDbLine
10
-39.6871116225547
20
1.49427867465296
30
0.000000000000000
11
-39.5871116225547
21
1.46369639023589
31
0.000000000000000
  0
LINE
  5
F103D1
330
F103D2
100
AcDbEntity
8
Geo
100
AcDbLine
10
-39.5871116225547
20
1.46369639023589
30
0.000000000000000
11
-39.4871116225547
21
1.43202437759469
31
0.000000000000000
  0
LINE
  5
F103D3
330
F103D4
100
AcDbEntity
8
Geo
100
AcDbLine
10
-39.4871116225547
20
1.43202437759469
30
0.000000000000000
11
-39.3871116225547
21
1.39926883104233
31
0.000000000000000
  0
LINE
  5
F103D5
330
F103D6
100
AcDbEntity
8
Geo
100
AcDbLine
10
-39.3871116225547
20
1.39926883104233
30
0.000000000000000
11
-39.2871116225547
21
1.36543615680593
31
0.000000000000000
  0
LINE
  5
F103D7
330
F103D8
100
AcDbEntity
8
Geo
100
AcDbLine
10
-39.2871116225547
20
1.36543615680593
30
0.000000000000000
11
-39.1871116225547
21
1.33053297177386
31
0.000000000000000
  0
LINE
  5
F103D9
330
F103DA
100
AcDbEntity
8
Geo
100
AcDbLine
10
-39.1871116225547
20
1.33053297177386
30
0.000000000000000
11
-39.0871116225547
21
1.29456610220165
31
0.000000000000000
  0
LINE
  5
F103DB
330
F103DC
100
AcDbEntity
8
Geo
100
AcDbLine
10
-39.0871116225547
20
1.29456610220165
30
0.000000000000000
11
-38.9871116225547
21
1.25754258237690
31
0.000000000000000
  0
LINE
  5
F103DD
330
F103DE
100
AcDbEntity
8
Geo
100
AcDbLine
10
-38.9871116225547
20
1.25754258237690
30
0.000000000000000
11
-38.8871116225547
21
1.21946965324357
31
0.000000000000000
  0
LINE
  5
F103DF
330
F103E0
100
AcDbEntity
8
Geo
100
AcDbLine
10
-38.8871116225547
20
1.21946965324357
30
0.000000000000000
11
-38.7871116225547
21
1.18035476098581
31
0.000000000000000
  0
LINE
  5
F103E1
330
F103E2
100
AcDbEntity
8
Geo
100
AcDbLine
10
-38.7871116225547
20
1.18035476098581
30
0.000000000000000
11
-38.6871116225547
21
1.14020555557163
31
0.000000000000000
  0
LINE
  5
F103E3
330
F103E4
100
AcDbEntity
8
Geo
100
AcDbLine
10
-38.6871116225547
20
1.14020555557163
30
0.000000000000000
11
-38.5871116225547
21
1.09902988925678
31
0.000000000000000
  0
LINE
  5
F103E5
330
F103E6
100
AcDbEntity
8
Geo
100
AcDbLine
10
-38.5871116225547
20
1.09902988925678
30
0.000000000000000
11
-38.4871116225547
21
1.05683581504900
31
0.000000000000000
  0
LINE
  5
F103E7
330
F103E8
100
AcDbEntity
8
Geo
100
AcDbLine
10
-38.4871116225547
20
1.05683581504900
30
0.000000000000000
11
-38.3871116225547
21
1.01363158513308
31
0.000000000000000
  0
LINE
  5
F103E9
330
F103EA
100
AcDbEntity
8
Geo
100
AcDbLine
10
-38.3871116225547
20
1.01363158513308
30
0.000000000000000
11
-38.2871116225547
21
0.969425649256878
31
0.000000000000000
  0
LINE
  5
F103EB
330
F103EC
100
AcDbEntity
8
Geo
100
AcDbLine
10
-38.2871116225547
20
0.969425649256878
30
0.000000000000000
11
-38.1871116225547
21
0.924226653078759
31
0.000000000000000
  0
LINE
  5
F103ED
330
F103EE
100
AcDbEntity
8
Geo
100
AcDbLine
10
-38.1871116225547
20
0.924226653078759
30
0.000000000000000
11
-38.0871116225547
21
0.878043436476723
31
0.000000000000000
  0
LINE
  5
F103EF
330
F103F0
100
AcDbEntity
8
Geo
100
AcDbLine
10
-38.0871116225547
20
0.878043436476723
30
0.000000000000000
11
-37.9871116225547
21
0.830885031819511
31
0.000000000000000
  0
LINE
  5
F103F1
330
F103F2
100
AcDbEntity
8
Geo
100
AcDbLine
10
-37.9871116225547
20
0.830885031819511
30
0.000000000000000
11
-37.8871116225547
21
0.782760662200082
31
0.000000000000000
  0
LINE
  5
F103F3
330
F103F4
100
AcDbEntity
8
Geo
100
AcDbLine
10
-37.8871116225547
20
0.782760662200082
30
0.000000000000000
11
-37.7871116225547
21
0.733679739631801
31
0.000000000000000
  0
LINE
  5
F103F5
330
F103F6
100
AcDbEntity
8
Geo
100
AcDbLine
10
-37.7871116225547
20
0.733679739631801
30
0.000000000000000
11
-37.6871116225547
21
0.683651863207658
31
0.000000000000000
  0
LINE
  5
F103F7
330
F103F8
100
AcDbEntity
8
Geo
100
AcDbLine
10
-37.6871116225547
20
0.683651863207658
30
0.000000000000000
11
-37.5871116225547
21
0.632686817222907
31
0.000000000000000
  0
LINE
  5
F103F9
330
F103FA
100
AcDbEntity
8
Geo
100
AcDbLine
10
-37.5871116225547
20
0.632686817222907
30
0.000000000000000
11
-37.4871116225547
21
0.580794569261492
31
0.000000000000000
  0
LINE
  5
F103FB
330
F103FC
100
AcDbEntity
8
Geo
100
AcDbLine
10
-37.4871116225547
20
0.580794569261492
30
0.000000000000000
11
-37.3871116225547
21
0.527985268246610
31
0.000000000000000
  0
LINE
  5
F103FD
330
F103FE
100
AcDbEntity
8
Geo
100
AcDbLine
10
-37.3871116225547
20
0.527985268246610
30
0.000000000000000
11
-37.2871116225547
21
0.474269242455820
31
0.000000000000000
  0
LINE
  5
F103FF
330
F10400
100
AcDbEntity
8
Geo
100
AcDbLine
10
-37.2871116225547
20
0.474269242455820
30
0.000000000000000
11
-37.1871116225547
21
0.419656997501073
31
0.000000000000000
  0
LINE
  5
F10401
330
F10402
100
AcDbEntity
8
Geo
100
AcDbLine
10
-37.1871116225547
20
0.419656997501073
30
0.000000000000000
11
-37.0871116225547
21
0.364159214274052
31
0.000000000000000
  0
LINE
  5
F10403
330
F10404
100
AcDbEntity
8
Geo
100
AcDbLine
10
-37.0871116225547
20
0.364159214274052
30
0.000000000000000
11
-36.9871116225547
21
0.307786746857238
31
0.000000000000000
  0
LINE
  5
F10405
330
F10406
100
AcDbEntity
8
Geo
100
AcDbLine
10
-36.9871116225547
20
0.307786746857238
30
0.000000000000000
11
-36.8871116225547
21
0.250550620401111
31
0.000000000000000
  0
LINE
  5
F10407
330
F10408
100
AcDbEntity
8
Geo
100
AcDbLine
10
-36.8871116225547
20
0.250550620401111
30
0.000000000000000
11
-36.7871116225547
21
0.192462028967870
31
0.000000000000000
  0
LINE
  5
F10409
330
F1040A
100
AcDbEntity
8
Geo
100
AcDbLine
10
-36.7871116225547
20
0.192462028967870
30
0.000000000000000
11
-36.6871116225547
21
0.133532333342149
31
0.000000000000000
  0
LINE
  5
F1040B
330
F1040C
100
AcDbEntity
8
Geo
100
AcDbLine
10
-36.6871116225547
20
0.133532333342149
30
0.000000000000000
11
-36.5871116225547
21
0.0737730588090990
31
0.000000000000000
  0
LINE
  5
F1040D
330
F1040E
100
AcDbEntity
8
Geo
100
AcDbLine
10
-36.5871116225547
20
0.0737730588090990
30
0.000000000000000
11
-36.4871116225547
21
0.0131958929003169
31
0.000000000000000
  0
LINE
  5
F1040F
330
F10410
100
AcDbEntity
8
Geo
100
AcDbLine
10
-36.4871116225547
20
0.0131958929003169
30
0.000000000000000
11
-36.3871116225547
21
-0.0481873168919709
31
0.000000000000000
  0
LINE
  5
F10411
330
F10412
100
AcDbEntity
8
Geo
100
AcDbLine
10
-36.3871116225547
20
-0.0481873168919709
30
0.000000000000000
11
-36.2871116225547
21
-0.110364565432001
31
0.000000000000000
  0
LINE
  5
F10413
330
F10414
100
AcDbEntity
8
Geo
100
AcDbLine
10
-36.2871116225547
20
-0.110364565432001
30
0.000000000000000
11
-36.1871116225547
21
-0.173323692288402
31
0.000000000000000
  0
LINE
  5
F10415
330
F10416
100
AcDbEntity
8
Geo
100
AcDbLine
10
-36.1871116225547
20
-0.173323692288402
30
0.000000000000000
11
-36.0871116225547
21
-0.237052384112492
31
0.000000000000000
  0
LINE
  5
F10417
330
F10418
100
AcDbEntity
8
Geo
100
AcDbLine
10
-36.0871116225547
20
-0.237052384112492
30
0.000000000000000
11
-35.9871116225547
21
-0.301538177046484
31
0.000000000000000
  0
LINE
  5
F10419
330
F1041A
100
AcDbEntity
8
Geo
100
AcDbLine
10
-35.9871116225547
20
-0.301538177046484
30
0.000000000000000
11
-35.8871116225547
21
-0.366768459161127
31
0.000000000000000
  0
LINE
  5
F1041B
330
F1041C
100
AcDbEntity
8
Geo
100
AcDbLine
10
-35.8871116225547
20
-0.366768459161127
30
0.000000000000000
11
-35.7871116225547
21
-0.432730472922314
31
0.000000000000000
  0
LINE
  5
F1041D
330
F1041E
100
AcDbEntity
8
Geo
100
AcDbLine
10
-35.7871116225547
20
-0.432730472922314
30
0.000000000000000
11
-35.6871116225547
21
-0.499411317686156
31
0.000000000000000
  0
LINE
  5
F1041F
330
F10420
100
AcDbEntity
8
Geo
100
AcDbLine
10
-35.6871116225547
20
-0.499411317686156
30
0.000000000000000
11
-35.5871116225547
21
-0.566797952222044
31
0.000000000000000
  0
LINE
  5
F10421
330
F10422
100
AcDbEntity
8
Geo
100
AcDbLine
10
-35.5871116225547
20
-0.566797952222044
30
0.000000000000000
11
-35.4871116225547
21
-0.634877197263225
31
0.000000000000000
  0
LINE
  5
F10423
330
F10424
100
AcDbEntity
8
Geo
100
AcDbLine
10
-35.4871116225547
20
-0.634877197263225
30
0.000000000000000
11
-35.3871116225547
21
-0.703635738084350
31
0.000000000000000
  0
LINE
  5
F10425
330
F10426
100
AcDbEntity
8
Geo
100
AcDbLine
10
-35.3871116225547
20
-0.703635738084350
30
0.000000000000000
11
-35.2871116225547
21
-0.773060127105531
31
0.000000000000000
  0
LINE
  5
F10427
330
F10428
100
AcDbEntity
8
Geo
100
AcDbLine
10
-35.2871116225547
20
-0.773060127105531
30
0.000000000000000
11
-35.1871116225547
21
-0.843136786522378
31
0.000000000000000
  0
LINE
  5
F10429
330
F1042A
100
AcDbEntity
8
Geo
100
AcDbLine
10
-35.1871116225547
20
-0.843136786522378
30
0.000000000000000
11
-35.0871116225547
21
-0.913852010961500
31
0.000000000000000
  0
LINE
  5
F1042B
330
F1042C
100
AcDbEntity
8
Geo
100
AcDbLine
10
-35.0871116225547
20
-0.913852010961500
30
0.000000000000000
11
-34.9871116225547
21
-0.985191970160961
31
0.000000000000000
  0
LINE
  5
F1042D
330
F1042E
100
AcDbEntity
8
Geo
100
AcDbLine
10
-34.9871116225547
20
-0.985191970160961
30
0.000000000000000
11
-34.8871116225547
21
-1.05714271167516
31
0.000000000000000
  0
LINE
  5
F1042F
330
F10430
100
AcDbEntity
8
Geo
100
AcDbLine
10
-34.8871116225547
20
-1.05714271167516
30
0.000000000000000
11
-34.7871116225547
21
-1.12969016360360
31
0.000000000000000
  0
LINE
  5
F10431
330
F10432
100
AcDbEntity
8
Geo
100
AcDbLine
10
-34.7871116225547
20
-1.12969016360360
30
0.000000000000000
11
-34.6871116225547
21
-1.20282013734304
31
0.000000000000000
  0
LINE
  5
F10433
330
F10434
100
AcDbEntity
8
Geo
100
AcDbLine
10
-34.6871116225547
20
-1.20282013734304
30
0.000000000000000
11
-34.5871116225547
21
-1.27651833036245
31
0.000000000000000
  0
LINE
  5
F10435
330
F10436
100
AcDbEntity
8
Geo
100
AcDbLine
10
-34.5871116225547
20
-1.27651833036245
30
0.000000000000000
11
-34.4871116225547
21
-1.35077032900023
31
0.000000000000000
  0
LINE
  5
F10437
330
F10438
100
AcDbEntity
8
Geo
100
AcDbLine
10
-34.4871116225547
20
-1.35077032900023
30
0.000000000000000
11
-34.3871116225547
21
-1.42556161128326
31
0.000000000000000
  0
LINE
  5
F10439
330
F1043A
100
AcDbEntity
8
Geo
100
AcDbLine
10
-34.3871116225547
20
-1.42556161128326
30
0.000000000000000
11
-34.2871116225547
21
-1.50087754976696
31
0.000000000000000
  0
LINE
  5
F1043B
330
F1043C
100
AcDbEntity
8
Geo
100
AcDbLine
10
-34.2871116225547
20
-1.50087754976696
30
0.000000000000000
11
-34.1871116225547
21
-1.57670341439619
31
0.000000000000000
  0
LINE
  5
F1043D
330
F1043E
100
AcDbEntity
8
Geo
100
AcDbLine
10
-34.1871116225547
20
-1.57670341439619
30
0.000000000000000
11
-34.0871116225547
21
-1.65302437538600
31
0.000000000000000
  0
LINE
  5
F1043F
330
F10440
100
AcDbEntity
8
Geo
100
AcDbLine
10
-34.0871116225547
20
-1.65302437538600
30
0.000000000000000
11
-33.9871116225547
21
-1.72982550612209
31
0.000000000000000
  0
LINE
  5
F10441
330
F10442
100
AcDbEntity
8
Geo
100
AcDbLine
10
-33.9871116225547
20
-1.72982550612209
30
0.000000000000000
11
-33.8871116225547
21
-1.80709178608003
31
0.000000000000000
  0
LINE
  5
F10443
330
F10444
100
AcDbEntity
8
Geo
100
AcDbLine
10
-33.8871116225547
20
-1.80709178608003
30
0.000000000000000
11
-33.7871116225547
21
-1.88480810376299
31
0.000000000000000
  0
LINE
  5
F10445
330
F10446
100
AcDbEntity
8
Geo
100
AcDbLine
10
-33.7871116225547
20
-1.88480810376299
30
0.000000000000000
11
-33.6871116225547
21
-1.96295925965716
31
0.000000000000000
  0
LINE
  5
F10447
330
F10448
100
AcDbEntity
8
Geo
100
AcDbLine
10
-33.6871116225547
20
-1.96295925965716
30
0.000000000000000
11
-33.5871116225547
21
-2.04152996920445
31
0.000000000000000
  0
LINE
  5
F10449
330
F1044A
100
AcDbEntity
8
Geo
100
AcDbLine
10
-33.5871116225547
20
-2.04152996920445
30
0.000000000000000
11
-33.4871116225547
21
-2.12050486579175
31
0.000000000000000
  0
LINE
  5
F1044B
330
F1044C
100
AcDbEntity
8
Geo
100
AcDbLine
10
-33.4871116225547
20
-2.12050486579175
30
0.000000000000000
11
-33.3871116225547
21
-2.19986850375635
31
0.000000000000000
  0
LINE
  5
F1044D
330
F1044E
100
AcDbEntity
8
Geo
100
AcDbLine
10
-33.3871116225547
20
-2.19986850375635
30
0.000000000000000
11
-33.2871116225547
21
-2.27960536140670
31
0.000000000000000
  0
LINE
  5
F1044F
330
F10450
100
AcDbEntity
8
Geo
100
AcDbLine
10
-33.2871116225547
20
-2.27960536140670
30
0.000000000000000
11
-33.1871116225547
21
-2.35969984405811
31
0.000000000000000
  0
LINE
  5
F10451
330
F10452
100
AcDbEntity
8
Geo
100
AcDbLine
10
-33.1871116225547
20
-2.35969984405811
30
0.000000000000000
11
-33.0871116225547
21
-2.44013628708274
31
0.000000000000000
  0
LINE
  5
F10453
330
F10454
100
AcDbEntity
8
Geo
100
AcDbLine
10
-33.0871116225547
20
-2.44013628708274
30
0.000000000000000
11
-32.9871116225547
21
-2.52089895897319
31
0.000000000000000
  0
LINE
  5
F10455
330
F10456
100
AcDbEntity
8
Geo
100
AcDbLine
10
-32.9871116225547
20
-2.52089895897319
30
0.000000000000000
11
-32.8871116225547
21
-2.60197206441924
31
0.000000000000000
  0
LINE
  5
F10457
330
F10458
100
AcDbEntity
8
Geo
100
AcDbLine
10
-32.8871116225547
20
-2.60197206441924
30
0.000000000000000
11
-32.7871116225547
21
-2.68333974739706
31
0.000000000000000
  0
LINE
  5
F10459
330
F1045A
100
AcDbEntity
8
Geo
100
AcDbLine
10
-32.7871116225547
20
-2.68333974739706
30
0.000000000000000
11
-32.6871116225547
21
-2.76498609427026
31
0.000000000000000
  0
LINE
  5
F1045B
330
F1045C
100
AcDbEntity
8
Geo
100
AcDbLine
10
-32.6871116225547
20
-2.76498609427026
30
0.000000000000000
11
-32.5871116225547
21
-2.84689513690224
31
0.000000000000000
  0
LINE
  5
F1045D
330
F1045E
100
AcDbEntity
8
Geo
100
AcDbLine
10
-32.5871116225547
20
-2.84689513690224
30
0.000000000000000
11
-32.4871116225547
21
-2.92905085577919
31
0.000000000000000
  0
LINE
  5
F1045F
330
F10460
100
AcDbEntity
8
Geo
100
AcDbLine
10
-32.4871116225547
20
-2.92905085577919
30
0.000000000000000
11
-32.3871116225547
21
-3.01143718314314
31
0.000000000000000
  0
LINE
  5
F10461
330
F10462
100
AcDbEntity
8
Geo
100
AcDbLine
10
-32.3871116225547
20
-3.01143718314314
30
0.000000000000000
11
-32.2871116225547
21
-3.09403800613442
31
0.000000000000000
  0
LINE
  5
F10463
330
F10464
100
AcDbEntity
8
Geo
100
AcDbLine
10
-32.2871116225547
20
-3.09403800613442
30
0.000000000000000
11
-32.1871116225547
21
-3.17683716994298
31
0.000000000000000
  0
LINE
  5
F10465
330
F10466
100
AcDbEntity
8
Geo
100
AcDbLine
10
-32.1871116225547
20
-3.17683716994298
30
0.000000000000000
11
-32.0871116225547
21
-3.25981848096791
31
0.000000000000000
  0
LINE
  5
F10467
330
F10468
100
AcDbEntity
8
Geo
100
AcDbLine
10
-32.0871116225547
20
-3.25981848096791
30
0.000000000000000
11
-31.9871116225547
21
-3.34296570998451
31
0.000000000000000
  0
LINE
  5
F10469
330
F1046A
100
AcDbEntity
8
Geo
100
AcDbLine
10
-31.9871116225547
20
-3.34296570998451
30
0.000000000000000
11
-31.8871116225547
21
-3.42626259531835
31
0.000000000000000
  0
LINE
  5
F1046B
330
F1046C
100
AcDbEntity
8
Geo
100
AcDbLine
10
-31.8871116225547
20
-3.42626259531835
30
0.000000000000000
11
-31.7871116225547
21
-3.50969284602570
31
0.000000000000000
  0
LINE
  5
F1046D
330
F1046E
100
AcDbEntity
8
Geo
100
AcDbLine
10
-31.7871116225547
20
-3.50969284602570
30
0.000000000000000
11
-31.6871116225547
21
-3.59324014507964
31
0.000000000000000
  0
LINE
  5
F1046F
330
F10470
100
AcDbEntity
8
Geo
100
AcDbLine
10
-31.6871116225547
20
-3.59324014507964
30
0.000000000000000
11
-31.5871116225547
21
-3.67688815256129
31
0.000000000000000
  0
LINE
  5
F10471
330
F10472
100
AcDbEntity
8
Geo
100
AcDbLine
10
-31.5871116225547
20
-3.67688815256129
30
0.000000000000000
11
-31.4871116225547
21
-3.76062050885557
31
0.000000000000000
  0
LINE
  5
F10473
330
F10474
100
AcDbEntity
8
Geo
100
AcDbLine
10
-31.4871116225547
20
-3.76062050885557
30
0.000000000000000
11
-31.3871116225546
21
-3.84442083785068
31
0.000000000000000
  0
LINE
  5
F10475
330
F10476
100
AcDbEntity
8
Geo
100
AcDbLine
10
-31.3871116225546
20
-3.84442083785068
30
0.000000000000000
11
-31.2871116225546
21
-3.92827275014096
31
0.000000000000000
  0
LINE
  5
F10477
330
F10478
100
AcDbEntity
8
Geo
100
AcDbLine
10
-31.2871116225546
20
-3.92827275014096
30
0.000000000000000
11
-31.1871116225546
21
-4.01215984623223
31
0.000000000000000
  0
LINE
  5
F10479
330
F1047A
100
AcDbEntity
8
Geo
100
AcDbLine
10
-31.1871116225546
20
-4.01215984623223
30
0.000000000000000
11
-31.0871116225546
21
-4.09606571974920
31
0.000000000000000
  0
LINE
  5
F1047B
330
F1047C
100
AcDbEntity
8
Geo
100
AcDbLine
10
-31.0871116225546
20
-4.09606571974920
30
0.000000000000000
11
-30.9871116225546
21
-4.17997396064413
31
0.000000000000000
  0
LINE
  5
F1047D
330
F1047E
100
AcDbEntity
8
Geo
100
AcDbLine
10
-30.9871116225546
20
-4.17997396064413
30
0.000000000000000
11
-30.8871116225546
21
-4.26386815840627
31
0.000000000000000
  0
LINE
  5
F1047F
330
F10480
100
AcDbEntity
8
Geo
100
AcDbLine
10
-30.8871116225546
20
-4.26386815840627
30
0.000000000000000
11
-30.7871116225546
21
-4.34773190527139
31
0.000000000000000
  0
LINE
  5
F10481
330
F10482
100
AcDbEntity
8
Geo
100
AcDbLine
10
-30.7871116225546
20
-4.34773190527139
30
0.000000000000000
11
-30.6871116225546
21
-4.43154879943077
31
0.000000000000000
  0
LINE
  5
F10483
330
F10484
100
AcDbEntity
8
Geo
100
AcDbLine
10
-30.6871116225546
20
-4.43154879943077
30
0.000000000000000
11
-30.5871116225546
21
-4.51530244823897
31
0.000000000000000
  0
LINE
  5
F10485
330
F10486
100
AcDbEntity
8
Geo
100
AcDbLine
10
-30.5871116225546
20
-4.51530244823897
30
0.000000000000000
11
-30.4871116225546
21
-4.59897647141987
31
0.000000000000000
  0
LINE
  5
F10487
330
F10488
100
AcDbEntity
8
Geo
100
AcDbLine
10
-30.4871116225546
20
-4.59897647141987
30
0.000000000000000
11
-30.3871116225546
21
-4.68255450427032
31
0.000000000000000
  0
LINE
  5
F10489
330
F1048A
100
AcDbEntity
8
Geo
100
AcDbLine
10
-30.3871116225546
20
-4.68255450427032
30
0.000000000000000
11
-30.2871116225546
21
-4.76602020086062
31
0.000000000000000
  0
LINE
  5
F1048B
330
F1048C
100
AcDbEntity
8
Geo
100
AcDbLine
10
-30.2871116225546
20
-4.76602020086062
30
0.000000000000000
11
-30.1871116225546
21
-4.84935723723146
31
0.000000000000000
  0
LINE
  5
F1048D
330
F1048E
100
AcDbEntity
8
Geo
100
AcDbLine
10
-30.1871116225546
20
-4.84935723723146
30
0.000000000000000
11
-30.0871116225546
21
-4.93254931458649
31
0.000000000000000
  0
LINE
  5
F1048F
330
F10490
100
AcDbEntity
8
Geo
100
AcDbLine
10
-30.0871116225546
20
-4.93254931458649
30
0.000000000000000
11
-29.9871116225546
21
-5.01558016248000
31
0.000000000000000
  0
LINE
  5
F10491
330
F10492
100
AcDbEntity
8
Geo
100
AcDbLine
10
-29.9871116225546
20
-5.01558016248000
30
0.000000000000000
11
-29.8871116225546
21
-5.09843354199900
31
0.000000000000000
  0
LINE
  5
F10493
330
F10494
100
AcDbEntity
8
Geo
100
AcDbLine
10
-29.8871116225546
20
-5.09843354199900
30
0.000000000000000
11
-29.7871116225546
21
-5.18109324893925
31
0.000000000000000
  0
LINE
  5
F10495
330
F10496
100
AcDbEntity
8
Geo
100
AcDbLine
10
-29.7871116225546
20
-5.18109324893925
30
0.000000000000000
11
-29.6871116225546
21
-5.26354311697437
31
0.000000000000000
  0
LINE
  5
F10497
330
F10498
100
AcDbEntity
8
Geo
100
AcDbLine
10
-29.6871116225546
20
-5.26354311697437
30
0.000000000000000
11
-29.5871116225546
21
-5.34576702081759
31
0.000000000000000
  0
LINE
  5
F10499
330
F1049A
100
AcDbEntity
8
Geo
100
AcDbLine
10
-29.5871116225546
20
-5.34576702081759
30
0.000000000000000
11
-29.4871116225546
21
-5.42774887937555
31
0.000000000000000
  0
LINE
  5
F1049B
330
F1049C
100
AcDbEntity
8
Geo
100
AcDbLine
10
-29.4871116225546
20
-5.42774887937555
30
0.000000000000000
11
-29.3871116225546
21
-5.50947265889332
31
0.000000000000000
  0
LINE
  5
F1049D
330
F1049E
100
AcDbEntity
8
Geo
100
AcDbLine
10
-29.3871116225546
20
-5.50947265889332
30
0.000000000000000
11
-29.2871116225546
21
-5.59092237609028
31
0.000000000000000
  0
LINE
  5
F1049F
330
F104A0
100
AcDbEntity
8
Geo
100
AcDbLine
10
-29.2871116225546
20
-5.59092237609028
30
0.000000000000000
11
-29.1871116225546
21
-5.67208210128603
31
0.000000000000000
  0
LINE
  5
F104A1
330
F104A2
100
AcDbEntity
8
Geo
100
AcDbLine
10
-29.1871116225546
20
-5.67208210128603
30
0.000000000000000
11
-29.0871116225546
21
-5.75293596151593
31
0.000000000000000
  0
LINE
  5
F104A3
330
F104A4
100
AcDbEntity
8
Geo
100
AcDbLine
10
-29.0871116225546
20
-5.75293596151593
30
0.000000000000000
11
-28.9871116225546
21
-5.83346814363543
31
0.000000000000000
  0
LINE
  5
F104A5
330
F104A6
100
AcDbEntity
8
Geo
100
AcDbLine
10
-28.9871116225546
20
-5.83346814363543
30
0.000000000000000
11
-28.8871116225546
21
-5.91366289741278
31
0.000000000000000
  0
LINE
  5
F104A7
330
F104A8
100
AcDbEntity
8
Geo
100
AcDbLine
10
-28.8871116225546
20
-5.91366289741278
30
0.000000000000000
11
-28.7871116225546
21
-5.99350453860942
31
0.000000000000000
  0
LINE
  5
F104A9
330
F104AA
100
AcDbEntity
8
Geo
100
AcDbLine
10
-28.7871116225546
20
-5.99350453860942
30
0.000000000000000
11
-28.6871116225546
21
-6.07297745204742
31
0.000000000000000
  0
LINE
  5
F104AB
330
F104AC
100
AcDbEntity
8
Geo
100
AcDbLine
10
-28.6871116225546
20
-6.07297745204742
30
0.000000000000000
11
-28.5871116225546
21
-6.15206609466348
31
0.000000000000000
  0
LINE
  5
F104AD
330
F104AE
100
AcDbEntity
8
Geo
100
AcDbLine
10
-28.5871116225546
20
-6.15206609466348
30
0.000000000000000
11
-28.4871116225546
21
-6.23075499854880
31
0.000000000000000
  0
LINE
  5
F104AF
330
F104B0
100
AcDbEntity
8
Geo
100
AcDbLine
10
-28.4871116225546
20
-6.23075499854880
30
0.000000000000000
11
-28.3871116225546
21
-6.30902877397419
31
0.000000000000000
  0
LINE
  5
F104B1
330
F104B2
100
AcDbEntity
8
Geo
100
AcDbLine
10
-53.2871116225547
20
0.980118266236576
30
0.000000000000000
11
-53.1871116225547
21
0.935156633967676
31
0.000000000000000
  0
LINE
  5
F104B3
330
F104B4
100
AcDbEntity
8
Geo
100
AcDbLine
10
-53.1871116225547
20
0.935156633967676
30
0.000000000000000
11
-53.0871116225547
21
0.889208643623456
31
0.000000000000000
  0
LINE
  5
F104B5
330
F104B6
100
AcDbEntity
8
Geo
100
AcDbLine
10
-53.0871116225547
20
0.889208643623456
30
0.000000000000000
11
-52.9871116225547
21
0.842283281567842
31
0.000000000000000
  0
LINE
  5
F104B7
330
F104B8
100
AcDbEntity
8
Geo
100
AcDbLine
10
-52.9871116225547
20
0.842283281567842
30
0.000000000000000
11
-52.8871116225547
21
0.794389725316056
31
0.000000000000000
  0
LINE
  5
F104B9
330
F104BA
100
AcDbEntity
8
Geo
100
AcDbLine
10
-52.8871116225547
20
0.794389725316056
30
0.000000000000000
11
-52.7871116225547
21
0.745537341739706
31
0.000000000000000
  0
LINE
  5
F104BB
330
F104BC
100
AcDbEntity
8
Geo
100
AcDbLine
10
-52.7871116225547
20
0.745537341739706
30
0.000000000000000
11
-52.6871116225547
21
0.695735685234840
31
0.000000000000000
  0
LINE
  5
F104BD
330
F104BE
100
AcDbEntity
8
Geo
100
AcDbLine
10
-52.6871116225547
20
0.695735685234840
30
0.000000000000000
11
-52.5871116225547
21
0.644994495853332
31
0.000000000000000
  0
LINE
  5
F104BF
330
F104C0
100
AcDbEntity
8
Geo
100
AcDbLine
10
-52.5871116225547
20
0.644994495853332
30
0.000000000000000
11
-52.4871116225547
21
0.593323697397953
31
0.000000000000000
  0
LINE
  5
F104C1
330
F104C2
100
AcDbEntity
8
Geo
100
AcDbLine
10
-52.4871116225547
20
0.593323697397953
30
0.000000000000000
11
-52.3871116225547
21
0.540733395481499
31
0.000000000000000
  0
LINE
  5
F104C3
330
F104C4
100
AcDbEntity
8
Geo
100
AcDbLine
10
-52.3871116225547
20
0.540733395481499
30
0.000000000000000
11
-52.2871116225547
21
0.487233875550372
31
0.000000000000000
  0
LINE
  5
F104C5
330
F104C6
100
AcDbEntity
8
Geo
100
AcDbLine
10
-52.2871116225547
20
0.487233875550372
30
0.000000000000000
11
-52.1871116225547
21
0.432835600872985
31
0.000000000000000
  0
LINE
  5
F104C7
330
F104C8
100
AcDbEntity
8
Geo
100
AcDbLine
10
-52.1871116225547
20
0.432835600872985
30
0.000000000000000
11
-52.0871116225547
21
0.377549210493385
31
0.000000000000000
  0
LINE
  5
F104C9
330
F104CA
100
AcDbEntity
8
Geo
100
AcDbLine
10
-52.0871116225547
20
0.377549210493385
30
0.000000000000000
11
-51.9871116225547
21
0.321385517150504
31
0.000000000000000
  0
LINE
  5
F104CB
330
F104CC
100
AcDbEntity
8
Geo
100
AcDbLine
10
-51.9871116225547
20
0.321385517150504
30
0.000000000000000
11
-51.8871116225547
21
0.264355505163441
31
0.000000000000000
  0
LINE
  5
F104CD
330
F104CE
100
AcDbEntity
8
Geo
100
AcDbLine
10
-51.8871116225547
20
0.264355505163441
30
0.000000000000000
11
-51.7871116225547
21
0.206470328283175
31
0.000000000000000
  0
LINE
  5
F104CF
330
F104D0
100
AcDbEntity
8
Geo
100
AcDbLine
10
-51.7871116225547
20
0.206470328283175
30
0.000000000000000
11
-51.6871116225547
21
0.147741307511159
31
0.000000000000000
  0
LINE
  5
F104D1
330
F104D2
100
AcDbEntity
8
Geo
100
AcDbLine
10
-51.6871116225547
20
0.147741307511159
30
0.000000000000000
11
-51.5871116225547
21
0.0881799288851841
31
0.000000000000000
  0
LINE
  5
F104D3
330
F104D4
100
AcDbEntity
8
Geo
100
AcDbLine
10
-51.5871116225547
20
0.0881799288851841
30
0.000000000000000
11
-51.4871116225547
21
0.0277978412329860
31
0.000000000000000
  0
LINE
  5
F104D5
330
F104D6
100
AcDbEntity
8
Geo
100
AcDbLine
10
-51.4871116225547
20
0.0277978412329860
30
0.000000000000000
11
-51.3871116225547
21
-0.0333931461060013
31
0.000000000000000
  0
LINE
  5
F104D7
330
F104D8
100
AcDbEntity
8
Geo
100
AcDbLine
10
-51.3871116225547
20
-0.0333931461060013
30
0.000000000000000
11
-51.2871116225547
21
-0.0953810655902823
31
0.000000000000000
  0
LINE
  5
F104D9
330
F104DA
100
AcDbEntity
8
Geo
100
AcDbLine
10
-51.2871116225547
20
-0.0953810655902823
30
0.000000000000000
11
-51.1871116225547
21
-0.158153793816865
31
0.000000000000000
  0
LINE
  5
F104DB
330
F104DC
100
AcDbEntity
8
Geo
100
AcDbLine
10
-51.1871116225547
20
-0.158153793816865
30
0.000000000000000
11
-51.0871116225547
21
-0.221699053892329
31
0.000000000000000
  0
LINE
  5
F104DD
330
F104DE
100
AcDbEntity
8
Geo
100
AcDbLine
10
-51.0871116225547
20
-0.221699053892329
30
0.000000000000000
11
-50.9871116225547
21
-0.286004417833894
31
0.000000000000000
  0
LINE
  5
F104DF
330
F104E0
100
AcDbEntity
8
Geo
100
AcDbLine
10
-50.9871116225547
20
-0.286004417833894
30
0.000000000000000
11
-50.8871116225547
21
-0.351057309000046
31
0.000000000000000
  0
LINE
  5
F104E1
330
F104E2
100
AcDbEntity
8
Geo
100
AcDbLine
10
-50.8871116225547
20
-0.351057309000046
30
0.000000000000000
11
-50.7871116225547
21
-0.416845004550244
31
0.000000000000000
  0
LINE
  5
F104E3
330
F104E4
100
AcDbEntity
8
Geo
100
AcDbLine
10
-50.7871116225547
20
-0.416845004550244
30
0.000000000000000
11
-50.6871116225547
21
-0.483354637933205
31
0.000000000000000
  0
LINE
  5
F104E5
330
F104E6
100
AcDbEntity
8
Geo
100
AcDbLine
10
-50.6871116225547
20
-0.483354637933205
30
0.000000000000000
11
-50.5871116225547
21
-0.550573201403310
31
0.000000000000000
  0
LINE
  5
F104E7
330
F104E8
100
AcDbEntity
8
Geo
100
AcDbLine
10
-50.5871116225547
20
-0.550573201403310
30
0.000000000000000
11
-50.4871116225547
21
-0.618487548564616
31
0.000000000000000
  0
LINE
  5
F104E9
330
F104EA
100
AcDbEntity
8
Geo
100
AcDbLine
10
-50.4871116225547
20
-0.618487548564616
30
0.000000000000000
11
-50.3871116225547
21
-0.687084396941984
31
0.000000000000000
  0
LINE
  5
F104EB
330
F104EC
100
AcDbEntity
8
Geo
100
AcDbLine
10
-50.3871116225547
20
-0.687084396941984
30
0.000000000000000
11
-50.2871116225547
21
-0.756350330578827
31
0.000000000000000
  0
LINE
  5
F104ED
330
F104EE
100
AcDbEntity
8
Geo
100
AcDbLine
10
-50.2871116225547
20
-0.756350330578827
30
0.000000000000000
11
-50.1871116225547
21
-0.826271802660964
31
0.000000000000000
  0
LINE
  5
F104EF
330
F104F0
100
AcDbEntity
8
Geo
100
AcDbLine
10
-50.1871116225547
20
-0.826271802660964
30
0.000000000000000
11
-50.0871116225547
21
-0.896835138166054
31
0.000000000000000
  0
LINE
  5
F104F1
330
F104F2
100
AcDbEntity
8
Geo
100
AcDbLine
10
-50.0871116225547
20
-0.896835138166054
30
0.000000000000000
11
-49.9871116225547
21
-0.968026536538126
31
0.000000000000000
  0
LINE
  5
F104F3
330
F104F4
100
AcDbEntity
8
Geo
100
AcDbLine
10
-49.9871116225547
20
-0.968026536538126
30
0.000000000000000
11
-49.8871116225547
21
-1.03983207438664
31
0.000000000000000
  0
LINE
  5
F104F5
330
F104F6
100
AcDbEntity
8
Geo
100
AcDbLine
10
-49.8871116225547
20
-1.03983207438664
30
0.000000000000000
11
-49.7871116225547
21
-1.11223770820957
31
0.000000000000000
  0
LINE
  5
F104F7
330
F104F8
100
AcDbEntity
8
Geo
100
AcDbLine
10
-49.7871116225547
20
-1.11223770820957
30
0.000000000000000
11
-49.6871116225547
21
-1.18522927714002
31
0.000000000000000
  0
LINE
  5
F104F9
330
F104FA
100
AcDbEntity
8
Geo
100
AcDbLine
10
-49.6871116225547
20
-1.18522927714002
30
0.000000000000000
11
-49.5871116225547
21
-1.25879250571574
31
0.000000000000000
  0
LINE
  5
F104FB
330
F104FC
100
AcDbEntity
8
Geo
100
AcDbLine
10
-49.5871116225547
20
-1.25879250571574
30
0.000000000000000
11
-49.4871116225547
21
-1.33291300667106
31
0.000000000000000
  0
LINE
  5
F104FD
330
F104FE
100
AcDbEntity
8
Geo
100
AcDbLine
10
-49.4871116225547
20
-1.33291300667106
30
0.000000000000000
11
-49.3871116225547
21
-1.40757628375075
31
0.000000000000000
  0
LINE
  5
F104FF
330
F10500
100
AcDbEntity
8
Geo
100
AcDbLine
10
-49.3871116225547
20
-1.40757628375075
30
0.000000000000000
11
-49.2871116225547
21
-1.48276773454510
31
0.000000000000000
  0
LINE
  5
F10501
330
F10502
100
AcDbEntity
8
Geo
100
AcDbLine
10
-49.2871116225547
20
-1.48276773454510
30
0.000000000000000
11
-49.1871116225547
21
-1.55847265334586
31
0.000000000000000
  0
LINE
  5
F10503
330
F10504
100
AcDbEntity
8
Geo
100
AcDbLine
10
-49.1871116225547
20
-1.55847265334586
30
0.000000000000000
11
-49.0871116225547
21
-1.63467623402231
31
0.000000000000000
  0
LINE
  5
F10505
330
F10506
100
AcDbEntity
8
Geo
100
AcDbLine
10
-49.0871116225547
20
-1.63467623402231
30
0.000000000000000
11
-48.9871116225547
21
-1.71136357291701
31
0.000000000000000
  0
LINE
  5
F10507
330
F10508
100
AcDbEntity
8
Geo
100
AcDbLine
10
-48.9871116225547
20
-1.71136357291701
30
0.000000000000000
11
-48.8871116225547
21
-1.78851967176060
31
0.000000000000000
  0
LINE
  5
F10509
330
F1050A
100
AcDbEntity
8
Geo
100
AcDbLine
10
-48.8871116225547
20
-1.78851967176060
30
0.000000000000000
11
-48.7871116225547
21
-1.86612944060510
31
0.000000000000000
  0
LINE
  5
F1050B
330
F1050C
100
AcDbEntity
8
Geo
100
AcDbLine
10
-48.7871116225547
20
-1.86612944060510
30
0.000000000000000
11
-48.6871116225547
21
-1.94417770077521
31
0.000000000000000
  0
LINE
  5
F1050D
330
F1050E
100
AcDbEntity
8
Geo
100
AcDbLine
10
-48.6871116225547
20
-1.94417770077521
30
0.000000000000000
11
-48.5871116225547
21
-2.02264918783685
31
0.000000000000000
  0
LINE
  5
F1050F
330
F10510
100
AcDbEntity
8
Geo
100
AcDbLine
10
-48.5871116225547
20
-2.02264918783685
30
0.000000000000000
11
-48.4871116225547
21
-2.10152855458254
31
0.000000000000000
  0
LINE
  5
F10511
330
F10512
100
AcDbEntity
8
Geo
100
AcDbLine
10
-48.4871116225547
20
-2.10152855458254
30
0.000000000000000
11
-48.3871116225547
21
-2.18080037403299
31
0.000000000000000
  0
LINE
  5
F10513
330
F10514
100
AcDbEntity
8
Geo
100
AcDbLine
10
-48.3871116225547
20
-2.18080037403299
30
0.000000000000000
11
-48.2871116225547
21
-2.26044914245423
31
0.000000000000000
  0
LINE
  5
F10515
330
F10516
100
AcDbEntity
8
Geo
100
AcDbLine
10
-48.2871116225547
20
-2.26044914245423
30
0.000000000000000
11
-48.1871116225547
21
-2.34045928238980
31
0.000000000000000
  0
LINE
  5
F10517
330
F10518
100
AcDbEntity
8
Geo
100
AcDbLine
10
-48.1871116225547
20
-2.34045928238980
30
0.000000000000000
11
-48.0871116225547
21
-2.42081514570732
31
0.000000000000000
  0
LINE
  5
F10519
330
F1051A
100
AcDbEntity
8
Geo
100
AcDbLine
10
-48.0871116225547
20
-2.42081514570732
30
0.000000000000000
11
-47.9871116225547
21
-2.50150101665892
31
0.000000000000000
  0
LINE
  5
F1051B
330
F1051C
100
AcDbEntity
8
Geo
100
AcDbLine
10
-47.9871116225547
20
-2.50150101665892
30
0.000000000000000
11
-47.8871116225547
21
-2.58250111495489
31
0.000000000000000
  0
LINE
  5
F1051D
330
F1051E
100
AcDbEntity
8
Geo
100
AcDbLine
10
-47.8871116225547
20
-2.58250111495489
30
0.000000000000000
11
-47.7871116225547
21
-2.66379959884988
31
0.000000000000000
  0
LINE
  5
F1051F
330
F10520
100
AcDbEntity
8
Geo
100
AcDbLine
10
-47.7871116225547
20
-2.66379959884988
30
0.000000000000000
11
-47.6871116225547
21
-2.74538056824126
31
0.000000000000000
  0
LINE
  5
F10521
330
F10522
100
AcDbEntity
8
Geo
100
AcDbLine
10
-47.6871116225547
20
-2.74538056824126
30
0.000000000000000
11
-47.5871116225547
21
-2.82722806777874
31
0.000000000000000
  0
LINE
  5
F10523
330
F10524
100
AcDbEntity
8
Geo
100
AcDbLine
10
-47.5871116225547
20
-2.82722806777874
30
0.000000000000000
11
-47.4871116225547
21
-2.90932608998493
31
0.000000000000000
  0
LINE
  5
F10525
330
F10526
100
AcDbEntity
8
Geo
100
AcDbLine
10
-47.4871116225547
20
-2.90932608998493
30
0.000000000000000
11
-47.3871116225547
21
-2.99165857838598
31
0.000000000000000
  0
LINE
  5
F10527
330
F10528
100
AcDbEntity
8
Geo
100
AcDbLine
10
-47.3871116225547
20
-2.99165857838598
30
0.000000000000000
11
-47.2871116225547
21
-3.07420943065189
31
0.000000000000000
  0
LINE
  5
F10529
330
F1052A
100
AcDbEntity
8
Geo
100
AcDbLine
10
-47.2871116225547
20
-3.07420943065189
30
0.000000000000000
11
-47.1871116225547
21
-3.15696250174572
31
0.000000000000000
  0
LINE
  5
F1052B
330
F1052C
100
AcDbEntity
8
Geo
100
AcDbLine
10
-47.1871116225547
20
-3.15696250174572
30
0.000000000000000
11
-47.0871116225547
21
-3.23990160708122
31
0.000000000000000
  0
LINE
  5
F1052D
330
F1052E
100
AcDbEntity
8
Geo
100
AcDbLine
10
-47.0871116225547
20
-3.23990160708122
30
0.000000000000000
11
-46.9871116225547
21
-3.32301052568816
31
0.000000000000000
  0
LINE
  5
F1052F
330
F10530
100
AcDbEntity
8
Geo
100
AcDbLine
10
-46.9871116225547
20
-3.32301052568816
30
0.000000000000000
11
-46.8871116225547
21
-3.40627300338473
31
0.000000000000000
  0
LINE
  5
F10531
330
F10532
100
AcDbEntity
8
Geo
100
AcDbLine
10
-46.8871116225547
20
-3.40627300338473
30
0.000000000000000
11
-46.7871116225547
21
-3.48967275595654
31
0.000000000000000
  0
LINE
  5
F10533
330
F10534
100
AcDbEntity
8
Geo
100
AcDbLine
10
-46.7871116225547
20
-3.48967275595654
30
0.000000000000000
11
-46.6871116225547
21
-3.57319347234140
31
0.000000000000000
  0
LINE
  5
F10535
330
F10536
100
AcDbEntity
8
Geo
100
AcDbLine
10
-46.6871116225547
20
-3.57319347234140
30
0.000000000000000
11
-46.5871116225547
21
-3.65681881781940
31
0.000000000000000
  0
LINE
  5
F10537
330
F10538
100
AcDbEntity
8
Geo
100
AcDbLine
10
-46.5871116225547
20
-3.65681881781940
30
0.000000000000000
11
-46.4871116225547
21
-3.74053243720760
31
0.000000000000000
  0
LINE
  5
F10539
330
F1053A
100
AcDbEntity
8
Geo
100
AcDbLine
10
-46.4871116225547
20
-3.74053243720760
30
0.000000000000000
11
-46.3871116225547
21
-3.82431795805872
31
0.000000000000000
  0
LINE
  5
F1053B
330
F1053C
100
AcDbEntity
8
Geo
100
AcDbLine
10
-46.3871116225547
20
-3.82431795805872
30
0.000000000000000
11
-46.2871116225547
21
-3.90815899386322
31
0.000000000000000
  0
LINE
  5
F1053D
330
F1053E
100
AcDbEntity
8
Geo
100
AcDbLine
10
-46.2871116225547
20
-3.90815899386322
30
0.000000000000000
11
-46.1871116225547
21
-3.99203914725413
31
0.000000000000000
  0
LINE
  5
F1053F
330
F10540
100
AcDbEntity
8
Geo
100
AcDbLine
10
-46.1871116225547
20
-3.99203914725413
30
0.000000000000000
11
-46.0871116225547
21
-4.07594201321397
31
0.000000000000000
  0
LINE
  5
F10541
330
F10542
100
AcDbEntity
8
Geo
100
AcDbLine
10
-46.0871116225547
20
-4.07594201321397
30
0.000000000000000
11
-45.9871116225547
21
-4.15985118228320
31
0.000000000000000
  0
LINE
  5
F10543
330
F10544
100
AcDbEntity
8
Geo
100
AcDbLine
10
-45.9871116225547
20
-4.15985118228320
30
0.000000000000000
11
-45.8871116225547
21
-4.24375024376957
31
0.000000000000000
  0
LINE
  5
F10545
330
F10546
100
AcDbEntity
8
Geo
100
AcDbLine
10
-45.8871116225547
20
-4.24375024376957
30
0.000000000000000
11
-45.7871116225547
21
-4.32762278895762
31
0.000000000000000
  0
LINE
  5
F10547
330
F10548
100
AcDbEntity
8
Geo
100
AcDbLine
10
-45.7871116225547
20
-4.32762278895762
30
0.000000000000000
11
-45.6871116225547
21
-4.41145241431784
31
0.000000000000000
  0
LINE
  5
F10549
330
F1054A
100
AcDbEntity
8
Geo
100
AcDbLine
10
-45.6871116225547
20
-4.41145241431784
30
0.000000000000000
11
-45.5871116225547
21
-4.49522272471489
31
0.000000000000000
  0
LINE
  5
F1054B
330
F1054C
100
AcDbEntity
8
Geo
100
AcDbLine
10
-45.5871116225547
20
-4.49522272471489
30
0.000000000000000
11
-45.4871116225547
21
-4.57891733661405
31
0.000000000000000
  0
LINE
  5
F1054D
330
F1054E
100
AcDbEntity
8
Geo
100
AcDbLine
10
-45.4871116225547
20
-4.57891733661405
30
0.000000000000000
11
-45.3871116225547
21
-4.66251988128545
31
0.000000000000000
  0
LINE
  5
F1054F
330
F10550
100
AcDbEntity
8
Geo
100
AcDbLine
10
-45.3871116225547
20
-4.66251988128545
30
0.000000000000000
11
-45.2871116225547
21
-4.74601400800546
31
0.000000000000000
  0
LINE
  5
F10551
330
F10552
100
AcDbEntity
8
Geo
100
AcDbLine
10
-45.2871116225547
20
-4.74601400800546
30
0.000000000000000
11
-45.1871116225547
21
-4.82938338725451
31
0.000000000000000
  0
LINE
  5
F10553
330
F10554
100
AcDbEntity
8
Geo
100
AcDbLine
10
-45.1871116225547
20
-4.82938338725451
30
0.000000000000000
11
-45.0871116225547
21
-4.91261171391071
31
0.000000000000000
  0
LINE
  5
F10555
330
F10556
100
AcDbEntity
8
Geo
100
AcDbLine
10
-45.0871116225547
20
-4.91261171391071
30
0.000000000000000
11
-44.9871116225547
21
-4.99568271043884
31
0.000000000000000
  0
LINE
  5
F10557
330
F10558
100
AcDbEntity
8
Geo
100
AcDbLine
10
-44.9871116225547
20
-4.99568271043884
30
0.000000000000000
11
-44.8871116225547
21
-5.07858013007376
31
0.000000000000000
  0
LINE
  5
F10559
330
F1055A
100
AcDbEntity
8
Geo
100
AcDbLine
10
-44.8871116225547
20
-5.07858013007376
30
0.000000000000000
11
-44.7871116225547
21
-5.16128775999801
31
0.000000000000000
  0
LINE
  5
F1055B
330
F1055C
100
AcDbEntity
8
Geo
100
AcDbLine
10
-44.7871116225547
20
-5.16128775999801
30
0.000000000000000
11
-44.6871116225547
21
-5.24378942451256
31
0.000000000000000
  0
LINE
  5
F1055D
330
F1055E
100
AcDbEntity
8
Geo
100
AcDbLine
10
-44.6871116225547
20
-5.24378942451256
30
0.000000000000000
11
-44.5871116225547
21
-5.32606898820048
31
0.000000000000000
  0
LINE
  5
F1055F
330
F10560
100
AcDbEntity
8
Geo
100
AcDbLine
10
-44.5871116225547
20
-5.32606898820048
30
0.000000000000000
11
-44.4871116225547
21
-5.40811035908260
31
0.000000000000000
  0
LINE
  5
F10561
330
F10562
100
AcDbEntity
8
Geo
100
AcDbLine
10
-44.4871116225547
20
-5.40811035908260
30
0.000000000000000
11
-44.3871116225547
21
-5.48989749176478
31
0.000000000000000
  0
LINE
  5
F10563
330
F10564
100
AcDbEntity
8
Geo
100
AcDbLine
10
-44.3871116225547
20
-5.48989749176478
30
0.000000000000000
11
-44.2871116225547
21
-5.57141439057597
31
0.000000000000000
  0
LINE
  5
F10565
330
F10566
100
AcDbEntity
8
Geo
100
AcDbLine
10
-44.2871116225547
20
-5.57141439057597
30
0.000000000000000
11
-44.1871116225547
21
-5.65264511269662
31
0.000000000000000
  0
LINE
  5
F10567
330
F10568
100
AcDbEntity
8
Geo
100
AcDbLine
10
-44.1871116225547
20
-5.65264511269662
30
0.000000000000000
11
-44.0871116225547
21
-5.73357377127672
31
0.000000000000000
  0
LINE
  5
F10569
330
F1056A
100
AcDbEntity
8
Geo
100
AcDbLine
10
-44.0871116225547
20
-5.73357377127672
30
0.000000000000000
11
-43.9871116225547
21
-5.81418453854289
31
0.000000000000000
  0
LINE
  5
F1056B
330
F1056C
100
AcDbEntity
8
Geo
100
AcDbLine
10
-43.9871116225547
20
-5.81418453854289
30
0.000000000000000
11
-43.8871116225547
21
-5.89446164889395
31
0.000000000000000
  0
LINE
  5
F1056D
330
F1056E
100
AcDbEntity
8
Geo
100
AcDbLine
10
-43.8871116225547
20
-5.89446164889395
30
0.000000000000000
11
-43.7871116225547
21
-5.97438940198429
31
0.000000000000000
  0
LINE
  5
F1056F
330
F10570
100
AcDbEntity
8
Geo
100
AcDbLine
10
-43.7871116225547
20
-5.97438940198429
30
0.000000000000000
11
-43.6871116225547
21
-6.05395216579451
31
0.000000000000000
  0
LINE
  5
F10571
330
F10572
100
AcDbEntity
8
Geo
100
AcDbLine
10
-43.6871116225547
20
-6.05395216579451
30
0.000000000000000
11
-43.5871116225547
21
-6.13313437968863
31
0.000000000000000
  0
LINE
  5
F10573
330
F10574
100
AcDbEntity
8
Geo
100
AcDbLine
10
-43.5871116225547
20
-6.13313437968863
30
0.000000000000000
11
-43.4871116225547
21
-6.21192055745748
31
0.000000000000000
  0
LINE
  5
F10575
330
F10576
100
AcDbEntity
8
Geo
100
AcDbLine
10
-43.4871116225547
20
-6.21192055745748
30
0.000000000000000
11
-43.3871116225547
21
-6.29029529034737
31
0.000000000000000
  0
LINE
  5
F10577
330
F10578
100
AcDbEntity
8
Geo
100
AcDbLine
10
-43.3871116225547
20
-6.29029529034737
30
0.000000000000000
11
-43.2871116225547
21
-6.36824325007369
31
0.000000000000000
  0
LINE
  5
F10579
330
F1057A
100
AcDbEntity
8
Geo
100
AcDbLine
10
-43.2871116225547
20
-6.36824325007369
30
0.000000000000000
11
-43.1871116225547
21
-6.44574919181883
31
0.000000000000000
  0
LINE
  5
F1057B
330
F1057C
100
AcDbEntity
8
Geo
100
AcDbLine
10
-43.1871116225547
20
-6.44574919181883
30
0.000000000000000
11
-43.0871116225547
21
-6.52279795721364
31
0.000000000000000
  0
LINE
  5
F1057D
330
F1057E
100
AcDbEntity
8
Geo
100
AcDbLine
10
-43.0871116225547
20
-6.52279795721364
30
0.000000000000000
11
-42.9871116225547
21
-6.59937447730209
31
0.000000000000000
  0
LINE
  5
F1057F
330
F10580
100
AcDbEntity
8
Geo
100
AcDbLine
10
-42.9871116225547
20
-6.59937447730209
30
0.000000000000000
11
-42.8871116225547
21
-6.67546377548842
31
0.000000000000000
  0
LINE
  5
F10581
330
F10582
100
AcDbEntity
8
Geo
100
AcDbLine
10
-42.8871116225547
20
-6.67546377548842
30
0.000000000000000
11
-42.7871116225547
21
-6.75105097046620
31
0.000000000000000
  0
LINE
  5
F10583
330
F10584
100
AcDbEntity
8
Geo
100
AcDbLine
10
-42.7871116225547
20
-6.75105097046620
30
0.000000000000000
11
-42.6871116225547
21
-6.82612127912876
31
0.000000000000000
  0
LINE
  5
F10585
330
F10586
100
AcDbEntity
8
Geo
100
AcDbLine
10
-42.6871116225547
20
-6.82612127912876
30
0.000000000000000
11
-42.5871116225547
21
-6.90066001946045
31
0.000000000000000
  0
LINE
  5
F10587
330
F10588
100
AcDbEntity
8
Geo
100
AcDbLine
10
-42.5871116225547
20
-6.90066001946045
30
0.000000000000000
11
-42.4871116225547
21
-6.97465261340808
31
0.000000000000000
  0
LINE
  5
F10589
330
F1058A
100
AcDbEntity
8
Geo
100
AcDbLine
10
-42.4871116225547
20
-6.97465261340808
30
0.000000000000000
11
-42.3871116225547
21
-7.04808458973204
31
0.000000000000000
  0
LINE
  5
F1058B
330
F1058C
100
AcDbEntity
8
Geo
100
AcDbLine
10
-42.3871116225547
20
-7.04808458973204
30
0.000000000000000
11
-42.2871116225547
21
-7.12094158683661
31
0.000000000000000
  0
LINE
  5
F1058D
330
F1058E
100
AcDbEntity
8
Geo
100
AcDbLine
10
-42.2871116225547
20
-7.12094158683661
30
0.000000000000000
11
-42.1871116225547
21
-7.19320935557864
31
0.000000000000000
  0
LINE
  5
F1058F
330
F10590
100
AcDbEntity
8
Geo
100
AcDbLine
10
-42.1871116225547
20
-7.19320935557864
30
0.000000000000000
11
-42.0871116225547
21
-7.26487376205446
31
0.000000000000000
  0
LINE
  5
F10591
330
F10592
100
AcDbEntity
8
Geo
100
AcDbLine
10
-42.0871116225547
20
-7.26487376205446
30
0.000000000000000
11
-41.9871116225547
21
-7.33592079036408
31
0.000000000000000
  0
LINE
  5
F10593
330
F10594
100
AcDbEntity
8
Geo
100
AcDbLine
10
-41.9871116225547
20
-7.33592079036408
30
0.000000000000000
11
-41.8871116225547
21
-7.40633654535241
31
0.000000000000000
  0
LINE
  5
F10595
330
F10596
100
AcDbEntity
8
Geo
100
AcDbLine
10
-41.8871116225547
20
-7.40633654535241
30
0.000000000000000
11
-41.7871116225547
21
-7.47610725532681
31
0.000000000000000
  0
LINE
  5
F10597
330
F10598
100
AcDbEntity
8
Geo
100
AcDbLine
10
-41.7871116225547
20
-7.47610725532681
30
0.000000000000000
11
-41.6871116225547
21
-7.54521927475051
31
0.000000000000000
  0
LINE
  5
F10599
330
F1059A
100
AcDbEntity
8
Geo
100
AcDbLine
10
-41.6871116225547
20
-7.54521927475051
30
0.000000000000000
11
-41.5871116225547
21
-7.61365908691141
31
0.000000000000000
  0
LINE
  5
F1059B
330
F1059C
100
AcDbEntity
8
Geo
100
AcDbLine
10
-41.5871116225547
20
-7.61365908691141
30
0.000000000000000
11
-41.4871116225547
21
-7.68141330656555
31
0.000000000000000
  0
LINE
  5
F1059D
330
F1059E
100
AcDbEntity
8
Geo
100
AcDbLine
10
-41.4871116225547
20
-7.68141330656555
30
0.000000000000000
11
-41.3871116225547
21
-7.74846868255504
31
0.000000000000000
  0
LINE
  5
F1059F
330
F105A0
100
AcDbEntity
8
Geo
100
AcDbLine
10
-41.3871116225547
20
-7.74846868255504
30
0.000000000000000
11
-41.2871116225547
21
-7.81481210039962
31
0.000000000000000
  0
LINE
  5
F105A1
330
F105A2
100
AcDbEntity
8
Geo
100
AcDbLine
10
-41.2871116225547
20
-7.81481210039962
30
0.000000000000000
11
-41.1871116225547
21
-7.88043058486161
31
0.000000000000000
  0
LINE
  5
F105A3
330
F105A4
100
AcDbEntity
8
Geo
100
AcDbLine
10
-41.1871116225547
20
-7.88043058486161
30
0.000000000000000
11
-41.0871116225547
21
-7.94531130248348
31
0.000000000000000
  0
LINE
  5
F105A5
330
F105A6
100
AcDbEntity
8
Geo
100
AcDbLine
10
-41.0871116225547
20
-7.94531130248348
30
0.000000000000000
11
-40.9871116225547
21
-8.00944156409786
31
0.000000000000000
  0
LINE
  5
F105A7
330
F105A8
100
AcDbEntity
8
Geo
100
AcDbLine
10
-40.9871116225547
20
-8.00944156409786
30
0.000000000000000
11
-40.8871116225547
21
-8.07280882730920
31
0.000000000000000
  0
LINE
  5
F105A9
330
F105AA
100
AcDbEntity
8
Geo
100
AcDbLine
10
-40.8871116225547
20
-8.07280882730920
30
0.000000000000000
11
-40.7871116225547
21
-8.13540069894678
31
0.000000000000000
  0
LINE
  5
F105AB
330
F105AC
100
AcDbEntity
8
Geo
100
AcDbLine
10
-40.7871116225547
20
-8.13540069894678
30
0.000000000000000
11
-40.6871116225547
21
-8.19720493748855
31
0.000000000000000
  0
LINE
  5
F105AD
330
F105AE
100
AcDbEntity
8
Geo
100
AcDbLine
10
-40.6871116225547
20
-8.19720493748855
30
0.000000000000000
11
-40.5871116225547
21
-8.25820945545527
31
0.000000000000000
  0
LINE
  5
F105AF
330
F105B0
100
AcDbEntity
8
Geo
100
AcDbLine
10
-40.5871116225547
20
-8.25820945545527
30
0.000000000000000
11
-40.4871116225547
21
-8.31840232177453
31
0.000000000000000
  0
LINE
  5
F105B1
330
F105B2
100
AcDbEntity
8
Geo
100
AcDbLine
10
-40.4871116225547
20
-8.31840232177453
30
0.000000000000000
11
-40.3871116225547
21
-8.37777176411421
31
0.000000000000000
  0
LINE
  5
F105B3
330
F105B4
100
AcDbEntity
8
Geo
100
AcDbLine
10
-40.3871116225547
20
-8.37777176411421
30
0.000000000000000
11
-40.2871116225547
21
-8.43630617118487
31
0.000000000000000
  0
LINE
  5
F105B5
330
F105B6
100
AcDbEntity
8
Geo
100
AcDbLine
10
-40.2871116225547
20
-8.43630617118487
30
0.000000000000000
11
-40.1871116225547
21
-8.49399409501066
31
0.000000000000000
  0
LINE
  5
F105B7
330
F105B8
100
AcDbEntity
8
Geo
100
AcDbLine
10
-40.1871116225547
20
-8.49399409501066
30
0.000000000000000
11
-40.0871116225547
21
-8.55082425316827
31
0.000000000000000
  0
LINE
  5
F105B9
330
F105BA
100
AcDbEntity
8
Geo
100
AcDbLine
10
-40.0871116225547
20
-8.55082425316827
30
0.000000000000000
11
-39.9871116225547
21
-8.60678553099350
31
0.000000000000000
  0
LINE
  5
F105BB
330
F105BC
100
AcDbEntity
8
Geo
100
AcDbLine
10
-39.9871116225547
20
-8.60678553099350
30
0.000000000000000
11
-39.8871116225547
21
-8.66186698375503
31
0.000000000000000
  0
LINE
  5
F105BD
330
F105BE
100
AcDbEntity
8
Geo
100
AcDbLine
10
-39.8871116225547
20
-8.66186698375503
30
0.000000000000000
11
-39.7871116225547
21
-8.71605783879501
31
0.000000000000000
  0
LINE
  5
F105BF
330
F105C0
100
AcDbEntity
8
Geo
100
AcDbLine
10
-39.7871116225547
20
-8.71605783879501
30
0.000000000000000
11
-39.6871116225547
21
-8.76934749763585
31
0.000000000000000
  0
LINE
  5
F105C1
330
F105C2
100
AcDbEntity
8
Geo
100
AcDbLine
10
-39.6871116225547
20
-8.76934749763585
30
0.000000000000000
11
-39.5871116225547
21
-8.82172553805313
31
0.000000000000000
  0
LINE
  5
F105C3
330
F105C4
100
AcDbEntity
8
Geo
100
AcDbLine
10
-39.5871116225547
20
-8.82172553805313
30
0.000000000000000
11
-39.4871116225547
21
-8.87318171611388
31
0.000000000000000
  0
LINE
  5
F105C5
330
F105C6
100
AcDbEntity
8
Geo
100
AcDbLine
10
-39.4871116225547
20
-8.87318171611388
30
0.000000000000000
11
-39.3871116225547
21
-8.92370596818009
31
0.000000000000000
  0
LINE
  5
F105C7
330
F105C8
100
AcDbEntity
8
Geo
100
AcDbLine
10
-39.3871116225547
20
-8.92370596818009
30
0.000000000000000
11
-39.2871116225547
21
-8.97328841287691
31
0.000000000000000
  0
LINE
  5
F105C9
330
F105CA
100
AcDbEntity
8
Geo
100
AcDbLine
10
-39.2871116225547
20
-8.97328841287691
30
0.000000000000000
11
-39.1871116225547
21
-9.02191935302521
31
0.000000000000000
  0
LINE
  5
F105CB
330
F105CC
100
AcDbEntity
8
Geo
100
AcDbLine
10
-39.1871116225547
20
-9.02191935302521
30
0.000000000000000
11
-39.0871116225547
21
-9.06958927753818
31
0.000000000000000
  0
LINE
  5
F105CD
330
F105CE
100
AcDbEntity
8
Geo
100
AcDbLine
10
-39.0871116225547
20
-9.06958927753818
30
0.000000000000000
11
-38.9871116225547
21
-9.11628886328138
31
0.000000000000000
  0
LINE
  5
F105CF
330
F105D0
100
AcDbEntity
8
Geo
100
AcDbLine
10
-38.9871116225547
20
-9.11628886328138
30
0.000000000000000
11
-38.8871116225547
21
-9.16200897689623
31
0.000000000000000
  0
LINE
  5
F105D1
330
F105D2
100
AcDbEntity
8
Geo
100
AcDbLine
10
-38.8871116225547
20
-9.16200897689623
30
0.000000000000000
11
-38.7871116225547
21
-9.20674067658621
31
0.000000000000000
  0
LINE
  5
F105D3
330
F105D4
100
AcDbEntity
8
Geo
100
AcDbLine
10
-38.7871116225547
20
-9.20674067658621
30
0.000000000000000
11
-38.6871116225547
21
-9.25047521386572
31
0.000000000000000
  0
LINE
  5
F105D5
330
F105D6
100
AcDbEntity
8
Geo
100
AcDbLine
10
-38.6871116225547
20
-9.25047521386572
30
0.000000000000000
11
-38.5871116225547
21
-9.29320403527103
31
0.000000000000000
  0
LINE
  5
F105D7
330
F105D8
100
AcDbEntity
8
Geo
100
AcDbLine
10
-38.5871116225547
20
-9.29320403527103
30
0.000000000000000
11
-38.4871116225547
21
-9.33491878403320
31
0.000000000000000
  0
LINE
  5
F105D9
330
F105DA
100
AcDbEntity
8
Geo
100
AcDbLine
10
-38.4871116225547
20
-9.33491878403320
30
0.000000000000000
11
-38.3871116225547
21
-9.37561130171241
31
0.000000000000000
  0
LINE
  5
F105DB
330
F105DC
100
AcDbEntity
8
Geo
100
AcDbLine
10
-38.3871116225547
20
-9.37561130171241
30
0.000000000000000
11
-38.2871116225547
21
-9.41527362979362
31
0.000000000000000
  0
LINE
  5
F105DD
330
F105DE
100
AcDbEntity
8
Geo
100
AcDbLine
10
-38.2871116225547
20
-9.41527362979362
30
0.000000000000000
11
-38.1871116225547
21
-9.45389801124302
31
0.000000000000000
  0
LINE
  5
F105DF
330
F105E0
100
AcDbEntity
8
Geo
100
AcDbLine
10
-38.1871116225547
20
-9.45389801124302
30
0.000000000000000
11
-38.0871116225547
21
-9.49147689202515
31
0.000000000000000
  0
LINE
  5
F105E1
330
F105E2
100
AcDbEntity
8
Geo
100
AcDbLine
10
-38.0871116225547
20
-9.49147689202515
30
0.000000000000000
11
-37.9871116225547
21
-9.52800292258030
31
0.000000000000000
  0
LINE
  5
F105E3
330
F105E4
100
AcDbEntity
8
Geo
100
AcDbLine
10
-37.9871116225547
20
-9.52800292258030
30
0.000000000000000
11
-37.8871116225547
21
-9.56346895926192
31
0.000000000000000
  0
LINE
  5
F105E5
330
F105E6
100
AcDbEntity
8
Geo
100
AcDbLine
10
-37.8871116225547
20
-9.56346895926192
30
0.000000000000000
11
-37.7871116225547
21
-9.59786806573371
31
0.000000000000000
  0
LINE
  5
F105E7
330
F105E8
100
AcDbEntity
8
Geo
100
AcDbLine
10
-37.7871116225547
20
-9.59786806573371
30
0.000000000000000
11
-37.6871116225547
21
-9.63119351432626
31
0.000000000000000
  0
LINE
  5
F105E9
330
F105EA
100
AcDbEntity
8
Geo
100
AcDbLine
10
-37.6871116225547
20
-9.63119351432626
30
0.000000000000000
11
-37.5871116225547
21
-9.66343878735280
31
0.000000000000000
  0
LINE
  5
F105EB
330
F105EC
100
AcDbEntity
8
Geo
100
AcDbLine
10
-37.5871116225547
20
-9.66343878735280
30
0.000000000000000
11
-37.4871116225547
21
-9.69459757838388
31
0.000000000000000
  0
LINE
  5
F105ED
330
F105EE
100
AcDbEntity
8
Geo
100
AcDbLine
10
-37.4871116225547
20
-9.69459757838388
30
0.000000000000000
11
-37.3871116225547
21
-9.72466379348085
31
0.000000000000000
  0
LINE
  5
F105EF
330
F105F0
100
AcDbEntity
8
Geo
100
AcDbLine
10
-37.3871116225547
20
-9.72466379348085
30
0.000000000000000
11
-37.2871116225547
21
-9.75363155238759
31
0.000000000000000
  0
LINE
  5
F105F1
330
F105F2
100
AcDbEntity
8
Geo
100
AcDbLine
10
-37.2871116225547
20
-9.75363155238759
30
0.000000000000000
11
-37.1871116225547
21
-9.78149518968062
31
0.000000000000000
  0
LINE
  5
F105F3
330
F105F4
100
AcDbEntity
8
Geo
100
AcDbLine
10
-37.1871116225547
20
-9.78149518968062
30
0.000000000000000
11
-37.0871116225547
21
-9.80824925587708
31
0.000000000000000
  0
LINE
  5
F105F5
330
F105F6
100
AcDbEntity
8
Geo
100
AcDbLine
10
-37.0871116225547
20
-9.80824925587708
30
0.000000000000000
11
-36.9871116225547
21
-9.83388851850059
31
0.000000000000000
  0
LINE
  5
F105F7
330
F105F8
100
AcDbEntity
8
Geo
100
AcDbLine
10
-36.9871116225547
20
-9.83388851850059
30
0.000000000000000
11
-36.8871116225547
21
-9.85840796310451
31
0.000000000000000
  0
LINE
  5
F105F9
330
F105FA
100
AcDbEntity
8
Geo
100
AcDbLine
10
-36.8871116225547
20
-9.85840796310451
30
0.000000000000000
11
-36.7871116225547
21
-9.88180279425275
31
0.000000000000000
  0
LINE
  5
F105FB
330
F105FC
100
AcDbEntity
8
Geo
100
AcDbLine
10
-36.7871116225547
20
-9.88180279425275
30
0.000000000000000
11
-36.6871116225547
21
-9.90406843645754
31
0.000000000000000
  0
LINE
  5
F105FD
330
F105FE
100
AcDbEntity
8
Geo
100
AcDbLine
10
-36.6871116225547
20
-9.90406843645754
30
0.000000000000000
11
-36.5871116225547
21
-9.92520053507438
31
0.000000000000000
  0
LINE
  5
F105FF
330
F10600
100
AcDbEntity
8
Geo
100
AcDbLine
10
-36.5871116225547
20
-9.92520053507438
30
0.000000000000000
11
-36.4871116225547
21
-9.94519495715366
31
0.000000000000000
  0
LINE
  5
F10601
330
F10602
100
AcDbEntity
8
Geo
100
AcDbLine
10
-36.4871116225547
20
-9.94519495715366
30
0.000000000000000
11
-36.3871116225547
21
-9.96404779224899
31
0.000000000000000
  0
LINE
  5
F10603
330
F10604
100
AcDbEntity
8
Geo
100
AcDbLine
10
-36.3871116225547
20
-9.96404779224899
30
0.000000000000000
11
-36.2871116225547
21
-9.98175535318196
31
0.000000000000000
  0
LINE
  5
F10605
330
F10606
100
AcDbEntity
8
Geo
100
AcDbLine
10
-36.2871116225547
20
-9.98175535318196
30
0.000000000000000
11
-36.1871116225547
21
-9.99831417676333
31
0.000000000000000
  0
LINE
  5
F10607
330
F10608
100
AcDbEntity
8
Geo
100
AcDbLine
10
-36.1871116225547
20
-9.99831417676333
30
0.000000000000000
11
-36.0871116225547
21
-10.0137210244703
31
0.000000000000000
  0
LINE
  5
F10609
330
F1060A
100
AcDbEntity
8
Geo
100
AcDbLine
10
-36.0871116225547
20
-10.0137210244703
30
0.000000000000000
11
-35.9871116225547
21
-10.0279728830798
31
0.000000000000000
  0
LINE
  5
F1060B
330
F1060C
100
AcDbEntity
8
Geo
100
AcDbLine
10
-35.9871116225547
20
-10.0279728830798
30
0.000000000000000
11
-35.8871116225547
21
-10.0410669652581
31
0.000000000000000
  0
LINE
  5
F1060D
330
F1060E
100
AcDbEntity
8
Geo
100
AcDbLine
10
-35.8871116225547
20
-10.0410669652581
30
0.000000000000000
11
-35.7871116225547
21
-10.0530007101056
31
0.000000000000000
  0
LINE
  5
F1060F
330
F10610
100
AcDbEntity
8
Geo
100
AcDbLine
10
-35.7871116225547
20
-10.0530007101056
30
0.000000000000000
11
-35.6871116225547
21
-10.0637717836580
31
0.000000000000000
  0
LINE
  5
F10611
330
F10612
100
AcDbEntity
8
Geo
100
AcDbLine
10
-35.6871116225547
20
-10.0637717836580
30
0.000000000000000
11
-35.5871116225547
21
-10.0733780793423
31
0.000000000000000
  0
LINE
  5
F10613
330
F10614
100
AcDbEntity
8
Geo
100
AcDbLine
10
-35.5871116225547
20
-10.0733780793423
30
0.000000000000000
11
-35.4871116225547
21
-10.0818177183894
31
0.000000000000000
  0
LINE
  5
F10615
330
F10616
100
AcDbEntity
8
Geo
100
AcDbLine
10
-35.4871116225547
20
-10.0818177183894
30
0.000000000000000
11
-35.3871116225547
21
-10.0890890502012
31
0.000000000000000
  0
LINE
  5
F10617
330
F10618
100
AcDbEntity
8
Geo
100
AcDbLine
10
-35.3871116225547
20
-10.0890890502012
30
0.000000000000000
11
-35.2871116225547
21
-10.0951906526733
31
0.000000000000000
  0
LINE
  5
F10619
330
F1061A
100
AcDbEntity
8
Geo
100
AcDbLine
10
-35.2871116225547
20
-10.0951906526733
30
0.000000000000000
11
-35.1871116225547
21
-10.1001213324736
31
0.000000000000000
  0
LINE
  5
F1061B
330
F1061C
100
AcDbEntity
8
Geo
100
AcDbLine
10
-35.1871116225547
20
-10.1001213324736
30
0.000000000000000
11
-35.0871116225547
21
-10.1038801252750
31
0.000000000000000
  0
LINE
  5
F1061D
330
F1061E
100
AcDbEntity
8
Geo
100
AcDbLine
10
-35.0871116225547
20
-10.1038801252750
30
0.000000000000000
11
-34.9871116225547
21
-10.1064662959447
31
0.000000000000000
  0
LINE
  5
F1061F
330
F10620
100
AcDbEntity
8
Geo
100
AcDbLine
10
-34.9871116225547
20
-10.1064662959447
30
0.000000000000000
11
-34.8871116225547
21
-10.1078793386875
31
0.000000000000000
  0
LINE
  5
F10621
330
F10622
100
AcDbEntity
8
Geo
100
AcDbLine
10
-34.8871116225547
20
-10.1078793386875
30
0.000000000000000
11
-34.8166905317126
21
-10.1081703107020
31
0.000000000000000
  0
LINE
  5
F10623
330
F10624
100
AcDbEntity
8
Geo
100
AcDbLine
10
-53.2871116225547
20
-9.40585586785552
30
0.000000000000000
11
-53.1871116225547
21
-9.44472987292657
31
0.000000000000000
  0
LINE
  5
F10625
330
F10626
100
AcDbEntity
8
Geo
100
AcDbLine
10
-53.1871116225547
20
-9.44472987292657
30
0.000000000000000
11
-53.0871116225547
21
-9.48256017040611
31
0.000000000000000
  0
LINE
  5
F10627
330
F10628
100
AcDbEntity
8
Geo
100
AcDbLine
10
-53.0871116225547
20
-9.48256017040611
30
0.000000000000000
11
-52.9871116225547
21
-9.51933936156313
31
0.000000000000000
  0
LINE
  5
F10629
330
F1062A
100
AcDbEntity
8
Geo
100
AcDbLine
10
-52.9871116225547
20
-9.51933936156313
30
0.000000000000000
11
-52.8871116225547
21
-9.55506025323872
31
0.000000000000000
  0
LINE
  5
F1062B
330
F1062C
100
AcDbEntity
8
Geo
100
AcDbLine
10
-52.8871116225547
20
-9.55506025323872
30
0.000000000000000
11
-52.7871116225547
21
-9.58971585925286
31
0.000000000000000
  0
LINE
  5
F1062D
330
F1062E
100
AcDbEntity
8
Geo
100
AcDbLine
10
-52.7871116225547
20
-9.58971585925286
30
0.000000000000000
11
-52.6871116225547
21
-9.62329940177074
31
0.000000000000000
  0
LINE
  5
F1062F
330
F10630
100
AcDbEntity
8
Geo
100
AcDbLine
10
-52.6871116225547
20
-9.62329940177074
30
0.000000000000000
11
-52.5871116225547
21
-9.65580431262840
31
0.000000000000000
  0
LINE
  5
F10631
330
F10632
100
AcDbEntity
8
Geo
100
AcDbLine
10
-52.5871116225547
20
-9.65580431262840
30
0.000000000000000
11
-52.4871116225547
21
-9.68722423461725
31
0.000000000000000
  0
LINE
  5
F10633
330
F10634
100
AcDbEntity
8
Geo
100
AcDbLine
10
-52.4871116225547
20
-9.68722423461725
30
0.000000000000000
11
-52.3871116225547
21
-9.71755302272744
31
0.000000000000000
  0
LINE
  5
F10635
330
F10636
100
AcDbEntity
8
Geo
100
AcDbLine
10
-52.3871116225547
20
-9.71755302272744
30
0.000000000000000
11
-52.2871116225547
21
-9.74678474534965
31
0.000000000000000
  0
LINE
  5
F10637
330
F10638
100
AcDbEntity
8
Geo
100
AcDbLine
10
-52.2871116225547
20
-9.74678474534965
30
0.000000000000000
11
-52.1871116225547
21
-9.77491368543521
31
0.000000000000000
  0
LINE
  5
F10639
330
F1063A
100
AcDbEntity
8
Geo
100
AcDbLine
10
-52.1871116225547
20
-9.77491368543521
30
0.000000000000000
11
-52.0871116225547
21
-9.80193434161418
31
0.000000000000000
  0
LINE
  5
F1063B
330
F1063C
100
AcDbEntity
8
Geo
100
AcDbLine
10
-52.0871116225547
20
-9.80193434161418
30
0.000000000000000
11
-51.9871116225547
21
-9.82784142927133
31
0.000000000000000
  0
LINE
  5
F1063D
330
F1063E
100
AcDbEntity
8
Geo
100
AcDbLine
10
-51.9871116225547
20
-9.82784142927133
30
0.000000000000000
11
-51.8871116225547
21
-9.85262988157966
31
0.000000000000000
  0
LINE
  5
F1063F
330
F10640
100
AcDbEntity
8
Geo
100
AcDbLine
10
-51.8871116225547
20
-9.85262988157966
30
0.000000000000000
11
-51.7871116225547
21
-9.87629485049136
31
0.000000000000000
  0
LINE
  5
F10641
330
F10642
100
AcDbEntity
8
Geo
100
AcDbLine
10
-51.7871116225547
20
-9.87629485049136
30
0.000000000000000
11
-51.6871116225547
21
-9.89883170768600
31
0.000000000000000
  0
LINE
  5
F10643
330
F10644
100
AcDbEntity
8
Geo
100
AcDbLine
10
-51.6871116225547
20
-9.89883170768600
30
0.000000000000000
11
-51.5871116225547
21
-9.92023604547568
31
0.000000000000000
  0
LINE
  5
F10645
330
F10646
100
AcDbEntity
8
Geo
100
AcDbLine
10
-51.5871116225547
20
-9.92023604547568
30
0.000000000000000
11
-51.4871116225547
21
-9.94050367766712
31
0.000000000000000
  0
LINE
  5
F10647
330
F10648
100
AcDbEntity
8
Geo
100
AcDbLine
10
-51.4871116225547
20
-9.94050367766712
30
0.000000000000000
11
-51.3871116225547
21
-9.95963064038035
31
0.000000000000000
  0
LINE
  5
F10649
330
F1064A
100
AcDbEntity
8
Geo
100
AcDbLine
10
-51.3871116225547
20
-9.95963064038035
30
0.000000000000000
11
-51.2871116225547
21
-9.97761319282394
31
0.000000000000000
  0
LINE
  5
F1064B
330
F1064C
100
AcDbEntity
8
Geo
100
AcDbLine
10
-51.2871116225547
20
-9.97761319282394
30
0.000000000000000
11
-51.1871116225547
21
-9.99444781802666
31
0.000000000000000
  0
LINE
  5
F1064D
330
F1064E
100
AcDbEntity
8
Geo
100
AcDbLine
10
-51.1871116225547
20
-9.99444781802666
30
0.000000000000000
11
-51.0871116225547
21
-10.0101312235253
31
0.000000000000000
  0
LINE
  5
F1064F
330
F10650
100
AcDbEntity
8
Geo
100
AcDbLine
10
-51.0871116225547
20
-10.0101312235253
30
0.000000000000000
11
-50.9871116225547
21
-10.0246603420085
31
0.000000000000000
  0
LINE
  5
F10651
330
F10652
100
AcDbEntity
8
Geo
100
AcDbLine
10
-50.9871116225547
20
-10.0246603420085
30
0.000000000000000
11
-50.8871116225547
21
-10.0380323319169
31
0.000000000000000
  0
LINE
  5
F10653
330
F10654
100
AcDbEntity
8
Geo
100
AcDbLine
10
-50.8871116225547
20
-10.0380323319169
30
0.000000000000000
11
-50.7871116225547
21
-10.0502445779986
31
0.000000000000000
  0
LINE
  5
F10655
330
F10656
100
AcDbEntity
8
Geo
100
AcDbLine
10
-50.7871116225547
20
-10.0502445779986
30
0.000000000000000
11
-50.6871116225547
21
-10.0612946918208
31
0.000000000000000
  0
LINE
  5
F10657
330
F10658
100
AcDbEntity
8
Geo
100
AcDbLine
10
-50.6871116225547
20
-10.0612946918208
30
0.000000000000000
11
-50.5871116225547
21
-10.0711805122368
31
0.000000000000000
  0
LINE
  5
F10659
330
F1065A
100
AcDbEntity
8
Geo
100
AcDbLine
10
-50.5871116225547
20
-10.0711805122368
30
0.000000000000000
11
-50.4871116225547
21
-10.0799001058089
31
0.000000000000000
  0
LINE
  5
F1065B
330
F1065C
100
AcDbEntity
8
Geo
100
AcDbLine
10
-50.4871116225547
20
-10.0799001058089
30
0.000000000000000
11
-50.3871116225547
21
-10.0874517671863
31
0.000000000000000
  0
LINE
  5
F1065D
330
F1065E
100
AcDbEntity
8
Geo
100
AcDbLine
10
-50.3871116225547
20
-10.0874517671863
30
0.000000000000000
11
-50.2871116225547
21
-10.0938340194388
31
0.000000000000000
  0
LINE
  5
F1065F
330
F10660
100
AcDbEntity
8
Geo
100
AcDbLine
10
-50.2871116225547
20
-10.0938340194388
30
0.000000000000000
11
-50.1871116225547
21
-10.0990456143455
31
0.000000000000000
  0
LINE
  5
F10661
330
F10662
100
AcDbEntity
8
Geo
100
AcDbLine
10
-50.1871116225547
20
-10.0990456143455
30
0.000000000000000
11
-50.0871116225547
21
-10.1030855326389
31
0.000000000000000
  0
LINE
  5
F10663
330
F10664
100
AcDbEntity
8
Geo
100
AcDbLine
10
-50.0871116225547
20
-10.1030855326389
30
0.000000000000000
11
-49.9871116225547
21
-10.1059529842045
31
0.000000000000000
  0
LINE
  5
F10665
330
F10666
100
AcDbEntity
8
Geo
100
AcDbLine
10
-49.9871116225547
20
-10.1059529842045
30
0.000000000000000
11
-49.8871116225547
21
-10.1076474082351
31
0.000000000000000
  0
LINE
  5
F10667
330
F10668
100
AcDbEntity
8
Geo
100
AcDbLine
10
-49.8871116225547
20
-10.1076474082351
30
0.000000000000000
11
-49.7927077328625
21
-10.1081703107020
31
0.000000000000000
  0
LINE
  5
F10669
330
F1066A
100
AcDbEntity
8
Geo
100
AcDbLine
10
-23.7012162109902
20
-10.1081703107020
30
0.000000000000000
11
-23.7871116225545
21
-10.0933372092433
31
0.000000000000000
  0
LINE
  5
F1066B
330
F1066C
100
AcDbEntity
8
Geo
100
AcDbLine
10
-23.7871116225545
20
-10.0933372092433
30
0.000000000000000
11
-23.8871116225545
21
-10.0451512430336
31
0.000000000000000
  0
LINE
  5
F1066D
330
F1066E
100
AcDbEntity
8
Geo
100
AcDbLine
10
-23.8871116225545
20
-10.0451512430336
30
0.000000000000000
11
-23.9871116225545
21
-9.97223380998756
31
0.000000000000000
  0
LINE
  5
F1066F
330
F10670
100
AcDbEntity
8
Geo
100
AcDbLine
10
-23.9871116225545
20
-9.97223380998756
30
0.000000000000000
11
-24.0871116225545
21
-9.88186252862793
31
0.000000000000000
  0
LINE
  5
F10671
330
F10672
100
AcDbEntity
8
Geo
100
AcDbLine
10
-24.0871116225545
20
-9.88186252862793
30
0.000000000000000
11
-24.1871116225545
21
-9.77980846255514
31
0.000000000000000
  0
LINE
  5
F10673
330
F10674
100
AcDbEntity
8
Geo
100
AcDbLine
10
-24.1871116225545
20
-9.77980846255514
30
0.000000000000000
11
-24.2871116225545
21
-9.67056871626233
31
0.000000000000000
  0
LINE
  5
F10675
330
F10676
100
AcDbEntity
8
Geo
100
AcDbLine
10
-24.2871116225545
20
-9.67056871626233
30
0.000000000000000
11
-24.3871116225545
21
-9.55758198923257
31
0.000000000000000
  0
LINE
  5
F10677
330
F10678
100
AcDbEntity
8
Geo
100
AcDbLine
10
-24.3871116225545
20
-9.55758198923257
30
0.000000000000000
11
-24.4871116225546
21
-9.44342077554077
31
0.000000000000000
  0
LINE
  5
F10679
330
F1067A
100
AcDbEntity
8
Geo
100
AcDbLine
10
-24.4871116225546
20
-9.44342077554077
30
0.000000000000000
11
-24.5871116225546
21
-9.32995811152636
31
0.000000000000000
  0
LINE
  5
F1067B
330
F1067C
100
AcDbEntity
8
Geo
100
AcDbLine
10
-24.5871116225546
20
-9.32995811152636
30
0.000000000000000
11
-24.6871116225546
21
-9.21850931026166
31
0.000000000000000
  0
LINE
  5
F1067D
330
F1067E
100
AcDbEntity
8
Geo
100
AcDbLine
10
-24.6871116225546
20
-9.21850931026166
30
0.000000000000000
11
-24.7871116225546
21
-9.10995052646677
31
0.000000000000000
  0
LINE
  5
F1067F
330
F10680
100
AcDbEntity
8
Geo
100
AcDbLine
10
-24.7871116225546
20
-9.10995052646677
30
0.000000000000000
11
-24.8871116225546
21
-9.00481666511054
31
0.000000000000000
  0
LINE
  5
F10681
330
F10682
100
AcDbEntity
8
Geo
100
AcDbLine
10
-24.8871116225546
20
-9.00481666511054
30
0.000000000000000
11
-24.9871116225546
21
-8.90338135815997
31
0.000000000000000
  0
LINE
  5
F10683
330
F10684
100
AcDbEntity
8
Geo
100
AcDbLine
10
-24.9871116225546
20
-8.90338135815997
30
0.000000000000000
11
-25.0871116225546
21
-8.80572167487749
31
0.000000000000000
  0
LINE
  5
F10685
330
F10686
100
AcDbEntity
8
Geo
100
AcDbLine
10
-25.0871116225546
20
-8.80572167487749
30
0.000000000000000
11
-25.1871116225546
21
-8.71177002562353
31
0.000000000000000
  0
LINE
  5
F10687
330
F10688
100
AcDbEntity
8
Geo
100
AcDbLine
10
-25.1871116225546
20
-8.71177002562353
30
0.000000000000000
11
-25.2871116225546
21
-8.62135544623830
31
0.000000000000000
  0
LINE
  5
F10689
330
F1068A
100
AcDbEntity
8
Geo
100
AcDbLine
10
-25.2871116225546
20
-8.62135544623830
30
0.000000000000000
11
-25.3871116225546
21
-8.53423615799152
31
0.000000000000000
  0
LINE
  5
F1068B
330
F1068C
100
AcDbEntity
8
Geo
100
AcDbLine
10
-25.3871116225546
20
-8.53423615799152
30
0.000000000000000
11
-25.4871116225546
21
-8.45012501465516
31
0.000000000000000
  0
LINE
  5
F1068D
330
F1068E
100
AcDbEntity
8
Geo
100
AcDbLine
10
-25.4871116225546
20
-8.45012501465516
30
0.000000000000000
11
-25.5871116225546
21
-8.36870918814560
31
0.000000000000000
  0
LINE
  5
F1068F
330
F10690
100
AcDbEntity
8
Geo
100
AcDbLine
10
-25.5871116225546
20
-8.36870918814560
30
0.000000000000000
11
-25.6871116225546
21
-8.28966521384759
31
0.000000000000000
  0
LINE
  5
F10691
330
F10692
100
AcDbEntity
8
Geo
100
AcDbLine
10
-25.6871116225546
20
-8.28966521384759
30
0.000000000000000
11
-25.7871116225546
21
-8.21267031769428
31
0.000000000000000
  0
LINE
  5
F10693
330
F10694
100
AcDbEntity
8
Geo
100
AcDbLine
10
-25.7871116225546
20
-8.21267031769428
30
0.000000000000000
11
-25.8871116225546
21
-8.13741077808569
31
0.000000000000000
  0
LINE
  5
F10695
330
F10696
100
AcDbEntity
8
Geo
100
AcDbLine
10
-25.8871116225546
20
-8.13741077808569
30
0.000000000000000
11
-25.9871116225546
21
-8.06358793412676
31
0.000000000000000
  0
LINE
  5
F10697
330
F10698
100
AcDbEntity
8
Geo
100
AcDbLine
10
-25.9871116225546
20
-8.06358793412676
30
0.000000000000000
11
-26.0871116225546
21
-7.99092233422538
31
0.000000000000000
  0
LINE
  5
F10699
330
F1069A
100
AcDbEntity
8
Geo
100
AcDbLine
10
-26.0871116225546
20
-7.99092233422538
30
0.000000000000000
11
-26.1871116225546
21
-7.91915642249517
31
0.000000000000000
  0
LINE
  5
F1069B
330
F1069C
100
AcDbEntity
8
Geo
100
AcDbLine
10
-26.1871116225546
20
-7.91915642249517
30
0.000000000000000
11
-26.2871116225546
21
-7.84805608152054
31
0.000000000000000
  0
LINE
  5
F1069D
330
F1069E
100
AcDbEntity
8
Geo
100
AcDbLine
10
-26.2871116225546
20
-7.84805608152054
30
0.000000000000000
11
-26.3871116225546
21
-7.77741128602854
31
0.000000000000000
  0
LINE
  5
F1069F
330
F106A0
100
AcDbEntity
8
Geo
100
AcDbLine
10
-26.3871116225546
20
-7.77741128602854
30
0.000000000000000
11
-26.4871116225546
21
-7.70703607038888
31
0.000000000000000
  0
LINE
  5
F106A1
330
F106A2
100
AcDbEntity
8
Geo
100
AcDbLine
10
-26.4871116225546
20
-7.70703607038888
30
0.000000000000000
11
-26.5871116225546
21
-7.63676797149000
31
0.000000000000000
  0
LINE
  5
F106A3
330
F106A4
100
AcDbEntity
8
Geo
100
AcDbLine
10
-26.5871116225546
20
-7.63676797149000
30
0.000000000000000
11
-26.6871116225546
21
-7.56646707559619
31
0.000000000000000
  0
LINE
  5
F106A5
330
F106A6
100
AcDbEntity
8
Geo
100
AcDbLine
10
-26.6871116225546
20
-7.56646707559619
30
0.000000000000000
11
-26.7871116225546
21
-7.49601477174268
31
0.000000000000000
  0
LINE
  5
F106A7
330
F106A8
100
AcDbEntity
8
Geo
100
AcDbLine
10
-26.7871116225546
20
-7.49601477174268
30
0.000000000000000
11
-26.8871116225546
21
-7.42531229378196
31
0.000000000000000
  0
LINE
  5
F106A9
330
F106AA
100
AcDbEntity
8
Geo
100
AcDbLine
10
-26.8871116225546
20
-7.42531229378196
30
0.000000000000000
11
-26.9871116225546
21
-7.35427911727727
31
0.000000000000000
  0
LINE
  5
F106AB
330
F106AC
100
AcDbEntity
8
Geo
100
AcDbLine
10
-26.9871116225546
20
-7.35427911727727
30
0.000000000000000
11
-27.0871116225546
21
-7.28285126514564
31
0.000000000000000
  0
LINE
  5
F106AD
330
F106AE
100
AcDbEntity
8
Geo
100
AcDbLine
10
-27.0871116225546
20
-7.28285126514564
30
0.000000000000000
11
-27.1871116225546
21
-7.21097956653361
31
0.000000000000000
  0
LINE
  5
F106AF
330
F106B0
100
AcDbEntity
8
Geo
100
AcDbLine
10
-27.1871116225546
20
-7.21097956653361
30
0.000000000000000
11
-27.2871116225546
21
-7.13862790624241
31
0.000000000000000
  0
LINE
  5
F106B1
330
F106B2
100
AcDbEntity
8
Geo
100
AcDbLine
10
-27.2871116225546
20
-7.13862790624241
30
0.000000000000000
11
-27.3871116225546
21
-7.06577149659141
31
0.000000000000000
  0
LINE
  5
F106B3
330
F106B4
100
AcDbEntity
8
Geo
100
AcDbLine
10
-27.3871116225546
20
-7.06577149659141
30
0.000000000000000
11
-27.4871116225546
21
-6.99239519950091
31
0.000000000000000
  0
LINE
  5
F106B5
330
F106B6
100
AcDbEntity
8
Geo
100
AcDbLine
10
-27.4871116225546
20
-6.99239519950091
30
0.000000000000000
11
-27.5871116225546
21
-6.91849192344662
31
0.000000000000000
  0
LINE
  5
F106B7
330
F106B8
100
AcDbEntity
8
Geo
100
AcDbLine
10
-27.5871116225546
20
-6.91849192344662
30
0.000000000000000
11
-27.6871116225546
21
-6.84406111751638
31
0.000000000000000
  0
LINE
  5
F106B9
330
F106BA
100
AcDbEntity
8
Geo
100
AcDbLine
10
-27.6871116225546
20
-6.84406111751638
30
0.000000000000000
11
-27.7871116225546
21
-6.76910738287194
31
0.000000000000000
  0
LINE
  5
F106BB
330
F106BC
100
AcDbEntity
8
Geo
100
AcDbLine
10
-27.7871116225546
20
-6.76910738287194
30
0.000000000000000
11
-27.8871116225546
21
-6.69363922031970
31
0.000000000000000
  0
LINE
  5
F106BD
330
F106BE
100
AcDbEntity
8
Geo
100
AcDbLine
10
-27.8871116225546
20
-6.69363922031970
30
0.000000000000000
11
-27.9871116225546
21
-6.61766793130213
31
0.000000000000000
  0
LINE
  5
F106BF
330
F106C0
100
AcDbEntity
8
Geo
100
AcDbLine
10
-27.9871116225546
20
-6.61766793130213
30
0.000000000000000
11
-28.0871116225546
21
-6.54120668834653
31
0.000000000000000
  0
LINE
  5
F106C1
330
F106C2
100
AcDbEntity
8
Geo
100
AcDbLine
10
-28.0871116225546
20
-6.54120668834653
30
0.000000000000000
11
-28.1871116225546
21
-6.46426978979019
31
0.000000000000000
  0
LINE
  5
F106C3
330
F106C4
100
AcDbEntity
8
Geo
100
AcDbLine
10
-28.1871116225546
20
-6.46426978979019
30
0.000000000000000
11
-28.3871116225546
21
-6.30902877397419
31
0.000000000000000
  0
LINE
  5
F106C5
330
F106C6
100
AcDbEntity
8
Geo
100
AcDbLine
10
-28.3871116225546
20
-3.01671357056762
30
0.000000000000000
11
-28.1871116225546
21
-3.18213886009296
31
0.000000000000000
  0
LINE
  5
F106C7
330
F106C8
100
AcDbEntity
8
Geo
100
AcDbLine
10
-28.1871116225546
20
-3.18213886009296
30
0.000000000000000
11
-28.0871116225546
21
-3.26513126833530
31
0.000000000000000
  0
LINE
  5
F106C9
330
F106CA
100
AcDbEntity
8
Geo
100
AcDbLine
10
-28.0871116225546
20
-3.26513126833530
30
0.000000000000000
11
-27.9871116225546
21
-3.34828855551100
31
0.000000000000000
  0
LINE
  5
F106CB
330
F106CC
100
AcDbEntity
8
Geo
100
AcDbLine
10
-27.9871116225546
20
-3.34828855551100
30
0.000000000000000
11
-27.8871116225546
21
-3.43159445797827
31
0.000000000000000
  0
LINE
  5
F106CD
330
F106CE
100
AcDbEntity
8
Geo
100
AcDbLine
10
-27.8871116225546
20
-3.43159445797827
30
0.000000000000000
11
-27.7871116225546
21
-3.51503268302696
31
0.000000000000000
  0
LINE
  5
F106CF
330
F106D0
100
AcDbEntity
8
Geo
100
AcDbLine
10
-27.7871116225546
20
-3.51503268302696
30
0.000000000000000
11
-27.6871116225546
21
-3.59858691204865
31
0.000000000000000
  0
LINE
  5
F106D1
330
F106D2
100
AcDbEntity
8
Geo
100
AcDbLine
10
-27.6871116225546
20
-3.59858691204865
30
0.000000000000000
11
-27.5871116225546
21
-3.68224080365116
31
0.000000000000000
  0
LINE
  5
F106D3
330
F106D4
100
AcDbEntity
8
Geo
100
AcDbLine
10
-27.5871116225546
20
-3.68224080365116
30
0.000000000000000
11
-27.4871116225546
21
-3.76597799657611
31
0.000000000000000
  0
LINE
  5
F106D5
330
F106D6
100
AcDbEntity
8
Geo
100
AcDbLine
10
-27.4871116225546
20
-3.76597799657611
30
0.000000000000000
11
-27.3871116225546
21
-3.84978211206397
31
0.000000000000000
  0
LINE
  5
F106D7
330
F106D8
100
AcDbEntity
8
Geo
100
AcDbLine
10
-27.3871116225546
20
-3.84978211206397
30
0.000000000000000
11
-27.2871116225546
21
-3.93363675488783
31
0.000000000000000
  0
LINE
  5
F106D9
330
F106DA
100
AcDbEntity
8
Geo
100
AcDbLine
10
-27.2871116225546
20
-3.93363675488783
30
0.000000000000000
11
-27.1871116225546
21
-4.01752551151488
31
0.000000000000000
  0
LINE
  5
F106DB
330
F106DC
100
AcDbEntity
8
Geo
100
AcDbLine
10
-27.1871116225546
20
-4.01752551151488
30
0.000000000000000
11
-27.0871116225546
21
-4.10143194258122
31
0.000000000000000
  0
LINE
  5
F106DD
330
F106DE
100
AcDbEntity
8
Geo
100
AcDbLine
10
-27.0871116225546
20
-4.10143194258122
30
0.000000000000000
11
-26.9871116225546
21
-4.18533956486063
31
0.000000000000000
  0
LINE
  5
F106DF
330
F106E0
100
AcDbEntity
8
Geo
100
AcDbLine
10
-26.9871116225546
20
-4.18533956486063
30
0.000000000000000
11
-26.8871116225546
21
-4.26923181489439
31
0.000000000000000
  0
LINE
  5
F106E1
330
F106E2
100
AcDbEntity
8
Geo
100
AcDbLine
10
-26.8871116225546
20
-4.26923181489439
30
0.000000000000000
11
-26.7871116225546
21
-4.35309198209689
31
0.000000000000000
  0
LINE
  5
F106E3
330
F106E4
100
AcDbEntity
8
Geo
100
AcDbLine
10
-26.7871116225546
20
-4.35309198209689
30
0.000000000000000
11
-26.6871116225546
21
-4.43690309306542
31
0.000000000000000
  0
LINE
  5
F106E5
330
F106E6
100
AcDbEntity
8
Geo
100
AcDbLine
10
-26.6871116225546
20
-4.43690309306542
30
0.000000000000000
11
-26.5871116225546
21
-4.52064772054924
31
0.000000000000000
  0
LINE
  5
F106E7
330
F106E8
100
AcDbEntity
8
Geo
100
AcDbLine
10
-26.5871116225546
20
-4.52064772054924
30
0.000000000000000
11
-26.4871116225546
21
-4.60430767955378
31
0.000000000000000
  0
LINE
  5
F106E9
330
F106EA
100
AcDbEntity
8
Geo
100
AcDbLine
10
-26.4871116225546
20
-4.60430767955378
30
0.000000000000000
11
-26.3871116225546
21
-4.68786355879163
31
0.000000000000000
  0
LINE
  5
F106EB
330
F106EC
100
AcDbEntity
8
Geo
100
AcDbLine
10
-26.3871116225546
20
-4.68786355879163
30
0.000000000000000
11
-26.2871116225546
21
-4.77129401750264
31
0.000000000000000
  0
LINE
  5
F106ED
330
F106EE
100
AcDbEntity
8
Geo
100
AcDbLine
10
-26.2871116225546
20
-4.77129401750264
30
0.000000000000000
11
-26.1871116225546
21
-4.85457475485208
31
0.000000000000000
  0
LINE
  5
F106EF
330
F106F0
100
AcDbEntity
8
Geo
100
AcDbLine
10
-26.1871116225546
20
-4.85457475485208
30
0.000000000000000
11
-26.0871116225546
21
-4.93767703092654
31
0.000000000000000
  0
LINE
  5
F106F1
330
F106F2
100
AcDbEntity
8
Geo
100
AcDbLine
10
-26.0871116225546
20
-4.93767703092654
30
0.000000000000000
11
-25.9871116225546
21
-5.02056558397413
31
0.000000000000000
  0
LINE
  5
F106F3
330
F106F4
100
AcDbEntity
8
Geo
100
AcDbLine
10
-25.9871116225546
20
-5.02056558397413
30
0.000000000000000
11
-25.8871116225546
21
-5.10319574711733
31
0.000000000000000
  0
LINE
  5
F106F5
330
F106F6
100
AcDbEntity
8
Geo
100
AcDbLine
10
-25.8871116225546
20
-5.10319574711733
30
0.000000000000000
11
-25.7871116225546
21
-5.18550951837406
31
0.000000000000000
  0
LINE
  5
F106F7
330
F106F8
100
AcDbEntity
8
Geo
100
AcDbLine
10
-25.7871116225546
20
-5.18550951837406
30
0.000000000000000
11
-25.6871116225546
21
-5.26743027942885
31
0.000000000000000
  0
LINE
  5
F106F9
330
F106FA
100
AcDbEntity
8
Geo
100
AcDbLine
10
-25.6871116225546
20
-5.26743027942885
30
0.000000000000000
11
-25.5871116225546
21
-5.34885579001421
31
0.000000000000000
  0
LINE
  5
F106FB
330
F106FC
100
AcDbEntity
8
Geo
100
AcDbLine
10
-25.5871116225546
20
-5.34885579001421
30
0.000000000000000
11
-25.4871116225546
21
-5.42964900451512
31
0.000000000000000
  0
LINE
  5
F106FD
330
F106FE
100
AcDbEntity
8
Geo
100
AcDbLine
10
-25.4871116225546
20
-5.42964900451512
30
0.000000000000000
11
-25.3871116225546
21
-5.50962616349390
31
0.000000000000000
  0
LINE
  5
F106FF
330
F10700
100
AcDbEntity
8
Geo
100
AcDbLine
10
-25.3871116225546
20
-5.50962616349390
30
0.000000000000000
11
-25.2871116225546
21
-5.58854150230845
31
0.000000000000000
  0
LINE
  5
F10701
330
F10702
100
AcDbEntity
8
Geo
100
AcDbLine
10
-25.2871116225546
20
-5.58854150230845
30
0.000000000000000
11
-25.1871116225546
21
-5.66606778727842
31
0.000000000000000
  0
LINE
  5
F10703
330
F10704
100
AcDbEntity
8
Geo
100
AcDbLine
10
-25.1871116225546
20
-5.66606778727842
30
0.000000000000000
11
-25.0871116225546
21
-5.74177172957696
31
0.000000000000000
  0
LINE
  5
F10705
330
F10706
100
AcDbEntity
8
Geo
100
AcDbLine
10
-25.0871116225546
20
-5.74177172957696
30
0.000000000000000
11
-24.9871116225546
21
-5.81508312624304
31
0.000000000000000
  0
LINE
  5
F10707
330
F10708
100
AcDbEntity
8
Geo
100
AcDbLine
10
-24.9871116225546
20
-5.81508312624304
30
0.000000000000000
11
-24.8871116225546
21
-5.88525631720530
31
0.000000000000000
  0
LINE
  5
F10709
330
F1070A
100
AcDbEntity
8
Geo
100
AcDbLine
10
-24.8871116225546
20
-5.88525631720530
30
0.000000000000000
11
-24.7871116225546
21
-5.95132219664669
31
0.000000000000000
  0
LINE
  5
F1070B
330
F1070C
100
AcDbEntity
8
Geo
100
AcDbLine
10
-24.7871116225546
20
-5.95132219664669
30
0.000000000000000
11
-24.6871116225546
21
-6.01202852989555
31
0.000000000000000
  0
LINE
  5
F1070D
330
F1070E
100
AcDbEntity
8
Geo
100
AcDbLine
10
-24.6871116225546
20
-6.01202852989555
30
0.000000000000000
11
-24.5871116225546
21
-6.06576563470718
31
0.000000000000000
  0
LINE
  5
F1070F
330
F10710
100
AcDbEntity
8
Geo
100
AcDbLine
10
-24.5871116225546
20
-6.06576563470718
30
0.000000000000000
11
-24.4871116225546
21
-6.11047349265240
31
0.000000000000000
  0
LINE
  5
F10711
330
F10712
100
AcDbEntity
8
Geo
100
AcDbLine
10
-24.4871116225546
20
-6.11047349265240
30
0.000000000000000
11
-24.3871116225545
21
-6.14352494013268
31
0.000000000000000
  0
LINE
  5
F10713
330
F10714
100
AcDbEntity
8
Geo
100
AcDbLine
10
-24.3871116225545
20
-6.14352494013268
30
0.000000000000000
11
-24.2871116225545
21
-6.16157761700833
31
0.000000000000000
  0
LINE
  5
F10715
330
F10716
100
AcDbEntity
8
Geo
100
AcDbLine
10
-24.2871116225545
20
-6.16157761700833
30
0.000000000000000
11
-24.1871116225545
21
-6.16038473693903
31
0.000000000000000
  0
LINE
  5
F10717
330
F10718
100
AcDbEntity
8
Geo
100
AcDbLine
10
-24.1871116225545
20
-6.16038473693903
30
0.000000000000000
11
-24.0871116225545
21
-6.13455158664642
31
0.000000000000000
  0
LINE
  5
F10719
330
F1071A
100
AcDbEntity
8
Geo
100
AcDbLine
10
-24.0871116225545
20
-6.13455158664642
30
0.000000000000000
11
-23.9871116225545
21
-6.07722156785813
31
0.000000000000000
  0
LINE
  5
F1071B
330
F1071C
100
AcDbEntity
8
Geo
100
AcDbLine
10
-23.9871116225545
20
-6.07722156785813
30
0.000000000000000
11
-23.8871116225545
21
-5.97967436246547
31
0.000000000000000
  0
LINE
  5
F1071D
330
F1071E
100
AcDbEntity
8
Geo
100
AcDbLine
10
-23.8871116225545
20
-5.97967436246547
30
0.000000000000000
11
-23.7871116225545
21
-5.83082380849789
31
0.000000000000000
  0
LINE
  5
F1071F
330
F10720
100
AcDbEntity
8
Geo
100
AcDbLine
10
-23.7871116225545
20
-5.83082380849789
30
0.000000000000000
11
-23.6871116225545
21
-5.61662402182808
31
0.000000000000000
  0
LINE
  5
F10721
330
F10722
100
AcDbEntity
8
Geo
100
AcDbLine
10
-23.6871116225545
20
-5.61662402182808
30
0.000000000000000
11
-23.5871116225545
21
-5.31944936945382
31
0.000000000000000
  0
LINE
  5
F10723
330
F10724
100
AcDbEntity
8
Geo
100
AcDbLine
10
-23.5871116225545
20
-5.31944936945382
30
0.000000000000000
11
-23.4871116225545
21
-4.91764696542846
31
0.000000000000000
  0
LINE
  5
F10725
330
F10726
100
AcDbEntity
8
Geo
100
AcDbLine
10
-23.4871116225545
20
-4.91764696542846
30
0.000000000000000
11
-23.3871116225545
21
-4.38574382517553
31
0.000000000000000
  0
LINE
  5
F10727
330
F10728
100
AcDbEntity
8
Geo
100
AcDbLine
10
-23.3871116225545
20
-4.38574382517553
30
0.000000000000000
11
-23.2871116225547
21
-3.69635270372295
31
0.000000000000000
  0
LINE
  5
F10729
330
F1072A
100
AcDbEntity
8
Geo
100
AcDbLine
10
-23.2871116225547
20
-3.69635270372295
30
0.000000000000000
11
-23.2871116225547
21
-3.75903900601395
31
0.000000000000000
  0
LINE
  5
F1072B
330
F1072C
100
AcDbEntity
8
Geo
100
AcDbLine
10
-23.2871116225547
20
-3.75903900601395
30
0.000000000000000
11
-23.2871116225547
21
-3.71663232532822
31
0.000000000000000
  0
LINE
  5
F1072D
330
F1072E
100
AcDbEntity
8
Geo
100
AcDbLine
10
-23.2871116225547
20
-3.71663232532822
30
0.000000000000000
11
-23.2871116225547
21
-3.51270376784331
31
0.000000000000000
  0
LINE
  5
F1072F
330
F10730
100
AcDbEntity
8
Geo
100
AcDbLine
10
-23.2871116225547
20
-3.51270376784331
30
0.000000000000000
11
-23.3871116225545
21
-2.81730305654831
31
0.000000000000000
  0
LINE
  5
F10731
330
F10732
100
AcDbEntity
8
Geo
100
AcDbLine
10
-23.3871116225545
20
-2.81730305654831
30
0.000000000000000
11
-23.4871116225545
21
-2.19665363326537
31
0.000000000000000
  0
LINE
  5
F10733
330
F10734
100
AcDbEntity
8
Geo
100
AcDbLine
10
-23.4871116225545
20
-2.19665363326537
30
0.000000000000000
11
-23.5871116225545
21
-1.64849197994286
31
0.000000000000000
  0
LINE
  5
F10735
330
F10736
100
AcDbEntity
8
Geo
100
AcDbLine
10
-23.5871116225545
20
-1.64849197994286
30
0.000000000000000
11
-23.6871116225545
21
-1.16832970158252
31
0.000000000000000
  0
LINE
  5
F10737
330
F10738
100
AcDbEntity
8
Geo
100
AcDbLine
10
-23.6871116225545
20
-1.16832970158252
30
0.000000000000000
11
-23.7871116225545
21
-0.750439086614256
31
0.000000000000000
  0
LINE
  5
F10739
330
F1073A
100
AcDbEntity
8
Geo
100
AcDbLine
10
-23.7871116225545
20
-0.750439086614256
30
0.000000000000000
11
-23.8871116225545
21
-0.388551988011276
31
0.000000000000000
  0
LINE
  5
F1073B
330
F1073C
100
AcDbEntity
8
Geo
100
AcDbLine
10
-23.8871116225545
20
-0.388551988011276
30
0.000000000000000
11
-23.9871116225545
21
-0.0763342797164572
31
0.000000000000000
  0
LINE
  5
F1073D
330
F1073E
100
AcDbEntity
8
Geo
100
AcDbLine
10
-23.9871116225545
20
-0.0763342797164572
30
0.000000000000000
11
-24.0871116225545
21
0.192308929414869
31
0.000000000000000
  0
LINE
  5
F1073F
330
F10740
100
AcDbEntity
8
Geo
100
AcDbLine
10
-24.0871116225545
20
0.192308929414869
30
0.000000000000000
11
-24.1871116225545
21
0.423051521454736
31
0.000000000000000
  0
LINE
  5
F10741
330
F10742
100
AcDbEntity
8
Geo
100
AcDbLine
10
-24.1871116225545
20
0.423051521454736
30
0.000000000000000
11
-24.2871116225545
21
0.621051731616986
31
0.000000000000000
  0
LINE
  5
F10743
330
F10744
100
AcDbEntity
8
Geo
100
AcDbLine
10
-24.2871116225545
20
0.621051731616986
30
0.000000000000000
11
-24.3871116225545
21
0.790916881597047
31
0.000000000000000
  0
LINE
  5
F10745
330
F10746
100
AcDbEntity
8
Geo
100
AcDbLine
10
-24.3871116225545
20
0.790916881597047
30
0.000000000000000
11
-24.4871116225546
21
0.936706876828215
31
0.000000000000000
  0
LINE
  5
F10747
330
F10748
100
AcDbEntity
8
Geo
100
AcDbLine
10
-24.4871116225546
20
0.936706876828215
30
0.000000000000000
11
-24.5871116225546
21
1.06196158614026
31
0.000000000000000
  0
LINE
  5
F10749
330
F1074A
100
AcDbEntity
8
Geo
100
AcDbLine
10
-24.5871116225546
20
1.06196158614026
30
0.000000000000000
11
-24.6871116225546
21
1.16974164516594
31
0.000000000000000
  0
LINE
  5
F1074B
330
F1074C
100
AcDbEntity
8
Geo
100
AcDbLine
10
-24.6871116225546
20
1.16974164516594
30
0.000000000000000
11
-24.7871116225546
21
1.26267554681977
31
0.000000000000000
  0
LINE
  5
F1074D
330
F1074E
100
AcDbEntity
8
Geo
100
AcDbLine
10
-24.7871116225546
20
1.26267554681977
30
0.000000000000000
11
-24.8871116225546
21
1.34300831755103
31
0.000000000000000
  0
LINE
  5
F1074F
330
F10750
100
AcDbEntity
8
Geo
100
AcDbLine
10
-24.8871116225546
20
1.34300831755103
30
0.000000000000000
11
-24.9871116225546
21
1.41264882367754
31
0.000000000000000
  0
LINE
  5
F10751
330
F10752
100
AcDbEntity
8
Geo
100
AcDbLine
10
-24.9871116225546
20
1.41264882367754
30
0.000000000000000
11
-25.0871116225546
21
1.47321397523804
31
0.000000000000000
  0
LINE
  5
F10753
330
F10754
100
AcDbEntity
8
Geo
100
AcDbLine
10
-25.0871116225546
20
1.47321397523804
30
0.000000000000000
11
-25.1871116225546
21
1.52606893084078
31
0.000000000000000
  0
LINE
  5
F10755
330
F10756
100
AcDbEntity
8
Geo
100
AcDbLine
10
-25.1871116225546
20
1.52606893084078
30
0.000000000000000
11
-25.2871116225546
21
1.57236296176312
31
0.000000000000000
  0
LINE
  5
F10757
330
F10758
100
AcDbEntity
8
Geo
100
AcDbLine
10
-25.2871116225546
20
1.57236296176312
30
0.000000000000000
11
-25.3871116225546
21
1.61306098769199
31
0.000000000000000
  0
LINE
  5
F10759
330
F1075A
100
AcDbEntity
8
Geo
100
AcDbLine
10
-25.3871116225546
20
1.61306098769199
30
0.000000000000000
11
-25.4871116225546
21
1.64897101014360
31
0.000000000000000
  0
LINE
  5
F1075B
330
F1075C
100
AcDbEntity
8
Geo
100
AcDbLine
10
-25.4871116225546
20
1.64897101014360
30
0.000000000000000
11
-25.5871116225546
21
1.68076778688246
31
0.000000000000000
  0
LINE
  5
F1075D
330
F1075E
100
AcDbEntity
8
Geo
100
AcDbLine
10
-25.5871116225546
20
1.68076778688246
30
0.000000000000000
11
-25.6871116225546
21
1.70901314343756
31
0.000000000000000
  0
LINE
  5
F1075F
330
F10760
100
AcDbEntity
8
Geo
100
AcDbLine
10
-25.6871116225546
20
1.70901314343756
30
0.000000000000000
11
-25.7871116225546
21
1.73417332876812
31
0.000000000000000
  0
LINE
  5
F10761
330
F10762
100
AcDbEntity
8
Geo
100
AcDbLine
10
-25.7871116225546
20
1.73417332876812
30
0.000000000000000
11
-25.8871116225546
21
1.75663380716972
31
0.000000000000000
  0
LINE
  5
F10763
330
F10764
100
AcDbEntity
8
Geo
100
AcDbLine
10
-25.8871116225546
20
1.75663380716972
30
0.000000000000000
11
-25.9871116225546
21
1.77671184861422
31
0.000000000000000
  0
LINE
  5
F10765
330
F10766
100
AcDbEntity
8
Geo
100
AcDbLine
10
-25.9871116225546
20
1.77671184861422
30
0.000000000000000
11
-26.0871116225546
21
1.79466724231805
31
0.000000000000000
  0
LINE
  5
F10767
330
F10768
100
AcDbEntity
8
Geo
100
AcDbLine
10
-26.0871116225546
20
1.79466724231805
30
0.000000000000000
11
-26.1871116225546
21
1.81071141834722
31
0.000000000000000
  0
LINE
  5
F10769
330
F1076A
100
AcDbEntity
8
Geo
100
AcDbLine
10
-26.1871116225546
20
1.81071141834722
30
0.000000000000000
11
-26.2871116225546
21
1.82501522263294
31
0.000000000000000
  0
LINE
  5
F1076B
330
F1076C
100
AcDbEntity
8
Geo
100
AcDbLine
10
-26.2871116225546
20
1.82501522263294
30
0.000000000000000
11
-26.3871116225546
21
1.83771555379342
31
0.000000000000000
  0
LINE
  5
F1076D
330
F1076E
100
AcDbEntity
8
Geo
100
AcDbLine
10
-26.3871116225546
20
1.83771555379342
30
0.000000000000000
11
-26.4871116225546
21
1.84892103669445
31
0.000000000000000
  0
LINE
  5
F1076F
330
F10770
100
AcDbEntity
8
Geo
100
AcDbLine
10
-26.4871116225546
20
1.84892103669445
30
0.000000000000000
11
-26.5871116225546
21
1.85871687821718
31
0.000000000000000
  0
LINE
  5
F10771
330
F10772
100
AcDbEntity
8
Geo
100
AcDbLine
10
-26.5871116225546
20
1.85871687821718
30
0.000000000000000
11
-26.6871116225546
21
1.86716902534599
31
0.000000000000000
  0
LINE
  5
F10773
330
F10774
100
AcDbEntity
8
Geo
100
AcDbLine
10
-26.6871116225546
20
1.86716902534599
30
0.000000000000000
11
-26.7871116225546
21
1.87432772430720
31
0.000000000000000
  0
LINE
  5
F10775
330
F10776
100
AcDbEntity
8
Geo
100
AcDbLine
10
-26.7871116225546
20
1.87432772430720
30
0.000000000000000
11
-26.8871116225546
21
1.88023056179942
31
0.000000000000000
  0
LINE
  5
F10777
330
F10778
100
AcDbEntity
8
Geo
100
AcDbLine
10
-26.8871116225546
20
1.88023056179942
30
0.000000000000000
11
-26.9871116225546
21
1.88490505499601
31
0.000000000000000
  0
LINE
  5
F10779
330
F1077A
100
AcDbEntity
8
Geo
100
AcDbLine
10
-26.9871116225546
20
1.88490505499601
30
0.000000000000000
11
-27.0871116225546
21
1.88837084556811
31
0.000000000000000
  0
LINE
  5
F1077B
330
F1077C
100
AcDbEntity
8
Geo
100
AcDbLine
10
-27.0871116225546
20
1.88837084556811
30
0.000000000000000
11
-27.1871116225546
21
1.89064154406459
31
0.000000000000000
  0
LINE
  5
F1077D
330
F1077E
100
AcDbEntity
8
Geo
100
AcDbLine
10
-27.1871116225546
20
1.89064154406459
30
0.000000000000000
11
-27.2871116225546
21
1.89172626419773
31
0.000000000000000
  0
LINE
  5
F1077F
330
F10780
100
AcDbEntity
8
Geo
100
AcDbLine
10
-27.2871116225546
20
1.89172626419773
30
0.000000000000000
11
-27.3290149945573
21
1.89182968929804
31
0.000000000000000
  0
LINE
  5
F10781
330
F10782
100
AcDbEntity
8
Geo
100
AcDbLine
10
-53.2871116225547
20
-7.56779697657337
30
0.000000000000000
11
-53.1871116225547
21
-7.63473100342771
31
0.000000000000000
  0
LINE
  5
F10783
330
F10784
100
AcDbEntity
8
Geo
100
AcDbLine
10
-53.1871116225547
20
-7.63473100342771
30
0.000000000000000
11
-53.0871116225547
21
-7.70097531659591
31
0.000000000000000
  0
LINE
  5
F10785
330
F10786
100
AcDbEntity
8
Geo
100
AcDbLine
10
-53.0871116225547
20
-7.70097531659591
30
0.000000000000000
11
-52.9871116225547
21
-7.76651696022285
31
0.000000000000000
  0
LINE
  5
F10787
330
F10788
100
AcDbEntity
8
Geo
100
AcDbLine
10
-52.9871116225547
20
-7.76651696022285
30
0.000000000000000
11
-52.8871116225547
21
-7.83134311587932
31
0.000000000000000
  0
LINE
  5
F10789
330
F1078A
100
AcDbEntity
8
Geo
100
AcDbLine
10
-52.8871116225547
20
-7.83134311587932
30
0.000000000000000
11
-52.7871116225547
21
-7.89544110506900
31
0.000000000000000
  0
LINE
  5
F1078B
330
F1078C
100
AcDbEntity
8
Geo
100
AcDbLine
10
-52.7871116225547
20
-7.89544110506900
30
0.000000000000000
11
-52.6871116225547
21
-7.95879839170807
31
0.000000000000000
  0
LINE
  5
F1078D
330
F1078E
100
AcDbEntity
8
Geo
100
AcDbLine
10
-52.6871116225547
20
-7.95879839170807
30
0.000000000000000
11
-52.5871116225547
21
-8.02140258457701
31
0.000000000000000
  0
LINE
  5
F1078F
330
F10790
100
AcDbEntity
8
Geo
100
AcDbLine
10
-52.5871116225547
20
-8.02140258457701
30
0.000000000000000
11
-52.4871116225547
21
-8.08324143974402
31
0.000000000000000
  0
LINE
  5
F10791
330
F10792
100
AcDbEntity
8
Geo
100
AcDbLine
10
-52.4871116225547
20
-8.08324143974402
30
0.000000000000000
11
-52.3871116225547
21
-8.14430286295964
31
0.000000000000000
  0
LINE
  5
F10793
330
F10794
100
AcDbEntity
8
Geo
100
AcDbLine
10
-52.3871116225547
20
-8.14430286295964
30
0.000000000000000
11
-52.2871116225547
21
-8.20457491202211
31
0.000000000000000
  0
LINE
  5
F10795
330
F10796
100
AcDbEntity
8
Geo
100
AcDbLine
10
-52.2871116225547
20
-8.20457491202211
30
0.000000000000000
11
-52.1871116225547
21
-8.26404579911301
31
0.000000000000000
  0
LINE
  5
F10797
330
F10798
100
AcDbEntity
8
Geo
100
AcDbLine
10
-52.1871116225547
20
-8.26404579911301
30
0.000000000000000
11
-52.0871116225547
21
-8.32270389310265
31
0.000000000000000
  0
LINE
  5
F10799
330
F1079A
100
AcDbEntity
8
Geo
100
AcDbLine
10
-52.0871116225547
20
-8.32270389310265
30
0.000000000000000
11
-51.9871116225547
21
-8.38053772182488
31
0.000000000000000
  0
LINE
  5
F1079B
330
F1079C
100
AcDbEntity
8
Geo
100
AcDbLine
10
-51.9871116225547
20
-8.38053772182488
30
0.000000000000000
11
-51.8871116225547
21
-8.43753597432075
31
0.000000000000000
  0
LINE
  5
F1079D
330
F1079E
100
AcDbEntity
8
Geo
100
AcDbLine
10
-51.8871116225547
20
-8.43753597432075
30
0.000000000000000
11
-51.7871116225547
21
-8.49368750305071
31
0.000000000000000
  0
LINE
  5
F1079F
330
F107A0
100
AcDbEntity
8
Geo
100
AcDbLine
10
-51.7871116225547
20
-8.49368750305071
30
0.000000000000000
11
-51.6871116225547
21
-8.54898132607478
31
0.000000000000000
  0
LINE
  5
F107A1
330
F107A2
100
AcDbEntity
8
Geo
100
AcDbLine
10
-51.6871116225547
20
-8.54898132607478
30
0.000000000000000
11
-51.5871116225547
21
-8.60340662920037
31
0.000000000000000
  0
LINE
  5
F107A3
330
F107A4
100
AcDbEntity
8
Geo
100
AcDbLine
10
-51.5871116225547
20
-8.60340662920037
30
0.000000000000000
11
-51.4871116225547
21
-8.65695276809729
31
0.000000000000000
  0
LINE
  5
F107A5
330
F107A6
100
AcDbEntity
8
Geo
100
AcDbLine
10
-51.4871116225547
20
-8.65695276809729
30
0.000000000000000
11
-51.3871116225547
21
-8.70960927037955
31
0.000000000000000
  0
LINE
  5
F107A7
330
F107A8
100
AcDbEntity
8
Geo
100
AcDbLine
10
-51.3871116225547
20
-8.70960927037955
30
0.000000000000000
11
-51.2871116225547
21
-8.76136583765347
31
0.000000000000000
  0
LINE
  5
F107A9
330
F107AA
100
AcDbEntity
8
Geo
100
AcDbLine
10
-51.2871116225547
20
-8.76136583765347
30
0.000000000000000
11
-51.1871116225547
21
-8.81221234753187
31
0.000000000000000
  0
LINE
  5
F107AB
330
F107AC
100
AcDbEntity
8
Geo
100
AcDbLine
10
-51.1871116225547
20
-8.81221234753187
30
0.000000000000000
11
-51.0871116225547
21
-8.86213885561372
31
0.000000000000000
  0
LINE
  5
F107AD
330
F107AE
100
AcDbEntity
8
Geo
100
AcDbLine
10
-51.0871116225547
20
-8.86213885561372
30
0.000000000000000
11
-50.9871116225547
21
-8.91113559742907
31
0.000000000000000
  0
LINE
  5
F107AF
330
F107B0
100
AcDbEntity
8
Geo
100
AcDbLine
10
-50.9871116225547
20
-8.91113559742907
30
0.000000000000000
11
-50.8871116225547
21
-8.95919299034874
31
0.000000000000000
  0
LINE
  5
F107B1
330
F107B2
100
AcDbEntity
8
Geo
100
AcDbLine
10
-50.8871116225547
20
-8.95919299034874
30
0.000000000000000
11
-50.7871116225547
21
-9.00630163545846
31
0.000000000000000
  0
LINE
  5
F107B3
330
F107B4
100
AcDbEntity
8
Geo
100
AcDbLine
10
-50.7871116225547
20
-9.00630163545846
30
0.000000000000000
11
-50.6871116225547
21
-9.05245231939708
31
0.000000000000000
  0
LINE
  5
F107B5
330
F107B6
100
AcDbEntity
8
Geo
100
AcDbLine
10
-50.6871116225547
20
-9.05245231939708
30
0.000000000000000
11
-50.5871116225547
21
-9.09763601615849
31
0.000000000000000
  0
LINE
  5
F107B7
330
F107B8
100
AcDbEntity
8
Geo
100
AcDbLine
10
-50.5871116225547
20
-9.09763601615849
30
0.000000000000000
11
-50.4871116225547
21
-9.14184388885693
31
0.000000000000000
  0
LINE
  5
F107B9
330
F107BA
100
AcDbEntity
8
Geo
100
AcDbLine
10
-50.4871116225547
20
-9.14184388885693
30
0.000000000000000
11
-50.3871116225547
21
-9.18506729145520
31
0.000000000000000
  0
LINE
  5
F107BB
330
F107BC
100
AcDbEntity
8
Geo
100
AcDbLine
10
-50.3871116225547
20
-9.18506729145520
30
0.000000000000000
11
-50.2871116225547
21
-9.22729777045573
31
0.000000000000000
  0
LINE
  5
F107BD
330
F107BE
100
AcDbEntity
8
Geo
100
AcDbLine
10
-50.2871116225547
20
-9.22729777045573
30
0.000000000000000
11
-50.1871116225547
21
-9.26852706655379
31
0.000000000000000
  0
LINE
  5
F107BF
330
F107C0
100
AcDbEntity
8
Geo
100
AcDbLine
10
-50.1871116225547
20
-9.26852706655379
30
0.000000000000000
11
-50.0871116225547
21
-9.30874711625291
31
0.000000000000000
  0
LINE
  5
F107C1
330
F107C2
100
AcDbEntity
8
Geo
100
AcDbLine
10
-50.0871116225547
20
-9.30874711625291
30
0.000000000000000
11
-49.9871116225547
21
-9.34795005344181
31
0.000000000000000
  0
LINE
  5
F107C3
330
F107C4
100
AcDbEntity
8
Geo
100
AcDbLine
10
-49.9871116225547
20
-9.34795005344181
30
0.000000000000000
11
-49.8871116225547
21
-9.38612821093294
31
0.000000000000000
  0
LINE
  5
F107C5
330
F107C6
100
AcDbEntity
8
Geo
100
AcDbLine
10
-49.8871116225547
20
-9.38612821093294
30
0.000000000000000
11
-49.7871116225547
21
-9.42327412196192
31
0.000000000000000
  0
LINE
  5
F107C7
330
F107C8
100
AcDbEntity
8
Geo
100
AcDbLine
10
-49.7871116225547
20
-9.42327412196192
30
0.000000000000000
11
-49.6871116225547
21
-9.45938052164792
31
0.000000000000000
  0
LINE
  5
F107C9
330
F107CA
100
AcDbEntity
8
Geo
100
AcDbLine
10
-49.6871116225547
20
-9.45938052164792
30
0.000000000000000
11
-49.5871116225547
21
-9.49444034841444
31
0.000000000000000
  0
LINE
  5
F107CB
330
F107CC
100
AcDbEntity
8
Geo
100
AcDbLine
10
-49.5871116225547
20
-9.49444034841444
30
0.000000000000000
11
-49.4871116225547
21
-9.52844674537048
31
0.000000000000000
  0
LINE
  5
F107CD
330
F107CE
100
AcDbEntity
8
Geo
100
AcDbLine
10
-49.4871116225547
20
-9.52844674537048
30
0.000000000000000
11
-49.3871116225547
21
-9.56139306165152
31
0.000000000000000
  0
LINE
  5
F107CF
330
F107D0
100
AcDbEntity
8
Geo
100
AcDbLine
10
-49.3871116225547
20
-9.56139306165152
30
0.000000000000000
11
-49.2871116225547
21
-9.59327285372027
31
0.000000000000000
  0
LINE
  5
F107D1
330
F107D2
100
AcDbEntity
8
Geo
100
AcDbLine
10
-49.2871116225547
20
-9.59327285372027
30
0.000000000000000
11
-49.1871116225547
21
-9.62407988662694
31
0.000000000000000
  0
LINE
  5
F107D3
330
F107D4
100
AcDbEntity
8
Geo
100
AcDbLine
10
-49.1871116225547
20
-9.62407988662694
30
0.000000000000000
11
-49.0871116225547
21
-9.65380813522861
31
0.000000000000000
  0
LINE
  5
F107D5
330
F107D6
100
AcDbEntity
8
Geo
100
AcDbLine
10
-49.0871116225547
20
-9.65380813522861
30
0.000000000000000
11
-48.9871116225547
21
-9.68245178536758
31
0.000000000000000
  0
LINE
  5
F107D7
330
F107D8
100
AcDbEntity
8
Geo
100
AcDbLine
10
-48.9871116225547
20
-9.68245178536758
30
0.000000000000000
11
-48.8871116225547
21
-9.71000523500856
31
0.000000000000000
  0
LINE
  5
F107D9
330
F107DA
100
AcDbEntity
8
Geo
100
AcDbLine
10
-48.8871116225547
20
-9.71000523500856
30
0.000000000000000
11
-48.7871116225547
21
-9.73646309533423
31
0.000000000000000
  0
LINE
  5
F107DB
330
F107DC
100
AcDbEntity
8
Geo
100
AcDbLine
10
-48.7871116225547
20
-9.73646309533423
30
0.000000000000000
11
-48.6871116225547
21
-9.76182019179920
31
0.000000000000000
  0
LINE
  5
F107DD
330
F107DE
100
AcDbEntity
8
Geo
100
AcDbLine
10
-48.6871116225547
20
-9.76182019179920
30
0.000000000000000
11
-48.5871116225547
21
-9.78607156514203
31
0.000000000000000
  0
LINE
  5
F107DF
330
F107E0
100
AcDbEntity
8
Geo
100
AcDbLine
10
-48.5871116225547
20
-9.78607156514203
30
0.000000000000000
11
-48.4871116225547
21
-9.80921247235513
31
0.000000000000000
  0
LINE
  5
F107E1
330
F107E2
100
AcDbEntity
8
Geo
100
AcDbLine
10
-48.4871116225547
20
-9.80921247235513
30
0.000000000000000
11
-48.3871116225547
21
-9.83123838761241
31
0.000000000000000
  0
LINE
  5
F107E3
330
F107E4
100
AcDbEntity
8
Geo
100
AcDbLine
10
-48.3871116225547
20
-9.83123838761241
30
0.000000000000000
11
-48.2871116225547
21
-9.85214500315441
31
0.000000000000000
  0
LINE
  5
F107E5
330
F107E6
100
AcDbEntity
8
Geo
100
AcDbLine
10
-48.2871116225547
20
-9.85214500315441
30
0.000000000000000
11
-48.1871116225547
21
-9.87192823013078
31
0.000000000000000
  0
LINE
  5
F107E7
330
F107E8
100
AcDbEntity
8
Geo
100
AcDbLine
10
-48.1871116225547
20
-9.87192823013078
30
0.000000000000000
11
-48.0871116225547
21
-9.89058419940001
31
0.000000000000000
  0
LINE
  5
F107E9
330
F107EA
100
AcDbEntity
8
Geo
100
AcDbLine
10
-48.0871116225547
20
-9.89058419940001
30
0.000000000000000
11
-47.9871116225547
21
-9.90810926228611
31
0.000000000000000
  0
LINE
  5
F107EB
330
F107EC
100
AcDbEntity
8
Geo
100
AcDbLine
10
-47.9871116225547
20
-9.90810926228611
30
0.000000000000000
11
-47.8871116225547
21
-9.92449999129221
31
0.000000000000000
  0
LINE
  5
F107ED
330
F107EE
100
AcDbEntity
8
Geo
100
AcDbLine
10
-47.8871116225547
20
-9.92449999129221
30
0.000000000000000
11
-47.7871116225547
21
-9.93975318077091
31
0.000000000000000
  0
LINE
  5
F107EF
330
F107F0
100
AcDbEntity
8
Geo
100
AcDbLine
10
-47.7871116225547
20
-9.93975318077091
30
0.000000000000000
11
-47.6871116225547
21
-9.95386584755122
31
0.000000000000000
  0
LINE
  5
F107F1
330
F107F2
100
AcDbEntity
8
Geo
100
AcDbLine
10
-47.6871116225547
20
-9.95386584755122
30
0.000000000000000
11
-47.5871116225547
21
-9.96683523152201
31
0.000000000000000
  0
LINE
  5
F107F3
330
F107F4
100
AcDbEntity
8
Geo
100
AcDbLine
10
-47.5871116225547
20
-9.96683523152201
30
0.000000000000000
11
-47.4871116225547
21
-9.97865879617182
31
0.000000000000000
  0
LINE
  5
F107F5
330
F107F6
100
AcDbEntity
8
Geo
100
AcDbLine
10
-47.4871116225547
20
-9.97865879617182
30
0.000000000000000
11
-47.3871116225547
21
-9.98933422908493
31
0.000000000000000
  0
LINE
  5
F107F7
330
F107F8
100
AcDbEntity
8
Geo
100
AcDbLine
10
-47.3871116225547
20
-9.98933422908493
30
0.000000000000000
11
-47.2871116225547
21
-9.99885944239363
31
0.000000000000000
  0
LINE
  5
F107F9
330
F107FA
100
AcDbEntity
8
Geo
100
AcDbLine
10
-47.2871116225547
20
-9.99885944239363
30
0.000000000000000
11
-47.1871116225547
21
-10.0072325731866
31
0.000000000000000
  0
LINE
  5
F107FB
330
F107FC
100
AcDbEntity
8
Geo
100
AcDbLine
10
-47.1871116225547
20
-10.0072325731866
30
0.000000000000000
11
-47.0871116225547
21
-10.0144519838731
31
0.000000000000000
  0
LINE
  5
F107FD
330
F107FE
100
AcDbEntity
8
Geo
100
AcDbLine
10
-47.0871116225547
20
-10.0144519838731
30
0.000000000000000
11
-46.9871116225547
21
-10.0205162625034
31
0.000000000000000
  0
LINE
  5
F107FF
330
F10800
100
AcDbEntity
8
Geo
100
AcDbLine
10
-46.9871116225547
20
-10.0205162625034
30
0.000000000000000
11
-46.8871116225547
21
-10.0254242230450
31
0.000000000000000
  0
LINE
  5
F10801
330
F10802
100
AcDbEntity
8
Geo
100
AcDbLine
10
-46.8871116225547
20
-10.0254242230450
30
0.000000000000000
11
-46.7871116225547
21
-10.0291749056143
31
0.000000000000000
  0
LINE
  5
F10803
330
F10804
100
AcDbEntity
8
Geo
100
AcDbLine
10
-46.7871116225547
20
-10.0291749056143
30
0.000000000000000
11
-46.6871116225547
21
-10.0317675766646
31
0.000000000000000
  0
LINE
  5
F10805
330
F10806
100
AcDbEntity
8
Geo
100
AcDbLine
10
-46.6871116225547
20
-10.0317675766646
30
0.000000000000000
11
-46.5871116225547
21
-10.0332017291293
31
0.000000000000000
  0
LINE
  5
F10807
330
F10808
100
AcDbEntity
8
Geo
100
AcDbLine
10
-46.5871116225547
20
-10.0332017291293
30
0.000000000000000
11
-46.5133513747476
21
-10.1081703107020
31
0.000000000000000
  0
LINE
  5
F10809
330
F1080A
100
AcDbEntity
8
Geo
100
AcDbLine
10
-39.0253425933655
20
1.89182968929804
30
0.000000000000000
11
-38.9871116225547
21
1.81709166568617
31
0.000000000000000
  0
LINE
  5
F1080B
330
F1080C
100
AcDbEntity
8
Geo
100
AcDbLine
10
-38.9871116225547
20
1.81709166568617
30
0.000000000000000
11
-38.8871116225547
21
1.81606921132876
31
0.000000000000000
  0
LINE
  5
F1080D
330
F1080E
100
AcDbEntity
8
Geo
100
AcDbLine
10
-38.8871116225547
20
1.81606921132876
30
0.000000000000000
11
-38.7871116225547
21
1.81388811277542
31
0.000000000000000
  0
LINE
  5
F1080F
330
F10810
100
AcDbEntity
8
Geo
100
AcDbLine
10
-38.7871116225547
20
1.81388811277542
30
0.000000000000000
11
-38.6871116225547
21
1.81054879659855
31
0.000000000000000
  0
LINE
  5
F10811
330
F10812
100
AcDbEntity
8
Geo
100
AcDbLine
10
-38.6871116225547
20
1.81054879659855
30
0.000000000000000
11
-38.5871116225547
21
1.80605191589115
31
0.000000000000000
  0
LINE
  5
F10813
330
F10814
100
AcDbEntity
8
Geo
100
AcDbLine
10
-38.5871116225547
20
1.80605191589115
30
0.000000000000000
11
-38.4871116225547
21
1.80039835013905
31
0.000000000000000
  0
LINE
  5
F10815
330
F10816
100
AcDbEntity
8
Geo
100
AcDbLine
10
-38.4871116225547
20
1.80039835013905
30
0.000000000000000
11
-38.3871116225547
21
1.79358920504891
31
0.000000000000000
  0
LINE
  5
F10817
330
F10818
100
AcDbEntity
8
Geo
100
AcDbLine
10
-38.3871116225547
20
1.79358920504891
30
0.000000000000000
11
-38.2871116225547
21
1.78562581233199
31
0.000000000000000
  0
LINE
  5
F10819
330
F1081A
100
AcDbEntity
8
Geo
100
AcDbLine
10
-38.2871116225547
20
1.78562581233199
30
0.000000000000000
11
-38.1871116225547
21
1.77650972944369
31
0.000000000000000
  0
LINE
  5
F1081B
330
F1081C
100
AcDbEntity
8
Geo
100
AcDbLine
10
-38.1871116225547
20
1.77650972944369
30
0.000000000000000
11
-38.0871116225547
21
1.76624273927892
31
0.000000000000000
  0
LINE
  5
F1081D
330
F1081E
100
AcDbEntity
8
Geo
100
AcDbLine
10
-38.0871116225547
20
1.76624273927892
30
0.000000000000000
11
-37.9871116225547
21
1.75482684982341
31
0.000000000000000
  0
LINE
  5
F1081F
330
F10820
100
AcDbEntity
8
Geo
100
AcDbLine
10
-37.9871116225547
20
1.75482684982341
30
0.000000000000000
11
-37.8871116225547
21
1.74226429376106
31
0.000000000000000
  0
LINE
  5
F10821
330
F10822
100
AcDbEntity
8
Geo
100
AcDbLine
10
-37.8871116225547
20
1.74226429376106
30
0.000000000000000
11
-37.7871116225547
21
1.72855752803720
31
0.000000000000000
  0
LINE
  5
F10823
330
F10824
100
AcDbEntity
8
Geo
100
AcDbLine
10
-37.7871116225547
20
1.72855752803720
30
0.000000000000000
11
-37.6871116225547
21
1.71370923337811
31
0.000000000000000
  0
LINE
  5
F10825
330
F10826
100
AcDbEntity
8
Geo
100
AcDbLine
10
-37.6871116225547
20
1.71370923337811
30
0.000000000000000
11
-37.5871116225547
21
1.69772231376671
31
0.000000000000000
  0
LINE
  5
F10827
330
F10828
100
AcDbEntity
8
Geo
100
AcDbLine
10
-37.5871116225547
20
1.69772231376671
30
0.000000000000000
11
-37.4871116225547
21
1.68059989587463
31
0.000000000000000
  0
LINE
  5
F10829
330
F1082A
100
AcDbEntity
8
Geo
100
AcDbLine
10
-37.4871116225547
20
1.68059989587463
30
0.000000000000000
11
-37.3871116225547
21
1.66234532845070
31
0.000000000000000
  0
LINE
  5
F1082B
330
F1082C
100
AcDbEntity
8
Geo
100
AcDbLine
10
-37.3871116225547
20
1.66234532845070
30
0.000000000000000
11
-37.2871116225547
21
1.64296218166597
31
0.000000000000000
  0
LINE
  5
F1082D
330
F1082E
100
AcDbEntity
8
Geo
100
AcDbLine
10
-37.2871116225547
20
1.64296218166597
30
0.000000000000000
11
-37.1871116225547
21
1.62245424641556
31
0.000000000000000
  0
LINE
  5
F1082F
330
F10830
100
AcDbEntity
8
Geo
100
AcDbLine
10
-37.1871116225547
20
1.62245424641556
30
0.000000000000000
11
-37.0871116225547
21
1.60082553357715
31
0.000000000000000
  0
LINE
  5
F10831
330
F10832
100
AcDbEntity
8
Geo
100
AcDbLine
10
-37.0871116225547
20
1.60082553357715
30
0.000000000000000
11
-36.9871116225547
21
1.57808027322660
31
0.000000000000000
  0
LINE
  5
F10833
330
F10834
100
AcDbEntity
8
Geo
100
AcDbLine
10
-36.9871116225547
20
1.57808027322660
30
0.000000000000000
11
-36.8871116225547
21
1.55422291381063
31
0.000000000000000
  0
LINE
  5
F10835
330
F10836
100
AcDbEntity
8
Geo
100
AcDbLine
10
-36.8871116225547
20
1.55422291381063
30
0.000000000000000
11
-36.7871116225547
21
1.52925812127682
31
0.000000000000000
  0
LINE
  5
F10837
330
F10838
100
AcDbEntity
8
Geo
100
AcDbLine
10
-36.7871116225547
20
1.52925812127682
30
0.000000000000000
11
-36.6871116225547
21
1.50319077816104
31
0.000000000000000
  0
LINE
  5
F10839
330
F1083A
100
AcDbEntity
8
Geo
100
AcDbLine
10
-36.6871116225547
20
1.50319077816104
30
0.000000000000000
11
-36.5871116225547
21
1.47602598263255
31
0.000000000000000
  0
LINE
  5
F1083B
330
F1083C
100
AcDbEntity
8
Geo
100
AcDbLine
10
-36.5871116225547
20
1.47602598263255
30
0.000000000000000
11
-36.4871116225547
21
1.44776904749690
31
0.000000000000000
  0
LINE
  5
F1083D
330
F1083E
100
AcDbEntity
8
Geo
100
AcDbLine
10
-36.4871116225547
20
1.44776904749690
30
0.000000000000000
11
-36.3871116225547
21
1.41842549915691
31
0.000000000000000
  0
LINE
  5
F1083F
330
F10840
100
AcDbEntity
8
Geo
100
AcDbLine
10
-36.3871116225547
20
1.41842549915691
30
0.000000000000000
11
-36.2871116225547
21
1.38800107653176
31
0.000000000000000
  0
LINE
  5
F10841
330
F10842
100
AcDbEntity
8
Geo
100
AcDbLine
10
-36.2871116225547
20
1.38800107653176
30
0.000000000000000
11
-36.1871116225547
21
1.35650172993468
31
0.000000000000000
  0
LINE
  5
F10843
330
F10844
100
AcDbEntity
8
Geo
100
AcDbLine
10
-36.1871116225547
20
1.35650172993468
30
0.000000000000000
11
-36.0871116225547
21
1.32393361990913
31
0.000000000000000
  0
LINE
  5
F10845
330
F10846
100
AcDbEntity
8
Geo
100
AcDbLine
10
-36.0871116225547
20
1.32393361990913
30
0.000000000000000
11
-35.9871116225547
21
1.29030311602400
31
0.000000000000000
  0
LINE
  5
F10847
330
F10848
100
AcDbEntity
8
Geo
100
AcDbLine
10
-35.9871116225547
20
1.29030311602400
30
0.000000000000000
11
-35.8871116225547
21
1.25561679562780
31
0.000000000000000
  0
LINE
  5
F10849
330
F1084A
100
AcDbEntity
8
Geo
100
AcDbLine
10
-35.8871116225547
20
1.25561679562780
30
0.000000000000000
11
-35.7871116225547
21
1.21988144256236
31
0.000000000000000
  0
LINE
  5
F1084B
330
F1084C
100
AcDbEntity
8
Geo
100
AcDbLine
10
-35.7871116225547
20
1.21988144256236
30
0.000000000000000
11
-35.6871116225547
21
1.18310404583602
31
0.000000000000000
  0
LINE
  5
F1084D
330
F1084E
100
AcDbEntity
8
Geo
100
AcDbLine
10
-35.6871116225547
20
1.18310404583602
30
0.000000000000000
11
-35.5871116225547
21
1.14529179825675
31
0.000000000000000
  0
LINE
  5
F1084F
330
F10850
100
AcDbEntity
8
Geo
100
AcDbLine
10
-35.5871116225547
20
1.14529179825675
30
0.000000000000000
11
-35.4871116225547
21
1.10645209502540
31
0.000000000000000
  0
LINE
  5
F10851
330
F10852
100
AcDbEntity
8
Geo
100
AcDbLine
10
-35.4871116225547
20
1.10645209502540
30
0.000000000000000
11
-35.3871116225547
21
1.06659253228940
31
0.000000000000000
  0
LINE
  5
F10853
330
F10854
100
AcDbEntity
8
Geo
100
AcDbLine
10
-35.3871116225547
20
1.06659253228940
30
0.000000000000000
11
-35.2871116225547
21
1.02572090565707
31
0.000000000000000
  0
LINE
  5
F10855
330
F10856
100
AcDbEntity
8
Geo
100
AcDbLine
10
-35.2871116225547
20
1.02572090565707
30
0.000000000000000
11
-35.1871116225547
21
0.983845208673042
31
0.000000000000000
  0
LINE
  5
F10857
330
F10858
100
AcDbEntity
8
Geo
100
AcDbLine
10
-35.1871116225547
20
0.983845208673042
30
0.000000000000000
11
-35.0871116225547
21
0.940973631254871
31
0.000000000000000
  0
LINE
  5
F10859
330
F1085A
100
AcDbEntity
8
Geo
100
AcDbLine
10
-35.0871116225547
20
0.940973631254871
30
0.000000000000000
11
-34.9871116225547
21
0.897114558091288
31
0.000000000000000
  0
LINE
  5
F1085B
330
F1085C
100
AcDbEntity
8
Geo
100
AcDbLine
10
-34.9871116225547
20
0.897114558091288
30
0.000000000000000
11
-34.8871116225547
21
0.852276567002336
31
0.000000000000000
  0
LINE
  5
F1085D
330
F1085E
100
AcDbEntity
8
Geo
100
AcDbLine
10
-34.8871116225547
20
0.852276567002336
30
0.000000000000000
11
-34.7871116225547
21
0.806468427261775
31
0.000000000000000
  0
LINE
  5
F1085F
330
F10860
100
AcDbEntity
8
Geo
100
AcDbLine
10
-34.7871116225547
20
0.806468427261775
30
0.000000000000000
11
-34.6871116225547
21
0.759699097881982
31
0.000000000000000
  0
LINE
  5
F10861
330
F10862
100
AcDbEntity
8
Geo
100
AcDbLine
10
-34.6871116225547
20
0.759699097881982
30
0.000000000000000
11
-34.5871116225547
21
0.711977725861797
31
0.000000000000000
  0
LINE
  5
F10863
330
F10864
100
AcDbEntity
8
Geo
100
AcDbLine
10
-34.5871116225547
20
0.711977725861797
30
0.000000000000000
11
-34.4871116225547
21
0.663313644397578
31
0.000000000000000
  0
LINE
  5
F10865
330
F10866
100
AcDbEntity
8
Geo
100
AcDbLine
10
-34.4871116225547
20
0.663313644397578
30
0.000000000000000
11
-34.3871116225547
21
0.613716371057837
31
0.000000000000000
  0
LINE
  5
F10867
330
F10868
100
AcDbEntity
8
Geo
100
AcDbLine
10
-34.3871116225547
20
0.613716371057837
30
0.000000000000000
11
-34.2871116225547
21
0.563195605921826
31
0.000000000000000
  0
LINE
  5
F10869
330
F1086A
100
AcDbEntity
8
Geo
100
AcDbLine
10
-34.2871116225547
20
0.563195605921826
30
0.000000000000000
11
-34.1871116225547
21
0.511761229682437
31
0.000000000000000
  0
LINE
  5
F1086B
330
F1086C
100
AcDbEntity
8
Geo
100
AcDbLine
10
-34.1871116225547
20
0.511761229682437
30
0.000000000000000
11
-34.0871116225547
21
0.459423301713747
31
0.000000000000000
  0
LINE
  5
F1086D
330
F1086E
100
AcDbEntity
8
Geo
100
AcDbLine
10
-34.0871116225547
20
0.459423301713747
30
0.000000000000000
11
-33.9871116225547
21
0.406192058103652
31
0.000000000000000
  0
LINE
  5
F1086F
330
F10870
100
AcDbEntity
8
Geo
100
AcDbLine
10
-33.9871116225547
20
0.406192058103652
30
0.000000000000000
11
-33.8871116225547
21
0.352077909651925
31
0.000000000000000
  0
LINE
  5
F10871
330
F10872
100
AcDbEntity
8
Geo
100
AcDbLine
10
-33.8871116225547
20
0.352077909651925
30
0.000000000000000
11
-33.7871116225547
21
0.297091439834096
31
0.000000000000000
  0
LINE
  5
F10873
330
F10874
100
AcDbEntity
8
Geo
100
AcDbLine
10
-33.7871116225547
20
0.297091439834096
30
0.000000000000000
11
-33.6871116225547
21
0.241243402731572
31
0.000000000000000
  0
LINE
  5
F10875
330
F10876
100
AcDbEntity
8
Geo
100
AcDbLine
10
-33.6871116225547
20
0.241243402731572
30
0.000000000000000
11
-33.5871116225547
21
0.184544720928396
31
0.000000000000000
  0
LINE
  5
F10877
330
F10878
100
AcDbEntity
8
Geo
100
AcDbLine
10
-33.5871116225547
20
0.184544720928396
30
0.000000000000000
11
-33.4871116225547
21
0.127006483375029
31
0.000000000000000
  0
LINE
  5
F10879
330
F1087A
100
AcDbEntity
8
Geo
100
AcDbLine
10
-33.4871116225547
20
0.127006483375029
30
0.000000000000000
11
-33.3871116225547
21
0.0686399432196136
31
0.000000000000000
  0
LINE
  5
F1087B
330
F1087C
100
AcDbEntity
8
Geo
100
AcDbLine
10
-33.3871116225547
20
0.0686399432196136
30
0.000000000000000
11
-33.2871116225547
21
0.00945651560712157
31
0.000000000000000
  0
LINE
  5
F1087D
330
F1087E
100
AcDbEntity
8
Geo
100
AcDbLine
10
-33.2871116225547
20
0.00945651560712157
30
0.000000000000000
11
-33.1871116225547
21
-0.0505322245531845
31
0.000000000000000
  0
LINE
  5
F1087F
330
F10880
100
AcDbEntity
8
Geo
100
AcDbLine
10
-33.1871116225547
20
-0.0505322245531845
30
0.000000000000000
11
-33.0871116225547
21
-0.111314544851545
31
0.000000000000000
  0
LINE
  5
F10881
330
F10882
100
AcDbEntity
8
Geo
100
AcDbLine
10
-33.0871116225547
20
-0.111314544851545
30
0.000000000000000
11
-32.9871116225547
21
-0.172878557672279
31
0.000000000000000
  0
LINE
  5
F10883
330
F10884
100
AcDbEntity
8
Geo
100
AcDbLine
10
-32.9871116225547
20
-0.172878557672279
30
0.000000000000000
11
-32.8871116225547
21
-0.235212222518734
31
0.000000000000000
  0
LINE
  5
F10885
330
F10886
100
AcDbEntity
8
Geo
100
AcDbLine
10
-32.8871116225547
20
-0.235212222518734
30
0.000000000000000
11
-32.7871116225547
21
-0.298303348368125
31
0.000000000000000
  0
LINE
  5
F10887
330
F10888
100
AcDbEntity
8
Geo
100
AcDbLine
10
-32.7871116225547
20
-0.298303348368125
30
0.000000000000000
11
-32.6871116225547
21
-0.362139596055823
31
0.000000000000000
  0
LINE
  5
F10889
330
F1088A
100
AcDbEntity
8
Geo
100
AcDbLine
10
-32.6871116225547
20
-0.362139596055823
30
0.000000000000000
11
-32.5871116225547
21
-0.426708480688601
31
0.000000000000000
  0
LINE
  5
F1088B
330
F1088C
100
AcDbEntity
8
Geo
100
AcDbLine
10
-32.5871116225547
20
-0.426708480688601
30
0.000000000000000
11
-32.4871116225547
21
-0.491997374086400
31
0.000000000000000
  0
LINE
  5
F1088D
330
F1088E
100
AcDbEntity
8
Geo
100
AcDbLine
10
-32.4871116225547
20
-0.491997374086400
30
0.000000000000000
11
-32.3871116225547
21
-0.557993507252093
31
0.000000000000000
  0
LINE
  5
F1088F
330
F10890
100
AcDbEntity
8
Geo
100
AcDbLine
10
-32.3871116225547
20
-0.557993507252093
30
0.000000000000000
11
-32.2871116225547
21
-0.624683972868830
31
0.000000000000000
  0
LINE
  5
F10891
330
F10892
100
AcDbEntity
8
Geo
100
AcDbLine
10
-32.2871116225547
20
-0.624683972868830
30
0.000000000000000
11
-32.1871116225547
21
-0.692055727824386
31
0.000000000000000
  0
LINE
  5
F10893
330
F10894
100
AcDbEntity
8
Geo
100
AcDbLine
10
-32.1871116225547
20
-0.692055727824386
30
0.000000000000000
11
-32.0871116225547
21
-0.760095595762106
31
0.000000000000000
  0
LINE
  5
F10895
330
F10896
100
AcDbEntity
8
Geo
100
AcDbLine
10
-32.0871116225547
20
-0.760095595762106
30
0.000000000000000
11
-31.9871116225547
21
-0.828790269657895
31
0.000000000000000
  0
LINE
  5
F10897
330
F10898
100
AcDbEntity
8
Geo
100
AcDbLine
10
-31.9871116225547
20
-0.828790269657895
30
0.000000000000000
11
-31.8871116225547
21
-0.898126314422758
31
0.000000000000000
  0
LINE
  5
F10899
330
F1089A
100
AcDbEntity
8
Geo
100
AcDbLine
10
-31.8871116225547
20
-0.898126314422758
30
0.000000000000000
11
-31.7871116225547
21
-0.968090169530397
31
0.000000000000000
  0
LINE
  5
F1089B
330
F1089C
100
AcDbEntity
8
Geo
100
AcDbLine
10
-31.7871116225547
20
-0.968090169530397
30
0.000000000000000
11
-31.6871116225547
21
-1.03866815166933
31
0.000000000000000
  0
LINE
  5
F1089D
330
F1089E
100
AcDbEntity
8
Geo
100
AcDbLine
10
-31.6871116225547
20
-1.03866815166933
30
0.000000000000000
11
-31.5871116225547
21
-1.10984645741905
31
0.000000000000000
  0
LINE
  5
F1089F
330
F108A0
100
AcDbEntity
8
Geo
100
AcDbLine
10
-31.5871116225547
20
-1.10984645741905
30
0.000000000000000
11
-31.4871116225547
21
-1.18161116594962
31
0.000000000000000
  0
LINE
  5
F108A1
330
F108A2
100
AcDbEntity
8
Geo
100
AcDbLine
10
-31.4871116225547
20
-1.18161116594962
30
0.000000000000000
11
-31.3871116225546
21
-1.25394824174430
31
0.000000000000000
  0
LINE
  5
F108A3
330
F108A4
100
AcDbEntity
8
Geo
100
AcDbLine
10
-31.3871116225546
20
-1.25394824174430
30
0.000000000000000
11
-31.2871116225546
21
-1.32684353734455
31
0.000000000000000
  0
LINE
  5
F108A5
330
F108A6
100
AcDbEntity
8
Geo
100
AcDbLine
10
-31.2871116225546
20
-1.32684353734455
30
0.000000000000000
11
-31.1871116225546
21
-1.40028279611694
31
0.000000000000000
  0
LINE
  5
F108A7
330
F108A8
100
AcDbEntity
8
Geo
100
AcDbLine
10
-31.1871116225546
20
-1.40028279611694
30
0.000000000000000
11
-31.0871116225546
21
-1.47425165504145
31
0.000000000000000
  0
LINE
  5
F108A9
330
F108AA
100
AcDbEntity
8
Geo
100
AcDbLine
10
-31.0871116225546
20
-1.47425165504145
30
0.000000000000000
11
-30.9871116225546
21
-1.54873564752051
31
0.000000000000000
  0
LINE
  5
F108AB
330
F108AC
100
AcDbEntity
8
Geo
100
AcDbLine
10
-30.9871116225546
20
-1.54873564752051
30
0.000000000000000
11
-30.8871116225546
21
-1.62372020620834
31
0.000000000000000
  0
LINE
  5
F108AD
330
F108AE
100
AcDbEntity
8
Geo
100
AcDbLine
10
-30.8871116225546
20
-1.62372020620834
30
0.000000000000000
11
-30.7871116225546
21
-1.69919066585999
31
0.000000000000000
  0
LINE
  5
F108AF
330
F108B0
100
AcDbEntity
8
Geo
100
AcDbLine
10
-30.7871116225546
20
-1.69919066585999
30
0.000000000000000
11
-30.6871116225546
21
-1.77513226619953
31
0.000000000000000
  0
LINE
  5
F108B1
330
F108B2
100
AcDbEntity
8
Geo
100
AcDbLine
10
-30.6871116225546
20
-1.77513226619953
30
0.000000000000000
11
-30.5871116225546
21
-1.85153015480681
31
0.000000000000000
  0
LINE
  5
F108B3
330
F108B4
100
AcDbEntity
8
Geo
100
AcDbLine
10
-30.5871116225546
20
-1.85153015480681
30
0.000000000000000
11
-30.4871116225546
21
-1.92836939002225
31
0.000000000000000
  0
LINE
  5
F108B5
330
F108B6
100
AcDbEntity
8
Geo
100
AcDbLine
10
-30.4871116225546
20
-1.92836939002225
30
0.000000000000000
11
-30.3871116225546
21
-2.00563494386908
31
0.000000000000000
  0
LINE
  5
F108B7
330
F108B8
100
AcDbEntity
8
Geo
100
AcDbLine
10
-30.3871116225546
20
-2.00563494386908
30
0.000000000000000
11
-30.2871116225546
21
-2.08331170499246
31
0.000000000000000
  0
LINE
  5
F108B9
330
F108BA
100
AcDbEntity
8
Geo
100
AcDbLine
10
-30.2871116225546
20
-2.08331170499246
30
0.000000000000000
11
-30.1871116225546
21
-2.16138448161495
31
0.000000000000000
  0
LINE
  5
F108BB
330
F108BC
100
AcDbEntity
8
Geo
100
AcDbLine
10
-30.1871116225546
20
-2.16138448161495
30
0.000000000000000
11
-30.0871116225546
21
-2.23983800450761
31
0.000000000000000
  0
LINE
  5
F108BD
330
F108BE
100
AcDbEntity
8
Geo
100
AcDbLine
10
-30.0871116225546
20
-2.23983800450761
30
0.000000000000000
11
-29.9871116225546
21
-2.31865692997635
31
0.000000000000000
  0
LINE
  5
F108BF
330
F108C0
100
AcDbEntity
8
Geo
100
AcDbLine
10
-29.9871116225546
20
-2.31865692997635
30
0.000000000000000
11
-29.8871116225546
21
-2.39782584286279
31
0.000000000000000
  0
LINE
  5
F108C1
330
F108C2
100
AcDbEntity
8
Geo
100
AcDbLine
10
-29.8871116225546
20
-2.39782584286279
30
0.000000000000000
11
-29.7871116225546
21
-2.47732925955910
31
0.000000000000000
  0
LINE
  5
F108C3
330
F108C4
100
AcDbEntity
8
Geo
100
AcDbLine
10
-29.7871116225546
20
-2.47732925955910
30
0.000000000000000
11
-29.6871116225546
21
-2.55715163103625
31
0.000000000000000
  0
LINE
  5
F108C5
330
F108C6
100
AcDbEntity
8
Geo
100
AcDbLine
10
-29.6871116225546
20
-2.55715163103625
30
0.000000000000000
11
-29.5871116225546
21
-2.63727734588504
31
0.000000000000000
  0
LINE
  5
F108C7
330
F108C8
100
AcDbEntity
8
Geo
100
AcDbLine
10
-29.5871116225546
20
-2.63727734588504
30
0.000000000000000
11
-29.4871116225546
21
-2.71769073336932
31
0.000000000000000
  0
LINE
  5
F108C9
330
F108CA
100
AcDbEntity
8
Geo
100
AcDbLine
10
-29.4871116225546
20
-2.71769073336932
30
0.000000000000000
11
-29.3871116225546
21
-2.79837606649081
31
0.000000000000000
  0
LINE
  5
F108CB
330
F108CC
100
AcDbEntity
8
Geo
100
AcDbLine
10
-29.3871116225546
20
-2.79837606649081
30
0.000000000000000
11
-29.2871116225546
21
-2.87931756506498
31
0.000000000000000
  0
LINE
  5
F108CD
330
F108CE
100
AcDbEntity
8
Geo
100
AcDbLine
10
-29.2871116225546
20
-2.87931756506498
30
0.000000000000000
11
-29.1871116225546
21
-2.96049939880725
31
0.000000000000000
  0
LINE
  5
F108CF
330
F108D0
100
AcDbEntity
8
Geo
100
AcDbLine
10
-29.1871116225546
20
-2.96049939880725
30
0.000000000000000
11
-29.0871116225546
21
-3.04190569042905
31
0.000000000000000
  0
LINE
  5
F108D1
330
F108D2
100
AcDbEntity
8
Geo
100
AcDbLine
10
-29.0871116225546
20
-3.04190569042905
30
0.000000000000000
11
-28.9871116225546
21
-3.12352051874303
31
0.000000000000000
  0
LINE
  5
F108D3
330
F108D4
100
AcDbEntity
8
Geo
100
AcDbLine
10
-28.9871116225546
20
-3.12352051874303
30
0.000000000000000
11
-28.8871116225546
21
-3.20532792177689
31
0.000000000000000
  0
LINE
  5
F108D5
330
F108D6
100
AcDbEntity
8
Geo
100
AcDbLine
10
-28.8871116225546
20
-3.20532792177689
30
0.000000000000000
11
-28.7871116225546
21
-3.28731189989519
31
0.000000000000000
  0
LINE
  5
F108D7
330
F108D8
100
AcDbEntity
8
Geo
100
AcDbLine
10
-28.7871116225546
20
-3.28731189989519
30
0.000000000000000
11
-28.6871116225546
21
-3.36945641892845
31
0.000000000000000
  0
LINE
  5
F108D9
330
F108DA
100
AcDbEntity
8
Geo
100
AcDbLine
10
-28.6871116225546
20
-3.36945641892845
30
0.000000000000000
11
-28.5871116225546
21
-3.45174541330914
31
0.000000000000000
  0
LINE
  5
F108DB
330
F108DC
100
AcDbEntity
8
Geo
100
AcDbLine
10
-28.5871116225546
20
-3.45174541330914
30
0.000000000000000
11
-28.4871116225546
21
-3.53416278921367
31
0.000000000000000
  0
LINE
  5
F108DD
330
F108DE
100
AcDbEntity
8
Geo
100
AcDbLine
10
-28.4871116225546
20
-3.53416278921367
30
0.000000000000000
11
-28.3871116225546
21
-3.61669242771000
31
0.000000000000000
  0
LINE
  5
F108DF
330
F108E0
100
AcDbEntity
8
Geo
100
AcDbLine
10
-53.2871116225547
20
1.78764078269788
30
0.000000000000000
11
-53.1871116225547
21
1.77880099170865
31
0.000000000000000
  0
LINE
  5
F108E1
330
F108E2
100
AcDbEntity
8
Geo
100
AcDbLine
10
-53.1871116225547
20
1.77880099170865
30
0.000000000000000
11
-53.0871116225547
21
1.76880984532504
31
0.000000000000000
  0
LINE
  5
F108E3
330
F108E4
100
AcDbEntity
8
Geo
100
AcDbLine
10
-53.0871116225547
20
1.76880984532504
30
0.000000000000000
11
-52.9871116225547
21
1.75766929758417
31
0.000000000000000
  0
LINE
  5
F108E5
330
F108E6
100
AcDbEntity
8
Geo
100
AcDbLine
10
-52.9871116225547
20
1.75766929758417
30
0.000000000000000
11
-52.8871116225547
21
1.74538152731942
31
0.000000000000000
  0
LINE
  5
F108E7
330
F108E8
100
AcDbEntity
8
Geo
100
AcDbLine
10
-52.8871116225547
20
1.74538152731942
30
0.000000000000000
11
-52.7871116225547
21
1.73194893773440
31
0.000000000000000
  0
LINE
  5
F108E9
330
F108EA
100
AcDbEntity
8
Geo
100
AcDbLine
10
-52.7871116225547
20
1.73194893773440
30
0.000000000000000
11
-52.6871116225547
21
1.71737415593286
31
0.000000000000000
  0
LINE
  5
F108EB
330
F108EC
100
AcDbEntity
8
Geo
100
AcDbLine
10
-52.6871116225547
20
1.71737415593286
30
0.000000000000000
11
-52.5871116225547
21
1.70166003240496
31
0.000000000000000
  0
LINE
  5
F108ED
330
F108EE
100
AcDbEntity
8
Geo
100
AcDbLine
10
-52.5871116225547
20
1.70166003240496
30
0.000000000000000
11
-52.4871116225547
21
1.68480964046970
31
0.000000000000000
  0
LINE
  5
F108EF
330
F108F0
100
AcDbEntity
8
Geo
100
AcDbLine
10
-52.4871116225547
20
1.68480964046970
30
0.000000000000000
11
-52.3871116225547
21
1.66682627567393
31
0.000000000000000
  0
LINE
  5
F108F1
330
F108F2
100
AcDbEntity
8
Geo
100
AcDbLine
10
-52.3871116225547
20
1.66682627567393
30
0.000000000000000
11
-52.2871116225547
21
1.64771345514777
31
0.000000000000000
  0
LINE
  5
F108F3
330
F108F4
100
AcDbEntity
8
Geo
100
AcDbLine
10
-52.2871116225547
20
1.64771345514777
30
0.000000000000000
11
-52.1871116225547
21
1.62747491691674
31
0.000000000000000
  0
LINE
  5
F108F5
330
F108F6
100
AcDbEntity
8
Geo
100
AcDbLine
10
-52.1871116225547
20
1.62747491691674
30
0.000000000000000
11
-52.0871116225547
21
1.60611461917072
31
0.000000000000000
  0
LINE
  5
F108F7
330
F108F8
100
AcDbEntity
8
Geo
100
AcDbLine
10
-52.0871116225547
20
1.60611461917072
30
0.000000000000000
11
-51.9871116225547
21
1.58363673948977
31
0.000000000000000
  0
LINE
  5
F108F9
330
F108FA
100
AcDbEntity
8
Geo
100
AcDbLine
10
-51.9871116225547
20
1.58363673948977
30
0.000000000000000
11
-51.8871116225547
21
1.56004567402715
31
0.000000000000000
  0
LINE
  5
F108FB
330
F108FC
100
AcDbEntity
8
Geo
100
AcDbLine
10
-51.8871116225547
20
1.56004567402715
30
0.000000000000000
11
-51.7871116225547
21
1.53534603664950
31
0.000000000000000
  0
LINE
  5
F108FD
330
F108FE
100
AcDbEntity
8
Geo
100
AcDbLine
10
-51.7871116225547
20
1.53534603664950
30
0.000000000000000
11
-51.6871116225547
21
1.50954265803448
31
0.000000000000000
  0
LINE
  5
F108FF
330
F10900
100
AcDbEntity
8
Geo
100
AcDbLine
10
-51.6871116225547
20
1.50954265803448
30
0.000000000000000
11
-51.5871116225547
21
1.48264058472598
31
0.000000000000000
  0
LINE
  5
F10901
330
F10902
100
AcDbEntity
8
Geo
100
AcDbLine
10
-51.5871116225547
20
1.48264058472598
30
0.000000000000000
11
-51.4871116225547
21
1.45464507814719
31
0.000000000000000
  0
LINE
  5
F10903
330
F10904
100
AcDbEntity
8
Geo
100
AcDbLine
10
-51.4871116225547
20
1.45464507814719
30
0.000000000000000
11
-51.3871116225547
21
1.42556161357152
31
0.000000000000000
  0
LINE
  5
F10905
330
F10906
100
AcDbEntity
8
Geo
100
AcDbLine
10
-51.3871116225547
20
1.42556161357152
30
0.000000000000000
11
-51.2871116225547
21
1.39539587905182
31
0.000000000000000
  0
LINE
  5
F10907
330
F10908
100
AcDbEntity
8
Geo
100
AcDbLine
10
-51.2871116225547
20
1.39539587905182
30
0.000000000000000
11
-51.1871116225547
21
1.36415377430788
31
0.000000000000000
  0
LINE
  5
F10909
330
F1090A
100
AcDbEntity
8
Geo
100
AcDbLine
10
-51.1871116225547
20
1.36415377430788
30
0.000000000000000
11
-51.0871116225547
21
1.33184140957263
31
0.000000000000000
  0
LINE
  5
F1090B
330
F1090C
100
AcDbEntity
8
Geo
100
AcDbLine
10
-51.0871116225547
20
1.33184140957263
30
0.000000000000000
11
-50.9871116225547
21
1.29846510439707
31
0.000000000000000
  0
LINE
  5
F1090D
330
F1090E
100
AcDbEntity
8
Geo
100
AcDbLine
10
-50.9871116225547
20
1.29846510439707
30
0.000000000000000
11
-50.8871116225547
21
1.26403138641435
31
0.000000000000000
  0
LINE
  5
F1090F
330
F10910
100
AcDbEntity
8
Geo
100
AcDbLine
10
-50.8871116225547
20
1.26403138641435
30
0.000000000000000
11
-50.7871116225547
21
1.22854699006310
31
0.000000000000000
  0
LINE
  5
F10911
330
F10912
100
AcDbEntity
8
Geo
100
AcDbLine
10
-50.7871116225547
20
1.22854699006310
30
0.000000000000000
11
-50.6871116225547
21
1.19201885527032
31
0.000000000000000
  0
LINE
  5
F10913
330
F10914
100
AcDbEntity
8
Geo
100
AcDbLine
10
-50.6871116225547
20
1.19201885527032
30
0.000000000000000
11
-50.5871116225547
21
1.15445412609413
31
0.000000000000000
  0
LINE
  5
F10915
330
F10916
100
AcDbEntity
8
Geo
100
AcDbLine
10
-50.5871116225547
20
1.15445412609413
30
0.000000000000000
11
-50.4871116225547
21
1.11586014932651
31
0.000000000000000
  0
LINE
  5
F10917
330
F10918
100
AcDbEntity
8
Geo
100
AcDbLine
10
-50.4871116225547
20
1.11586014932651
30
0.000000000000000
11
-50.3871116225547
21
1.07624447305646
31
0.000000000000000
  0
LINE
  5
F10919
330
F1091A
100
AcDbEntity
8
Geo
100
AcDbLine
10
-50.3871116225547
20
1.07624447305646
30
0.000000000000000
11
-50.2871116225547
21
1.03561484519376
31
0.000000000000000
  0
LINE
  5
F1091B
330
F1091C
100
AcDbEntity
8
Geo
100
AcDbLine
10
-50.2871116225547
20
1.03561484519376
30
0.000000000000000
11
-50.1871116225547
21
0.993979211953691
31
0.000000000000000
  0
LINE
  5
F1091D
330
F1091E
100
AcDbEntity
8
Geo
100
AcDbLine
10
-50.1871116225547
20
0.993979211953691
30
0.000000000000000
11
-50.0871116225547
21
0.951345716302876
31
0.000000000000000
  0
LINE
  5
F1091F
330
F10920
100
AcDbEntity
8
Geo
100
AcDbLine
10
-50.0871116225547
20
0.951345716302876
30
0.000000000000000
11
-49.9871116225547
21
0.907722696366763
31
0.000000000000000
  0
LINE
  5
F10921
330
F10922
100
AcDbEntity
8
Geo
100
AcDbLine
10
-49.9871116225547
20
0.907722696366763
30
0.000000000000000
11
-49.8871116225547
21
0.863118683798854
31
0.000000000000000
  0
LINE
  5
F10923
330
F10924
100
AcDbEntity
8
Geo
100
AcDbLine
10
-49.8871116225547
20
0.863118683798854
30
0.000000000000000
11
-49.7871116225547
21
0.817542402112115
31
0.000000000000000
  0
LINE
  5
F10925
330
F10926
100
AcDbEntity
8
Geo
100
AcDbLine
10
-49.7871116225547
20
0.817542402112115
30
0.000000000000000
11
-49.6871116225547
21
0.771002764972856
31
0.000000000000000
  0
LINE
  5
F10927
330
F10928
100
AcDbEntity
8
Geo
100
AcDbLine
10
-49.6871116225547
20
0.771002764972856
30
0.000000000000000
11
-49.5871116225547
21
0.723508874457427
31
0.000000000000000
  0
LINE
  5
F10929
330
F1092A
100
AcDbEntity
8
Geo
100
AcDbLine
10
-49.5871116225547
20
0.723508874457427
30
0.000000000000000
11
-49.4871116225547
21
0.675070019272067
31
0.000000000000000
  0
LINE
  5
F1092B
330
F1092C
100
AcDbEntity
8
Geo
100
AcDbLine
10
-49.4871116225547
20
0.675070019272067
30
0.000000000000000
11
-49.3871116225547
21
0.625695672936236
31
0.000000000000000
  0
LINE
  5
F1092D
330
F1092E
100
AcDbEntity
8
Geo
100
AcDbLine
10
-49.3871116225547
20
0.625695672936236
30
0.000000000000000
11
-49.2871116225547
21
0.575395491929827
31
0.000000000000000
  0
LINE
  5
F1092F
330
F10930
100
AcDbEntity
8
Geo
100
AcDbLine
10
-49.2871116225547
20
0.575395491929827
30
0.000000000000000
11
-49.1871116225547
21
0.524179313804570
31
0.000000000000000
  0
LINE
  5
F10931
330
F10932
100
AcDbEntity
8
Geo
100
AcDbLine
10
-49.1871116225547
20
0.524179313804570
30
0.000000000000000
11
-49.0871116225547
21
0.472057155260051
31
0.000000000000000
  0
LINE
  5
F10933
330
F10934
100
AcDbEntity
8
Geo
100
AcDbLine
10
-49.0871116225547
20
0.472057155260051
30
0.000000000000000
11
-48.9871116225547
21
0.419039210184648
31
0.000000000000000
  0
LINE
  5
F10935
330
F10936
100
AcDbEntity
8
Geo
100
AcDbLine
10
-48.9871116225547
20
0.419039210184648
30
0.000000000000000
11
-48.8871116225547
21
0.365135847661879
31
0.000000000000000
  0
LINE
  5
F10937
330
F10938
100
AcDbEntity
8
Geo
100
AcDbLine
10
-48.8871116225547
20
0.365135847661879
30
0.000000000000000
11
-48.7871116225547
21
0.310357609942423
31
0.000000000000000
  0
LINE
  5
F10939
330
F1093A
100
AcDbEntity
8
Geo
100
AcDbLine
10
-48.7871116225547
20
0.310357609942423
30
0.000000000000000
11
-48.6871116225547
21
0.254715210382308
31
0.000000000000000
  0
LINE
  5
F1093B
330
F1093C
100
AcDbEntity
8
Geo
100
AcDbLine
10
-48.6871116225547
20
0.254715210382308
30
0.000000000000000
11
-48.5871116225547
21
0.198219531347625
31
0.000000000000000
  0
LINE
  5
F1093D
330
F1093E
100
AcDbEntity
8
Geo
100
AcDbLine
10
-48.5871116225547
20
0.198219531347625
30
0.000000000000000
11
-48.4871116225547
21
0.140881622086193
31
0.000000000000000
  0
LINE
  5
F1093F
330
F10940
100
AcDbEntity
8
Geo
100
AcDbLine
10
-48.4871116225547
20
0.140881622086193
30
0.000000000000000
11
-48.3871116225547
21
0.0827126965665794
31
0.000000000000000
  0
LINE
  5
F10941
330
F10942
100
AcDbEntity
8
Geo
100
AcDbLine
10
-48.3871116225547
20
0.0827126965665794
30
0.000000000000000
11
-48.2871116225547
21
0.0237241312849008
31
0.000000000000000
  0
LINE
  5
F10943
330
F10944
100
AcDbEntity
8
Geo
100
AcDbLine
10
-48.2871116225547
20
0.0237241312849008
30
0.000000000000000
11
-48.1871116225547
21
-0.0360725369601456
31
0.000000000000000
  0
LINE
  5
F10945
330
F10946
100
AcDbEntity
8
Geo
100
AcDbLine
10
-48.1871116225547
20
-0.0360725369601456
30
0.000000000000000
11
-48.0871116225547
21
-0.0966656133236201
31
0.000000000000000
  0
LINE
  5
F10947
330
F10948
100
AcDbEntity
8
Geo
100
AcDbLine
10
-48.0871116225547
20
-0.0966656133236201
30
0.000000000000000
11
-47.9871116225547
21
-0.158043247201578
31
0.000000000000000
  0
LINE
  5
F10949
330
F1094A
100
AcDbEntity
8
Geo
100
AcDbLine
10
-47.9871116225547
20
-0.158043247201578
30
0.000000000000000
11
-47.8871116225547
21
-0.220193434548777
31
0.000000000000000
  0
LINE
  5
F1094B
330
F1094C
100
AcDbEntity
8
Geo
100
AcDbLine
10
-47.8871116225547
20
-0.220193434548777
30
0.000000000000000
11
-47.7871116225547
21
-0.283104020226388
31
0.000000000000000
  0
LINE
  5
F1094D
330
F1094E
100
AcDbEntity
8
Geo
100
AcDbLine
10
-47.7871116225547
20
-0.283104020226388
30
0.000000000000000
11
-47.6871116225547
21
-0.346762700379260
31
0.000000000000000
  0
LINE
  5
F1094F
330
F10950
100
AcDbEntity
8
Geo
100
AcDbLine
10
-47.6871116225547
20
-0.346762700379260
30
0.000000000000000
11
-47.5871116225547
21
-0.411157024842271
31
0.000000000000000
  0
LINE
  5
F10951
330
F10952
100
AcDbEntity
8
Geo
100
AcDbLine
10
-47.5871116225547
20
-0.411157024842271
30
0.000000000000000
11
-47.4871116225547
21
-0.476274399575286
31
0.000000000000000
  0
LINE
  5
F10953
330
F10954
100
AcDbEntity
8
Geo
100
AcDbLine
10
-47.4871116225547
20
-0.476274399575286
30
0.000000000000000
11
-47.3871116225547
21
-0.542102089126269
31
0.000000000000000
  0
LINE
  5
F10955
330
F10956
100
AcDbEntity
8
Geo
100
AcDbLine
10
-47.3871116225547
20
-0.542102089126269
30
0.000000000000000
11
-47.2871116225547
21
-0.608627219122040
31
0.000000000000000
  0
LINE
  5
F10957
330
F10958
100
AcDbEntity
8
Geo
100
AcDbLine
10
-47.2871116225547
20
-0.608627219122040
30
0.000000000000000
11
-47.1871116225547
21
-0.675836778786197
31
0.000000000000000
  0
LINE
  5
F10959
330
F1095A
100
AcDbEntity
8
Geo
100
AcDbLine
10
-47.1871116225547
20
-0.675836778786197
30
0.000000000000000
11
-47.0871116225547
21
-0.743717623483732
31
0.000000000000000
  0
LINE
  5
F1095B
330
F1095C
100
AcDbEntity
8
Geo
100
AcDbLine
10
-47.0871116225547
20
-0.743717623483732
30
0.000000000000000
11
-46.9871116225547
21
-0.812256477291817
31
0.000000000000000
  0
LINE
  5
F1095D
330
F1095E
100
AcDbEntity
8
Geo
100
AcDbLine
10
-46.9871116225547
20
-0.812256477291817
30
0.000000000000000
11
-46.8871116225547
21
-0.881439935596261
31
0.000000000000000
  0
LINE
  5
F1095F
330
F10960
100
AcDbEntity
8
Geo
100
AcDbLine
10
-46.8871116225547
20
-0.881439935596261
30
0.000000000000000
11
-46.7871116225547
21
-0.951254467713146
31
0.000000000000000
  0
LINE
  5
F10961
330
F10962
100
AcDbEntity
8
Geo
100
AcDbLine
10
-46.7871116225547
20
-0.951254467713146
30
0.000000000000000
11
-46.6871116225547
21
-1.02168641953512
31
0.000000000000000
  0
LINE
  5
F10963
330
F10964
100
AcDbEntity
8
Geo
100
AcDbLine
10
-46.6871116225547
20
-1.02168641953512
30
0.000000000000000
11
-46.5871116225547
21
-1.09272201620181
31
0.000000000000000
  0
LINE
  5
F10965
330
F10966
100
AcDbEntity
8
Geo
100
AcDbLine
10
-46.5871116225547
20
-1.09272201620181
30
0.000000000000000
11
-46.4871116225547
21
-1.16434736479389
31
0.000000000000000
  0
LINE
  5
F10967
330
F10968
100
AcDbEntity
8
Geo
100
AcDbLine
10
-46.4871116225547
20
-1.16434736479389
30
0.000000000000000
11
-46.3871116225547
21
-1.23654845705020
31
0.000000000000000
  0
LINE
  5
F10969
330
F1096A
100
AcDbEntity
8
Geo
100
AcDbLine
10
-46.3871116225547
20
-1.23654845705020
30
0.000000000000000
11
-46.2871116225547
21
-1.30931117210743
31
0.000000000000000
  0
LINE
  5
F1096B
330
F1096C
100
AcDbEntity
8
Geo
100
AcDbLine
10
-46.2871116225547
20
-1.30931117210743
30
0.000000000000000
11
-46.1871116225547
21
-1.38262127926184
31
0.000000000000000
  0
LINE
  5
F1096D
330
F1096E
100
AcDbEntity
8
Geo
100
AcDbLine
10
-46.1871116225547
20
-1.38262127926184
30
0.000000000000000
11
-46.0871116225547
21
-1.45646444075248
31
0.000000000000000
  0
LINE
  5
F1096F
330
F10970
100
AcDbEntity
8
Geo
100
AcDbLine
10
-46.0871116225547
20
-1.45646444075248
30
0.000000000000000
11
-45.9871116225547
21
-1.53082621456527
31
0.000000000000000
  0
LINE
  5
F10971
330
F10972
100
AcDbEntity
8
Geo
100
AcDbLine
10
-45.9871116225547
20
-1.53082621456527
30
0.000000000000000
11
-45.8871116225547
21
-1.60569205725760
31
0.000000000000000
  0
LINE
  5
F10973
330
F10974
100
AcDbEntity
8
Geo
100
AcDbLine
10
-45.8871116225547
20
-1.60569205725760
30
0.000000000000000
11
-45.7871116225547
21
-1.68104732680261
31
0.000000000000000
  0
LINE
  5
F10975
330
F10976
100
AcDbEntity
8
Geo
100
AcDbLine
10
-45.7871116225547
20
-1.68104732680261
30
0.000000000000000
11
-45.6871116225547
21
-1.75687728545289
31
0.000000000000000
  0
LINE
  5
F10977
330
F10978
100
AcDbEntity
8
Geo
100
AcDbLine
10
-45.6871116225547
20
-1.75687728545289
30
0.000000000000000
11
-45.5871116225547
21
-1.83316710262283
31
0.000000000000000
  0
LINE
  5
F10979
330
F1097A
100
AcDbEntity
8
Geo
100
AcDbLine
10
-45.5871116225547
20
-1.83316710262283
30
0.000000000000000
11
-45.4871116225547
21
-1.90990185778911
31
0.000000000000000
  0
LINE
  5
F1097B
330
F1097C
100
AcDbEntity
8
Geo
100
AcDbLine
10
-45.4871116225547
20
-1.90990185778911
30
0.000000000000000
11
-45.3871116225547
21
-1.98706654340884
31
0.000000000000000
  0
LINE
  5
F1097D
330
F1097E
100
AcDbEntity
8
Geo
100
AcDbLine
10
-45.3871116225547
20
-1.98706654340884
30
0.000000000000000
11
-45.2871116225547
21
-2.06464606785470
31
0.000000000000000
  0
LINE
  5
F1097F
330
F10980
100
AcDbEntity
8
Geo
100
AcDbLine
10
-45.2871116225547
20
-2.06464606785470
30
0.000000000000000
11
-45.1871116225547
21
-2.14262525836646
31
0.000000000000000
  0
LINE
  5
F10981
330
F10982
100
AcDbEntity
8
Geo
100
AcDbLine
10
-45.1871116225547
20
-2.14262525836646
30
0.000000000000000
11
-45.0871116225547
21
-2.22098886401847
31
0.000000000000000
  0
LINE
  5
F10983
330
F10984
100
AcDbEntity
8
Geo
100
AcDbLine
10
-45.0871116225547
20
-2.22098886401847
30
0.000000000000000
11
-44.9871116225547
21
-2.29972155870237
31
0.000000000000000
  0
LINE
  5
F10985
330
F10986
100
AcDbEntity
8
Geo
100
AcDbLine
10
-44.9871116225547
20
-2.29972155870237
30
0.000000000000000
11
-44.8871116225547
21
-2.37880794412453
31
0.000000000000000
  0
LINE
  5
F10987
330
F10988
100
AcDbEntity
8
Geo
100
AcDbLine
10
-44.8871116225547
20
-2.37880794412453
30
0.000000000000000
11
-44.7871116225547
21
-2.45823255281759
31
0.000000000000000
  0
LINE
  5
F10989
330
F1098A
100
AcDbEntity
8
Geo
100
AcDbLine
10
-44.7871116225547
20
-2.45823255281759
30
0.000000000000000
11
-44.6871116225547
21
-2.53797985116554
31
0.000000000000000
  0
LINE
  5
F1098B
330
F1098C
100
AcDbEntity
8
Geo
100
AcDbLine
10
-44.6871116225547
20
-2.53797985116554
30
0.000000000000000
11
-44.5871116225547
21
-2.61803424244173
31
0.000000000000000
  0
LINE
  5
F1098D
330
F1098E
100
AcDbEntity
8
Geo
100
AcDbLine
10
-44.5871116225547
20
-2.61803424244173
30
0.000000000000000
11
-44.4871116225547
21
-2.69838006985926
31
0.000000000000000
  0
LINE
  5
F1098F
330
F10990
100
AcDbEntity
8
Geo
100
AcDbLine
10
-44.4871116225547
20
-2.69838006985926
30
0.000000000000000
11
-44.3871116225547
21
-2.77900161963305
31
0.000000000000000
  0
LINE
  5
F10991
330
F10992
100
AcDbEntity
8
Geo
100
AcDbLine
10
-44.3871116225547
20
-2.77900161963305
30
0.000000000000000
11
-44.2871116225547
21
-2.85988312405311
31
0.000000000000000
  0
LINE
  5
F10993
330
F10994
100
AcDbEntity
8
Geo
100
AcDbLine
10
-44.2871116225547
20
-2.85988312405311
30
0.000000000000000
11
-44.1871116225547
21
-2.94100876456831
31
0.000000000000000
  0
LINE
  5
F10995
330
F10996
100
AcDbEntity
8
Geo
100
AcDbLine
10
-44.1871116225547
20
-2.94100876456831
30
0.000000000000000
11
-44.0871116225547
21
-3.02236267488020
31
0.000000000000000
  0
LINE
  5
F10997
330
F10998
100
AcDbEntity
8
Geo
100
AcDbLine
10
-44.0871116225547
20
-3.02236267488020
30
0.000000000000000
11
-43.9871116225547
21
-3.10392894404599
31
0.000000000000000
  0
LINE
  5
F10999
330
F1099A
100
AcDbEntity
8
Geo
100
AcDbLine
10
-43.9871116225547
20
-3.10392894404599
30
0.000000000000000
11
-43.8871116225547
21
-3.18569161959044
31
0.000000000000000
  0
LINE
  5
F1099B
330
F1099C
100
AcDbEntity
8
Geo
100
AcDbLine
10
-43.8871116225547
20
-3.18569161959044
30
0.000000000000000
11
-43.7871116225547
21
-3.26763471062574
31
0.000000000000000
  0
LINE
  5
F1099D
330
F1099E
100
AcDbEntity
8
Geo
100
AcDbLine
10
-43.7871116225547
20
-3.26763471062574
30
0.000000000000000
11
-43.6871116225547
21
-3.34974219097901
31
0.000000000000000
  0
LINE
  5
F1099F
330
F109A0
100
AcDbEntity
8
Geo
100
AcDbLine
10
-43.6871116225547
20
-3.34974219097901
30
0.000000000000000
11
-43.5871116225547
21
-3.43199800232662
31
0.000000000000000
  0
LINE
  5
F109A1
330
F109A2
100
AcDbEntity
8
Geo
100
AcDbLine
10
-43.5871116225547
20
-3.43199800232662
30
0.000000000000000
11
-43.4871116225547
21
-3.51438605733480
31
0.000000000000000
  0
LINE
  5
F109A3
330
F109A4
100
AcDbEntity
8
Geo
100
AcDbLine
10
-43.4871116225547
20
-3.51438605733480
30
0.000000000000000
11
-43.3871116225547
21
-3.59689024280602
31
0.000000000000000
  0
LINE
  5
F109A5
330
F109A6
100
AcDbEntity
8
Geo
100
AcDbLine
10
-43.3871116225547
20
-3.59689024280602
30
0.000000000000000
11
-43.2871116225547
21
-3.67949442283029
31
0.000000000000000
  0
LINE
  5
F109A7
330
F109A8
100
AcDbEntity
8
Geo
100
AcDbLine
10
-43.2871116225547
20
-3.67949442283029
30
0.000000000000000
11
-43.1871116225547
21
-3.76218244194100
31
0.000000000000000
  0
LINE
  5
F109A9
330
F109AA
100
AcDbEntity
8
Geo
100
AcDbLine
10
-43.1871116225547
20
-3.76218244194100
30
0.000000000000000
11
-43.0871116225547
21
-3.84493812827458
31
0.000000000000000
  0
LINE
  5
F109AB
330
F109AC
100
AcDbEntity
8
Geo
100
AcDbLine
10
-43.0871116225547
20
-3.84493812827458
30
0.000000000000000
11
-42.9871116225547
21
-3.92774529673328
31
0.000000000000000
  0
LINE
  5
F109AD
330
F109AE
100
AcDbEntity
8
Geo
100
AcDbLine
10
-42.9871116225547
20
-3.92774529673328
30
0.000000000000000
11
-42.8871116225547
21
-4.01058775215066
31
0.000000000000000
  0
LINE
  5
F109AF
330
F109B0
100
AcDbEntity
8
Geo
100
AcDbLine
10
-42.8871116225547
20
-4.01058775215066
30
0.000000000000000
11
-42.7871116225547
21
-4.09344929245897
31
0.000000000000000
  0
LINE
  5
F109B1
330
F109B2
100
AcDbEntity
8
Geo
100
AcDbLine
10
-42.7871116225547
20
-4.09344929245897
30
0.000000000000000
11
-42.6871116225547
21
-4.17631371185789
31
0.000000000000000
  0
LINE
  5
F109B3
330
F109B4
100
AcDbEntity
8
Geo
100
AcDbLine
10
-42.6871116225547
20
-4.17631371185789
30
0.000000000000000
11
-42.5871116225547
21
-4.25916480398400
31
0.000000000000000
  0
LINE
  5
F109B5
330
F109B6
100
AcDbEntity
8
Geo
100
AcDbLine
10
-42.5871116225547
20
-4.25916480398400
30
0.000000000000000
11
-42.4871116225547
21
-4.34198636508041
31
0.000000000000000
  0
LINE
  5
F109B7
330
F109B8
100
AcDbEntity
8
Geo
100
AcDbLine
10
-42.4871116225547
20
-4.34198636508041
30
0.000000000000000
11
-42.3871116225547
21
-4.42476219716582
31
0.000000000000000
  0
LINE
  5
F109B9
330
F109BA
100
AcDbEntity
8
Geo
100
AcDbLine
10
-42.3871116225547
20
-4.42476219716582
30
0.000000000000000
11
-42.2871116225547
21
-4.50747611120244
31
0.000000000000000
  0
LINE
  5
F109BB
330
F109BC
100
AcDbEntity
8
Geo
100
AcDbLine
10
-42.2871116225547
20
-4.50747611120244
30
0.000000000000000
11
-42.1871116225547
21
-4.59011193026224
31
0.000000000000000
  0
LINE
  5
F109BD
330
F109BE
100
AcDbEntity
8
Geo
100
AcDbLine
10
-42.1871116225547
20
-4.59011193026224
30
0.000000000000000
11
-42.0871116225547
21
-4.67265349269076
31
0.000000000000000
  0
LINE
  5
F109BF
330
F109C0
100
AcDbEntity
8
Geo
100
AcDbLine
10
-42.0871116225547
20
-4.67265349269076
30
0.000000000000000
11
-41.9871116225547
21
-4.75508465526793
31
0.000000000000000
  0
LINE
  5
F109C1
330
F109C2
100
AcDbEntity
8
Geo
100
AcDbLine
10
-41.9871116225547
20
-4.75508465526793
30
0.000000000000000
11
-41.8871116225547
21
-4.83738929636538
31
0.000000000000000
  0
LINE
  5
F109C3
330
F109C4
100
AcDbEntity
8
Geo
100
AcDbLine
10
-41.8871116225547
20
-4.83738929636538
30
0.000000000000000
11
-41.7871116225547
21
-4.91955131909938
31
0.000000000000000
  0
LINE
  5
F109C5
330
F109C6
100
AcDbEntity
8
Geo
100
AcDbLine
10
-41.7871116225547
20
-4.91955131909938
30
0.000000000000000
11
-41.6871116225547
21
-5.00155465447906
31
0.000000000000000
  0
LINE
  5
F109C7
330
F109C8
100
AcDbEntity
8
Geo
100
AcDbLine
10
-41.6871116225547
20
-5.00155465447906
30
0.000000000000000
11
-41.5871116225547
21
-5.08338326454914
31
0.000000000000000
  0
LINE
  5
F109C9
330
F109CA
100
AcDbEntity
8
Geo
100
AcDbLine
10
-41.5871116225547
20
-5.08338326454914
30
0.000000000000000
11
-41.4871116225547
21
-5.16502114552654
31
0.000000000000000
  0
LINE
  5
F109CB
330
F109CC
100
AcDbEntity
8
Geo
100
AcDbLine
10
-41.4871116225547
20
-5.16502114552654
30
0.000000000000000
11
-41.3871116225547
21
-5.24645233093042
31
0.000000000000000
  0
LINE
  5
F109CD
330
F109CE
100
AcDbEntity
8
Geo
100
AcDbLine
10
-41.3871116225547
20
-5.24645233093042
30
0.000000000000000
11
-41.2871116225547
21
-5.32766089470478
31
0.000000000000000
  0
LINE
  5
F109CF
330
F109D0
100
AcDbEntity
8
Geo
100
AcDbLine
10
-41.2871116225547
20
-5.32766089470478
30
0.000000000000000
11
-41.1871116225547
21
-5.40863095433326
31
0.000000000000000
  0
LINE
  5
F109D1
330
F109D2
100
AcDbEntity
8
Geo
100
AcDbLine
10
-41.1871116225547
20
-5.40863095433326
30
0.000000000000000
11
-41.0871116225547
21
-5.48934667394540
31
0.000000000000000
  0
LINE
  5
F109D3
330
F109D4
100
AcDbEntity
8
Geo
100
AcDbLine
10
-41.0871116225547
20
-5.48934667394540
30
0.000000000000000
11
-40.9871116225547
21
-5.56979226741378
31
0.000000000000000
  0
LINE
  5
F109D5
330
F109D6
100
AcDbEntity
8
Geo
100
AcDbLine
10
-40.9871116225547
20
-5.56979226741378
30
0.000000000000000
11
-40.8871116225547
21
-5.64995200144138
31
0.000000000000000
  0
LINE
  5
F109D7
330
F109D8
100
AcDbEntity
8
Geo
100
AcDbLine
10
-40.8871116225547
20
-5.64995200144138
30
0.000000000000000
11
-40.7871116225547
21
-5.72981019863868
31
0.000000000000000
  0
LINE
  5
F109D9
330
F109DA
100
AcDbEntity
8
Geo
100
AcDbLine
10
-40.7871116225547
20
-5.72981019863868
30
0.000000000000000
11
-40.6871116225547
21
-5.80935124058980
31
0.000000000000000
  0
LINE
  5
F109DB
330
F109DC
100
AcDbEntity
8
Geo
100
AcDbLine
10
-40.6871116225547
20
-5.80935124058980
30
0.000000000000000
11
-40.5871116225547
21
-5.88855957090708
31
0.000000000000000
  0
LINE
  5
F109DD
330
F109DE
100
AcDbEntity
8
Geo
100
AcDbLine
10
-40.5871116225547
20
-5.88855957090708
30
0.000000000000000
11
-40.4871116225547
21
-5.96741969827354
31
0.000000000000000
  0
LINE
  5
F109DF
330
F109E0
100
AcDbEntity
8
Geo
100
AcDbLine
10
-40.4871116225547
20
-5.96741969827354
30
0.000000000000000
11
-40.3871116225547
21
-6.04591619947269
31
0.000000000000000
  0
LINE
  5
F109E1
330
F109E2
100
AcDbEntity
8
Geo
100
AcDbLine
10
-40.3871116225547
20
-6.04591619947269
30
0.000000000000000
11
-40.2871116225547
21
-6.12403372240485
31
0.000000000000000
  0
LINE
  5
F109E3
330
F109E4
100
AcDbEntity
8
Geo
100
AcDbLine
10
-40.2871116225547
20
-6.12403372240485
30
0.000000000000000
11
-40.1871116225547
21
-6.20175698908976
31
0.000000000000000
  0
LINE
  5
F109E5
330
F109E6
100
AcDbEntity
8
Geo
100
AcDbLine
10
-40.1871116225547
20
-6.20175698908976
30
0.000000000000000
11
-40.0871116225547
21
-6.27907079865454
31
0.000000000000000
  0
LINE
  5
F109E7
330
F109E8
100
AcDbEntity
8
Geo
100
AcDbLine
10
-40.0871116225547
20
-6.27907079865454
30
0.000000000000000
11
-39.9871116225547
21
-6.35596003030667
31
0.000000000000000
  0
LINE
  5
F109E9
330
F109EA
100
AcDbEntity
8
Geo
100
AcDbLine
10
-39.9871116225547
20
-6.35596003030667
30
0.000000000000000
11
-39.8871116225547
21
-6.43240964629123
31
0.000000000000000
  0
LINE
  5
F109EB
330
F109EC
100
AcDbEntity
8
Geo
100
AcDbLine
10
-39.8871116225547
20
-6.43240964629123
30
0.000000000000000
11
-39.7871116225547
21
-6.50840469483196
31
0.000000000000000
  0
LINE
  5
F109ED
330
F109EE
100
AcDbEntity
8
Geo
100
AcDbLine
10
-39.7871116225547
20
-6.50840469483196
30
0.000000000000000
11
-39.6871116225547
21
-6.58393031305548
31
0.000000000000000
  0
LINE
  5
F109EF
330
F109F0
100
AcDbEntity
8
Geo
100
AcDbLine
10
-39.6871116225547
20
-6.58393031305548
30
0.000000000000000
11
-39.5871116225547
21
-6.65897172989811
31
0.000000000000000
  0
LINE
  5
F109F1
330
F109F2
100
AcDbEntity
8
Geo
100
AcDbLine
10
-39.5871116225547
20
-6.65897172989811
30
0.000000000000000
11
-39.4871116225547
21
-6.73351426899476
31
0.000000000000000
  0
LINE
  5
F109F3
330
F109F4
100
AcDbEntity
8
Geo
100
AcDbLine
10
-39.4871116225547
20
-6.73351426899476
30
0.000000000000000
11
-39.3871116225547
21
-6.80754335154931
31
0.000000000000000
  0
LINE
  5
F109F5
330
F109F6
100
AcDbEntity
8
Geo
100
AcDbLine
10
-39.3871116225547
20
-6.80754335154931
30
0.000000000000000
11
-39.2871116225547
21
-6.88104449918582
31
0.000000000000000
  0
LINE
  5
F109F7
330
F109F8
100
AcDbEntity
8
Geo
100
AcDbLine
10
-39.2871116225547
20
-6.88104449918582
30
0.000000000000000
11
-39.1871116225547
21
-6.95400333678024
31
0.000000000000000
  0
LINE
  5
F109F9
330
F109FA
100
AcDbEntity
8
Geo
100
AcDbLine
10
-39.1871116225547
20
-6.95400333678024
30
0.000000000000000
11
-39.0871116225547
21
-7.02640559527181
31
0.000000000000000
  0
LINE
  5
F109FB
330
F109FC
100
AcDbEntity
8
Geo
100
AcDbLine
10
-39.0871116225547
20
-7.02640559527181
30
0.000000000000000
11
-38.9871116225547
21
-7.09823711445374
31
0.000000000000000
  0
LINE
  5
F109FD
330
F109FE
100
AcDbEntity
8
Geo
100
AcDbLine
10
-38.9871116225547
20
-7.09823711445374
30
0.000000000000000
11
-38.8871116225547
21
-7.16948384574269
31
0.000000000000000
  0
LINE
  5
F109FF
330
F10A00
100
AcDbEntity
8
Geo
100
AcDbLine
10
-38.8871116225547
20
-7.16948384574269
30
0.000000000000000
11
-38.7871116225547
21
-7.24013185492627
31
0.000000000000000
  0
LINE
  5
F10A01
330
F10A02
100
AcDbEntity
8
Geo
100
AcDbLine
10
-38.7871116225547
20
-7.24013185492627
30
0.000000000000000
11
-38.6871116225547
21
-7.31016732488830
31
0.000000000000000
  0
LINE
  5
F10A03
330
F10A04
100
AcDbEntity
8
Geo
100
AcDbLine
10
-38.6871116225547
20
-7.31016732488830
30
0.000000000000000
11
-38.5871116225547
21
-7.37957655831108
31
0.000000000000000
  0
LINE
  5
F10A05
330
F10A06
100
AcDbEntity
8
Geo
100
AcDbLine
10
-38.5871116225547
20
-7.37957655831108
30
0.000000000000000
11
-38.4871116225547
21
-7.44834598035432
31
0.000000000000000
  0
LINE
  5
F10A07
330
F10A08
100
AcDbEntity
8
Geo
100
AcDbLine
10
-38.4871116225547
20
-7.44834598035432
30
0.000000000000000
11
-38.3871116225547
21
-7.51646214131001
31
0.000000000000000
  0
LINE
  5
F10A09
330
F10A0A
100
AcDbEntity
8
Geo
100
AcDbLine
10
-38.3871116225547
20
-7.51646214131001
30
0.000000000000000
11
-38.2871116225547
21
-7.58391171923290
31
0.000000000000000
  0
LINE
  5
F10A0B
330
F10A0C
100
AcDbEntity
8
Geo
100
AcDbLine
10
-38.2871116225547
20
-7.58391171923290
30
0.000000000000000
11
-38.1871116225547
21
-7.65068152254596
31
0.000000000000000
  0
LINE
  5
F10A0D
330
F10A0E
100
AcDbEntity
8
Geo
100
AcDbLine
10
-38.1871116225547
20
-7.65068152254596
30
0.000000000000000
11
-38.0871116225547
21
-7.71675849262037
31
0.000000000000000
  0
LINE
  5
F10A0F
330
F10A10
100
AcDbEntity
8
Geo
100
AcDbLine
10
-38.0871116225547
20
-7.71675849262037
30
0.000000000000000
11
-37.9871116225547
21
-7.78212970632942
31
0.000000000000000
  0
LINE
  5
F10A11
330
F10A12
100
AcDbEntity
8
Geo
100
AcDbLine
10
-37.9871116225547
20
-7.78212970632942
30
0.000000000000000
11
-37.8871116225547
21
-7.84678237857606
31
0.000000000000000
  0
LINE
  5
F10A13
330
F10A14
100
AcDbEntity
8
Geo
100
AcDbLine
10
-37.8871116225547
20
-7.84678237857606
30
0.000000000000000
11
-37.7871116225547
21
-7.91070386479330
31
0.000000000000000
  0
LINE
  5
F10A15
330
F10A16
100
AcDbEntity
8
Geo
100
AcDbLine
10
-37.7871116225547
20
-7.91070386479330
30
0.000000000000000
11
-37.6871116225547
21
-7.97388166341723
31
0.000000000000000
  0
LINE
  5
F10A17
330
F10A18
100
AcDbEntity
8
Geo
100
AcDbLine
10
-37.6871116225547
20
-7.97388166341723
30
0.000000000000000
11
-37.5871116225547
21
-8.03630341833202
31
0.000000000000000
  0
LINE
  5
F10A19
330
F10A1A
100
AcDbEntity
8
Geo
100
AcDbLine
10
-37.5871116225547
20
-8.03630341833202
30
0.000000000000000
11
-37.4871116225547
21
-8.09795692128653
31
0.000000000000000
  0
LINE
  5
F10A1B
330
F10A1C
100
AcDbEntity
8
Geo
100
AcDbLine
10
-37.4871116225547
20
-8.09795692128653
30
0.000000000000000
11
-37.3871116225547
21
-8.15883011428189
31
0.000000000000000
  0
LINE
  5
F10A1D
330
F10A1E
100
AcDbEntity
8
Geo
100
AcDbLine
10
-37.3871116225547
20
-8.15883011428189
30
0.000000000000000
11
-37.2871116225547
21
-8.21891109192983
31
0.000000000000000
  0
LINE
  5
F10A1F
330
F10A20
100
AcDbEntity
8
Geo
100
AcDbLine
10
-37.2871116225547
20
-8.21891109192983
30
0.000000000000000
11
-37.1871116225547
21
-8.27818810378106
31
0.000000000000000
  0
LINE
  5
F10A21
330
F10A22
100
AcDbEntity
8
Geo
100
AcDbLine
10
-37.1871116225547
20
-8.27818810378106
30
0.000000000000000
11
-37.0871116225547
21
-8.33664955662342
31
0.000000000000000
  0
LINE
  5
F10A23
330
F10A24
100
AcDbEntity
8
Geo
100
AcDbLine
10
-37.0871116225547
20
-8.33664955662342
30
0.000000000000000
11
-36.9871116225547
21
-8.39428401674921
31
0.000000000000000
  0
LINE
  5
F10A25
330
F10A26
100
AcDbEntity
8
Geo
100
AcDbLine
10
-36.9871116225547
20
-8.39428401674921
30
0.000000000000000
11
-36.8871116225547
21
-8.45108021219137
31
0.000000000000000
  0
LINE
  5
F10A27
330
F10A28
100
AcDbEntity
8
Geo
100
AcDbLine
10
-36.8871116225547
20
-8.45108021219137
30
0.000000000000000
11
-36.7871116225547
21
-8.50702703492803
31
0.000000000000000
  0
LINE
  5
F10A29
330
F10A2A
100
AcDbEntity
8
Geo
100
AcDbLine
10
-36.7871116225547
20
-8.50702703492803
30
0.000000000000000
11
-36.6871116225547
21
-8.56211354305497
31
0.000000000000000
  0
LINE
  5
F10A2B
330
F10A2C
100
AcDbEntity
8
Geo
100
AcDbLine
10
-36.6871116225547
20
-8.56211354305497
30
0.000000000000000
11
-36.5871116225547
21
-8.61632896292559
31
0.000000000000000
  0
LINE
  5
F10A2D
330
F10A2E
100
AcDbEntity
8
Geo
100
AcDbLine
10
-36.5871116225547
20
-8.61632896292559
30
0.000000000000000
11
-36.4871116225547
21
-8.66966269125803
31
0.000000000000000
  0
LINE
  5
F10A2F
330
F10A30
100
AcDbEntity
8
Geo
100
AcDbLine
10
-36.4871116225547
20
-8.66966269125803
30
0.000000000000000
11
-36.3871116225547
21
-8.72210429720886
31
0.000000000000000
  0
LINE
  5
F10A31
330
F10A32
100
AcDbEntity
8
Geo
100
AcDbLine
10
-36.3871116225547
20
-8.72210429720886
30
0.000000000000000
11
-36.2871116225547
21
-8.77364352441318
31
0.000000000000000
  0
LINE
  5
F10A33
330
F10A34
100
AcDbEntity
8
Geo
100
AcDbLine
10
-36.2871116225547
20
-8.77364352441318
30
0.000000000000000
11
-36.1871116225547
21
-8.82427029299049
31
0.000000000000000
  0
LINE
  5
F10A35
330
F10A36
100
AcDbEntity
8
Geo
100
AcDbLine
10
-36.1871116225547
20
-8.82427029299049
30
0.000000000000000
11
-36.0871116225547
21
-8.87397470151607
31
0.000000000000000
  0
LINE
  5
F10A37
330
F10A38
100
AcDbEntity
8
Geo
100
AcDbLine
10
-36.0871116225547
20
-8.87397470151607
30
0.000000000000000
11
-35.9871116225547
21
-8.92274702895751
31
0.000000000000000
  0
LINE
  5
F10A39
330
F10A3A
100
AcDbEntity
8
Geo
100
AcDbLine
10
-35.9871116225547
20
-8.92274702895751
30
0.000000000000000
11
-35.8871116225547
21
-8.97057773657588
31
0.000000000000000
  0
LINE
  5
F10A3B
330
F10A3C
100
AcDbEntity
8
Geo
100
AcDbLine
10
-35.8871116225547
20
-8.97057773657588
30
0.000000000000000
11
-35.7871116225547
21
-9.01745746979132
31
0.000000000000000
  0
LINE
  5
F10A3D
330
F10A3E
100
AcDbEntity
8
Geo
100
AcDbLine
10
-35.7871116225547
20
-9.01745746979132
30
0.000000000000000
11
-35.6871116225547
21
-9.06337706001255
31
0.000000000000000
  0
LINE
  5
F10A3F
330
F10A40
100
AcDbEntity
8
Geo
100
AcDbLine
10
-35.6871116225547
20
-9.06337706001255
30
0.000000000000000
11
-35.5871116225547
21
-9.10832752643006
31
0.000000000000000
  0
LINE
  5
F10A41
330
F10A42
100
AcDbEntity
8
Geo
100
AcDbLine
10
-35.5871116225547
20
-9.10832752643006
30
0.000000000000000
11
-35.4871116225547
21
-9.15230007777251
31
0.000000000000000
  0
LINE
  5
F10A43
330
F10A44
100
AcDbEntity
8
Geo
100
AcDbLine
10
-35.4871116225547
20
-9.15230007777251
30
0.000000000000000
11
-35.3871116225547
21
-9.19528611402616
31
0.000000000000000
  0
LINE
  5
F10A45
330
F10A46
100
AcDbEntity
8
Geo
100
AcDbLine
10
-35.3871116225547
20
-9.19528611402616
30
0.000000000000000
11
-35.2871116225547
21
-9.23727722811677
31
0.000000000000000
  0
LINE
  5
F10A47
330
F10A48
100
AcDbEntity
8
Geo
100
AcDbLine
10
-35.2871116225547
20
-9.23727722811677
30
0.000000000000000
11
-35.1871116225547
21
-9.27826520755387
31
0.000000000000000
  0
LINE
  5
F10A49
330
F10A4A
100
AcDbEntity
8
Geo
100
AcDbLine
10
-35.1871116225547
20
-9.27826520755387
30
0.000000000000000
11
-35.0871116225547
21
-9.31824203603692
31
0.000000000000000
  0
LINE
  5
F10A4B
330
F10A4C
100
AcDbEntity
8
Geo
100
AcDbLine
10
-35.0871116225547
20
-9.31824203603692
30
0.000000000000000
11
-34.9871116225547
21
-9.35719989502312
31
0.000000000000000
  0
LINE
  5
F10A4D
330
F10A4E
100
AcDbEntity
8
Geo
100
AcDbLine
10
-34.9871116225547
20
-9.35719989502312
30
0.000000000000000
11
-34.8871116225547
21
-9.39513116525652
31
0.000000000000000
  0
LINE
  5
F10A4F
330
F10A50
100
AcDbEntity
8
Geo
100
AcDbLine
10
-34.8871116225547
20
-9.39513116525652
30
0.000000000000000
11
-34.7871116225547
21
-9.43202842825819
31
0.000000000000000
  0
LINE
  5
F10A51
330
F10A52
100
AcDbEntity
8
Geo
100
AcDbLine
10
-34.7871116225547
20
-9.43202842825819
30
0.000000000000000
11
-34.6871116225547
21
-9.46788446777708
31
0.000000000000000
  0
LINE
  5
F10A53
330
F10A54
100
AcDbEntity
8
Geo
100
AcDbLine
10
-34.6871116225547
20
-9.46788446777708
30
0.000000000000000
11
-34.5871116225547
21
-9.50269227120138
31
0.000000000000000
  0
LINE
  5
F10A55
330
F10A56
100
AcDbEntity
8
Geo
100
AcDbLine
10
-34.5871116225547
20
-9.50269227120138
30
0.000000000000000
11
-34.4871116225547
21
-9.53644503093000
31
0.000000000000000
  0
LINE
  5
F10A57
330
F10A58
100
AcDbEntity
8
Geo
100
AcDbLine
10
-34.4871116225547
20
-9.53644503093000
30
0.000000000000000
11
-34.3871116225547
21
-9.56913614570399
31
0.000000000000000
  0
LINE
  5
F10A59
330
F10A5A
100
AcDbEntity
8
Geo
100
AcDbLine
10
-34.3871116225547
20
-9.56913614570399
30
0.000000000000000
11
-34.2871116225547
21
-9.60075922189760
31
0.000000000000000
  0
LINE
  5
F10A5B
330
F10A5C
100
AcDbEntity
8
Geo
100
AcDbLine
10
-34.2871116225547
20
-9.60075922189760
30
0.000000000000000
11
-34.1871116225547
21
-9.63130807476870
31
0.000000000000000
  0
LINE
  5
F10A5D
330
F10A5E
100
AcDbEntity
8
Geo
100
AcDbLine
10
-34.1871116225547
20
-9.63130807476870
30
0.000000000000000
11
-34.0871116225547
21
-9.66077672966841
31
0.000000000000000
  0
LINE
  5
F10A5F
330
F10A60
100
AcDbEntity
8
Geo
100
AcDbLine
10
-34.0871116225547
20
-9.66077672966841
30
0.000000000000000
11
-33.9871116225547
21
-9.68915942320958
31
0.000000000000000
  0
LINE
  5
F10A61
330
F10A62
100
AcDbEntity
8
Geo
100
AcDbLine
10
-33.9871116225547
20
-9.68915942320958
30
0.000000000000000
11
-33.8871116225547
21
-9.71645060439397
31
0.000000000000000
  0
LINE
  5
F10A63
330
F10A64
100
AcDbEntity
8
Geo
100
AcDbLine
10
-33.8871116225547
20
-9.71645060439397
30
0.000000000000000
11
-33.7871116225547
21
-9.74264493569791
31
0.000000000000000
  0
LINE
  5
F10A65
330
F10A66
100
AcDbEntity
8
Geo
100
AcDbLine
10
-33.7871116225547
20
-9.74264493569791
30
0.000000000000000
11
-33.6871116225547
21
-9.76773729411619
31
0.000000000000000
  0
LINE
  5
F10A67
330
F10A68
100
AcDbEntity
8
Geo
100
AcDbLine
10
-33.6871116225547
20
-9.76773729411619
30
0.000000000000000
11
-33.5871116225547
21
-9.79172277216400
31
0.000000000000000
  0
LINE
  5
F10A69
330
F10A6A
100
AcDbEntity
8
Geo
100
AcDbLine
10
-33.5871116225547
20
-9.79172277216400
30
0.000000000000000
11
-33.4871116225547
21
-9.81459667883673
31
0.000000000000000
  0
LINE
  5
F10A6B
330
F10A6C
100
AcDbEntity
8
Geo
100
AcDbLine
10
-33.4871116225547
20
-9.81459667883673
30
0.000000000000000
11
-33.3871116225547
21
-9.83635454052741
31
0.000000000000000
  0
LINE
  5
F10A6D
330
F10A6E
100
AcDbEntity
8
Geo
100
AcDbLine
10
-33.3871116225547
20
-9.83635454052741
30
0.000000000000000
11
-33.2871116225547
21
-9.85699210190166
31
0.000000000000000
  0
LINE
  5
F10A6F
330
F10A70
100
AcDbEntity
8
Geo
100
AcDbLine
10
-33.2871116225547
20
-9.85699210190166
30
0.000000000000000
11
-33.1871116225547
21
-9.87650532672991
31
0.000000000000000
  0
LINE
  5
F10A71
330
F10A72
100
AcDbEntity
8
Geo
100
AcDbLine
10
-33.1871116225547
20
-9.87650532672991
30
0.000000000000000
11
-33.0871116225547
21
-9.89489039867680
31
0.000000000000000
  0
LINE
  5
F10A73
330
F10A74
100
AcDbEntity
8
Geo
100
AcDbLine
10
-33.0871116225547
20
-9.89489039867680
30
0.000000000000000
11
-32.9871116225547
21
-9.91214372204761
31
0.000000000000000
  0
LINE
  5
F10A75
330
F10A76
100
AcDbEntity
8
Geo
100
AcDbLine
10
-32.9871116225547
20
-9.91214372204761
30
0.000000000000000
11
-32.8871116225547
21
-9.92826192249143
31
0.000000000000000
  0
LINE
  5
F10A77
330
F10A78
100
AcDbEntity
8
Geo
100
AcDbLine
10
-32.8871116225547
20
-9.92826192249143
30
0.000000000000000
11
-32.7871116225547
21
-9.94324184766113
31
0.000000000000000
  0
LINE
  5
F10A79
330
F10A7A
100
AcDbEntity
8
Geo
100
AcDbLine
10
-32.7871116225547
20
-9.94324184766113
30
0.000000000000000
11
-32.6871116225547
21
-9.95708056782991
31
0.000000000000000
  0
LINE
  5
F10A7B
330
F10A7C
100
AcDbEntity
8
Geo
100
AcDbLine
10
-32.6871116225547
20
-9.95708056782991
30
0.000000000000000
11
-32.5871116225547
21
-9.96977537646425
31
0.000000000000000
  0
LINE
  5
F10A7D
330
F10A7E
100
AcDbEntity
8
Geo
100
AcDbLine
10
-32.5871116225547
20
-9.96977537646425
30
0.000000000000000
11
-32.4871116225547
21
-9.98132379075327
31
0.000000000000000
  0
LINE
  5
F10A7F
330
F10A80
100
AcDbEntity
8
Geo
100
AcDbLine
10
-32.4871116225547
20
-9.98132379075327
30
0.000000000000000
11
-32.3871116225547
21
-9.99172355209432
31
0.000000000000000
  0
LINE
  5
F10A81
330
F10A82
100
AcDbEntity
8
Geo
100
AcDbLine
10
-32.3871116225547
20
-9.99172355209432
30
0.000000000000000
11
-32.2871116225547
21
-10.0009726265347
31
0.000000000000000
  0
LINE
  5
F10A83
330
F10A84
100
AcDbEntity
8
Geo
100
AcDbLine
10
-32.2871116225547
20
-10.0009726265347
30
0.000000000000000
11
-32.1871116225547
21
-10.0090692051693
31
0.000000000000000
  0
LINE
  5
F10A85
330
F10A86
100
AcDbEntity
8
Geo
100
AcDbLine
10
-32.1871116225547
20
-10.0090692051693
30
0.000000000000000
11
-32.0871116225547
21
-10.0160117044948
31
0.000000000000000
  0
LINE
  5
F10A87
330
F10A88
100
AcDbEntity
8
Geo
100
AcDbLine
10
-32.0871116225547
20
-10.0160117044948
30
0.000000000000000
11
-31.9871116225547
21
-10.0217987667188
31
0.000000000000000
  0
LINE
  5
F10A89
330
F10A8A
100
AcDbEntity
8
Geo
100
AcDbLine
10
-31.9871116225547
20
-10.0217987667188
30
0.000000000000000
11
-31.8871116225547
21
-10.0264292600260
31
0.000000000000000
  0
LINE
  5
F10A8B
330
F10A8C
100
AcDbEntity
8
Geo
100
AcDbLine
10
-31.8871116225547
20
-10.0264292600260
30
0.000000000000000
11
-31.7871116225547
21
-10.0299022787988
31
0.000000000000000
  0
LINE
  5
F10A8D
330
F10A8E
100
AcDbEntity
8
Geo
100
AcDbLine
10
-31.7871116225547
20
-10.0299022787988
30
0.000000000000000
11
-31.6871116225547
21
-10.0322171437953
31
0.000000000000000
  0
LINE
  5
F10A8F
330
F10A90
100
AcDbEntity
8
Geo
100
AcDbLine
10
-31.6871116225547
20
-10.0322171437953
30
0.000000000000000
11
-31.5871116225547
21
-10.0333734022813
31
0.000000000000000
  0
LINE
  5
F10A91
330
F10A92
100
AcDbEntity
8
Geo
100
AcDbLine
10
-31.5871116225547
20
-10.0333734022813
30
0.000000000000000
11
-31.5373337457873
21
-10.1081703107020
31
0.000000000000000
  0
LINE
  5
F10A93
330
F10A94
100
AcDbEntity
8
Geo
100
AcDbLine
10
66.7128883774453
20
1.39182968929804
30
0.000000000000000
11
66.7128883774453
21
-4.10817031070196
31
0.000000000000000
  0
LINE
  5
F10A95
330
F10A96
100
AcDbEntity
8
Geo
100
AcDbLine
10
-53.2871116225547
20
-4.10817031070196
30
0.000000000000000
11
-53.2871116225547
21
-10.1081703107020
31
0.000000000000000
  0
LINE
  5
F10A97
330
F10A98
100
AcDbEntity
8
Geo
100
AcDbLine
10
-53.2871116225547
20
-10.1081703107020
30
0.000000000000000
11
-23.2871116225547
21
-10.1081703107020
31
0.000000000000000
  0
LINE
  5
F10A99
330
F10A9A
100
AcDbEntity
8
Geo
100
AcDbLine
10
-23.2871116225547
20
-10.1081703107020
30
0.000000000000000
11
-23.2871116225547
21
-9.80817031070196
31
0.000000000000000
  0
LINE
  5
F10A9B
330
F10A9C
100
AcDbEntity
8
Geo
100
AcDbLine
10
-23.2871116225547
20
-9.80817031070196
30
0.000000000000000
11
-3.28711162255469
21
-9.80817031070196
31
0.000000000000000
  0
LINE
  5
F10A9D
330
F10A9E
100
AcDbEntity
8
Geo
100
AcDbLine
10
-3.28711162255469
20
-9.80817031070196
30
0.000000000000000
11
-2.78711162255469
21
-10.1081703107020
31
0.000000000000000
  0
LINE
  5
F10A9F
330
F10AA0
100
AcDbEntity
8
Geo
100
AcDbLine
10
-2.78711162255469
20
-10.1081703107020
30
0.000000000000000
11
66.2128883774453
21
-10.1081703107020
31
0.000000000000000
  0
LINE
  5
F10AA1
330
F10AA2
100
AcDbEntity
8
Geo
100
AcDbLine
10
66.2128883774453
20
-10.1081703107020
30
0.000000000000000
11
66.7128883774453
21
-9.60817031070196
31
0.000000000000000
  0
LINE
  5
F10AA3
330
F10AA4
100
AcDbEntity
8
Geo
100
AcDbLine
10
-53.2871116225547
20
1.89182968929804
30
0.000000000000000
11
-53.2871116225547
21
-10.1081703107020
31
0.000000000000000
  0
LINE
  5
F10AA5
330
F10AA6
100
AcDbEntity
8
Geo
100
AcDbLine
10
-23.2871116225547
20
1.89182968929804
30
0.000000000000000
11
-23.2871116225547
21
-10.1081703107020
31
0.000000000000000
  0
LINE
  5
F10AA7
330
F10AA8
100
AcDbEntity
8
Geo
100
AcDbLine
10
-23.2871116225547
20
1.59182968929804
30
0.000000000000000
11
-23.2871116225547
21
-9.80817031070196
31
0.000000000000000
  0
LINE
  5
F10AA9
330
F10AAA
100
AcDbEntity
8
Geo
100
AcDbLine
10
-3.28711162255469
20
1.59182968929804
30
0.000000000000000
11
-3.28711162255469
21
-9.80817031070196
31
0.000000000000000
  0
LINE
  5
F10AAB
330
F10AAC
100
AcDbEntity
8
Geo
100
AcDbLine
10
-2.78711162255469
20
1.89182968929804
30
0.000000000000000
11
-2.78711162255469
21
-10.1081703107020
31
0.000000000000000
  0
LINE
  5
F10AAD
330
F10AAE
100
AcDbEntity
8
Geo
100
AcDbLine
10
66.2128883774453
20
1.89182968929804
30
0.000000000000000
11
66.2128883774453
21
-10.1081703107020
31
0.000000000000000
  0
LINE
  5
F10AAF
330
F10AB0
100
AcDbEntity
8
Geo
100
AcDbLine
10
66.7128883774453
20
1.39182968929804
30
0.000000000000000
11
66.7128883774453
21
-9.60817031070196
31
0.000000000000000
  0
LINE
  5
F10AB1
330
F10AB2
100
AcDbEntity
8
Geo
 6
Dashdot
100
AcDbLine
10
-53.2871116225547
20
-4.10817031070196
30
0.000000000000000
11
66.7128883774453
21
-4.10817031070196
31
0.000000000000000
  0
LWPOLYLINE
  5
F10AB3
330
F10AB4
100
AcDbEntity
8
Rahmen
100
AcDbPolyline
90
   4
70
   1
43
   0.0
 10
-134.602991944764
 20
99.9252013808976
 10
143.302646720368
 20
99.9252013808976
 10
143.302646720368
 20
-100.166858457998
 10
-134.602991944764
 20
-100.166858457998
  0
TEXT
  5
F10AB5
330
F10AB6
 100
AcDbEntity
8
Text
100
AcDbText
10
-133.636363636364
20
-99.6668584579977
30
0.000000000000000
40
1.00000000000000
1
ISBESketcher - ©ISBE GmbH      lizensiert für: Schmid Werkzeuge
100
AcDbText
  0
LWPOLYLINE
  5
F10AB7
330
F10AB8
100
AcDbEntity
8
Rahmen
100
AcDbPolyline
90
   4
70
   1
43
   0.0
 10
103.429228998849
 20
-97.0253164556962
 10
143.302646720368
 20
-97.0253164556962
 10
143.302646720368
 20
-100.166858457998
 10
103.429228998849
 20
-100.166858457998
  0
TEXT
  5
F10AB9
330
F10ABA
 100
AcDbEntity
8
Text
100
AcDbText
10
104.500000000000
20
-99.4499424626007
30
0.000000000000000
40
1.50000000000000
1
Ers. durch:
100
AcDbText
  0
TEXT
  5
F10ABB
330
F10ABC
 100
AcDbEntity
8
Text
100
AcDbText
10
0.000000000000000
20
0.500000000000000
30
0.000000000000000
40
1.50000000000000
1

100
AcDbText
  0
LWPOLYLINE
  5
F10ABD
330
F10ABE
100
AcDbEntity
8
Rahmen
100
AcDbPolyline
90
   4
70
   1
43
   0.0
 10
63.3141542002302
 20
-97.0253164556962
 10
103.429228998849
 20
-97.0253164556962
 10
103.429228998849
 20
-100.166858457998
 10
63.3141542002302
 20
-100.166858457998
  0
TEXT
  5
F10ABF
330
F10AC0
 100
AcDbEntity
8
Text
100
AcDbText
10
64.5000000000000
20
-99.4499424626007
30
0.000000000000000
40
1.50000000000000
1
Ers. für:
100
AcDbText
  0
TEXT
  5
F10AC1
330
F10AC2
 100
AcDbEntity
8
Text
100
AcDbText
10
0.000000000000000
20
0.500000000000000
30
0.000000000000000
40
1.50000000000000
1

100
AcDbText
  0
LWPOLYLINE
  5
F10AC3
330
F10AC4
100
AcDbEntity
8
Rahmen
100
AcDbPolyline
90
   4
70
   1
43
   0.0
 10
130.011507479862
 20
-94.1254315304948
 10
143.302646720368
 20
-94.1254315304948
 10
143.302646720368
 20
-97.0253164556962
 10
130.011507479862
 20
-97.0253164556962
  0
TEXT
  5
F10AC5
330
F10AC6
 100
AcDbEntity
8
Text
100
AcDbText
10
131.166666666667
20
-96.4499424626007
30
0.000000000000000
40
1.50000000000000
1
Blätter
100
AcDbText
  0
TEXT
  5
F10AC7
330
F10AC8
 100
AcDbEntity
8
Text
100
AcDbText
10
0.000000000000000
20
0.500000000000000
30
0.000000000000000
40
1.50000000000000
1

100
AcDbText
  0
LWPOLYLINE
  5
F10AC9
330
F10ACA
100
AcDbEntity
8
Rahmen
100
AcDbPolyline
90
   4
70
   1
43
   0.0
 10
130.011507479862
 20
-91.2255466052934
 10
143.302646720368
 20
-91.2255466052934
 10
143.302646720368
 20
-94.1254315304948
 10
130.011507479862
 20
-94.1254315304948
  0
TEXT
  5
F10ACB
330
F10ACC
 100
AcDbEntity
8
Text
100
AcDbText
10
131.166666666667
20
-93.4499424626007
30
0.000000000000000
40
1.50000000000000
1
Blatt
100
AcDbText
  0
TEXT
  5
F10ACD
330
F10ACE
 100
AcDbEntity
8
Text
100
AcDbText
10
0.000000000000000
20
0.500000000000000
30
0.000000000000000
40
1.50000000000000
1

100
AcDbText
  0
LWPOLYLINE
  5
F10ACF
330
F10AD0
100
AcDbEntity
8
Rahmen
100
AcDbPolyline
90
   4
70
   1
43
   0.0
 10
63.3141542002302
 20
-91.2255466052934
 10
130.011507479862
 20
-91.2255466052934
 10
130.011507479862
 20
-97.0253164556962
 10
63.3141542002302
 20
-97.0253164556962
  0
TEXT
  5
F10AD1
330
F10AD2
 100
AcDbEntity
8
Text
100
AcDbText
10
64.5000000000000
20
-93.4499424626007
30
0.000000000000000
40
1.50000000000000
1
Datum:
100
AcDbText
  0
TEXT
  5
F10AD3
330
F10AD4
 100
AcDbEntity
8
Text
100
AcDbText
10
91.1543920214806
20
-96.4499424626007
30
0.000000000000000
40
1.50000000000000
1
14.05.2019
100
AcDbText
  0
LWPOLYLINE
  5
F10AD5
330
F10AD6
100
AcDbEntity
8
Rahmen
100
AcDbPolyline
90
   4
70
   1
43
   0.0
 10
63.3141542002302
 20
-85.1841196777906
 10
143.302646720368
 20
-85.1841196777906
 10
143.302646720368
 20
-91.2255466052934
 10
63.3141542002302
 20
-91.2255466052934
  0
TEXT
  5
F10AD7
330
F10AD8
 100
AcDbEntity
8
Text
100
AcDbText
10
0.000000000000000
20
0.500000000000000
30
0.000000000000000
40
1.50000000000000
1

100
AcDbText
  0
TEXT
  5
F10AD9
330
F10ADA
 100
AcDbEntity
8
Text
100
AcDbText
10
73.0512082853855
20
-89.7040659762179
30
0.000000000000000
40
2.50000000000000
1
VHM-Schlichtfräser 0138-120-b
100
AcDbText
  0
LWPOLYLINE
  5
F10ADB
330
F10ADC
100
AcDbEntity
8
Rahmen
100
AcDbPolyline
90
   4
70
   1
43
   0.0
 10
103.429228998849
 20
-79.1426927502877
 10
143.302646720368
 20
-79.1426927502877
 10
143.302646720368
 20
-85.1841196777906
 10
103.429228998849
 20
-85.1841196777906
  0
TEXT
  5
F10ADD
330
F10ADE
 100
AcDbEntity
8
Text
100
AcDbText
10
104.500000000000
20
-81.4499424626007
30
0.000000000000000
40
1.50000000000000
1
Zu bearb. Material:
100
AcDbText
  0
TEXT
  5
F10ADF
330
F10AE0
 100
AcDbEntity
8
Text
100
AcDbText
10
0.000000000000000
20
0.500000000000000
30
0.000000000000000
40
1.50000000000000
1

100
AcDbText
  0
LWPOLYLINE
  5
F10AE1
330
F10AE2
100
AcDbEntity
8
Rahmen
100
AcDbPolyline
90
   4
70
   1
43
   0.0
 10
63.3141542002302
 20
-79.1426927502877
 10
103.429228998849
 20
-79.1426927502877
 10
103.429228998849
 20
-85.1841196777906
 10
63.3141542002302
 20
-85.1841196777906
  0
TEXT
  5
F10AE3
330
F10AE4
 100
AcDbEntity
8
Text
100
AcDbText
10
64.5000000000000
20
-81.4499424626007
30
0.000000000000000
40
1.50000000000000
1
Werkstoff:
100
AcDbText
  0
TEXT
  5
F10AE5
330
F10AE6
 100
AcDbEntity
8
Text
100
AcDbText
10
80.9626006904488
20
-84.4499424626007
30
0.000000000000000
40
1.50000000000000
1
VHM
100
AcDbText
  0
LWPOLYLINE
  5
F10AE7
330
F10AE8
100
AcDbEntity
8
Rahmen
100
AcDbPolyline
90
   4
70
   1
43
   0.0
 10
103.429228998849
 20
-76.0011507479862
 10
143.302646720368
 20
-76.0011507479862
 10
143.302646720368
 20
-79.1426927502877
 10
103.429228998849
 20
-79.1426927502877
  0
TEXT
  5
F10AE9
330
F10AEA
 100
AcDbEntity
8
Text
100
AcDbText
10
0.000000000000000
20
0.500000000000000
30
0.000000000000000
40
1.50000000000000
1

100
AcDbText
  0
TEXT
  5
F10AEB
330
F10AEC
 100
AcDbEntity
8
Text
100
AcDbText
10
0.000000000000000
20
0.500000000000000
30
0.000000000000000
40
1.50000000000000
1

100
AcDbText
  0
LWPOLYLINE
  5
F10AED
330
F10AEE
100
AcDbEntity
8
Rahmen
100
AcDbPolyline
90
   4
70
   1
43
   0.0
 10
63.3141542002302
 20
-76.0011507479862
 10
103.429228998849
 20
-76.0011507479862
 10
103.429228998849
 20
-79.1426927502877
 10
63.3141542002302
 20
-79.1426927502877
  0
TEXT
  5
F10AEF
330
F10AF0
 100
AcDbEntity
8
Text
100
AcDbText
10
64.5000000000000
20
-78.4499424626007
30
0.000000000000000
40
1.50000000000000
1
Maßstab:
100
AcDbText
  0
TEXT
  5
F10AF1
330
F10AF2
 100
AcDbEntity
8
Text
100
AcDbText
10
89.0834292289989
20
-78.4499424626007
30
0.000000000000000
40
1.50000000000000
1
1 : 1
100
AcDbText
0
VIEWPORT
5
294
102
{ACAD_XDICTIONARY
360
58A
102
}
330
25D
100
AcDbEntity
67
1
8
0
60
1
100
AcDbViewport
10
0.0
20
0.0
30
0.0
40
10.0
41
10.0
68
-1
69
1
12
0.0
22
0.0
13
0.0
23
0.0
14
1.0
24
1.0
15
0.0
25
0.0
16
0.0
26
0.0
36
1.0
17
0.0
27
0.0
37
0.0
42
0.0
43
0.0
44
0.0
45
10.0
50
0.0
51
0.0000000000007958
72
100
90
32800
1

281
0
71
0
74
0
110
0.0
120
0.0
130
0.0
111
1.0
121
0.0
131
0.0
112
0.0
122
1.0
132
0.0
79
0
146
0.0
1001
VD_INVISIBLE_NOT_FOR_READ
1000
VD_INVISIBLE_NOT_FOR_READ
0
VIEWPORT
5
295
102
{ACAD_XDICTIONARY
360
58C
102
}
330
25D
100
AcDbEntity
67
1
8
0
60
1
100
AcDbViewport
10
0.0
20
0.0
30
0.0
40
10.0
41
10.0
68
0
69
2
12
0.0
22
0.0
13
0.0
23
0.0
14
1.0
24
1.0
15
0.0
25
0.0
16
0.0
26
0.0
36
1.0
17
0.0
27
0.0
37
0.0
42
0.0
43
0.0
44
0.0
45
10.0
50
0.0
51
0.0000000000007958
72
100
90
163872
1

281
0
71
0
74
0
110
0.0
120
0.0
130
0.0
111
1.0
121
0.0
131
0.0
112
0.0
122
1.0
132
0.0
79
0
146
0.0
1001
VD_INVISIBLE_NOT_FOR_READ
1000
VD_INVISIBLE_NOT_FOR_READ
0
ENDSEC
0
SECTION
2
OBJECTS
0
DICTIONARY
5
13
330
0
100
AcDbDictionary
281
1
3
ACAD_COLOR
350
FA7
3
ACAD_GROUP
350
14
3
ACAD_LAYOUT
350
FCF
3
ACAD_MATERIAL
350
F7A
3
ACAD_MLEADERSTYLE
350
FCD
3
ACAD_MLINESTYLE
350
16
3
ACAD_PLOTSETTINGS
350
17
3
ACAD_PLOTSTYLENAME
350
18
3
ACAD_SCALELIST
350
FAB
3
ACAD_TABLESTYLE
350
FA8
3
ACAD_VISUALSTYLE
350
F93
3
ACDB_RECOMPOSE_DATA
350
107E
3
AcDbVariableDictionary
350
FF0
3
DWGPROPS
350
107F
0
DICTIONARY
5
F1000F
330
F1000E
100
AcDbDictionary
280
1
281
1
3
ACAD_MTEXT_2008_RT
360
F10010
0
DICTIONARY
5
F10014
330
F10013
100
AcDbDictionary
280
1
281
1
3
ACAD_MTEXT_2008_RT
360
F10015
0
DICTIONARY
5
F10019
330
F10018
100
AcDbDictionary
280
1
281
1
3
ACAD_MTEXT_2008_RT
360
F1001A
0
DICTIONARY
5
F1001E
330
F1001D
100
AcDbDictionary
280
1
281
1
3
ACAD_MTEXT_2008_RT
360
F1001F
0
DICTIONARY
5
F10005
330
F10004
100
AcDbDictionary
280
1
281
1
3
ACAD_MTEXT_2008_RT
360
F10006
0
DICTIONARY
5
F1000A
330
F10009
100
AcDbDictionary
280
1
281
1
3
ACAD_MTEXT_2008_RT
360
F1000B
0
DICTIONARY
5
F10023
330
F10022
100
AcDbDictionary
280
1
281
1
3
ACAD_MTEXT_2008_RT
360
F10024
0
DICTIONARY
5
FA7
102
{ACAD_REACTORS
330
13
102
}
330
13
100
AcDbDictionary
281
1
0
DICTIONARY
5
14
330
13
100
AcDbDictionary
281
1
0
DICTIONARY
5
FCF
102
{ACAD_REACTORS
330
13
102
}
330
13
100
AcDbDictionary
281
1
3
Layout1
350
FD1
3
Model
350
FD0
0
DICTIONARY
5
F7A
102
{ACAD_REACTORS
330
13
102
}
330
13
100
AcDbDictionary
281
1
3
ByBlock
350
F83
3
ByLayer
350
F7B
3
Global
350
F8B
0
DICTIONARY
5
FCD
102
{ACAD_REACTORS
330
13
102
}
330
13
100
AcDbDictionary
281
1
3
Standard
350
FCE
0
DICTIONARY
5
16
330
13
100
AcDbDictionary
281
1
3
Standard
350
FAA
0
DICTIONARY
5
17
102
{ACAD_REACTORS
330
13
102
}
330
13
100
AcDbDictionary
281
1
0
ACDBDICTIONARYWDFLT
5
18
102
{ACAD_REACTORS
330
13
102
}
330
13
100
AcDbDictionary
281
1
3
Normal
350
19
100
AcDbDictionaryWithDefault
340
19
0
DICTIONARY
5
FAB
102
{ACAD_REACTORS
330
13
102
}
330
13
100
AcDbDictionary
281
1
3
A0
350
FAC
3
A1
350
FAD
3
A2
350
FAE
3
A3
350
FAF
3
A4
350
FB0
3
A5
350
FB1
3
A6
350
FB2
3
A7
350
FB3
3
A8
350
FB4
3
A9
350
FB5
3
B0
350
FB6
3
B1
350
FB7
3
B2
350
FB8
3
B3
350
FB9
3
B4
350
FBA
3
B5
350
FBB
3
B6
350
FBC
3
B7
350
FBD
3
B8
350
FBE
3
B9
350
FBF
3
C0
350
FC0
3
C1
350
FC1
3
C2
350
FC2
3
C3
350
FC3
3
C4
350
FC4
3
C5
350
FC5
3
C6
350
FC6
3
C7
350
FC7
3
C8
350
FC8
3
C9
350
FC9
3
D0
350
FCA
3
D1
350
FCB
3
D2
350
FCC
0
DICTIONARY
5
FA8
102
{ACAD_REACTORS
330
13
102
}
330
13
100
AcDbDictionary
281
1
3
Standard
350
FA9
0
DICTIONARY
5
F93
102
{ACAD_REACTORS
330
13
102
}
330
13
100
AcDbDictionary
281
1
3
2dWireframe
350
F99
3
3D Hidden
350
F9B
3
3dWireframe
350
F9A
3
Basic
350
F98
3
Brighten
350
F9F
3
ColorChange
350
FA3
3
Conceptual
350
F9C
3
Dim
350
F9E
3
EdgeColorOff
350
FA6
3
Facepattern
350
FA2
3
Flat
350
F94
3
FlatWithEdges
350
F95
3
Gouraud
350
F96
3
GouraudWithEdges
350
F97
3
JitterOff
350
FA4
3
Linepattern
350
FA1
3
OverhangOff
350
FA5
3
Realistic
350
F9D
3
Thicken
350
FA0
0
XRECORD
5
107E
102
{ACAD_REACTORS
330
13
102
}
330
13
100
AcDbXrecord
280
1
90
1
330
FA9
330
F1000E
330
F10013
330
F10018
330
F1001D
330
F10004
330
F10009
330
F10022
0
DICTIONARY
5
FF0
102
{ACAD_REACTORS
330
13
102
}
330
13
100
AcDbDictionary
281
1
3
CANNOSCALE
350
FF3
3
CMLEADERSTYLE
350
FF2
3
CTABLESTYLE
350
FF1
3
DIMASSOC
350
FF6
3
INDEXCTL
350
FF5
3
SORTENTS
350
FF4
3
XCLIPFRAME
350
1078
0
XRECORD
5
107F
102
{ACAD_REACTORS
330
13
102
}
330
13
100
AcDbXrecord
280
1
1
DWGPROPS COOKIE
2

3

4

6

7

8

9

300
=
301
=
302
=
303
=
304
=
305
=
306
=
307
=
308
=
309
=
40
0.0
41
0.0
42
0.0
1

90
0
0
XRECORD
5
F10010
102
{ACAD_REACTORS
330
F1000F
102
}
330
F1000F
100
AcDbXrecord
280
1
40
48458.0
1
50
0
XRECORD
5
F10015
102
{ACAD_REACTORS
330
F10014
102
}
330
F10014
100
AcDbXrecord
280
1
40
48458.0
1
50.5
0
XRECORD
5
F1001A
102
{ACAD_REACTORS
330
F10019
102
}
330
F10019
100
AcDbXrecord
280
1
40
48458.0
1
30
0
XRECORD
5
F1001F
102
{ACAD_REACTORS
330
F1001E
102
}
330
F1001E
100
AcDbXrecord
280
1
40
48458.0
1
120
0
XRECORD
5
F10006
102
{ACAD_REACTORS
330
F10005
102
}
330
F10005
100
AcDbXrecord
280
1
40
48458.0
1
Ø12
0
XRECORD
5
F1000B
102
{ACAD_REACTORS
330
F1000A
102
}
330
F1000A
100
AcDbXrecord
280
1
40
48458.0
1
Ø11.4
0
XRECORD
5
F10024
102
{ACAD_REACTORS
330
F10023
102
}
330
F10023
100
AcDbXrecord
280
1
40
48458.0
1
Ø12
0
LAYOUT
5
FD1
102
{ACAD_XDICTIONARY
360
10A9
102
}
102
{ACAD_REACTORS
330
FCF
102
}
330
FCF
100
AcDbPlotSettings
1

2
Microsoft XPS Document Writer
4

6

40
0.0
41
0.0
42
0.0
43
0.0
44
0.0
45
0.0
46
0.0
47
0.0
48
0.0
49
0.0
140
0.0
141
0.0
142
1.0
143
1.0
70
688
72
0
73
0
74
5
7

75
16
147
1.0
148
0.0
149
0.0
100
AcDbLayout
1
Layout1
70
1
71
1
10
0.0
20
0.0
11
12.0
21
9.0
12
0.0
22
0.0
32
0.0
14
1.000000000000000E+20
24
1.000000000000000E+20
34
1.000000000000000E+20
15
-1.000000000000000E+20
25
-1.000000000000000E+20
35
-1.000000000000000E+20
146
0.0
13
0.0
23
0.0
33
0.0
16
1.0
26
0.0
36
0.0
17
0.0
27
1.0
37
0.0
76
0
330
25D
0
LAYOUT
5
FD0
102
{ACAD_XDICTIONARY
360
10A7
102
}
102
{ACAD_REACTORS
330
FCF
102
}
330
FCF
100
AcDbPlotSettings
1

2
Microsoft XPS Document Writer
4

6

40
0.0
41
0.0
42
0.0
43
0.0
44
0.0
45
0.0
46
0.0
47
0.0
48
0.0
49
0.0
140
0.0
141
0.0
142
1.0
143
1.0
70
1712
72
0
73
0
74
0
7

75
0
147
1.0
148
0.0
149
0.0
100
AcDbLayout
1
Model
70
1
71
0
10
0.0
20
0.0
11
12.0
21
9.0
12
0.0
22
0.0
32
0.0
14
0.0
24
0.0
34
0.0
15
0.0
25
0.0
35
0.0
146
0.0
13
0.0
23
0.0
33
0.0
16
1.0
26
0.0
36
0.0
17
0.0
27
1.0
37
0.0
76
0
330
261
331
26B
0
MATERIAL
5
F83
102
{ACAD_XDICTIONARY
360
F84
102
}
102
{ACAD_REACTORS
330
F7A
102
}
330
F7A
100
AcDbMaterial
1
ByBlock
72
0
43
0.0208333333333333
43
0.0
43
0.0
43
0.0
43
0.0
43
0.0208333333333333
43
0.0
43
0.0
43
0.0
43
0.0
43
1.0
43
0.0
43
0.0
43
0.0
43
0.0
43
1.0
77
0
47
0.0208333333333333
47
0.0
47
0.0
47
0.0
47
0.0
47
0.0208333333333333
47
0.0
47
0.0
47
0.0
47
0.0
47
1.0
47
0.0
47
0.0
47
0.0
47
0.0
47
1.0
171
0
49
0.0208333333333333
49
0.0
49
0.0
49
0.0
49
0.0
49
0.0208333333333333
49
0.0
49
0.0
49
0.0
49
0.0
49
1.0
49
0.0
49
0.0
49
0.0
49
0.0
49
1.0
175
0
142
0.0208333333333333
142
0.0
142
0.0
142
0.0
142
0.0
142
0.0208333333333333
142
0.0
142
0.0
142
0.0
142
0.0
142
1.0
142
0.0
142
0.0
142
0.0
142
0.0
142
1.0
179
0
144
0.0208333333333333
144
0.0
144
0.0
144
0.0
144
0.0
144
0.0208333333333333
144
0.0
144
0.0
144
0.0
144
0.0
144
1.0
144
0.0
144
0.0
144
0.0
144
0.0
144
1.0
147
0.0208333333333333
147
0.0
147
0.0
147
0.0
147
0.0
147
0.0208333333333333
147
0.0
147
0.0
147
0.0
147
0.0
147
1.0
147
0.0
147
0.0
147
0.0
147
0.0
147
1.0
0
MATERIAL
5
F7B
102
{ACAD_XDICTIONARY
360
F7C
102
}
102
{ACAD_REACTORS
330
F7A
102
}
330
F7A
100
AcDbMaterial
1
ByLayer
72
0
43
0.0208333333333333
43
0.0
43
0.0
43
0.0
43
0.0
43
0.0208333333333333
43
0.0
43
0.0
43
0.0
43
0.0
43
1.0
43
0.0
43
0.0
43
0.0
43
0.0
43
1.0
77
0
47
0.0208333333333333
47
0.0
47
0.0
47
0.0
47
0.0
47
0.0208333333333333
47
0.0
47
0.0
47
0.0
47
0.0
47
1.0
47
0.0
47
0.0
47
0.0
47
0.0
47
1.0
171
0
49
0.0208333333333333
49
0.0
49
0.0
49
0.0
49
0.0
49
0.0208333333333333
49
0.0
49
0.0
49
0.0
49
0.0
49
1.0
49
0.0
49
0.0
49
0.0
49
0.0
49
1.0
175
0
142
0.0208333333333333
142
0.0
142
0.0
142
0.0
142
0.0
142
0.0208333333333333
142
0.0
142
0.0
142
0.0
142
0.0
142
1.0
142
0.0
142
0.0
142
0.0
142
0.0
142
1.0
179
0
144
0.0208333333333333
144
0.0
144
0.0
144
0.0
144
0.0
144
0.0208333333333333
144
0.0
144
0.0
144
0.0
144
0.0
144
1.0
144
0.0
144
0.0
144
0.0
144
0.0
144
1.0
147
0.0208333333333333
147
0.0
147
0.0
147
0.0
147
0.0
147
0.0208333333333333
147
0.0
147
0.0
147
0.0
147
0.0
147
1.0
147
0.0
147
0.0
147
0.0
147
0.0
147
1.0
0
MATERIAL
5
F8B
102
{ACAD_XDICTIONARY
360
F8C
102
}
102
{ACAD_REACTORS
330
F7A
102
}
330
F7A
100
AcDbMaterial
1
Global
72
0
43
0.0208333333333333
43
0.0
43
0.0
43
0.0
43
0.0
43
0.0208333333333333
43
0.0
43
0.0
43
0.0
43
0.0
43
1.0
43
0.0
43
0.0
43
0.0
43
0.0
43
1.0
77
0
47
0.0208333333333333
47
0.0
47
0.0
47
0.0
47
0.0
47
0.0208333333333333
47
0.0
47
0.0
47
0.0
47
0.0
47
1.0
47
0.0
47
0.0
47
0.0
47
0.0
47
1.0
171
0
49
0.0208333333333333
49
0.0
49
0.0
49
0.0
49
0.0
49
0.0208333333333333
49
0.0
49
0.0
49
0.0
49
0.0
49
1.0
49
0.0
49
0.0
49
0.0
49
0.0
49
1.0
175
0
142
0.0208333333333333
142
0.0
142
0.0
142
0.0
142
0.0
142
0.0208333333333333
142
0.0
142
0.0
142
0.0
142
0.0
142
1.0
142
0.0
142
0.0
142
0.0
142
0.0
142
1.0
179
0
144
0.0208333333333333
144
0.0
144
0.0
144
0.0
144
0.0
144
0.0208333333333333
144
0.0
144
0.0
144
0.0
144
0.0
144
1.0
144
0.0
144
0.0
144
0.0
144
0.0
144
1.0
147
0.0208333333333333
147
0.0
147
0.0
147
0.0
147
0.0
147
0.0208333333333333
147
0.0
147
0.0
147
0.0
147
0.0
147
1.0
147
0.0
147
0.0
147
0.0
147
0.0
147
1.0
0
MLEADERSTYLE
5
FCE
102
{ACAD_REACTORS
330
FCD
102
}
330
FCD
100
AcDbMLeaderStyle
170
2
171
1
172
0
90
2
40
0.0
41
0.0
173
1
91
-1056964608
340
256
92
-2
290
1
42
0.09
291
1
43
0.36
3
Standard
44
0.18
300

342
253
174
1
178
6
175
1
176
0
93
-1056964608
45
0.18
292
0
297
0
46
0.18
94
-1056964608
47
1.0
49
1.0
140
1.0
293
1
141
0.0
294
1
177
0
142
1.0
295
0
296
0
143
0.125
1001
ACAD_MLEADERVER
1070
2
0
MLINESTYLE
5
FAA
102
{ACAD_REACTORS
330
16
102
}
330
16
100
AcDbMlineStyle
2
STANDARD
70
0
3

62
256
51
90.0
52
90.0
71
2
49
0.5
62
256
6
BYLAYER
49
-0.5
62
256
6
BYLAYER
0
ACDBPLACEHOLDER
5
19
102
{ACAD_REACTORS
330
18
102
}
330
18
0
SCALE
5
FAC
102
{ACAD_REACTORS
330
FAB
102
}
330
FAB
100
AcDbScale
70
0
300
1:1
140
1.0
141
1.0
290
1
0
SCALE
5
FAD
102
{ACAD_REACTORS
330
FAB
102
}
330
FAB
100
AcDbScale
70
0
300
1:2
140
1.0
141
2.0
290
0
0
SCALE
5
FAE
102
{ACAD_REACTORS
330
FAB
102
}
330
FAB
100
AcDbScale
70
0
300
1:4
140
1.0
141
4.0
290
0
0
SCALE
5
FAF
102
{ACAD_REACTORS
330
FAB
102
}
330
FAB
100
AcDbScale
70
0
300
1:5
140
1.0
141
5.0
290
0
0
SCALE
5
FB0
102
{ACAD_REACTORS
330
FAB
102
}
330
FAB
100
AcDbScale
70
0
300
1:8
140
1.0
141
8.0
290
0
0
SCALE
5
FB1
102
{ACAD_REACTORS
330
FAB
102
}
330
FAB
100
AcDbScale
70
0
300
1:10
140
1.0
141
10.0
290
0
0
SCALE
5
FB2
102
{ACAD_REACTORS
330
FAB
102
}
330
FAB
100
AcDbScale
70
0
300
1:16
140
1.0
141
16.0
290
0
0
SCALE
5
FB3
102
{ACAD_REACTORS
330
FAB
102
}
330
FAB
100
AcDbScale
70
0
300
1:20
140
1.0
141
20.0
290
0
0
SCALE
5
FB4
102
{ACAD_REACTORS
330
FAB
102
}
330
FAB
100
AcDbScale
70
0
300
1:30
140
1.0
141
30.0
290
0
0
SCALE
5
FB5
102
{ACAD_REACTORS
330
FAB
102
}
330
FAB
100
AcDbScale
70
0
300
1:40
140
1.0
141
40.0
290
0
0
SCALE
5
FB6
102
{ACAD_REACTORS
330
FAB
102
}
330
FAB
100
AcDbScale
70
0
300
1:50
140
1.0
141
50.0
290
0
0
SCALE
5
FB7
102
{ACAD_REACTORS
330
FAB
102
}
330
FAB
100
AcDbScale
70
0
300
1:100
140
1.0
141
100.0
290
0
0
SCALE
5
FB8
102
{ACAD_REACTORS
330
FAB
102
}
330
FAB
100
AcDbScale
70
0
300
2:1
140
2.0
141
1.0
290
0
0
SCALE
5
FB9
102
{ACAD_REACTORS
330
FAB
102
}
330
FAB
100
AcDbScale
70
0
300
4:1
140
4.0
141
1.0
290
0
0
SCALE
5
FBA
102
{ACAD_REACTORS
330
FAB
102
}
330
FAB
100
AcDbScale
70
0
300
8:1
140
8.0
141
1.0
290
0
0
SCALE
5
FBB
102
{ACAD_REACTORS
330
FAB
102
}
330
FAB
100
AcDbScale
70
0
300
10:1
140
10.0
141
1.0
290
0
0
SCALE
5
FBC
102
{ACAD_REACTORS
330
FAB
102
}
330
FAB
100
AcDbScale
70
0
300
100:1
140
100.0
141
1.0
290
0
0
SCALE
5
FBD
102
{ACAD_REACTORS
330
FAB
102
}
330
FAB
100
AcDbScale
70
0
300
1/128" = 1'-0"
140
0.0078125
141
12.0
290
0
0
SCALE
5
FBE
102
{ACAD_REACTORS
330
FAB
102
}
330
FAB
100
AcDbScale
70
0
300
1/64" = 1'-0"
140
0.015625
141
12.0
290
0
0
SCALE
5
FBF
102
{ACAD_REACTORS
330
FAB
102
}
330
FAB
100
AcDbScale
70
0
300
1/32" = 1'-0"
140
0.03125
141
12.0
290
0
0
SCALE
5
FC0
102
{ACAD_REACTORS
330
FAB
102
}
330
FAB
100
AcDbScale
70
0
300
1/16" = 1'-0"
140
0.0625
141
12.0
290
0
0
SCALE
5
FC1
102
{ACAD_REACTORS
330
FAB
102
}
330
FAB
100
AcDbScale
70
0
300
3/32" = 1'-0"
140
0.09375
141
12.0
290
0
0
SCALE
5
FC2
102
{ACAD_REACTORS
330
FAB
102
}
330
FAB
100
AcDbScale
70
0
300
1/8" = 1'-0"
140
0.125
141
12.0
290
0
0
SCALE
5
FC3
102
{ACAD_REACTORS
330
FAB
102
}
330
FAB
100
AcDbScale
70
0
300
3/16" = 1'-0"
140
0.1875
141
12.0
290
0
0
SCALE
5
FC4
102
{ACAD_REACTORS
330
FAB
102
}
330
FAB
100
AcDbScale
70
0
300
1/4" = 1'-0"
140
0.25
141
12.0
290
0
0
SCALE
5
FC5
102
{ACAD_REACTORS
330
FAB
102
}
330
FAB
100
AcDbScale
70
0
300
3/8" = 1'-0"
140
0.375
141
12.0
290
0
0
SCALE
5
FC6
102
{ACAD_REACTORS
330
FAB
102
}
330
FAB
100
AcDbScale
70
0
300
1/2" = 1'-0"
140
0.5
141
12.0
290
0
0
SCALE
5
FC7
102
{ACAD_REACTORS
330
FAB
102
}
330
FAB
100
AcDbScale
70
0
300
3/4" = 1'-0"
140
0.75
141
12.0
290
0
0
SCALE
5
FC8
102
{ACAD_REACTORS
330
FAB
102
}
330
FAB
100
AcDbScale
70
0
300
1" = 1'-0"
140
1.0
141
12.0
290
0
0
SCALE
5
FC9
102
{ACAD_REACTORS
330
FAB
102
}
330
FAB
100
AcDbScale
70
0
300
1-1/2" = 1'-0"
140
1.5
141
12.0
290
0
0
SCALE
5
FCA
102
{ACAD_REACTORS
330
FAB
102
}
330
FAB
100
AcDbScale
70
0
300
3" = 1'-0"
140
3.0
141
12.0
290
0
0
SCALE
5
FCB
102
{ACAD_REACTORS
330
FAB
102
}
330
FAB
100
AcDbScale
70
0
300
6" = 1'-0"
140
6.0
141
12.0
290
0
0
SCALE
5
FCC
102
{ACAD_REACTORS
330
FAB
102
}
330
FAB
100
AcDbScale
70
0
300
1'-0" = 1'-0"
140
12.0
141
12.0
290
0
0
TABLESTYLE
5
FA9
102
{ACAD_XDICTIONARY
360
FF8
102
}
102
{ACAD_REACTORS
330
FA8
102
}
330
FA8
100
AcDbTableStyle
3
Standard
70
0
71
0
40
0.06
41
0.06
280
0
281
0
7
Standard
140
0.18
170
2
62
0
63
7
283
0
274
-2
284
1
64
0
275
-2
285
1
65
0
276
-2
286
1
66
0
277
-2
287
1
67
0
278
-2
288
1
68
0
279
-2
289
1
69
0
7
Standard
140
0.25
170
5
62
0
63
7
283
0
274
-2
284
1
64
0
275
-2
285
1
65
0
276
-2
286
1
66
0
277
-2
287
1
67
0
278
-2
288
1
68
0
279
-2
289
1
69
0
7
Standard
140
0.18
170
5
62
0
63
7
283
0
274
-2
284
1
64
0
275
-2
285
1
65
0
276
-2
286
1
66
0
277
-2
287
1
67
0
278
-2
288
1
68
0
279
-2
289
1
69
0
0
VISUALSTYLE
5
F99
102
{ACAD_XDICTIONARY
360
108A
102
}
102
{ACAD_REACTORS
330
F93
102
}
330
F93
100
AcDbVisualStyle
2

70
4
71
0
72
2
73
0
90
0
40
-0.6
41
-30.0
62
5
63
7
74
1
91
4
64
7
65
257
75
1
175
1
42
1.0
92
0
66
257
43
1.0
76
1
77
6
78
2
67
7
79
5
170
0
171
0
290
0
174
0
93
1
44
0.0
173
0
291
0
45
0.0
1001
ACAD
1000
AcDbSavedByObjectVersion
1070
0
0
VISUALSTYLE
5
F9B
102
{ACAD_XDICTIONARY
360
108E
102
}
102
{ACAD_REACTORS
330
F93
102
}
330
F93
100
AcDbVisualStyle
2

70
6
71
1
72
2
73
2
90
0
40
-0.6
41
-30.0
62
5
63
7
74
2
91
2
64
7
65
257
75
2
175
1
42
179.0
92
0
66
257
43
1.0
76
1
77
6
78
2
67
7
79
3
170
0
171
0
290
0
174
0
93
1
44
0.0
173
0
291
0
45
0.0
1001
ACAD
1000
AcDbSavedByObjectVersion
1070
0
0
VISUALSTYLE
5
F9A
102
{ACAD_XDICTIONARY
360
108C
102
}
102
{ACAD_REACTORS
330
F93
102
}
330
F93
100
AcDbVisualStyle
2

70
5
71
0
72
2
73
0
90
0
40
-0.6
41
-30.0
62
5
63
7
74
1
91
4
64
7
65
257
75
1
175
1
42
1.0
92
0
66
257
43
1.0
76
1
77
6
78
2
67
7
79
5
170
0
171
0
290
0
174
0
93
1
44
0.0
173
0
291
0
45
0.0
1001
ACAD
1000
AcDbSavedByObjectVersion
1070
0
0
VISUALSTYLE
5
F98
102
{ACAD_XDICTIONARY
360
1088
102
}
102
{ACAD_REACTORS
330
F93
102
}
330
F93
100
AcDbVisualStyle
2

70
7
71
1
72
0
73
1
90
0
40
-0.6
41
-30.0
62
5
63
7
74
0
91
4
64
7
65
257
75
1
175
1
42
1.0
92
8
66
7
43
1.0
76
1
77
6
78
2
67
7
79
5
170
0
171
0
290
0
174
0
93
1
44
0.0
173
0
291
1
45
0.0
1001
ACAD
1000
AcDbSavedByObjectVersion
1070
0
0
VISUALSTYLE
5
F9F
102
{ACAD_XDICTIONARY
360
1096
102
}
102
{ACAD_REACTORS
330
F93
102
}
330
F93
100
AcDbVisualStyle
2

70
12
71
2
72
2
73
0
90
0
40
-0.6
41
-30.0
62
5
63
7
74
1
91
4
64
7
65
257
75
1
175
1
42
1.0
92
8
66
7
43
1.0
76
1
77
6
78
2
67
7
79
5
170
0
171
0
290
0
174
0
93
1
44
50.0
173
0
291
1
45
0.0
1001
ACAD
1000
AcDbSavedByObjectVersion
1070
0
0
VISUALSTYLE
5
FA3
102
{ACAD_XDICTIONARY
360
109E
102
}
102
{ACAD_REACTORS
330
F93
102
}
330
F93
100
AcDbVisualStyle
2

70
16
71
2
72
2
73
3
90
0
40
-0.6
41
-30.0
62
5
63
8
74
1
91
4
64
7
65
257
75
1
175
1
42
1.0
92
8
66
8
43
1.0
76
1
77
6
78
2
67
7
79
5
170
0
171
0
290
0
174
0
93
1
44
0.0
173
0
291
1
45
0.0
1001
ACAD
1000
AcDbSavedByObjectVersion
1070
0
0
VISUALSTYLE
5
F9C
102
{ACAD_XDICTIONARY
360
1090
102
}
102
{ACAD_REACTORS
330
F93
102
}
330
F93
100
AcDbVisualStyle
2

70
9
71
3
72
2
73
0
90
0
40
-0.6
41
-30.0
62
5
63
7
74
2
91
2
64
7
65
257
75
1
175
1
42
179.0
92
8
66
7
43
1.0
76
1
77
6
78
2
67
7
79
3
170
0
171
0
290
0
174
0
93
1
44
0.0
173
0
291
0
45
0.0
1001
ACAD
1000
AcDbSavedByObjectVersion
1070
0
0
VISUALSTYLE
5
F9E
102
{ACAD_XDICTIONARY
360
1094
102
}
102
{ACAD_REACTORS
330
F93
102
}
330
F93
100
AcDbVisualStyle
2

70
11
71
2
72
2
73
0
90
0
40
-0.6
41
-30.0
62
5
63
7
74
1
91
4
64
7
65
257
75
1
175
1
42
1.0
92
8
66
7
43
1.0
76
1
77
6
78
2
67
7
79
5
170
0
171
0
290
0
174
0
93
1
44
-50.0
173
0
291
1
45
0.0
1001
ACAD
1000
AcDbSavedByObjectVersion
1070
0
0
VISUALSTYLE
5
FA6
102
{ACAD_XDICTIONARY
360
10A4
102
}
102
{ACAD_REACTORS
330
F93
102
}
330
F93
100
AcDbVisualStyle
2

70
22
71
2
72
2
73
0
90
0
40
-0.6
41
-30.0
62
5
63
7
74
1
91
4
64
7
65
257
75
1
175
1
42
1.0
92
8
66
7
43
1.0
76
1
77
6
78
2
67
7
79
5
170
0
171
0
290
0
174
0
93
1
44
0.0
173
0
291
1
45
0.0
1001
ACAD
1000
AcDbSavedByObjectVersion
1070
0
0
VISUALSTYLE
5
FA2
102
{ACAD_XDICTIONARY
360
109C
102
}
102
{ACAD_REACTORS
330
F93
102
}
330
F93
100
AcDbVisualStyle
2

70
15
71
2
72
2
73
0
90
0
40
-0.6
41
-30.0
62
5
63
7
74
1
91
4
64
7
65
257
75
1
175
1
42
1.0
92
8
66
7
43
1.0
76
1
77
6
78
2
67
7
79
5
170
0
171
0
290
0
174
0
93
1
44
0.0
173
0
291
1
45
0.0
1001
ACAD
1000
AcDbSavedByObjectVersion
1070
0
0
VISUALSTYLE
5
F94
102
{ACAD_XDICTIONARY
360
1080
102
}
102
{ACAD_REACTORS
330
F93
102
}
330
F93
100
AcDbVisualStyle
2

70
0
71
2
72
1
73
1
90
2
40
-0.6
41
30.0
62
5
63
7
74
0
91
4
64
7
65
257
75
1
175
1
42
1.0
92
8
66
7
43
1.0
76
1
77
6
78
2
67
7
79
5
170
0
171
0
290
0
174
0
93
13
44
0.0
173
0
291
1
45
0.0
1001
ACAD
1000
AcDbSavedByObjectVersion
1070
0
0
VISUALSTYLE
5
F95
102
{ACAD_XDICTIONARY
360
1082
102
}
102
{ACAD_REACTORS
330
F93
102
}
330
F93
100
AcDbVisualStyle
2

70
1
71
2
72
1
73
1
90
2
40
-0.6
41
30.0
62
5
63
7
74
1
91
4
64
7
65
257
75
1
175
1
42
1.0
92
0
66
257
43
1.0
76
1
77
6
78
2
67
7
79
5
170
0
171
0
290
0
174
0
93
13
44
0.0
173
0
291
1
45
0.0
1001
ACAD
1000
AcDbSavedByObjectVersion
1070
0
0
VISUALSTYLE
5
F96
102
{ACAD_XDICTIONARY
360
1084
102
}
102
{ACAD_REACTORS
330
F93
102
}
330
F93
100
AcDbVisualStyle
2

70
2
71
2
72
2
73
1
90
2
40
-0.6
41
30.0
62
5
63
7
74
0
91
4
64
7
65
257
75
1
175
1
42
1.0
92
0
66
7
43
1.0
76
1
77
6
78
2
67
7
79
5
170
0
171
0
290
0
174
0
93
13
44
0.0
173
0
291
1
45
0.0
1001
ACAD
1000
AcDbSavedByObjectVersion
1070
0
0
VISUALSTYLE
5
F97
102
{ACAD_XDICTIONARY
360
1086
102
}
102
{ACAD_REACTORS
330
F93
102
}
330
F93
100
AcDbVisualStyle
2

70
3
71
2
72
2
73
1
90
2
40
-0.6
41
30.0
62
5
63
7
74
1
91
4
64
7
65
257
75
1
175
1
42
1.0
92
0
66
257
43
1.0
76
1
77
6
78
2
67
7
79
5
170
0
171
0
290
0
174
0
93
13
44
0.0
173
0
291
1
45
0.0
1001
ACAD
1000
AcDbSavedByObjectVersion
1070
0
0
VISUALSTYLE
5
FA4
102
{ACAD_XDICTIONARY
360
10A0
102
}
102
{ACAD_REACTORS
330
F93
102
}
330
F93
100
AcDbVisualStyle
2

70
20
71
2
72
2
73
0
90
0
40
-0.6
41
-30.0
62
5
63
7
74
1
91
4
64
7
65
257
75
1
175
1
42
1.0
92
10
66
7
43
1.0
76
1
77
6
78
2
67
7
79
5
170
0
171
0
290
0
174
0
93
1
44
0.0
173
0
291
1
45
0.0
1001
ACAD
1000
AcDbSavedByObjectVersion
1070
0
0
VISUALSTYLE
5
FA1
102
{ACAD_XDICTIONARY
360
109A
102
}
102
{ACAD_REACTORS
330
F93
102
}
330
F93
100
AcDbVisualStyle
2

70
14
71
2
72
2
73
0
90
0
40
-0.6
41
-30.0
62
5
63
7
74
1
91
4
64
7
65
257
75
7
175
7
42
1.0
92
8
66
7
43
1.0
76
1
77
6
78
2
67
7
79
5
170
0
171
0
290
0
174
0
93
1
44
0.0
173
0
291
1
45
0.0
1001
ACAD
1000
AcDbSavedByObjectVersion
1070
0
0
VISUALSTYLE
5
FA5
102
{ACAD_XDICTIONARY
360
10A2
102
}
102
{ACAD_REACTORS
330
F93
102
}
330
F93
100
AcDbVisualStyle
2

70
21
71
2
72
2
73
0
90
0
40
-0.6
41
-30.0
62
5
63
7
74
1
91
4
64
7
65
257
75
1
175
1
42
1.0
92
9
66
7
43
1.0
76
1
77
6
78
2
67
7
79
5
170
0
171
0
290
0
174
0
93
1
44
0.0
173
0
291
1
45
0.0
1001
ACAD
1000
AcDbSavedByObjectVersion
1070
0
0
VISUALSTYLE
5
F9D
102
{ACAD_XDICTIONARY
360
1092
102
}
102
{ACAD_REACTORS
330
F93
102
}
330
F93
100
AcDbVisualStyle
2

70
8
71
2
72
2
73
0
90
0
40
-0.6
41
-30.0
62
5
63
7
74
1
91
0
64
7
65
257
75
1
175
1
42
1.0
92
8
66
8
43
1.0
76
1
77
6
78
2
67
7
79
5
170
0
171
0
290
0
174
0
93
13
44
0.0
173
0
291
0
45
0.0
1001
ACAD
1000
AcDbSavedByObjectVersion
1070
0
0
VISUALSTYLE
5
FA0
102
{ACAD_XDICTIONARY
360
1098
102
}
102
{ACAD_REACTORS
330
F93
102
}
330
F93
100
AcDbVisualStyle
2

70
13
71
2
72
2
73
0
90
0
40
-0.6
41
-30.0
62
5
63
7
74
1
91
4
64
7
65
257
75
1
175
1
42
1.0
92
12
66
7
43
1.0
76
1
77
6
78
2
67
7
79
5
170
0
171
0
290
0
174
0
93
1
44
0.0
173
0
291
1
45
0.0
1001
ACAD
1000
AcDbSavedByObjectVersion
1070
0
0
DICTIONARYVAR
5
FF3
102
{ACAD_REACTORS
330
FF0
102
}
330
FF0
100
DictionaryVariables
280
0
1
1:1
0
DICTIONARYVAR
5
FF2
102
{ACAD_REACTORS
330
FF0
102
}
330
FF0
100
DictionaryVariables
280
0
1
STANDARD
0
DICTIONARYVAR
5
FF1
102
{ACAD_REACTORS
330
FF0
102
}
330
FF0
100
DictionaryVariables
280
0
1
STANDARD
0
DICTIONARYVAR
5
FF6
102
{ACAD_REACTORS
330
FF0
102
}
330
FF0
100
DictionaryVariables
280
0
1
1
0
DICTIONARYVAR
5
FF5
102
{ACAD_REACTORS
330
FF0
102
}
330
FF0
100
DictionaryVariables
280
0
1
0
0
DICTIONARYVAR
5
FF4
102
{ACAD_REACTORS
330
FF0
102
}
330
FF0
100
DictionaryVariables
280
0
1
127
0
DICTIONARYVAR
5
1078
102
{ACAD_REACTORS
330
FF0
102
}
330
FF0
100
DictionaryVariables
280
0
1
2
0
DICTIONARY
5
10A9
330
FD1
100
AcDbDictionary
280
1
281
1
3
ACAD_XREC_ROUNDTRIP
360
10AA
0
DICTIONARY
5
10A7
330
FD0
100
AcDbDictionary
280
1
281
1
3
ACAD_XREC_ROUNDTRIP
360
10A8
0
DICTIONARY
5
F84
330
F83
100
AcDbDictionary
280
1
281
1
3
ACAD_XREC_ROUNDTRIP
360
FFF
3
BUMPTILE
360
F86
3
DIFFUSETILE
360
F85
3
OPACITYTILE
360
F89
3
REFLECTIONTILE
360
F88
3
REFRACTIONTILE
360
F8A
3
SPECULARTILE
360
F87
0
DICTIONARY
5
F7C
330
F7B
100
AcDbDictionary
280
1
281
1
3
ACAD_XREC_ROUNDTRIP
360
FFE
3
BUMPTILE
360
F7E
3
DIFFUSETILE
360
F7D
3
OPACITYTILE
360
F81
3
REFLECTIONTILE
360
F80
3
REFRACTIONTILE
360
F82
3
SPECULARTILE
360
F7F
0
DICTIONARY
5
F8C
330
F8B
100
AcDbDictionary
280
1
281
1
3
ACAD_XREC_ROUNDTRIP
360
1000
3
BUMPTILE
360
F8E
3
DIFFUSETILE
360
F8D
3
OPACITYTILE
360
F91
3
REFLECTIONTILE
360
F90
3
REFRACTIONTILE
360
F92
3
SPECULARTILE
360
F8F
0
DICTIONARY
5
FF8
330
FA9
100
AcDbDictionary
280
1
281
1
3
ACAD_ROUNDTRIP_2008_TABLESTYLE_CELLSTYLEMAP
360
1079
3
ACAD_XREC_ROUNDTRIP
360
10A6
0
DICTIONARY
5
108A
330
F99
100
AcDbDictionary
280
1
281
1
3
ACAD_XREC_ROUNDTRIP
360
108B
0
DICTIONARY
5
108E
330
F9B
100
AcDbDictionary
280
1
281
1
3
ACAD_XREC_ROUNDTRIP
360
108F
0
DICTIONARY
5
108C
330
F9A
100
AcDbDictionary
280
1
281
1
3
ACAD_XREC_ROUNDTRIP
360
108D
0
DICTIONARY
5
1088
330
F98
100
AcDbDictionary
280
1
281
1
3
ACAD_XREC_ROUNDTRIP
360
1089
0
DICTIONARY
5
1096
330
F9F
100
AcDbDictionary
280
1
281
1
3
ACAD_XREC_ROUNDTRIP
360
1097
0
DICTIONARY
5
109E
330
FA3
100
AcDbDictionary
280
1
281
1
3
ACAD_XREC_ROUNDTRIP
360
109F
0
DICTIONARY
5
1090
330
F9C
100
AcDbDictionary
280
1
281
1
3
ACAD_XREC_ROUNDTRIP
360
1091
0
DICTIONARY
5
1094
330
F9E
100
AcDbDictionary
280
1
281
1
3
ACAD_XREC_ROUNDTRIP
360
1095
0
DICTIONARY
5
10A4
330
FA6
100
AcDbDictionary
280
1
281
1
3
ACAD_XREC_ROUNDTRIP
360
10A5
0
DICTIONARY
5
109C
330
FA2
100
AcDbDictionary
280
1
281
1
3
ACAD_XREC_ROUNDTRIP
360
109D
0
DICTIONARY
5
1080
330
F94
100
AcDbDictionary
280
1
281
1
3
ACAD_XREC_ROUNDTRIP
360
1081
0
DICTIONARY
5
1082
330
F95
100
AcDbDictionary
280
1
281
1
3
ACAD_XREC_ROUNDTRIP
360
1083
0
DICTIONARY
5
1084
330
F96
100
AcDbDictionary
280
1
281
1
3
ACAD_XREC_ROUNDTRIP
360
1085
0
DICTIONARY
5
1086
330
F97
100
AcDbDictionary
280
1
281
1
3
ACAD_XREC_ROUNDTRIP
360
1087
0
DICTIONARY
5
10A0
330
FA4
100
AcDbDictionary
280
1
281
1
3
ACAD_XREC_ROUNDTRIP
360
10A1
0
DICTIONARY
5
109A
330
FA1
100
AcDbDictionary
280
1
281
1
3
ACAD_XREC_ROUNDTRIP
360
109B
0
DICTIONARY
5
10A2
330
FA5
100
AcDbDictionary
280
1
281
1
3
ACAD_XREC_ROUNDTRIP
360
10A3
0
DICTIONARY
5
1092
330
F9D
100
AcDbDictionary
280
1
281
1
3
ACAD_XREC_ROUNDTRIP
360
1093
0
DICTIONARY
5
1098
330
FA0
100
AcDbDictionary
280
1
281
1
3
ACAD_XREC_ROUNDTRIP
360
1099
0
XRECORD
5
10AA
102
{ACAD_REACTORS
330
10A9
102
}
330
10A9
100
AcDbXrecord
280
1
102
SHADEPLOT
70
0
102
SHADEPLOTRESLEVEL
70
2
102
SHADEPLOTCUSTOMDPI
70
300
0
XRECORD
5
10A8
102
{ACAD_REACTORS
330
10A7
102
}
330
10A7
100
AcDbXrecord
280
1
102
SHADEPLOT
70
0
102
SHADEPLOTRESLEVEL
70
2
102
SHADEPLOTCUSTOMDPI
70
300
0
XRECORD
5
FFF
102
{ACAD_REACTORS
330
F84
102
}
330
F84
100
AcDbXrecord
280
1
102
MATERIAL
148
0.0
149
0.0
149
0.0
93
0
94
127
282
0
72
0
77
0
171
0
175
0
179
0
273
0
0
XRECORD
5
F86
102
{ACAD_REACTORS
330
F84
102
}
330
F84
100
AcDbXrecord
280
1
270
1
271
1
0
XRECORD
5
F85
102
{ACAD_REACTORS
330
F84
102
}
330
F84
100
AcDbXrecord
280
1
270
1
271
1
0
XRECORD
5
F89
102
{ACAD_REACTORS
330
F84
102
}
330
F84
100
AcDbXrecord
280
1
270
1
271
1
0
XRECORD
5
F88
102
{ACAD_REACTORS
330
F84
102
}
330
F84
100
AcDbXrecord
280
1
270
1
271
1
0
XRECORD
5
F8A
102
{ACAD_REACTORS
330
F84
102
}
330
F84
100
AcDbXrecord
280
1
270
1
271
1
0
XRECORD
5
F87
102
{ACAD_REACTORS
330
F84
102
}
330
F84
100
AcDbXrecord
280
1
270
1
271
1
0
XRECORD
5
FFE
102
{ACAD_REACTORS
330
F7C
102
}
330
F7C
100
AcDbXrecord
280
1
102
MATERIAL
148
0.0
149
0.0
149
0.0
93
0
94
127
282
0
72
0
77
0
171
0
175
0
179
0
273
0
0
XRECORD
5
F7E
102
{ACAD_REACTORS
330
F7C
102
}
330
F7C
100
AcDbXrecord
280
1
270
1
271
1
0
XRECORD
5
F7D
102
{ACAD_REACTORS
330
F7C
102
}
330
F7C
100
AcDbXrecord
280
1
270
1
271
1
0
XRECORD
5
F81
102
{ACAD_REACTORS
330
F7C
102
}
330
F7C
100
AcDbXrecord
280
1
270
1
271
1
0
XRECORD
5
F80
102
{ACAD_REACTORS
330
F7C
102
}
330
F7C
100
AcDbXrecord
280
1
270
1
271
1
0
XRECORD
5
F82
102
{ACAD_REACTORS
330
F7C
102
}
330
F7C
100
AcDbXrecord
280
1
270
1
271
1
0
XRECORD
5
F7F
102
{ACAD_REACTORS
330
F7C
102
}
330
F7C
100
AcDbXrecord
280
1
270
1
271
1
0
XRECORD
5
1000
102
{ACAD_REACTORS
330
F8C
102
}
330
F8C
100
AcDbXrecord
280
1
102
MATERIAL
148
0.0
149
0.0
149
0.0
93
0
94
127
282
0
72
0
77
0
171
0
175
0
179
0
273
0
0
XRECORD
5
F8E
102
{ACAD_REACTORS
330
F8C
102
}
330
F8C
100
AcDbXrecord
280
1
270
1
271
1
0
XRECORD
5
F8D
102
{ACAD_REACTORS
330
F8C
102
}
330
F8C
100
AcDbXrecord
280
1
270
1
271
1
0
XRECORD
5
F91
102
{ACAD_REACTORS
330
F8C
102
}
330
F8C
100
AcDbXrecord
280
1
270
1
271
1
0
XRECORD
5
F90
102
{ACAD_REACTORS
330
F8C
102
}
330
F8C
100
AcDbXrecord
280
1
270
1
271
1
0
XRECORD
5
F92
102
{ACAD_REACTORS
330
F8C
102
}
330
F8C
100
AcDbXrecord
280
1
270
1
271
1
0
XRECORD
5
F8F
102
{ACAD_REACTORS
330
F8C
102
}
330
F8C
100
AcDbXrecord
280
1
270
1
271
1
0
CELLSTYLEMAP
5
1079
102
{ACAD_REACTORS
330
FF8
102
}
330
FF8
100
AcDbCellStyleMap
90
3
300
CELLSTYLE
1
TABLEFORMAT_BEGIN
90
5
170
1
91
0
92
32768
62
257
93
1
300
CONTENTFORMAT
1
CONTENTFORMAT_BEGIN
90
0
91
0
92
512
93
0
300

40
0.0
140
1.0
94
5
62
0
340
253
144
0.25
309
CONTENTFORMAT_END
171
1
301
MARGIN
1
CELLMARGIN_BEGIN
40
0.06
40
0.06
40
0.06
40
0.06
40
0.18
40
0.18
309
CELLMARGIN_END
94
6
95
1
302
GRIDFORMAT
1
GRIDFORMAT_BEGIN
90
0
91
1
62
0
92
-2
340
0
93
0
40
0.045
309
GRIDFORMAT_END
95
2
302
GRIDFORMAT
1
GRIDFORMAT_BEGIN
90
0
91
1
62
0
92
-2
340
0
93
0
40
0.045
309
GRIDFORMAT_END
95
4
302
GRIDFORMAT
1
GRIDFORMAT_BEGIN
90
0
91
1
62
0
92
-2
340
0
93
0
40
0.045
309
GRIDFORMAT_END
95
8
302
GRIDFORMAT
1
GRIDFORMAT_BEGIN
90
0
91
1
62
0
92
-2
340
0
93
0
40
0.045
309
GRIDFORMAT_END
95
16
302
GRIDFORMAT
1
GRIDFORMAT_BEGIN
90
0
91
1
62
0
92
-2
340
0
93
0
40
0.045
309
GRIDFORMAT_END
95
32
302
GRIDFORMAT
1
GRIDFORMAT_BEGIN
90
0
91
1
62
0
92
-2
340
0
93
0
40
0.045
309
GRIDFORMAT_END
309
TABLEFORMAT_END
1
CELLSTYLE_BEGIN
90
1
91
1
300
_TITLE
309
CELLSTYLE_END
300
CELLSTYLE
1
TABLEFORMAT_BEGIN
90
5
170
1
91
0
92
0
62
257
93
1
300
CONTENTFORMAT
1
CONTENTFORMAT_BEGIN
90
0
91
0
92
512
93
0
300

40
0.0
140
1.0
94
5
62
0
340
253
144
0.18
309
CONTENTFORMAT_END
171
1
301
MARGIN
1
CELLMARGIN_BEGIN
40
0.06
40
0.06
40
0.06
40
0.06
40
0.18
40
0.18
309
CELLMARGIN_END
94
6
95
1
302
GRIDFORMAT
1
GRIDFORMAT_BEGIN
90
0
91
1
62
0
92
-2
340
0
93
0
40
0.045
309
GRIDFORMAT_END
95
2
302
GRIDFORMAT
1
GRIDFORMAT_BEGIN
90
0
91
1
62
0
92
-2
340
0
93
0
40
0.045
309
GRIDFORMAT_END
95
4
302
GRIDFORMAT
1
GRIDFORMAT_BEGIN
90
0
91
1
62
0
92
-2
340
0
93
0
40
0.045
309
GRIDFORMAT_END
95
8
302
GRIDFORMAT
1
GRIDFORMAT_BEGIN
90
0
91
1
62
0
92
-2
340
0
93
0
40
0.045
309
GRIDFORMAT_END
95
16
302
GRIDFORMAT
1
GRIDFORMAT_BEGIN
90
0
91
1
62
0
92
-2
340
0
93
0
40
0.045
309
GRIDFORMAT_END
95
32
302
GRIDFORMAT
1
GRIDFORMAT_BEGIN
90
0
91
1
62
0
92
-2
340
0
93
0
40
0.045
309
GRIDFORMAT_END
309
TABLEFORMAT_END
1
CELLSTYLE_BEGIN
90
2
91
1
300
_HEADER
309
CELLSTYLE_END
300
CELLSTYLE
1
TABLEFORMAT_BEGIN
90
5
170
1
91
0
92
0
62
257
93
1
300
CONTENTFORMAT
1
CONTENTFORMAT_BEGIN
90
0
91
0
92
512
93
0
300

40
0.0
140
1.0
94
2
62
0
340
253
144
0.18
309
CONTENTFORMAT_END
171
1
301
MARGIN
1
CELLMARGIN_BEGIN
40
0.06
40
0.06
40
0.06
40
0.06
40
0.18
40
0.18
309
CELLMARGIN_END
94
6
95
1
302
GRIDFORMAT
1
GRIDFORMAT_BEGIN
90
0
91
1
62
0
92
-2
340
0
93
0
40
0.045
309
GRIDFORMAT_END
95
2
302
GRIDFORMAT
1
GRIDFORMAT_BEGIN
90
0
91
1
62
0
92
-2
340
0
93
0
40
0.045
309
GRIDFORMAT_END
95
4
302
GRIDFORMAT
1
GRIDFORMAT_BEGIN
90
0
91
1
62
0
92
-2
340
0
93
0
40
0.045
309
GRIDFORMAT_END
95
8
302
GRIDFORMAT
1
GRIDFORMAT_BEGIN
90
0
91
1
62
0
92
-2
340
0
93
0
40
0.045
309
GRIDFORMAT_END
95
16
302
GRIDFORMAT
1
GRIDFORMAT_BEGIN
90
0
91
1
62
0
92
-2
340
0
93
0
40
0.045
309
GRIDFORMAT_END
95
32
302
GRIDFORMAT
1
GRIDFORMAT_BEGIN
90
0
91
1
62
0
92
-2
340
0
93
0
40
0.045
309
GRIDFORMAT_END
309
TABLEFORMAT_END
1
CELLSTYLE_BEGIN
90
3
91
2
300
_DATA
309
CELLSTYLE_END
0
XRECORD
5
10A6
102
{ACAD_REACTORS
330
FF8
102
}
330
FF8
100
AcDbXrecord
280
1
102
ACAD_ROUNDTRIP_PRE2007_TABLESTYLE
90
512
91
0
1

92
512
93
0
2

94
512
95
0
3

0
XRECORD
5
108B
102
{ACAD_REACTORS
330
108A
102
}
330
108A
100
AcDbXrecord
280
1
102
RTVSPropertyOp0
70
1
102
RTVSPropertyOp1
70
1
102
RTVSPropertyOp2
70
1
102
RTVSPropertyOp3
70
1
102
RTVSPropertyOp4
70
1
102
RTVSPropertyOp5
70
1
102
RTVSPropertyOp6
70
1
102
RTVSPropertyOp7
70
1
102
RTVSPropertyOp8
70
1
102
RTVSPropertyOp9
70
1
102
RTVSPropertyOp10
70
1
102
RTVSPropertyOp11
70
1
102
RTVSPropertyOp12
70
1
102
RTVSPropertyOp13
70
1
102
RTVSPropertyOp14
70
1
102
RTVSPropertyOp15
70
1
102
RTVSPropertyOp16
70
1
102
RTVSPropertyOp17
70
1
102
RTVSPropertyOp18
70
1
102
RTVSPropertyOp19
70
1
102
RTVSPropertyOp20
70
1
102
RTVSPropertyOp21
70
1
102
RTVSPropertyOp22
70
1
102
RTVSPropertyOp23
70
1
102
RTVSPropertyOp24
70
1
102
RTVSPropertyOp25
70
1
102
RTVSPropertyOp26
70
1
102
RTVSPropertyOp27
70
1
0
XRECORD
5
108F
102
{ACAD_REACTORS
330
108E
102
}
330
108E
100
AcDbXrecord
280
1
102
RTVSPropertyOp0
70
1
102
RTVSPropertyOp1
70
1
102
RTVSPropertyOp2
70
1
102
RTVSPropertyOp3
70
1
102
RTVSPropertyOp4
70
1
102
RTVSPropertyOp5
70
1
102
RTVSPropertyOp6
70
1
102
RTVSPropertyOp7
70
1
102
RTVSPropertyOp8
70
1
102
RTVSPropertyOp9
70
1
102
RTVSPropertyOp10
70
1
102
RTVSPropertyOp11
70
1
102
RTVSPropertyOp12
70
1
102
RTVSPropertyOp13
70
1
102
RTVSPropertyOp14
70
1
102
RTVSPropertyOp15
70
1
102
RTVSPropertyOp16
70
1
102
RTVSPropertyOp17
70
1
102
RTVSPropertyOp18
70
1
102
RTVSPropertyOp19
70
1
102
RTVSPropertyOp20
70
1
102
RTVSPropertyOp21
70
1
102
RTVSPropertyOp22
70
1
102
RTVSPropertyOp23
70
1
102
RTVSPropertyOp24
70
1
102
RTVSPropertyOp25
70
1
102
RTVSPropertyOp26
70
1
102
RTVSPropertyOp27
70
1
0
XRECORD
5
108D
102
{ACAD_REACTORS
330
108C
102
}
330
108C
100
AcDbXrecord
280
1
102
RTVSPropertyOp0
70
1
102
RTVSPropertyOp1
70
1
102
RTVSPropertyOp2
70
1
102
RTVSPropertyOp3
70
1
102
RTVSPropertyOp4
70
1
102
RTVSPropertyOp5
70
1
102
RTVSPropertyOp6
70
1
102
RTVSPropertyOp7
70
1
102
RTVSPropertyOp8
70
1
102
RTVSPropertyOp9
70
1
102
RTVSPropertyOp10
70
1
102
RTVSPropertyOp11
70
1
102
RTVSPropertyOp12
70
1
102
RTVSPropertyOp13
70
1
102
RTVSPropertyOp14
70
1
102
RTVSPropertyOp15
70
1
102
RTVSPropertyOp16
70
1
102
RTVSPropertyOp17
70
1
102
RTVSPropertyOp18
70
1
102
RTVSPropertyOp19
70
1
102
RTVSPropertyOp20
70
1
102
RTVSPropertyOp21
70
1
102
RTVSPropertyOp22
70
1
102
RTVSPropertyOp23
70
1
102
RTVSPropertyOp24
70
1
102
RTVSPropertyOp25
70
1
102
RTVSPropertyOp26
70
1
102
RTVSPropertyOp27
70
1
0
XRECORD
5
1089
102
{ACAD_REACTORS
330
1088
102
}
330
1088
100
AcDbXrecord
280
1
102
RTVSPropertyOp0
70
1
102
RTVSPropertyOp1
70
1
102
RTVSPropertyOp2
70
1
102
RTVSPropertyOp3
70
1
102
RTVSPropertyOp4
70
1
102
RTVSPropertyOp5
70
1
102
RTVSPropertyOp6
70
1
102
RTVSPropertyOp7
70
1
102
RTVSPropertyOp8
70
1
102
RTVSPropertyOp9
70
1
102
RTVSPropertyOp10
70
1
102
RTVSPropertyOp11
70
1
102
RTVSPropertyOp12
70
1
102
RTVSPropertyOp13
70
1
102
RTVSPropertyOp14
70
1
102
RTVSPropertyOp15
70
1
102
RTVSPropertyOp16
70
1
102
RTVSPropertyOp17
70
1
102
RTVSPropertyOp18
70
1
102
RTVSPropertyOp19
70
1
102
RTVSPropertyOp20
70
1
102
RTVSPropertyOp21
70
1
102
RTVSPropertyOp22
70
1
102
RTVSPropertyOp23
70
1
102
RTVSPropertyOp24
70
1
102
RTVSPropertyOp25
70
1
102
RTVSPropertyOp26
70
1
102
RTVSPropertyOp27
70
1
0
XRECORD
5
1097
102
{ACAD_REACTORS
330
1096
102
}
330
1096
100
AcDbXrecord
280
1
102
RTVSPropertyOp0
70
1
102
RTVSPropertyOp1
70
1
102
RTVSPropertyOp2
70
1
102
RTVSPropertyOp3
70
1
102
RTVSPropertyOp4
70
1
102
RTVSPropertyOp5
70
1
102
RTVSPropertyOp6
70
1
102
RTVSPropertyOp7
70
1
102
RTVSPropertyOp8
70
1
102
RTVSPropertyOp9
70
1
102
RTVSPropertyOp10
70
1
102
RTVSPropertyOp11
70
1
102
RTVSPropertyOp12
70
1
102
RTVSPropertyOp13
70
1
102
RTVSPropertyOp14
70
1
102
RTVSPropertyOp15
70
1
102
RTVSPropertyOp16
70
1
102
RTVSPropertyOp17
70
1
102
RTVSPropertyOp18
70
1
102
RTVSPropertyOp19
70
1
102
RTVSPropertyOp20
70
1
102
RTVSPropertyOp21
70
1
102
RTVSPropertyOp22
70
1
102
RTVSPropertyOp23
70
1
102
RTVSPropertyOp24
70
1
102
RTVSPropertyOp25
70
1
102
RTVSPropertyOp26
70
1
102
RTVSPropertyOp27
70
1
0
XRECORD
5
109F
102
{ACAD_REACTORS
330
109E
102
}
330
109E
100
AcDbXrecord
280
1
102
RTVSPropertyOp0
70
1
102
RTVSPropertyOp1
70
1
102
RTVSPropertyOp2
70
1
102
RTVSPropertyOp3
70
1
102
RTVSPropertyOp4
70
1
102
RTVSPropertyOp5
70
1
102
RTVSPropertyOp6
70
1
102
RTVSPropertyOp7
70
1
102
RTVSPropertyOp8
70
1
102
RTVSPropertyOp9
70
1
102
RTVSPropertyOp10
70
1
102
RTVSPropertyOp11
70
1
102
RTVSPropertyOp12
70
1
102
RTVSPropertyOp13
70
1
102
RTVSPropertyOp14
70
1
102
RTVSPropertyOp15
70
1
102
RTVSPropertyOp16
70
1
102
RTVSPropertyOp17
70
1
102
RTVSPropertyOp18
70
1
102
RTVSPropertyOp19
70
1
102
RTVSPropertyOp20
70
1
102
RTVSPropertyOp21
70
1
102
RTVSPropertyOp22
70
1
102
RTVSPropertyOp23
70
1
102
RTVSPropertyOp24
70
1
102
RTVSPropertyOp25
70
1
102
RTVSPropertyOp26
70
1
102
RTVSPropertyOp27
70
1
0
XRECORD
5
1091
102
{ACAD_REACTORS
330
1090
102
}
330
1090
100
AcDbXrecord
280
1
102
RTVSPropertyOp0
70
1
102
RTVSPropertyOp1
70
1
102
RTVSPropertyOp2
70
1
102
RTVSPropertyOp3
70
1
102
RTVSPropertyOp4
70
1
102
RTVSPropertyOp5
70
1
102
RTVSPropertyOp6
70
1
102
RTVSPropertyOp7
70
1
102
RTVSPropertyOp8
70
1
102
RTVSPropertyOp9
70
1
102
RTVSPropertyOp10
70
1
102
RTVSPropertyOp11
70
1
102
RTVSPropertyOp12
70
1
102
RTVSPropertyOp13
70
1
102
RTVSPropertyOp14
70
1
102
RTVSPropertyOp15
70
1
102
RTVSPropertyOp16
70
1
102
RTVSPropertyOp17
70
1
102
RTVSPropertyOp18
70
1
102
RTVSPropertyOp19
70
1
102
RTVSPropertyOp20
70
1
102
RTVSPropertyOp21
70
1
102
RTVSPropertyOp22
70
1
102
RTVSPropertyOp23
70
1
102
RTVSPropertyOp24
70
1
102
RTVSPropertyOp25
70
1
102
RTVSPropertyOp26
70
1
102
RTVSPropertyOp27
70
1
0
XRECORD
5
1095
102
{ACAD_REACTORS
330
1094
102
}
330
1094
100
AcDbXrecord
280
1
102
RTVSPropertyOp0
70
1
102
RTVSPropertyOp1
70
1
102
RTVSPropertyOp2
70
1
102
RTVSPropertyOp3
70
1
102
RTVSPropertyOp4
70
1
102
RTVSPropertyOp5
70
1
102
RTVSPropertyOp6
70
1
102
RTVSPropertyOp7
70
1
102
RTVSPropertyOp8
70
1
102
RTVSPropertyOp9
70
1
102
RTVSPropertyOp10
70
1
102
RTVSPropertyOp11
70
1
102
RTVSPropertyOp12
70
1
102
RTVSPropertyOp13
70
1
102
RTVSPropertyOp14
70
1
102
RTVSPropertyOp15
70
1
102
RTVSPropertyOp16
70
1
102
RTVSPropertyOp17
70
1
102
RTVSPropertyOp18
70
1
102
RTVSPropertyOp19
70
1
102
RTVSPropertyOp20
70
1
102
RTVSPropertyOp21
70
1
102
RTVSPropertyOp22
70
1
102
RTVSPropertyOp23
70
1
102
RTVSPropertyOp24
70
1
102
RTVSPropertyOp25
70
1
102
RTVSPropertyOp26
70
1
102
RTVSPropertyOp27
70
1
0
XRECORD
5
10A5
102
{ACAD_REACTORS
330
10A4
102
}
330
10A4
100
AcDbXrecord
280
1
102
RTVSPropertyOp0
70
0
102
RTVSPropertyOp1
70
0
102
RTVSPropertyOp2
70
0
102
RTVSPropertyOp3
70
0
102
RTVSPropertyOp4
70
0
102
RTVSPropertyOp5
70
0
102
RTVSPropertyOp6
70
0
102
RTVSPropertyOp7
70
0
102
RTVSPropertyOp8
70
0
102
RTVSPropertyOp9
70
0
102
RTVSPropertyOp10
70
0
102
RTVSPropertyOp11
70
0
102
RTVSPropertyOp12
70
0
102
RTVSPropertyOp13
70
0
102
RTVSPropertyOp14
70
2
102
RTVSPropertyOp15
70
0
102
RTVSPropertyOp16
70
0
102
RTVSPropertyOp17
70
0
102
RTVSPropertyOp18
70
0
102
RTVSPropertyOp19
70
0
102
RTVSPropertyOp20
70
0
102
RTVSPropertyOp21
70
0
102
RTVSPropertyOp22
70
0
102
RTVSPropertyOp23
70
0
102
RTVSPropertyOp24
70
0
102
RTVSPropertyOp25
70
0
102
RTVSPropertyOp26
70
0
102
RTVSPropertyOp27
70
0
0
XRECORD
5
109D
102
{ACAD_REACTORS
330
109C
102
}
330
109C
100
AcDbXrecord
280
1
102
RTVSPropertyOp0
70
1
102
RTVSPropertyOp1
70
1
102
RTVSPropertyOp2
70
1
102
RTVSPropertyOp3
70
1
102
RTVSPropertyOp4
70
1
102
RTVSPropertyOp5
70
1
102
RTVSPropertyOp6
70
1
102
RTVSPropertyOp7
70
1
102
RTVSPropertyOp8
70
1
102
RTVSPropertyOp9
70
1
102
RTVSPropertyOp10
70
1
102
RTVSPropertyOp11
70
1
102
RTVSPropertyOp12
70
1
102
RTVSPropertyOp13
70
1
102
RTVSPropertyOp14
70
1
102
RTVSPropertyOp15
70
1
102
RTVSPropertyOp16
70
1
102
RTVSPropertyOp17
70
1
102
RTVSPropertyOp18
70
1
102
RTVSPropertyOp19
70
1
102
RTVSPropertyOp20
70
1
102
RTVSPropertyOp21
70
1
102
RTVSPropertyOp22
70
1
102
RTVSPropertyOp23
70
1
102
RTVSPropertyOp24
70
1
102
RTVSPropertyOp25
70
1
102
RTVSPropertyOp26
70
1
102
RTVSPropertyOp27
70
1
0
XRECORD
5
1081
102
{ACAD_REACTORS
330
1080
102
}
330
1080
100
AcDbXrecord
280
1
102
RTVSPropertyOp0
70
1
102
RTVSPropertyOp1
70
1
102
RTVSPropertyOp2
70
1
102
RTVSPropertyOp3
70
1
102
RTVSPropertyOp4
70
1
102
RTVSPropertyOp5
70
1
102
RTVSPropertyOp6
70
1
102
RTVSPropertyOp7
70
1
102
RTVSPropertyOp8
70
1
102
RTVSPropertyOp9
70
1
102
RTVSPropertyOp10
70
1
102
RTVSPropertyOp11
70
1
102
RTVSPropertyOp12
70
1
102
RTVSPropertyOp13
70
1
102
RTVSPropertyOp14
70
1
102
RTVSPropertyOp15
70
1
102
RTVSPropertyOp16
70
1
102
RTVSPropertyOp17
70
1
102
RTVSPropertyOp18
70
1
102
RTVSPropertyOp19
70
1
102
RTVSPropertyOp20
70
1
102
RTVSPropertyOp21
70
1
102
RTVSPropertyOp22
70
1
102
RTVSPropertyOp23
70
1
102
RTVSPropertyOp24
70
1
102
RTVSPropertyOp25
70
1
102
RTVSPropertyOp26
70
1
102
RTVSPropertyOp27
70
1
0
XRECORD
5
1083
102
{ACAD_REACTORS
330
1082
102
}
330
1082
100
AcDbXrecord
280
1
102
RTVSPropertyOp0
70
1
102
RTVSPropertyOp1
70
1
102
RTVSPropertyOp2
70
1
102
RTVSPropertyOp3
70
1
102
RTVSPropertyOp4
70
1
102
RTVSPropertyOp5
70
1
102
RTVSPropertyOp6
70
1
102
RTVSPropertyOp7
70
1
102
RTVSPropertyOp8
70
1
102
RTVSPropertyOp9
70
1
102
RTVSPropertyOp10
70
1
102
RTVSPropertyOp11
70
1
102
RTVSPropertyOp12
70
1
102
RTVSPropertyOp13
70
1
102
RTVSPropertyOp14
70
1
102
RTVSPropertyOp15
70
1
102
RTVSPropertyOp16
70
1
102
RTVSPropertyOp17
70
1
102
RTVSPropertyOp18
70
1
102
RTVSPropertyOp19
70
1
102
RTVSPropertyOp20
70
1
102
RTVSPropertyOp21
70
1
102
RTVSPropertyOp22
70
1
102
RTVSPropertyOp23
70
1
102
RTVSPropertyOp24
70
1
102
RTVSPropertyOp25
70
1
102
RTVSPropertyOp26
70
1
102
RTVSPropertyOp27
70
1
0
XRECORD
5
1085
102
{ACAD_REACTORS
330
1084
102
}
330
1084
100
AcDbXrecord
280
1
102
RTVSPropertyOp0
70
1
102
RTVSPropertyOp1
70
1
102
RTVSPropertyOp2
70
1
102
RTVSPropertyOp3
70
1
102
RTVSPropertyOp4
70
1
102
RTVSPropertyOp5
70
1
102
RTVSPropertyOp6
70
1
102
RTVSPropertyOp7
70
1
102
RTVSPropertyOp8
70
1
102
RTVSPropertyOp9
70
1
102
RTVSPropertyOp10
70
1
102
RTVSPropertyOp11
70
1
102
RTVSPropertyOp12
70
1
102
RTVSPropertyOp13
70
1
102
RTVSPropertyOp14
70
1
102
RTVSPropertyOp15
70
1
102
RTVSPropertyOp16
70
1
102
RTVSPropertyOp17
70
1
102
RTVSPropertyOp18
70
1
102
RTVSPropertyOp19
70
1
102
RTVSPropertyOp20
70
1
102
RTVSPropertyOp21
70
1
102
RTVSPropertyOp22
70
1
102
RTVSPropertyOp23
70
1
102
RTVSPropertyOp24
70
1
102
RTVSPropertyOp25
70
1
102
RTVSPropertyOp26
70
1
102
RTVSPropertyOp27
70
1
0
XRECORD
5
1087
102
{ACAD_REACTORS
330
1086
102
}
330
1086
100
AcDbXrecord
280
1
102
RTVSPropertyOp0
70
1
102
RTVSPropertyOp1
70
1
102
RTVSPropertyOp2
70
1
102
RTVSPropertyOp3
70
1
102
RTVSPropertyOp4
70
1
102
RTVSPropertyOp5
70
1
102
RTVSPropertyOp6
70
1
102
RTVSPropertyOp7
70
1
102
RTVSPropertyOp8
70
1
102
RTVSPropertyOp9
70
1
102
RTVSPropertyOp10
70
1
102
RTVSPropertyOp11
70
1
102
RTVSPropertyOp12
70
1
102
RTVSPropertyOp13
70
1
102
RTVSPropertyOp14
70
1
102
RTVSPropertyOp15
70
1
102
RTVSPropertyOp16
70
1
102
RTVSPropertyOp17
70
1
102
RTVSPropertyOp18
70
1
102
RTVSPropertyOp19
70
1
102
RTVSPropertyOp20
70
1
102
RTVSPropertyOp21
70
1
102
RTVSPropertyOp22
70
1
102
RTVSPropertyOp23
70
1
102
RTVSPropertyOp24
70
1
102
RTVSPropertyOp25
70
1
102
RTVSPropertyOp26
70
1
102
RTVSPropertyOp27
70
1
0
XRECORD
5
10A1
102
{ACAD_REACTORS
330
10A0
102
}
330
10A0
100
AcDbXrecord
280
1
102
RTVSPropertyOp0
70
0
102
RTVSPropertyOp1
70
0
102
RTVSPropertyOp2
70
0
102
RTVSPropertyOp3
70
0
102
RTVSPropertyOp4
70
0
102
RTVSPropertyOp5
70
0
102
RTVSPropertyOp6
70
0
102
RTVSPropertyOp7
70
0
102
RTVSPropertyOp8
70
0
102
RTVSPropertyOp9
70
0
102
RTVSPropertyOp10
70
0
102
RTVSPropertyOp11
70
0
102
RTVSPropertyOp12
70
0
102
RTVSPropertyOp13
70
0
102
RTVSPropertyOp14
70
2
102
RTVSPropertyOp15
70
0
102
RTVSPropertyOp16
70
0
102
RTVSPropertyOp17
70
0
102
RTVSPropertyOp18
70
0
102
RTVSPropertyOp19
70
0
102
RTVSPropertyOp20
70
0
102
RTVSPropertyOp21
70
0
102
RTVSPropertyOp22
70
0
102
RTVSPropertyOp23
70
0
102
RTVSPropertyOp24
70
0
102
RTVSPropertyOp25
70
0
102
RTVSPropertyOp26
70
0
102
RTVSPropertyOp27
70
0
0
XRECORD
5
109B
102
{ACAD_REACTORS
330
109A
102
}
330
109A
100
AcDbXrecord
280
1
102
RTVSPropertyOp0
70
1
102
RTVSPropertyOp1
70
1
102
RTVSPropertyOp2
70
1
102
RTVSPropertyOp3
70
1
102
RTVSPropertyOp4
70
1
102
RTVSPropertyOp5
70
1
102
RTVSPropertyOp6
70
1
102
RTVSPropertyOp7
70
1
102
RTVSPropertyOp8
70
1
102
RTVSPropertyOp9
70
1
102
RTVSPropertyOp10
70
1
102
RTVSPropertyOp11
70
1
102
RTVSPropertyOp12
70
1
102
RTVSPropertyOp13
70
1
102
RTVSPropertyOp14
70
1
102
RTVSPropertyOp15
70
1
102
RTVSPropertyOp16
70
1
102
RTVSPropertyOp17
70
1
102
RTVSPropertyOp18
70
1
102
RTVSPropertyOp19
70
1
102
RTVSPropertyOp20
70
1
102
RTVSPropertyOp21
70
1
102
RTVSPropertyOp22
70
1
102
RTVSPropertyOp23
70
1
102
RTVSPropertyOp24
70
1
102
RTVSPropertyOp25
70
1
102
RTVSPropertyOp26
70
1
102
RTVSPropertyOp27
70
1
0
XRECORD
5
10A3
102
{ACAD_REACTORS
330
10A2
102
}
330
10A2
100
AcDbXrecord
280
1
102
RTVSPropertyOp0
70
0
102
RTVSPropertyOp1
70
0
102
RTVSPropertyOp2
70
0
102
RTVSPropertyOp3
70
0
102
RTVSPropertyOp4
70
0
102
RTVSPropertyOp5
70
0
102
RTVSPropertyOp6
70
0
102
RTVSPropertyOp7
70
0
102
RTVSPropertyOp8
70
0
102
RTVSPropertyOp9
70
0
102
RTVSPropertyOp10
70
0
102
RTVSPropertyOp11
70
0
102
RTVSPropertyOp12
70
0
102
RTVSPropertyOp13
70
0
102
RTVSPropertyOp14
70
2
102
RTVSPropertyOp15
70
0
102
RTVSPropertyOp16
70
0
102
RTVSPropertyOp17
70
0
102
RTVSPropertyOp18
70
0
102
RTVSPropertyOp19
70
0
102
RTVSPropertyOp20
70
0
102
RTVSPropertyOp21
70
0
102
RTVSPropertyOp22
70
0
102
RTVSPropertyOp23
70
0
102
RTVSPropertyOp24
70
0
102
RTVSPropertyOp25
70
0
102
RTVSPropertyOp26
70
0
102
RTVSPropertyOp27
70
0
0
XRECORD
5
1093
102
{ACAD_REACTORS
330
1092
102
}
330
1092
100
AcDbXrecord
280
1
102
RTVSPropertyOp0
70
1
102
RTVSPropertyOp1
70
1
102
RTVSPropertyOp2
70
1
102
RTVSPropertyOp3
70
1
102
RTVSPropertyOp4
70
1
102
RTVSPropertyOp5
70
1
102
RTVSPropertyOp6
70
1
102
RTVSPropertyOp7
70
1
102
RTVSPropertyOp8
70
1
102
RTVSPropertyOp9
70
1
102
RTVSPropertyOp10
70
1
102
RTVSPropertyOp11
70
1
102
RTVSPropertyOp12
70
1
102
RTVSPropertyOp13
70
1
102
RTVSPropertyOp14
70
1
102
RTVSPropertyOp15
70
1
102
RTVSPropertyOp16
70
1
102
RTVSPropertyOp17
70
1
102
RTVSPropertyOp18
70
1
102
RTVSPropertyOp19
70
1
102
RTVSPropertyOp20
70
1
102
RTVSPropertyOp21
70
1
102
RTVSPropertyOp22
70
1
102
RTVSPropertyOp23
70
1
102
RTVSPropertyOp24
70
1
102
RTVSPropertyOp25
70
1
102
RTVSPropertyOp26
70
1
102
RTVSPropertyOp27
70
1
0
XRECORD
5
1099
102
{ACAD_REACTORS
330
1098
102
}
330
1098
100
AcDbXrecord
280
1
102
RTVSPropertyOp0
70
1
102
RTVSPropertyOp1
70
1
102
RTVSPropertyOp2
70
1
102
RTVSPropertyOp3
70
1
102
RTVSPropertyOp4
70
1
102
RTVSPropertyOp5
70
1
102
RTVSPropertyOp6
70
1
102
RTVSPropertyOp7
70
1
102
RTVSPropertyOp8
70
1
102
RTVSPropertyOp9
70
1
102
RTVSPropertyOp10
70
1
102
RTVSPropertyOp11
70
1
102
RTVSPropertyOp12
70
1
102
RTVSPropertyOp13
70
1
102
RTVSPropertyOp14
70
1
102
RTVSPropertyOp15
70
1
102
RTVSPropertyOp16
70
1
102
RTVSPropertyOp17
70
1
102
RTVSPropertyOp18
70
1
102
RTVSPropertyOp19
70
1
102
RTVSPropertyOp20
70
1
102
RTVSPropertyOp21
70
1
102
RTVSPropertyOp22
70
1
102
RTVSPropertyOp23
70
1
102
RTVSPropertyOp24
70
1
102
RTVSPropertyOp25
70
1
102
RTVSPropertyOp26
70
1
102
RTVSPropertyOp27
70
1
0
ENDSEC
0
EOF
