0
SECTION
2
HEADER
9
$ACADVER
1
AC1015
9
$ACADMAINTVER
70
20
9
$DWGCODEPAGE
3
ANSI_1252
9
$INSBASE
10
0.0
20
0.0
30
0.0
9
$EXTMIN
10
-150.000000000000
20
-105.000000000000
30
0.0
9
$EXTMAX
10
150.000000000000
20
105.000000000000
30
0.0
9
$LIMMIN
10
0.0
20
0.0
9
$LIMMAX
10
12.0
20
9.0
9
$ORTHOMODE
70
0
9
$REGENMODE
70
1
9
$FILLMODE
70
1
9
$QTEXTMODE
70
0
9
$MIRRTEXT
70
1
9
$LTSCALE
40
1.0
9
$ATTMODE
70
1
9
$TEXTSIZE
40
0.2
9
$TRACEWID
40
0.05
9
$TEXTSTYLE
7
Standard
9
$CLAYER
8
0
9
$CELTYPE
6
ByLayer
9
$CECOLOR
62
256
9
$CELTSCALE
40
1.0
9
$DISPSILH
70
0
9
$DIMSCALE
40
1.0
9
$DIMASZ
40
2.5
9
$DIMEXO
40
0.625
9
$DIMDLI
40
0.38
9
$DIMRND
40
0.0
9
$DIMDLE
40
0.0
9
$DIMEXE
40
1.25
9
$DIMTP
40
0.0
9
$DIMTM
40
0.000000001
9
$DIMTXT
40
2.5
9
$DIMCEN
40
0.09
9
$DIMTSZ
40
0.0
9
$DIMTOL
70
1
9
$DIMLIM
70
0
9
$DIMTIH
70
0
9
$DIMTOH
70
0
9
$DIMSE1
70
0
9
$DIMSE2
70
0
9
$DIMTAD
70
1
9
$DIMZIN
70
0
9
$DIMBLK
1
VDDIM_DEFAULT
9
$DIMASO
70
1
9
$DIMSHO
70
1
9
$DIMPOST
1

9
$DIMAPOST
1

9
$DIMALT
70
0
9
$DIMALTD
70
2
9
$DIMALTF
40
25.4
9
$DIMLFAC
40
1.00000000000000
9
$DIMTOFL
70
0
9
$DIMTVP
40
0.0
9
$DIMTIX
70
0
9
$DIMSOXD
70
0
9
$DIMSAH
70
0
9
$DIMBLK1
1

9
$DIMBLK2
1

9
$DIMSTYLE
2
BEM-ISBE
9
$DIMCLRD
70
0
9
$DIMCLRE
70
0
9
$DIMCLRT
70
0
9
$DIMTFAC
40
0.5
9
$DIMGAP
40
0.625
9
$DIMJUST
70
0
9
$DIMSD1
70
0
9
$DIMSD2
70
0
9
$DIMTOLJ
70
1
9
$DIMTZIN
70
0
9
$DIMALTZ
70
0
9
$DIMALTTZ
70
0
9
$DIMUPT
70
0
9
$DIMDEC
70
3
9
$DIMTDEC
70
3
9
$DIMALTU
70
2
9
$DIMALTTD
70
2
9
$DIMTXSTY
7
Standard
9
$DIMAUNIT
70
0
9
$DIMADEC
70
3
9
$DIMALTRND
40
0.0
9
$DIMAZIN
70
0
9
$DIMDSEP
70
46
9
$DIMATFIT
70
3
9
$DIMFRAC
70
0
9
$DIMLDRBLK
1

9
$DIMLUNIT
70
2
9
$DIMLWD
70
-2
9
$DIMLWE
70
-2
9
$DIMTMOVE
70
0
9
$LUNITS
70
2
9
$LUPREC
70
4
9
$SKETCHINC
40
0.1
9
$FILLETRAD
40
0.5
9
$AUNITS
70
0
9
$AUPREC
70
0
9
$MENU
1
.
9
$ELEVATION
40
0.0
9
$PELEVATION
40
0.0
9
$THICKNESS
40
0.0
9
$LIMCHECK
70
0
9
$CHAMFERA
40
0.5
9
$CHAMFERB
40
0.5
9
$CHAMFERC
40
1.0
9
$CHAMFERD
40
0.0
9
$SKPOLY
70
0
9
$TDCREATE
40
0.0
9
$TDUCREATE
40
0.0
9
$TDUPDATE
40
0.0
9
$TDUUPDATE
40
0.0
9
$TDINDWG
40
0.0
9
$TDUSRTIMER
40
0.0
9
$USRTIMER
70
1
9
$ANGBASE
50
0.0
9
$ANGDIR
70
0
9
$PDMODE
70
0
9
$PDSIZE
40
0.0
9
$PLINEWID
40
0.0
9
$SPLFRAME
70
0
9
$SPLINETYPE
70
6
9
$SPLINESEGS
70
8
9
$HANDSEED
5
10AB
9
$SURFTAB1
70
6
9
$SURFTAB2
70
6
9
$SURFTYPE
70
6
9
$SURFU
70
6
9
$SURFV
70
6
9
$UCSBASE
2

9
$UCSNAME
2

9
$UCSORG
10
0.0
20
0.0
30
0.0
9
$UCSXDIR
10
1.0
20
0.0
30
0.0
9
$UCSYDIR
10
0.0
20
1.0
30
0.0
9
$UCSORTHOREF
2

9
$UCSORTHOVIEW
70
0
9
$UCSORGTOP
10
0.0
20
0.0
30
0.0
9
$UCSORGBOTTOM
10
0.0
20
0.0
30
0.0
9
$UCSORGLEFT
10
0.0
20
0.0
30
0.0
9
$UCSORGRIGHT
10
0.0
20
0.0
30
0.0
9
$UCSORGFRONT
10
0.0
20
0.0
30
0.0
9
$UCSORGBACK
10
0.0
20
0.0
30
0.0
9
$PUCSBASE
2

9
$PUCSNAME
2

9
$PUCSORG
10
0.0
20
0.0
30
0.0
9
$PUCSXDIR
10
1.0
20
0.0
30
0.0
9
$PUCSYDIR
10
0.0
20
1.0
30
0.0
9
$PUCSORTHOREF
2

9
$PUCSORTHOVIEW
70
0
9
$PUCSORGTOP
10
0.0
20
0.0
30
0.0
9
$PUCSORGBOTTOM
10
0.0
20
0.0
30
0.0
9
$PUCSORGLEFT
10
0.0
20
0.0
30
0.0
9
$PUCSORGRIGHT
10
0.0
20
0.0
30
0.0
9
$PUCSORGFRONT
10
0.0
20
0.0
30
0.0
9
$PUCSORGBACK
10
0.0
20
0.0
30
0.0
9
$USERI1
70
0
9
$USERI2
70
0
9
$USERI3
70
0
9
$USERI4
70
0
9
$USERI5
70
0
9
$USERR1
40
0.0
9
$USERR2
40
0.0
9
$USERR3
40
0.0
9
$USERR4
40
0.0
9
$USERR5
40
0.0
9
$WORLDVIEW
70
1
9
$SHADEDGE
70
3
9
$SHADEDIF
70
70
9
$TILEMODE
70
1
9
$MAXACTVP
70
64
9
$PINSBASE
10
0.0
20
0.0
30
0.0
9
$PLIMCHECK
70
0
9
$PEXTMIN
10
1.000000000000000E+20
20
1.000000000000000E+20
30
1.000000000000000E+20
9
$PEXTMAX
10
-1.000000000000000E+20
20
-1.000000000000000E+20
30
-1.000000000000000E+20
9
$PLIMMIN
10
0.0
20
0.0
9
$PLIMMAX
10
12.0
20
9.0
9
$UNITMODE
70
0
9
$VISRETAIN
70
1
9
$PLINEGEN
70
0
9
$PSLTSCALE
70
1
9
$TREEDEPTH
70
3020
9
$CMLSTYLE
2
Standard
9
$CMLJUST
70
0
9
$CMLSCALE
40
1.0
9
$PROXYGRAPHICS
70
1
9
$MEASUREMENT
70
0
9
$CELWEIGHT
370
-1
9
$ENDCAPS
280
0
9
$JOINSTYLE
280
0
9
$LWDISPLAY
290
0
9
$INSUNITS
70
4
9
$HYPERLINKBASE
1

9
$STYLESHEET
1

9
$XEDIT
290
1
9
$CEPSNTYPE
380
0
9
$PSTYLEMODE
290
0
9
$FINGERPRINTGUID
2
{FAEB1C30-E019-11D5-929B-00C0DF256EC4}
9
$VERSIONGUID
2
{04C5C4E4-4947-4D90-8812-D401569E61F7}
9
$EXTNAMES
290
1
9
$PSVPSCALE
40
0.0
9
$OLESTARTUP
290
0
0
ENDSEC
0
SECTION
2
CLASSES
0
CLASS
1
ACDBDICTIONARYWDFLT
2
AcDbDictionaryWithDefault
3
ObjectDBX Classes
90
0
280
0
281
0
0
CLASS
1
ACDBPLACEHOLDER
2
AcDbPlaceHolder
3
ObjectDBX Classes
90
0
280
0
281
0
0
CLASS
1
LAYOUT
2
AcDbLayout
3
ObjectDBX Classes
90
0
280
0
281
0
0
CLASS
1
MATERIAL
2
AcDbMaterial
3
ObjectDBX Classes
90
1153
280
0
281
0
0
CLASS
1
VISUALSTYLE
2
AcDbVisualStyle
3
ObjectDBX Classes
90
4095
280
0
281
0
0
CLASS
1
TABLESTYLE
2
AcDbTableStyle
3
ObjectDBX Classes
90
4095
280
0
281
0
0
CLASS
1
SCALE
2
AcDbScale
3
ObjectDBX Classes
90
1153
280
0
281
0
0
CLASS
1
MLEADERSTYLE
2
AcDbMLeaderStyle
3
ACDB_MLEADERSTYLE_CLASS
90
4095
280
0
281
0
0
CLASS
1
DICTIONARYVAR
2
AcDbDictionaryVar
3
ObjectDBX Classes
90
0
280
0
281
0
0
CLASS
1
CELLSTYLEMAP
2
AcDbCellStyleMap
3
ObjectDBX Classes
90
1152
280
0
281
0
0
ENDSEC
0
SECTION
2
TABLES
0
TABLE
2
VPORT
5
24A
330
0
100
AcDbSymbolTable
70
1
0
VPORT
5
26B
330
24A
100
AcDbSymbolTableRecord
100
AcDbViewportTableRecord
2
*Active
70
0
10
0.0
20
0.0
11
1.0
21
1.0
12
0.000000000000000
22
0.000000000000000
13
0.0
23
0.0
14
10.0
24
10.0
15
10.0
25
10.0
16
0.0
26
0.0
36
1.0
17
0.0
27
0.0
37
0.0
40
210.000000000000
41
1.42857142857143
42
1.0
43
0.0
44
0.0
50
0.0
51
0.0000000000007958
71
0
72
100
73
1
74
3
75
0
76
0
77
0
78
1
281
0
65
1
110
0.0
120
0.0
130
0.0
111
1.0
121
0.0
131
0.0
112
0.0
122
1.0
132
0.0
79
0
146
0.0
0
ENDTAB
0
TABLE
2
LTYPE
5
247
330
0
100
AcDbSymbolTable
70
25
0
LTYPE
5
256
330
247
100
AcDbSymbolTableRecord
100
AcDbLinetypeTableRecord
2
ByBlock
70
0
3

72
65
73
0
40
0.0
0
LTYPE
5
257
330
247
100
AcDbSymbolTableRecord
100
AcDbLinetypeTableRecord
2
ByLayer
70
0
3

72
65
73
0
40
0.0
0
LTYPE
5
258
330
247
100
AcDbSymbolTableRecord
100
AcDbLinetypeTableRecord
2
Continuous
70
0
3
Solid line
72
65
73
0
40
0.0
0
LTYPE
5
273
330
247
100
AcDbSymbolTableRecord
100
AcDbLinetypeTableRecord
2
CENTER
70
0
3
Center ____ _ ____ _ ____ _ ____ _ ____ _ ____
72
65
73
4
40
2.0
49
1.25
74
0
49
-0.25
74
0
49
0.25
74
0
49
-0.25
74
0
0
LTYPE
5
274
330
247
100
AcDbSymbolTableRecord
100
AcDbLinetypeTableRecord
2
DASHDOT
70
0
3
Dashdot __ . __ . __ . __ . __ . __ . __ . __
72
65
73
4
40
1.0
49
0.5
74
0
49
-0.25
74
0
49
0.0
74
0
49
-0.25
74
0
0
LTYPE
5
275
330
247
100
AcDbSymbolTableRecord
100
AcDbLinetypeTableRecord
2
DASHED
70
0
3
Dashed __ __ __ __ __ __ __ __ __ __ __ __ __ _
72
65
73
2
40
0.75
49
0.5
74
0
49
-0.25
74
0
0
LTYPE
5
276
330
247
100
AcDbSymbolTableRecord
100
AcDbLinetypeTableRecord
2
HIDDEN
70
0
3
Hidden __ __ __ __ __ __ __ __ __ __ __ __ __ __
72
65
73
2
40
0.375
49
0.25
74
0
49
-0.125
74
0
0
LTYPE
5
277
330
247
100
AcDbSymbolTableRecord
100
AcDbLinetypeTableRecord
2
HIDDEN2
70
0
3
Hidden2 _ _ _ _ _ _ _ _ _ _ _ _ _ _ _ _ _
72
65
73
2
40
0.1875
49
0.125
74
0
49
-0.0625
74
0
0
LTYPE
5
278
330
247
100
AcDbSymbolTableRecord
100
AcDbLinetypeTableRecord
2
BORDER
70
0
3
Border __ __ . __ __ . __ __ . __ __ . __ __ .
72
65
73
6
40
1.75
49
0.5
74
0
49
-0.25
74
0
49
0.5
74
0
49
-0.25
74
0
49
0.0
74
0
49
-0.25
74
0
0
LTYPE
5
279
330
247
100
AcDbSymbolTableRecord
100
AcDbLinetypeTableRecord
2
BORDER2
70
0
3
Border2 __.__.__.__.__.__.__.__.__.__.__.
72
65
73
6
40
0.875
49
0.25
74
0
49
-0.125
74
0
49
0.25
74
0
49
-0.125
74
0
49
0.0
74
0
49
-0.125
74
0
0
LTYPE
5
27A
330
247
100
AcDbSymbolTableRecord
100
AcDbLinetypeTableRecord
2
BORDERX2
70
0
3
Borderx2  ____  ____  .  ____  ____  .  ___
72
65
73
6
40
3.5
49
1.0
74
0
49
-0.5
74
0
49
1.0
74
0
49
-0.5
74
0
49
0.0
74
0
49
-0.5
74
0
0
LTYPE
5
27B
330
247
100
AcDbSymbolTableRecord
100
AcDbLinetypeTableRecord
2
CENTER2
70
0
3
Center2  ___ _ ___ _ ___ _ ___ _ ___ _ ___
72
65
73
4
40
1.125
49
0.75
74
0
49
-0.125
74
0
49
0.125
74
0
49
-0.125
74
0
0
LTYPE
5
27C
330
247
100
AcDbSymbolTableRecord
100
AcDbLinetypeTableRecord
2
CENTERX2
70
0
3
Centerx2  ________  __  ________  __  _____
72
65
73
4
40
4.0
49
2.5
74
0
49
-0.5
74
0
49
0.5
74
0
49
-0.5
74
0
0
LTYPE
5
27D
330
247
100
AcDbSymbolTableRecord
100
AcDbLinetypeTableRecord
2
DASHDOT2
70
0
3
Dashdot2  _._._._._._._._._._._._._._._.
72
65
73
4
40
0.5
49
0.25
74
0
49
-0.125
74
0
49
0.0
74
0
49
-0.125
74
0
0
LTYPE
5
27E
330
247
100
AcDbSymbolTableRecord
100
AcDbLinetypeTableRecord
2
DASHDOTX2
70
0
3
Dashdotx2 ____  .  ____  .  ____  .  ___
72
65
73
4
40
2.0
49
1.0
74
0
49
-0.5
74
0
49
0.0
74
0
49
-0.5
74
0
0
LTYPE
5
27F
330
247
100
AcDbSymbolTableRecord
100
AcDbLinetypeTableRecord
2
DASHED2
70
0
3
Dashed2 _ _ _ _ _ _ _ _ _ _ _ _ _ _ _ _ _
72
65
73
2
40
0.375
49
0.25
74
0
49
-0.125
74
0
0
LTYPE
5
280
330
247
100
AcDbSymbolTableRecord
100
AcDbLinetypeTableRecord
2
DASHEDX2
70
0
3
Dashedx2 ____  ____  ____  ____  ____  ___
72
65
73
2
40
1.5
49
1.0
74
0
49
-0.5
74
0
0
LTYPE
5
281
330
247
100
AcDbSymbolTableRecord
100
AcDbLinetypeTableRecord
2
DIVIDE
70
0
3
Divide ____ . . ____ . . ____ . . ____ . . ____
72
65
73
6
40
1.25
49
0.5
74
0
49
-0.25
74
0
49
0.0
74
0
49
-0.25
74
0
49
0.0
74
0
49
-0.25
74
0
0
LTYPE
5
282
330
247
100
AcDbSymbolTableRecord
100
AcDbLinetypeTableRecord
2
DIVIDE2
70
0
3
Divide2 __..__..__..__..__..__..__..__.._
72
65
73
6
40
0.625
49
0.25
74
0
49
-0.125
74
0
49
0.0
74
0
49
-0.125
74
0
49
0.0
74
0
49
-0.125
74
0
0
LTYPE
5
283
330
247
100
AcDbSymbolTableRecord
100
AcDbLinetypeTableRecord
2
DIVIDEX2
70
0
3
Dividex2 ________  .  .  ________  .  .  _
72
65
73
6
40
2.5
49
1.0
74
0
49
-0.5
74
0
49
0.0
74
0
49
-0.5
74
0
49
0.0
74
0
49
-0.5
74
0
0
LTYPE
5
284
330
247
100
AcDbSymbolTableRecord
100
AcDbLinetypeTableRecord
2
DOT
70
0
3
Dot . . . . . . . . . . . . . . . . . . . . . . . .
72
65
73
2
40
0.25
49
0.0
74
0
49
-0.25
74
0
0
LTYPE
5
285
330
247
100
AcDbSymbolTableRecord
100
AcDbLinetypeTableRecord
2
DOT2
70
0
3
Dot2 ........................................
72
65
73
2
40
0.125
49
0.0
74
0
49
-0.125
74
0
0
LTYPE
5
286
330
247
100
AcDbSymbolTableRecord
100
AcDbLinetypeTableRecord
2
DOTX2
70
0
3
Dotx2 .  .  .  .  .  .  .  .  .  .  .  .  .  .
72
65
73
2
40
0.5
49
0.0
74
0
49
-0.5
74
0
0
LTYPE
5
287
330
247
100
AcDbSymbolTableRecord
100
AcDbLinetypeTableRecord
2
HIDDENX2
70
0
3
Hiddenx2 ____ ____ ____ ____ ____ ____ ____
72
65
73
2
40
0.75
49
0.5
74
0
49
-0.25
74
0
0
LTYPE
5
288
330
247
100
AcDbSymbolTableRecord
100
AcDbLinetypeTableRecord
2
PHANTOM
70
0
3
Phantom ______  __  __  ______  __  __  ______
72
65
73
6
40
2.5
49
1.25
74
0
49
-0.25
74
0
49
0.25
74
0
49
-0.25
74
0
49
0.25
74
0
49
-0.25
74
0
0
LTYPE
5
289
330
247
100
AcDbSymbolTableRecord
100
AcDbLinetypeTableRecord
2
PHANTOM2
70
0
3
Phantom2 ___ _ _ ___ _ _ ___ _ _ ___ _ _
72
65
73
6
40
1.25
49
0.625
74
0
49
-0.125
74
0
49
0.125
74
0
49
-0.125
74
0
49
0.125
74
0
49
-0.125
74
0
0
LTYPE
5
28A
330
247
100
AcDbSymbolTableRecord
100
AcDbLinetypeTableRecord
2
PHANTOMX2
70
0
3
Phantomx2 ____________    ____    ____   _
72
65
73
6
40
5.0
49
2.5
74
0
49
-0.5
74
0
49
0.5
74
0
49
-0.5
74
0
49
0.5
74
0
49
-0.5
74
0
0
ENDTAB
0
TABLE
2
LAYER
5
244
330
0
100
AcDbSymbolTable
70
6
0
LAYER
5
252
330
244
100
AcDbSymbolTableRecord
100
AcDbLayerTableRecord
2
0
70
0
62
7
6
Continuous
370
0
390
251
0
LAYER
5
23F
330
244
100
AcDbSymbolTableRecord
100
AcDbLayerTableRecord
2
Bemassung
70
0
 62
   7
6
Continuous
370
0
390
251
0
LAYER
5
240
330
244
100
AcDbSymbolTableRecord
100
AcDbLayerTableRecord
2
Rahmen
70
0
 62
   7
6
Continuous
370
0
390
251
0
LAYER
5
241
330
244
100
AcDbSymbolTableRecord
100
AcDbLayerTableRecord
2
Geo
70
0
 62
   7
6
Continuous
370
0
390
251
0
LAYER
5
33A
330
244
100
AcDbSymbolTableRecord
100
AcDbLayerTableRecord
2
Defpoints
70
0
62
7
6
Continuous
290
0
370
-3
390
251
0
LAYER
5
57E
330
244
100
AcDbSymbolTableRecord
100
AcDbLayerTableRecord
2
Text
70
0
 62
   7
6
Continuous
370
0
390
251
1001
AcAecLayerStandard
1000

1000

0
ENDTAB
0
TABLE
2
STYLE
5
245
330
0
100
AcDbSymbolTable
70
2
0
STYLE
5
253
330
245
100
AcDbSymbolTableRecord
100
AcDbTextStyleTableRecord
2
Standard
70
0
40
0.0
41
1.0
50
0.0
71
0
42
0.2
3
Arial
4

1001
ACAD
1000
Arial
1071
0
0
STYLE
5
132
330
245
100
AcDbSymbolTableRecord
100
AcDbTextStyleTableRecord
2
Beschriftung
70
0
40
0.0
41
1.0
50
0.0
71
0
42
0.2
3
Arial
4

1001
ACAD
1000
Arial
1071
0
1001
AcadAnnotative
1000
AnnotativeData
1070
1
1070
1
0
ENDTAB
0
TABLE
2
VIEW
5
248
330
0
100
AcDbSymbolTable
70
0
0
ENDTAB
0
TABLE
2
UCS
5
249
330
0
100
AcDbSymbolTable
70
0
0
ENDTAB
0
TABLE
2
APPID
5
24B
330
0
100
AcDbSymbolTable
70
13
0
APPID
5
254
330
24B
100
AcDbSymbolTableRecord
100
AcDbRegAppTableRecord
2
ACAD
70
0
0
APPID
5
26C
330
24B
100
AcDbSymbolTableRecord
100
AcDbRegAppTableRecord
2
VD_INVISIBLE_NOT_FOR_READ
70
0
0
APPID
5
26D
330
24B
100
AcDbSymbolTableRecord
100
AcDbRegAppTableRecord
2
VD_TEMPHATCH
70
0
0
APPID
5
26E
330
24B
100
AcDbSymbolTableRecord
100
AcDbRegAppTableRecord
2
VDEXTRAPARAM
70
0
0
APPID
5
26F
330
24B
100
AcDbSymbolTableRecord
100
AcDbRegAppTableRecord
2
PE_URL
70
0
0
APPID
5
270
330
24B
100
AcDbSymbolTableRecord
100
AcDbRegAppTableRecord
2
VD_UNKNOWN
70
0
0
APPID
5
28F
330
24B
100
AcDbSymbolTableRecord
100
AcDbRegAppTableRecord
2
AcadAnnotative
70
0
0
APPID
5
290
330
24B
100
AcDbSymbolTableRecord
100
AcDbRegAppTableRecord
2
ACAD_DSTYLE_DIMJAG
70
0
0
APPID
5
291
330
24B
100
AcDbSymbolTableRecord
100
AcDbRegAppTableRecord
2
ACAD_DSTYLE_DIMTALN
70
0
0
APPID
5
293
330
24B
100
AcDbSymbolTableRecord
100
AcDbRegAppTableRecord
2
ACAD_PSEXT
70
0
0
APPID
5
42A
330
24B
100
AcDbSymbolTableRecord
100
AcDbRegAppTableRecord
2
ACAD_MLEADERVER
70
0
0
APPID
5
532
330
24B
100
AcDbSymbolTableRecord
100
AcDbRegAppTableRecord
2
ACAD_EXEMPT_FROM_CAD_STANDARDS
70
0
0
APPID
5
57F
330
24B
100
AcDbSymbolTableRecord
100
AcDbRegAppTableRecord
2
AcAecLayerStandard
70
0
0
ENDTAB
0
TABLE
2
DIMSTYLE
5
24C
330
0
100
AcDbSymbolTable
70
3
100
AcDbDimStyleTable
71
2
340
27
340
269
0
DIMSTYLE
105
269
330
24C
100
AcDbSymbolTableRecord
100
AcDbDimStyleTableRecord
2
Standard
70
0
172
1
174
1
288
1
340
253
342
23C
0
DIMSTYLE
105
137
330
24C
100
AcDbSymbolTableRecord
100
AcDbDimStyleTableRecord
2
Beschriftung
70
0
41
2.5
42
0.625
44
1.25
73
0
74
0
77
1
140
2.5
147
0.625
172
1
174
1
271
2
288
1
340
253
342
23C
1001
AcadAnnotative
1000
AnnotativeData
1070
1
1070
1
1001
ACAD_DSTYLE_DIMJAG
1070
388
1040
1.5
1001
ACAD_DSTYLE_DIMTALN
1070
392
1070
0
0
DIMSTYLE
105
27
102
{ACAD_REACTORS
330
F10003
330
F10012
330
F10017
330
F1001C
330
F10021
330
F10008
330
F1000D
330
F10026
102
}
330
24C
100
AcDbSymbolTableRecord
100
AcDbDimStyleTableRecord
2
BEM-ISBE
70
0
41
2.5
42
0.625
44
1.25
48
0.000000001
71
1
73
0
74
0
77
1
140
2.5
144
1.00000000000000
146
0.5
147
0.625
171
 3
172
 1
179
 3
271
 3
272
 3
274
 3
340
253
342
23C
1001
ACAD_DSTYLE_DIMJAG
1070
388
1040
1.5
1001
ACAD_DSTYLE_DIMTALN
1070
392
1070
1
0
ENDTAB
0
TABLE
2
BLOCK_RECORD
5
243
330
0
100
AcDbSymbolTable
70
5
0
BLOCK_RECORD
5
261
330
243
100
AcDbSymbolTableRecord
100
AcDbBlockTableRecord
2
*Model_Space
340
FD0
0
BLOCK_RECORD
5
25D
330
243
100
AcDbSymbolTableRecord
100
AcDbBlockTableRecord
2
*Paper_Space
340
FD1
0
BLOCK_RECORD
5
265
330
243
100
AcDbSymbolTableRecord
100
AcDbBlockTableRecord
2
*Paper_Space0
340
0
0
BLOCK_RECORD
5
23C
330
243
100
AcDbSymbolTableRecord
100
AcDbBlockTableRecord
2
VDDIM_DEFAULT
340
0
102
{BLKREFS
102
}
0
BLOCK_RECORD
5
23E
330
243
100
AcDbSymbolTableRecord
100
AcDbBlockTableRecord
2
VDDIM_NONE
340
0
0
BLOCK_RECORD
5
F10002
330
243
100
AcDbSymbolTableRecord
100
AcDbBlockTableRecord
2
*D3
340
0
0
BLOCK_RECORD
5
F10011
330
243
100
AcDbSymbolTableRecord
100
AcDbBlockTableRecord
2
*D6
340
0
0
BLOCK_RECORD
5
F10016
330
243
100
AcDbSymbolTableRecord
100
AcDbBlockTableRecord
2
*D7
340
0
0
BLOCK_RECORD
5
F1001B
330
243
100
AcDbSymbolTableRecord
100
AcDbBlockTableRecord
2
*D8
340
0
0
BLOCK_RECORD
5
F10020
330
243
100
AcDbSymbolTableRecord
100
AcDbBlockTableRecord
2
*D9
340
0
0
BLOCK_RECORD
5
F10007
330
243
100
AcDbSymbolTableRecord
100
AcDbBlockTableRecord
2
*D4
340
0
0
BLOCK_RECORD
5
F1000C
330
243
100
AcDbSymbolTableRecord
100
AcDbBlockTableRecord
2
*D5
340
0
0
BLOCK_RECORD
5
F10025
330
243
100
AcDbSymbolTableRecord
100
AcDbBlockTableRecord
2
*D10
340
0
0
ENDTAB
0
ENDSEC
0
SECTION
2
BLOCKS
0
BLOCK
5
262
330
261
100
AcDbEntity
8
0
100
AcDbBlockBegin
2
*Model_Space
70
0
10
0.0
20
0.0
30
0.0
3
*Model_Space
1

0
ENDBLK
5
263
330
261
100
AcDbEntity
8
0
100
AcDbBlockEnd
0
BLOCK
5
25E
330
25D
100
AcDbEntity
67
1
8
0
100
AcDbBlockBegin
2
*Paper_Space
70
0
10
0.0
20
0.0
30
0.0
3
*Paper_Space
1

0
ENDBLK
5
25F
330
25D
100
AcDbEntity
67
1
8
0
100
AcDbBlockEnd
0
BLOCK
5
266
330
265
100
AcDbEntity
8
0
100
AcDbBlockBegin
2
*Paper_Space0
70
0
10
0.0
20
0.0
30
0.0
3
*Paper_Space0
1

0
VIEWPORT
5
296
102
{ACAD_XDICTIONARY
360
58E
102
}
330
265
100
AcDbEntity
8
0
60
1
100
AcDbViewport
10
0.0
20
0.0
30
0.0
40
10.0
41
10.0
69
0
12
0.0
22
0.0
13
0.0
23
0.0
14
1.0
24
1.0
15
0.0
25
0.0
16
0.0
26
0.0
36
1.0
17
0.0
27
0.0
37
0.0
42
0.0
43
0.0
44
0.0
45
10.0
50
0.0
51
0.0000000000007958
72
100
90
163872
1

281
0
71
0
74
0
110
0.0
120
0.0
130
0.0
111
1.0
121
0.0
131
0.0
112
0.0
122
1.0
132
0.0
79
0
146
0.0
1001
VD_INVISIBLE_NOT_FOR_READ
1000
VD_INVISIBLE_NOT_FOR_READ
0
VIEWPORT
5
297
102
{ACAD_XDICTIONARY
360
590
102
}
330
265
100
AcDbEntity
8
0
60
1
100
AcDbViewport
10
0.0
20
0.0
30
0.0
40
10.0
41
10.0
69
0
12
0.0
22
0.0
13
0.0
23
0.0
14
1.0
24
1.0
15
0.0
25
0.0
16
0.0
26
0.0
36
1.0
17
0.0
27
0.0
37
0.0
42
0.0
43
0.0
44
0.0
45
10.0
50
0.0
51
0.0000000000007958
72
100
90
163872
1

281
0
71
0
74
0
110
0.0
120
0.0
130
0.0
111
1.0
121
0.0
131
0.0
112
0.0
122
1.0
132
0.0
79
0
146
0.0
1001
VD_INVISIBLE_NOT_FOR_READ
1000
VD_INVISIBLE_NOT_FOR_READ
0
ENDBLK
5
267
330
265
100
AcDbEntity
8
0
100
AcDbBlockEnd
0
BLOCK
5
28B
330
23C
100
AcDbEntity
8
0
100
AcDbBlockBegin
2
VDDIM_DEFAULT
70
0
10
0.0
20
0.0
30
0.0
3
VDDIM_DEFAULT
1

0
LWPOLYLINE
5
23D
330
23C
100
AcDbEntity
8
0
6
Continuous
62
0
100
AcDbPolyline
90
4
70
0
43
0.0
10
0.0
20
0.0
10
-1.0
20
-0.1665
10
-1.0
20
0.1665
10
0.0
20
0.0
1001
VDEXTRAPARAM
1071
1
1071
0
1071
0
1040
1.0
1000

1000

1040
0.0
1040
0.0
0
HATCH
5
292
330
23C
100
AcDbEntity
8
0
6
Continuous
62
0
100
AcDbHatch
10
0.0
20
0.0
30
0.0
210
0.0
220
0.0
230
1.0
2
SOLID
70
1
71
0
91
1
92
2
72
0
73
1
93
3
10
0.0
20
0.0
10
-1.0
20
-0.1665
10
-1.0
20
0.1665
97
0
75
0
76
1
98
1
10
0.0
20
0.0
1001
VDEXTRAPARAM
1071
1
1071
0
1071
0
1040
1.0
1000

1000

1040
0.0
1040
0.0
1001
VD_TEMPHATCH
1000
VD_TEMPHATCH
0
ENDBLK
5
28C
330
23C
100
AcDbEntity
8
0
100
AcDbBlockEnd
0
BLOCK
5
28D
330
23E
100
AcDbEntity
8
0
100
AcDbBlockBegin
2
VDDIM_NONE
70
0
10
0.0
20
0.0
30
0.0
3
VDDIM_NONE
1

0
ENDBLK
5
28E
330
23E
100
AcDbEntity
8
0
100
AcDbBlockEnd
  0
BLOCK
  5
F1002A
330
F10002
100
AcDbEntity
  8
0
100
AcDbBlockBegin
  2
*D3
 70
     1
 10
0.0
 20
0.0
 30
0.0
  3
*D3
  1

  0
LINE
  5
F1002B
330
F10002
100
AcDbEntity
  8
Bemassung
 62
     0
370
    -2
100
AcDbLine
10
-57.2510841283608
20
-18.1786643538595
30
0.000000000000000
11
-57.2510841283608
21
46.8213356461405
31
0.000000000000000
  0
LINE
  5
F1002C
330
F10002
100
AcDbEntity
  8
Bemassung
 62
     0
370
    -2
100
AcDbLine
10
-56.9010841283608
20
9.82133564614053
30
0.000000000000000
11
-56.9010841283608
21
16.8213356461405
31
0.000000000000000
  0
LINE
  5
F1002D
330
F10002
100
AcDbEntity
  8
Bemassung
 62
     0
370
    -2
100
AcDbLine
10
-75.5854293148309
20
14.8213356461405
30
0.000000000000000
11
-56.9010841283608
21
14.8213356461405
31
0.000000000000000
  0
INSERT
  5
F1002E
330
F10002
100
AcDbEntity
  8
Bemassung
 62
     0
370
    -2
100
AcDbBlockReference
  2
VDDIM_DEFAULT
10
-57.2510841283608
20
14.8213356461405
30
0.000000000000000
 41
2.50000000000000
 42
2.50000000000000
 43
2.50000000000000
  0
INSERT
  5
F1002F
330
F10002
100
AcDbEntity
  8
Bemassung
 62
     0
370
    -2
100
AcDbBlockReference
  2
VDDIM_DEFAULT
10
-56.9010841283608
20
14.8213356461405
30
0.000000000000000
 41
2.50000000000000
 42
2.50000000000000
 43
2.50000000000000
 50
180.000000000000
  0
MTEXT
  5
F10030
330
F10002
100
AcDbEntity
  8
Bemassung
 62
     0
100
AcDbMText
10
-59.7398091934082
20
15.4880023128072
30
0.000000000000000
 40
2.50000000000000
 41
0.0
 71
     8
 72
     1
  1
0.35 x 45°
 11
1.00000000000000
 21
0.000000000000000
 31
0.0
 73
     1
 44
1.0
1001
ACAD
1000
MTEXTBEGIN
1070
73
1070
1
1070
44
1040
1.0
1070
74
1070
0
1000
MTEXTEND
  0
POINT
  5
F10031
330
F10002
100
AcDbEntity
  8
Bemassung
 62
     0
100
AcDbPoint
10
-57.2510841283608
20
-18.1786643538595
30
0.000000000000000
  0
POINT
  5
F10032
330
F10002
100
AcDbEntity
  8
Bemassung
 62
     0
100
AcDbPoint
10
-56.9010841283608
20
9.82133564614053
30
0.000000000000000
  0
ENDBLK
  5
F10033
330
F10002
100
AcDbEntity
  8
0
100
AcDbBlockEnd
  0
BLOCK
  5
F10034
330
F10011
100
AcDbEntity
  8
0
100
AcDbBlockBegin
  2
*D6
 70
     1
 10
0.0
 20
0.0
 30
0.0
  3
*D6
  1

  0
LINE
  5
F10035
330
F10011
100
AcDbEntity
  8
Bemassung
 62
     0
370
    -2
100
AcDbLine
10
-57.2510841283608
20
-18.1786643538595
30
0.000000000000000
11
-57.2510841283608
21
46.8213356461405
31
0.000000000000000
  0
LINE
  5
F10036
330
F10011
100
AcDbEntity
  8
Bemassung
 62
     0
370
    -2
100
AcDbLine
10
12.7489158716392
20
9.42133564614053
30
0.000000000000000
11
12.7489158716392
21
26.8213356461405
31
0.000000000000000
  0
LINE
  5
F10037
330
F10011
100
AcDbEntity
  8
Bemassung
 62
     0
370
    -2
100
AcDbLine
10
-57.2510841283608
20
24.8213356461405
30
0.000000000000000
11
12.7489158716392
21
24.8213356461405
31
0.000000000000000
  0
INSERT
  5
F10038
330
F10011
100
AcDbEntity
  8
Bemassung
 62
     0
370
    -2
100
AcDbBlockReference
  2
VDDIM_DEFAULT
10
-57.2510841283608
20
24.8213356461405
30
0.000000000000000
 41
2.50000000000000
 42
2.50000000000000
 43
2.50000000000000
 50
180.000000000000
  0
INSERT
  5
F10039
330
F10011
100
AcDbEntity
  8
Bemassung
 62
     0
370
    -2
100
AcDbBlockReference
  2
VDDIM_DEFAULT
10
12.7489158716392
20
24.8213356461405
30
0.000000000000000
 41
2.50000000000000
 42
2.50000000000000
 43
2.50000000000000
  0
MTEXT
  5
F1003A
330
F10011
100
AcDbEntity
  8
Bemassung
 62
     0
100
AcDbMText
10
-22.2510841283608
20
25.4880023128072
30
0.000000000000000
 40
2.50000000000000
 41
0.0
 71
     8
 72
     1
  1
70
 11
1.00000000000000
 21
0.000000000000000
 31
0.0
 73
     1
 44
1.0
1001
ACAD
1000
MTEXTBEGIN
1070
73
1070
1
1070
44
1040
1.0
1070
74
1070
0
1000
MTEXTEND
  0
POINT
  5
F1003B
330
F10011
100
AcDbEntity
  8
Bemassung
 62
     0
100
AcDbPoint
10
-57.2510841283608
20
-18.1786643538595
30
0.000000000000000
  0
POINT
  5
F1003C
330
F10011
100
AcDbEntity
  8
Bemassung
 62
     0
100
AcDbPoint
10
12.7489158716392
20
9.42133564614053
30
0.000000000000000
  0
ENDBLK
  5
F1003D
330
F10011
100
AcDbEntity
  8
0
100
AcDbBlockEnd
  0
BLOCK
  5
F1003E
330
F10016
100
AcDbEntity
  8
0
100
AcDbBlockBegin
  2
*D7
 70
     1
 10
0.0
 20
0.0
 30
0.0
  3
*D7
  1

  0
LINE
  5
F1003F
330
F10016
100
AcDbEntity
  8
Bemassung
 62
     0
370
    -2
100
AcDbLine
10
-57.2510841283608
20
-18.1786643538595
30
0.000000000000000
11
-57.2510841283608
21
46.8213356461405
31
0.000000000000000
  0
LINE
  5
F10040
330
F10016
100
AcDbEntity
  8
Bemassung
 62
     0
370
    -2
100
AcDbLine
10
13.2489158716392
20
9.82133564614053
30
0.000000000000000
11
13.2489158716392
21
36.8213356461405
31
0.000000000000000
  0
LINE
  5
F10041
330
F10016
100
AcDbEntity
  8
Bemassung
 62
     0
370
    -2
100
AcDbLine
10
-57.2510841283608
20
34.8213356461405
30
0.000000000000000
11
13.2489158716392
21
34.8213356461405
31
0.000000000000000
  0
INSERT
  5
F10042
330
F10016
100
AcDbEntity
  8
Bemassung
 62
     0
370
    -2
100
AcDbBlockReference
  2
VDDIM_DEFAULT
10
-57.2510841283608
20
34.8213356461405
30
0.000000000000000
 41
2.50000000000000
 42
2.50000000000000
 43
2.50000000000000
 50
180.000000000000
  0
INSERT
  5
F10043
330
F10016
100
AcDbEntity
  8
Bemassung
 62
     0
370
    -2
100
AcDbBlockReference
  2
VDDIM_DEFAULT
10
13.2489158716392
20
34.8213356461405
30
0.000000000000000
 41
2.50000000000000
 42
2.50000000000000
 43
2.50000000000000
  0
MTEXT
  5
F10044
330
F10016
100
AcDbEntity
  8
Bemassung
 62
     0
100
AcDbMText
10
-22.0010841283608
20
35.4880023128072
30
0.000000000000000
 40
2.50000000000000
 41
0.0
 71
     8
 72
     1
  1
70.5
 11
1.00000000000000
 21
0.000000000000000
 31
0.0
 73
     1
 44
1.0
1001
ACAD
1000
MTEXTBEGIN
1070
73
1070
1
1070
44
1040
1.0
1070
74
1070
0
1000
MTEXTEND
  0
POINT
  5
F10045
330
F10016
100
AcDbEntity
  8
Bemassung
 62
     0
100
AcDbPoint
10
-57.2510841283608
20
-18.1786643538595
30
0.000000000000000
  0
POINT
  5
F10046
330
F10016
100
AcDbEntity
  8
Bemassung
 62
     0
100
AcDbPoint
10
13.2489158716392
20
9.82133564614053
30
0.000000000000000
  0
ENDBLK
  5
F10047
330
F10016
100
AcDbEntity
  8
0
100
AcDbBlockEnd
  0
BLOCK
  5
F10048
330
F1001B
100
AcDbEntity
  8
0
100
AcDbBlockBegin
  2
*D8
 70
     1
 10
0.0
 20
0.0
 30
0.0
  3
*D8
  1

  0
LINE
  5
F10049
330
F1001B
100
AcDbEntity
  8
Bemassung
 62
     0
370
    -2
100
AcDbLine
10
-37.2510841283608
20
-5.77866435385947
30
0.000000000000000
11
-37.2510841283608
21
-18.1786643538595
31
0.000000000000000
  0
LINE
  5
F1004A
330
F1001B
100
AcDbEntity
  8
Bemassung
 62
     0
370
    -2
100
AcDbLine
10
-57.2510841283608
20
-18.1786643538595
30
0.000000000000000
11
-57.2510841283608
21
46.8213356461405
31
0.000000000000000
  0
LINE
  5
F1004B
330
F1001B
100
AcDbEntity
  8
Bemassung
 62
     0
370
    -2
100
AcDbLine
10
-37.2510841283608
20
-16.1786643538595
30
0.000000000000000
11
-57.2510841283608
21
-16.1786643538595
31
0.000000000000000
  0
INSERT
  5
F1004C
330
F1001B
100
AcDbEntity
  8
Bemassung
 62
     0
370
    -2
100
AcDbBlockReference
  2
VDDIM_DEFAULT
10
-37.2510841283608
20
-16.1786643538595
30
0.000000000000000
 41
2.50000000000000
 42
2.50000000000000
 43
2.50000000000000
  0
INSERT
  5
F1004D
330
F1001B
100
AcDbEntity
  8
Bemassung
 62
     0
370
    -2
100
AcDbBlockReference
  2
VDDIM_DEFAULT
10
-57.2510841283608
20
-16.1786643538595
30
0.000000000000000
 41
2.50000000000000
 42
2.50000000000000
 43
2.50000000000000
 50
180.000000000000
  0
MTEXT
  5
F1004E
330
F1001B
100
AcDbEntity
  8
Bemassung
 62
     0
100
AcDbMText
10
-47.3547267996528
20
-15.5119976871928
30
0.000000000000000
 40
2.50000000000000
 41
0.0
 71
     8
 72
     1
  1
20
 11
1.00000000000000
 21
0.000000000000000
 31
0.0
 73
     1
 44
1.0
1001
ACAD
1000
MTEXTBEGIN
1070
73
1070
1
1070
44
1040
1.0
1070
74
1070
0
1000
MTEXTEND
  0
POINT
  5
F1004F
330
F1001B
100
AcDbEntity
  8
Bemassung
 62
     0
100
AcDbPoint
10
-37.2510841283608
20
-5.77866435385947
30
0.000000000000000
  0
POINT
  5
F10050
330
F1001B
100
AcDbEntity
  8
Bemassung
 62
     0
100
AcDbPoint
10
-57.2510841283608
20
-18.1786643538595
30
0.000000000000000
  0
ENDBLK
  5
F10051
330
F1001B
100
AcDbEntity
  8
0
100
AcDbBlockEnd
  0
BLOCK
  5
F10052
330
F10020
100
AcDbEntity
  8
0
100
AcDbBlockBegin
  2
*D9
 70
     1
 10
0.0
 20
0.0
 30
0.0
  3
*D9
  1

  0
LINE
  5
F10053
330
F10020
100
AcDbEntity
  8
Bemassung
 62
     0
370
    -2
100
AcDbLine
10
92.7489158716392
20
9.32133564614053
30
0.000000000000000
11
92.7489158716392
21
46.8213356461405
31
0.000000000000000
  0
LINE
  5
F10054
330
F10020
100
AcDbEntity
  8
Bemassung
 62
     0
370
    -2
100
AcDbLine
10
-57.2510841283608
20
-18.1786643538595
30
0.000000000000000
11
-57.2510841283608
21
46.8213356461405
31
0.000000000000000
  0
LINE
  5
F10055
330
F10020
100
AcDbEntity
  8
Bemassung
 62
     0
370
    -2
100
AcDbLine
10
92.7489158716392
20
44.8213356461405
30
0.000000000000000
11
-57.2510841283608
21
44.8213356461405
31
0.000000000000000
  0
INSERT
  5
F10056
330
F10020
100
AcDbEntity
  8
Bemassung
 62
     0
370
    -2
100
AcDbBlockReference
  2
VDDIM_DEFAULT
10
92.7489158716392
20
44.8213356461405
30
0.000000000000000
 41
2.50000000000000
 42
2.50000000000000
 43
2.50000000000000
  0
INSERT
  5
F10057
330
F10020
100
AcDbEntity
  8
Bemassung
 62
     0
370
    -2
100
AcDbBlockReference
  2
VDDIM_DEFAULT
10
-57.2510841283608
20
44.8213356461405
30
0.000000000000000
 41
2.50000000000000
 42
2.50000000000000
 43
2.50000000000000
 50
180.000000000000
  0
MTEXT
  5
F10058
330
F10020
100
AcDbEntity
  8
Bemassung
 62
     0
100
AcDbMText
10
17.7489158716392
20
45.4880023128072
30
0.000000000000000
 40
2.50000000000000
 41
0.0
 71
     8
 72
     1
  1
150
 11
1.00000000000000
 21
0.000000000000000
 31
0.0
 73
     1
 44
1.0
1001
ACAD
1000
MTEXTBEGIN
1070
73
1070
1
1070
44
1040
1.0
1070
74
1070
0
1000
MTEXTEND
  0
POINT
  5
F10059
330
F10020
100
AcDbEntity
  8
Bemassung
 62
     0
100
AcDbPoint
10
92.7489158716392
20
9.32133564614053
30
0.000000000000000
  0
POINT
  5
F1005A
330
F10020
100
AcDbEntity
  8
Bemassung
 62
     0
100
AcDbPoint
10
-57.2510841283608
20
-18.1786643538595
30
0.000000000000000
  0
ENDBLK
  5
F1005B
330
F10020
100
AcDbEntity
  8
0
100
AcDbBlockEnd
  0
BLOCK
  5
F1005C
330
F10007
100
AcDbEntity
  8
0
100
AcDbBlockBegin
  2
*D4
 70
     1
 10
0.0
 20
0.0
 30
0.0
  3
*D4
  1

  0
LINE
  5
F1005D
330
F10007
100
AcDbEntity
  8
Bemassung
 62
     0
370
    -2
100
AcDbLine
10
-56.9010841283608
20
-6.17866435385947
30
0.000000000000000
11
-69.2510841283608
21
-6.17866435385947
31
0.000000000000000
  0
LINE
  5
F1005E
330
F10007
100
AcDbEntity
  8
Bemassung
 62
     0
370
    -2
100
AcDbLine
10
-56.9010841283608
20
9.82133564614053
30
0.000000000000000
11
-69.2510841283608
21
9.82133564614053
31
0.000000000000000
  0
LINE
  5
F1005F
330
F10007
100
AcDbEntity
  8
Bemassung
 62
     0
370
    -2
100
AcDbLine
10
-67.2510841283608
20
-6.17866435385947
30
0.000000000000000
11
-67.2510841283608
21
9.82133564614053
31
0.000000000000000
  0
INSERT
  5
F10060
330
F10007
100
AcDbEntity
  8
Bemassung
 62
     0
370
    -2
100
AcDbBlockReference
  2
VDDIM_DEFAULT
10
-67.2510841283608
20
-6.17866435385947
30
0.000000000000000
 41
2.50000000000000
 42
2.50000000000000
 43
2.50000000000000
 50
270.000000000000
  0
INSERT
  5
F10061
330
F10007
100
AcDbEntity
  8
Bemassung
 62
     0
370
    -2
100
AcDbBlockReference
  2
VDDIM_DEFAULT
10
-67.2510841283608
20
9.82133564614053
30
0.000000000000000
 41
2.50000000000000
 42
2.50000000000000
 43
2.50000000000000
 50
90.0000000000000
  0
MTEXT
  5
F10062
330
F10007
100
AcDbEntity
  8
Bemassung
 62
     0
100
AcDbMText
10
-67.9177507950275
20
1.82133564614053
30
0.000000000000000
 40
2.50000000000000
 41
0.0
 71
     8
 72
     1
  1
Ø16
 11
6.12323399573677e-17
 21
1.00000000000000
 31
0.0
 73
     1
 44
1.0
1001
ACAD
1000
MTEXTBEGIN
1070
73
1070
1
1070
44
1040
1.0
1070
74
1070
0
1000
MTEXTEND
  0
POINT
  5
F10063
330
F10007
100
AcDbEntity
  8
Bemassung
 62
     0
100
AcDbPoint
10
-56.9010841283608
20
-6.17866435385947
30
0.000000000000000
  0
POINT
  5
F10064
330
F10007
100
AcDbEntity
  8
Bemassung
 62
     0
100
AcDbPoint
10
-56.9010841283608
20
9.82133564614053
30
0.000000000000000
  0
ENDBLK
  5
F10065
330
F10007
100
AcDbEntity
  8
0
100
AcDbBlockEnd
  0
BLOCK
  5
F10066
330
F1000C
100
AcDbEntity
  8
0
100
AcDbBlockBegin
  2
*D5
 70
     1
 10
0.0
 20
0.0
 30
0.0
  3
*D5
  1

  0
LINE
  5
F10067
330
F1000C
100
AcDbEntity
  8
Bemassung
 62
     0
370
    -2
100
AcDbLine
10
-37.2510841283608
20
-5.77866435385947
30
0.000000000000000
11
-20.2510841283608
21
-5.77866435385947
31
0.000000000000000
  0
LINE
  5
F10068
330
F1000C
100
AcDbEntity
  8
Bemassung
 62
     0
370
    -2
100
AcDbLine
10
-37.2510841283608
20
9.42133564614053
30
0.000000000000000
11
-20.2510841283608
21
9.42133564614053
31
0.000000000000000
  0
LINE
  5
F10069
330
F1000C
100
AcDbEntity
  8
Bemassung
 62
     0
370
    -2
100
AcDbLine
10
-22.2510841283608
20
-23.4041630529055
30
0.000000000000000
11
-22.2510841283608
21
9.42133564614053
31
0.000000000000000
  0
INSERT
  5
F1006A
330
F1000C
100
AcDbEntity
  8
Bemassung
 62
     0
370
    -2
100
AcDbBlockReference
  2
VDDIM_DEFAULT
10
-22.2510841283608
20
-5.77866435385947
30
0.000000000000000
 41
2.50000000000000
 42
2.50000000000000
 43
2.50000000000000
 50
270.000000000000
  0
INSERT
  5
F1006B
330
F1000C
100
AcDbEntity
  8
Bemassung
 62
     0
370
    -2
100
AcDbBlockReference
  2
VDDIM_DEFAULT
10
-22.2510841283608
20
9.42133564614053
30
0.000000000000000
 41
2.50000000000000
 42
2.50000000000000
 43
2.50000000000000
 50
90.0000000000000
  0
MTEXT
  5
F1006C
330
F1000C
100
AcDbEntity
  8
Bemassung
 62
     0
100
AcDbMText
10
-22.9177507950275
20
-13.5924111014744
30
0.000000000000000
 40
2.50000000000000
 41
0.0
 71
     8
 72
     1
  1
Ø15.2
 11
6.12323399573677e-17
 21
1.00000000000000
 31
0.0
 73
     1
 44
1.0
1001
ACAD
1000
MTEXTBEGIN
1070
73
1070
1
1070
44
1040
1.0
1070
74
1070
0
1000
MTEXTEND
  0
POINT
  5
F1006D
330
F1000C
100
AcDbEntity
  8
Bemassung
 62
     0
100
AcDbPoint
10
-37.2510841283608
20
-5.77866435385947
30
0.000000000000000
  0
POINT
  5
F1006E
330
F1000C
100
AcDbEntity
  8
Bemassung
 62
     0
100
AcDbPoint
10
-37.2510841283608
20
9.42133564614053
30
0.000000000000000
  0
ENDBLK
  5
F1006F
330
F1000C
100
AcDbEntity
  8
0
100
AcDbBlockEnd
  0
BLOCK
  5
F10070
330
F10025
100
AcDbEntity
  8
0
100
AcDbBlockBegin
  2
*D10
 70
     1
 10
0.0
 20
0.0
 30
0.0
  3
*D10
  1

  0
LINE
  5
F10071
330
F10025
100
AcDbEntity
  8
Bemassung
 62
     0
370
    -2
100
AcDbLine
10
91.7489158716392
20
9.82133564614053
30
0.000000000000000
11
104.285342584562
21
9.82133564614053
31
0.000000000000000
  0
LINE
  5
F10072
330
F10025
100
AcDbEntity
  8
Bemassung
 62
     0
370
    -2
100
AcDbLine
10
91.7489158716392
20
-6.17866435385947
30
0.000000000000000
11
104.285342584562
21
-6.17866435385947
31
0.000000000000000
  0
LINE
  5
F10073
330
F10025
100
AcDbEntity
  8
Bemassung
 62
     0
370
    -2
100
AcDbLine
10
102.285342584562
20
9.82133564614053
30
0.000000000000000
11
102.285342584562
21
-6.17866435385947
31
0.000000000000000
  0
INSERT
  5
F10074
330
F10025
100
AcDbEntity
  8
Bemassung
 62
     0
370
    -2
100
AcDbBlockReference
  2
VDDIM_DEFAULT
10
102.285342584562
20
9.82133564614053
30
0.000000000000000
 41
2.50000000000000
 42
2.50000000000000
 43
2.50000000000000
 50
90.0000000000000
  0
INSERT
  5
F10075
330
F10025
100
AcDbEntity
  8
Bemassung
 62
     0
370
    -2
100
AcDbBlockReference
  2
VDDIM_DEFAULT
10
102.285342584562
20
-6.17866435385947
30
0.000000000000000
 41
2.50000000000000
 42
2.50000000000000
 43
2.50000000000000
 50
270.000000000000
  0
MTEXT
  5
F10076
330
F10025
100
AcDbEntity
  8
Bemassung
 62
     0
100
AcDbMText
10
101.618675917895
20
2.27666955767567
30
0.000000000000000
 40
2.50000000000000
 41
0.0
 71
     8
 72
     1
  1
Ø16
 11
6.12323399573677e-17
 21
1.00000000000000
 31
0.0
 73
     1
 44
1.0
1001
ACAD
1000
MTEXTBEGIN
1070
73
1070
1
1070
44
1040
1.0
1070
74
1070
0
1000
MTEXTEND
  0
POINT
  5
F10077
330
F10025
100
AcDbEntity
  8
Bemassung
 62
     0
100
AcDbPoint
10
91.7489158716392
20
9.82133564614053
30
0.000000000000000
  0
POINT
  5
F10078
330
F10025
100
AcDbEntity
  8
Bemassung
 62
     0
100
AcDbPoint
10
91.7489158716392
20
-6.17866435385947
30
0.000000000000000
  0
ENDBLK
  5
F10079
330
F10025
100
AcDbEntity
  8
0
100
AcDbBlockEnd
0
ENDSEC
0
SECTION
2
ENTITIES
  0
DIMENSION
  5
F10003
330
261
100
AcDbEntity
  8
Bemassung
100
AcDbDimension
  2
*D3
10
-56.9010841283608
20
14.8213356461405
30
0.000000000000000
11
-59.7398091934082
21
15.4880023128072
31
0.000000000000000
 70
32
 1
0.35 x 45°
 71
     8
  3
BEM-ISBE
100
AcDbAlignedDimension
13
-57.2510841283608
23
-18.1786643538595
33
0.000000000000000
14
-56.9010841283608
24
9.82133564614053
34
0.000000000000000
100
AcDbRotatedDimension
1001
ACAD
1000
DSTYLE
1002
{
1070
284
1070
8
1070
78
1070
8
1070
144
1040
1.00000000000000
1070
147
1040
0.625
1070
 72
1070
 0
1070
 71
1070
 0
1002
}
  0
DIMENSION
  5
F10012
330
261
100
AcDbEntity
  8
Bemassung
100
AcDbDimension
  2
*D6
10
12.7489158716392
20
24.8213356461405
30
0.000000000000000
11
-22.2510841283608
21
25.4880023128072
31
0.000000000000000
 70
32
 1
70
 71
     8
  3
BEM-ISBE
100
AcDbAlignedDimension
13
-57.2510841283608
23
-18.1786643538595
33
0.000000000000000
14
12.7489158716392
24
9.42133564614053
34
0.000000000000000
100
AcDbRotatedDimension
1001
ACAD
1000
DSTYLE
1002
{
1070
284
1070
8
1070
78
1070
8
1070
144
1040
1.00000000000000
1070
147
1040
0.625
1070
 72
1070
 0
1070
 71
1070
 0
1002
}
  0
DIMENSION
  5
F10017
330
261
100
AcDbEntity
  8
Bemassung
100
AcDbDimension
  2
*D7
10
13.2489158716392
20
34.8213356461405
30
0.000000000000000
11
-22.0010841283608
21
35.4880023128072
31
0.000000000000000
 70
32
 1
70.5
 71
     8
  3
BEM-ISBE
100
AcDbAlignedDimension
13
-57.2510841283608
23
-18.1786643538595
33
0.000000000000000
14
13.2489158716392
24
9.82133564614053
34
0.000000000000000
100
AcDbRotatedDimension
1001
ACAD
1000
DSTYLE
1002
{
1070
284
1070
8
1070
78
1070
8
1070
144
1040
1.00000000000000
1070
147
1040
0.625
1070
 72
1070
 0
1070
 71
1070
 0
1002
}
  0
DIMENSION
  5
F1001C
330
261
100
AcDbEntity
  8
Bemassung
100
AcDbDimension
  2
*D8
10
-57.2510841283608
20
-16.1786643538595
30
0.000000000000000
11
-47.3547267996528
21
-15.5119976871928
31
0.000000000000000
 70
32
 1
20
 71
     8
  3
BEM-ISBE
100
AcDbAlignedDimension
13
-37.2510841283608
23
-5.77866435385947
33
0.000000000000000
14
-57.2510841283608
24
-18.1786643538595
34
0.000000000000000
100
AcDbRotatedDimension
1001
ACAD
1000
DSTYLE
1002
{
1070
284
1070
8
1070
78
1070
8
1070
144
1040
1.00000000000000
1070
147
1040
0.625
1070
 72
1070
 0
1070
 71
1070
 0
1002
}
  0
DIMENSION
  5
F10021
330
261
100
AcDbEntity
  8
Bemassung
100
AcDbDimension
  2
*D9
10
-57.2510841283608
20
44.8213356461405
30
0.000000000000000
11
17.7489158716392
21
45.4880023128072
31
0.000000000000000
 70
32
 1
150
 71
     8
  3
BEM-ISBE
100
AcDbAlignedDimension
13
92.7489158716392
23
9.32133564614053
33
0.000000000000000
14
-57.2510841283608
24
-18.1786643538595
34
0.000000000000000
100
AcDbRotatedDimension
1001
ACAD
1000
DSTYLE
1002
{
1070
284
1070
8
1070
78
1070
8
1070
144
1040
1.00000000000000
1070
147
1040
0.625
1070
 72
1070
 0
1070
 71
1070
 0
1002
}
  0
DIMENSION
  5
F10008
330
261
100
AcDbEntity
  8
Bemassung
100
AcDbDimension
  2
*D4
10
-67.2510841283608
20
9.82133564614053
30
0.000000000000000
11
-67.9177507950275
21
1.82133564614053
31
0.000000000000000
 70
32
 1
Ø16
 71
     8
  3
BEM-ISBE
100
AcDbAlignedDimension
13
-56.9010841283608
23
-6.17866435385947
33
0.000000000000000
14
-56.9010841283608
24
9.82133564614053
34
0.000000000000000
50
90.0000000000000
100
AcDbRotatedDimension
1001
ACAD
1000
DSTYLE
1002
{
1070
284
1070
8
1070
78
1070
8
1070
144
1040
1.00000000000000
1070
147
1040
0.625
1070
 72
1070
 0
1070
 71
1070
 0
1002
}
  0
DIMENSION
  5
F1000D
330
261
100
AcDbEntity
  8
Bemassung
100
AcDbDimension
  2
*D5
10
-22.2510841283608
20
9.42133564614053
30
0.000000000000000
11
-22.9177507950275
21
-13.5924111014744
31
0.000000000000000
 70
32
 1
Ø15.2
 71
     8
  3
BEM-ISBE
100
AcDbAlignedDimension
13
-37.2510841283608
23
-5.77866435385947
33
0.000000000000000
14
-37.2510841283608
24
9.42133564614053
34
0.000000000000000
50
90.0000000000000
100
AcDbRotatedDimension
1001
ACAD
1000
DSTYLE
1002
{
1070
284
1070
8
1070
78
1070
8
1070
144
1040
1.00000000000000
1070
147
1040
0.625
1070
 72
1070
 0
1070
 71
1070
 0
1002
}
  0
DIMENSION
  5
F10026
330
261
100
AcDbEntity
  8
Bemassung
100
AcDbDimension
  2
*D10
10
102.285342584562
20
-6.17866435385947
30
0.000000000000000
11
101.618675917895
21
2.27666955767567
31
0.000000000000000
 70
32
 1
Ø16
 71
     8
  3
BEM-ISBE
100
AcDbAlignedDimension
13
91.7489158716392
23
9.82133564614053
33
0.000000000000000
14
91.7489158716392
24
-6.17866435385947
34
0.000000000000000
50
90.0000000000000
100
AcDbRotatedDimension
1001
ACAD
1000
DSTYLE
1002
{
1070
284
1070
8
1070
78
1070
8
1070
144
1040
1.00000000000000
1070
147
1040
0.625
1070
 72
1070
 0
1070
 71
1070
 0
1002
}
  0
LINE
  5
F1007A
330
F1007B
100
AcDbEntity
8
Geo
100
AcDbLine
10
-57.2510841283608
20
1.82133564614053
30
0.000000000000000
11
-57.2510841283608
21
9.47133564614053
31
0.000000000000000
  0
LINE
  5
F1007C
330
F1007D
100
AcDbEntity
8
Geo
100
AcDbLine
10
-57.2510841283608
20
9.47133564614053
30
0.000000000000000
11
-56.9010841283608
21
9.82133564614053
31
0.000000000000000
  0
LINE
  5
F1007E
330
F1007F
100
AcDbEntity
8
Geo
100
AcDbLine
10
-56.9010841283608
20
9.82133564614053
30
0.000000000000000
11
-37.2510841283608
21
9.82133564614053
31
0.000000000000000
  0
LINE
  5
F10080
330
F10081
100
AcDbEntity
8
Geo
100
AcDbLine
10
-37.2510841283608
20
9.82133564614053
30
0.000000000000000
11
-37.2510841283608
21
9.42133564614053
31
0.000000000000000
  0
LINE
  5
F10082
330
F10083
100
AcDbEntity
8
Geo
100
AcDbLine
10
-37.2510841283608
20
9.42133564614053
30
0.000000000000000
11
12.7489158716392
21
9.42133564614053
31
0.000000000000000
  0
LINE
  5
F10084
330
F10085
100
AcDbEntity
8
Geo
100
AcDbLine
10
12.7489158716392
20
9.42133564614053
30
0.000000000000000
11
13.2489158716392
21
9.82133564614053
31
0.000000000000000
  0
LINE
  5
F10086
330
F10087
100
AcDbEntity
8
Geo
100
AcDbLine
10
13.2489158716392
20
9.82133564614053
30
0.000000000000000
11
91.7489158716392
21
9.82133564614053
31
0.000000000000000
  0
LINE
  5
F10088
330
F10089
100
AcDbEntity
8
Geo
100
AcDbLine
10
91.7489158716392
20
9.82133564614053
30
0.000000000000000
11
92.7489158716392
21
9.32133564614053
31
0.000000000000000
  0
LINE
  5
F1008A
330
F1008B
100
AcDbEntity
8
Geo
100
AcDbLine
10
-57.2510841283608
20
9.47117735852424
30
0.000000000000000
11
-57.1510841283608
21
9.57080048576426
31
0.000000000000000
  0
LINE
  5
F1008C
330
F1008D
100
AcDbEntity
8
Geo
100
AcDbLine
10
-57.1510841283608
20
9.57080048576426
30
0.000000000000000
11
-57.0510841283608
21
9.67018531089111
31
0.000000000000000
  0
LINE
  5
F1008E
330
F1008F
100
AcDbEntity
8
Geo
100
AcDbLine
10
-57.0510841283608
20
9.67018531089111
30
0.000000000000000
11
-56.9510841283608
21
9.76931719491701
31
0.000000000000000
  0
LINE
  5
F10090
330
F10091
100
AcDbEntity
8
Geo
100
AcDbLine
10
-56.9510841283608
20
9.76931719491701
30
0.000000000000000
11
-56.8510841283608
21
9.81800254428224
31
0.000000000000000
  0
LINE
  5
F10092
330
F10093
100
AcDbEntity
8
Geo
100
AcDbLine
10
-56.8510841283608
20
9.81800254428224
30
0.000000000000000
11
-56.7510841283608
21
9.81612787792300
31
0.000000000000000
  0
LINE
  5
F10094
330
F10095
100
AcDbEntity
8
Geo
100
AcDbLine
10
-56.7510841283608
20
9.81612787792300
30
0.000000000000000
11
-56.6510841283608
21
9.81383681794228
31
0.000000000000000
  0
LINE
  5
F10096
330
F10097
100
AcDbEntity
8
Geo
100
AcDbLine
10
-56.6510841283608
20
9.81383681794228
30
0.000000000000000
11
-56.5510841283608
21
9.81112948366562
31
0.000000000000000
  0
LINE
  5
F10098
330
F10099
100
AcDbEntity
8
Geo
100
AcDbLine
10
-56.5510841283608
20
9.81112948366562
30
0.000000000000000
11
-56.4510841283608
21
9.80800601609940
31
0.000000000000000
  0
LINE
  5
F1009A
330
F1009B
100
AcDbEntity
8
Geo
100
AcDbLine
10
-56.4510841283608
20
9.80800601609940
30
0.000000000000000
11
-56.3510841283608
21
9.80446657792350
31
0.000000000000000
  0
LINE
  5
F1009C
330
F1009D
100
AcDbEntity
8
Geo
100
AcDbLine
10
-56.3510841283608
20
9.80446657792350
30
0.000000000000000
11
-56.2510841283608
21
9.80051135348288
31
0.000000000000000
  0
LINE
  5
F1009E
330
F1009F
100
AcDbEntity
8
Geo
100
AcDbLine
10
-56.2510841283608
20
9.80051135348288
30
0.000000000000000
11
-56.1510841283608
21
9.79614054877790
31
0.000000000000000
  0
LINE
  5
F100A0
330
F100A1
100
AcDbEntity
8
Geo
100
AcDbLine
10
-56.1510841283608
20
9.79614054877790
30
0.000000000000000
11
-56.0510841283608
21
9.79135439145365
31
0.000000000000000
  0
LINE
  5
F100A2
330
F100A3
100
AcDbEntity
8
Geo
100
AcDbLine
10
-56.0510841283608
20
9.79135439145365
30
0.000000000000000
11
-55.9510841283608
21
9.78615313078809
31
0.000000000000000
  0
LINE
  5
F100A4
330
F100A5
100
AcDbEntity
8
Geo
100
AcDbLine
10
-55.9510841283608
20
9.78615313078809
30
0.000000000000000
11
-55.8510841283608
21
9.78053703767904
31
0.000000000000000
  0
LINE
  5
F100A6
330
F100A7
100
AcDbEntity
8
Geo
100
AcDbLine
10
-55.8510841283608
20
9.78053703767904
30
0.000000000000000
11
-55.7510841283608
21
9.77450640463006
31
0.000000000000000
  0
LINE
  5
F100A8
330
F100A9
100
AcDbEntity
8
Geo
100
AcDbLine
10
-55.7510841283608
20
9.77450640463006
30
0.000000000000000
11
-55.6510841283608
21
9.76806154573527
31
0.000000000000000
  0
LINE
  5
F100AA
330
F100AB
100
AcDbEntity
8
Geo
100
AcDbLine
10
-55.6510841283608
20
9.76806154573527
30
0.000000000000000
11
-55.5510841283608
21
9.76120279666295
31
0.000000000000000
  0
LINE
  5
F100AC
330
F100AD
100
AcDbEntity
8
Geo
100
AcDbLine
10
-55.5510841283608
20
9.76120279666295
30
0.000000000000000
11
-55.4510841283608
21
9.75393051463806
31
0.000000000000000
  0
LINE
  5
F100AE
330
F100AF
100
AcDbEntity
8
Geo
100
AcDbLine
10
-55.4510841283608
20
9.75393051463806
30
0.000000000000000
11
-55.3510841283608
21
9.74624507842364
31
0.000000000000000
  0
LINE
  5
F100B0
330
F100B1
100
AcDbEntity
8
Geo
100
AcDbLine
10
-55.3510841283608
20
9.74624507842364
30
0.000000000000000
11
-55.2510841283608
21
9.73814688830109
31
0.000000000000000
  0
LINE
  5
F100B2
330
F100B3
100
AcDbEntity
8
Geo
100
AcDbLine
10
-55.2510841283608
20
9.73814688830109
30
0.000000000000000
11
-55.1510841283608
21
9.72963636604933
31
0.000000000000000
  0
LINE
  5
F100B4
330
F100B5
100
AcDbEntity
8
Geo
100
AcDbLine
10
-55.1510841283608
20
9.72963636604933
30
0.000000000000000
11
-55.0510841283608
21
9.72071395492278
31
0.000000000000000
  0
LINE
  5
F100B6
330
F100B7
100
AcDbEntity
8
Geo
100
AcDbLine
10
-55.0510841283608
20
9.72071395492278
30
0.000000000000000
11
-54.9510841283608
21
9.71138011962835
31
0.000000000000000
  0
LINE
  5
F100B8
330
F100B9
100
AcDbEntity
8
Geo
100
AcDbLine
10
-54.9510841283608
20
9.71138011962835
30
0.000000000000000
11
-54.8510841283608
21
9.70163534630118
31
0.000000000000000
  0
LINE
  5
F100BA
330
F100BB
100
AcDbEntity
8
Geo
100
AcDbLine
10
-54.8510841283608
20
9.70163534630118
30
0.000000000000000
11
-54.7510841283608
21
9.69148014247936
31
0.000000000000000
  0
LINE
  5
F100BC
330
F100BD
100
AcDbEntity
8
Geo
100
AcDbLine
10
-54.7510841283608
20
9.69148014247936
30
0.000000000000000
11
-54.6510841283608
21
9.68091503707744
31
0.000000000000000
  0
LINE
  5
F100BE
330
F100BF
100
AcDbEntity
8
Geo
100
AcDbLine
10
-54.6510841283608
20
9.68091503707744
30
0.000000000000000
11
-54.5510841283608
21
9.66994058035894
31
0.000000000000000
  0
LINE
  5
F100C0
330
F100C1
100
AcDbEntity
8
Geo
100
AcDbLine
10
-54.5510841283608
20
9.66994058035894
30
0.000000000000000
11
-54.4510841283608
21
9.65855734390767
31
0.000000000000000
  0
LINE
  5
F100C2
330
F100C3
100
AcDbEntity
8
Geo
100
AcDbLine
10
-54.4510841283608
20
9.65855734390767
30
0.000000000000000
11
-54.3510841283608
21
9.64676592059796
31
0.000000000000000
  0
LINE
  5
F100C4
330
F100C5
100
AcDbEntity
8
Geo
100
AcDbLine
10
-54.3510841283608
20
9.64676592059796
30
0.000000000000000
11
-54.2510841283608
21
9.63456692456378
31
0.000000000000000
  0
LINE
  5
F100C6
330
F100C7
100
AcDbEntity
8
Geo
100
AcDbLine
10
-54.2510841283608
20
9.63456692456378
30
0.000000000000000
11
-54.1510841283608
21
9.62196099116673
31
0.000000000000000
  0
LINE
  5
F100C8
330
F100C9
100
AcDbEntity
8
Geo
100
AcDbLine
10
-54.1510841283608
20
9.62196099116673
30
0.000000000000000
11
-54.0510841283608
21
9.60894877696301
31
0.000000000000000
  0
LINE
  5
F100CA
330
F100CB
100
AcDbEntity
8
Geo
100
AcDbLine
10
-54.0510841283608
20
9.60894877696301
30
0.000000000000000
11
-53.9510841283608
21
9.59553095966916
31
0.000000000000000
  0
LINE
  5
F100CC
330
F100CD
100
AcDbEntity
8
Geo
100
AcDbLine
10
-53.9510841283608
20
9.59553095966916
30
0.000000000000000
11
-53.8510841283608
21
9.58170823812680
31
0.000000000000000
  0
LINE
  5
F100CE
330
F100CF
100
AcDbEntity
8
Geo
100
AcDbLine
10
-53.8510841283608
20
9.58170823812680
30
0.000000000000000
11
-53.7510841283608
21
9.56748133226621
31
0.000000000000000
  0
LINE
  5
F100D0
330
F100D1
100
AcDbEntity
8
Geo
100
AcDbLine
10
-53.7510841283608
20
9.56748133226621
30
0.000000000000000
11
-53.6510841283608
21
9.55285098306887
31
0.000000000000000
  0
LINE
  5
F100D2
330
F100D3
100
AcDbEntity
8
Geo
100
AcDbLine
10
-53.6510841283608
20
9.55285098306887
30
0.000000000000000
11
-53.5510841283608
21
9.53781795252881
31
0.000000000000000
  0
LINE
  5
F100D4
330
F100D5
100
AcDbEntity
8
Geo
100
AcDbLine
10
-53.5510841283608
20
9.53781795252881
30
0.000000000000000
11
-53.4510841283608
21
9.52238302361299
31
0.000000000000000
  0
LINE
  5
F100D6
330
F100D7
100
AcDbEntity
8
Geo
100
AcDbLine
10
-53.4510841283608
20
9.52238302361299
30
0.000000000000000
11
-53.3510841283608
21
9.50654700022045
31
0.000000000000000
  0
LINE
  5
F100D8
330
F100D9
100
AcDbEntity
8
Geo
100
AcDbLine
10
-53.3510841283608
20
9.50654700022045
30
0.000000000000000
11
-53.2510841283608
21
9.49031070714051
31
0.000000000000000
  0
LINE
  5
F100DA
330
F100DB
100
AcDbEntity
8
Geo
100
AcDbLine
10
-53.2510841283608
20
9.49031070714051
30
0.000000000000000
11
-53.1510841283608
21
9.47367499000976
31
0.000000000000000
  0
LINE
  5
F100DC
330
F100DD
100
AcDbEntity
8
Geo
100
AcDbLine
10
-53.1510841283608
20
9.47367499000976
30
0.000000000000000
11
-53.0510841283608
21
9.45664071526804
31
0.000000000000000
  0
LINE
  5
F100DE
330
F100DF
100
AcDbEntity
8
Geo
100
AcDbLine
10
-53.0510841283608
20
9.45664071526804
30
0.000000000000000
11
-52.9510841283608
21
9.43920877011330
31
0.000000000000000
  0
LINE
  5
F100E0
330
F100E1
100
AcDbEntity
8
Geo
100
AcDbLine
10
-52.9510841283608
20
9.43920877011330
30
0.000000000000000
11
-52.8510841283608
21
9.42138006245542
31
0.000000000000000
  0
LINE
  5
F100E2
330
F100E3
100
AcDbEntity
8
Geo
100
AcDbLine
10
-52.8510841283608
20
9.42138006245542
30
0.000000000000000
11
-52.7510841283608
21
9.40315552086890
31
0.000000000000000
  0
LINE
  5
F100E4
330
F100E5
100
AcDbEntity
8
Geo
100
AcDbLine
10
-52.7510841283608
20
9.40315552086890
30
0.000000000000000
11
-52.6510841283608
21
9.38453609454447
31
0.000000000000000
  0
LINE
  5
F100E6
330
F100E7
100
AcDbEntity
8
Geo
100
AcDbLine
10
-52.6510841283608
20
9.38453609454447
30
0.000000000000000
11
-52.5510841283608
21
9.36552275323973
31
0.000000000000000
  0
LINE
  5
F100E8
330
F100E9
100
AcDbEntity
8
Geo
100
AcDbLine
10
-52.5510841283608
20
9.36552275323973
30
0.000000000000000
11
-52.4510841283608
21
9.34611648722857
31
0.000000000000000
  0
LINE
  5
F100EA
330
F100EB
100
AcDbEntity
8
Geo
100
AcDbLine
10
-52.4510841283608
20
9.34611648722857
30
0.000000000000000
11
-52.3510841283608
21
9.32631830724963
31
0.000000000000000
  0
LINE
  5
F100EC
330
F100ED
100
AcDbEntity
8
Geo
100
AcDbLine
10
-52.3510841283608
20
9.32631830724963
30
0.000000000000000
11
-52.2510841283608
21
9.30612924445363
31
0.000000000000000
  0
LINE
  5
F100EE
330
F100EF
100
AcDbEntity
8
Geo
100
AcDbLine
10
-52.2510841283608
20
9.30612924445363
30
0.000000000000000
11
-52.1510841283608
21
9.28555035034969
31
0.000000000000000
  0
LINE
  5
F100F0
330
F100F1
100
AcDbEntity
8
Geo
100
AcDbLine
10
-52.1510841283608
20
9.28555035034969
30
0.000000000000000
11
-52.0510841283608
21
9.26458269675058
31
0.000000000000000
  0
LINE
  5
F100F2
330
F100F3
100
AcDbEntity
8
Geo
100
AcDbLine
10
-52.0510841283608
20
9.26458269675058
30
0.000000000000000
11
-51.9510841283608
21
9.24322737571683
31
0.000000000000000
  0
LINE
  5
F100F4
330
F100F5
100
AcDbEntity
8
Geo
100
AcDbLine
10
-51.9510841283608
20
9.24322737571683
30
0.000000000000000
11
-51.8510841283608
21
9.22148549949993
31
0.000000000000000
  0
LINE
  5
F100F6
330
F100F7
100
AcDbEntity
8
Geo
100
AcDbLine
10
-51.8510841283608
20
9.22148549949993
30
0.000000000000000
11
-51.7510841283608
21
9.19935820048435
31
0.000000000000000
  0
LINE
  5
F100F8
330
F100F9
100
AcDbEntity
8
Geo
100
AcDbLine
10
-51.7510841283608
20
9.19935820048435
30
0.000000000000000
11
-51.6510841283608
21
9.17684663112857
31
0.000000000000000
  0
LINE
  5
F100FA
330
F100FB
100
AcDbEntity
8
Geo
100
AcDbLine
10
-51.6510841283608
20
9.17684663112857
30
0.000000000000000
11
-51.5510841283608
21
9.15395196390508
31
0.000000000000000
  0
LINE
  5
F100FC
330
F100FD
100
AcDbEntity
8
Geo
100
AcDbLine
10
-51.5510841283608
20
9.15395196390508
30
0.000000000000000
11
-51.4510841283608
21
9.13067539123929
31
0.000000000000000
  0
LINE
  5
F100FE
330
F100FF
100
AcDbEntity
8
Geo
100
AcDbLine
10
-51.4510841283608
20
9.13067539123929
30
0.000000000000000
11
-51.3510841283608
21
9.10701812544742
31
0.000000000000000
  0
LINE
  5
F10100
330
F10101
100
AcDbEntity
8
Geo
100
AcDbLine
10
-51.3510841283608
20
9.10701812544742
30
0.000000000000000
11
-51.2510841283608
21
9.08298139867339
31
0.000000000000000
  0
LINE
  5
F10102
330
F10103
100
AcDbEntity
8
Geo
100
AcDbLine
10
-51.2510841283608
20
9.08298139867339
30
0.000000000000000
11
-51.1510841283608
21
9.05856646282463
31
0.000000000000000
  0
LINE
  5
F10104
330
F10105
100
AcDbEntity
8
Geo
100
AcDbLine
10
-51.1510841283608
20
9.05856646282463
30
0.000000000000000
11
-51.0510841283608
21
9.03377458950684
31
0.000000000000000
  0
LINE
  5
F10106
330
F10107
100
AcDbEntity
8
Geo
100
AcDbLine
10
-51.0510841283608
20
9.03377458950684
30
0.000000000000000
11
-50.9510841283608
21
9.00860706995783
31
0.000000000000000
  0
LINE
  5
F10108
330
F10109
100
AcDbEntity
8
Geo
100
AcDbLine
10
-50.9510841283608
20
9.00860706995783
30
0.000000000000000
11
-50.8510841283608
21
8.98306521498023
31
0.000000000000000
  0
LINE
  5
F1010A
330
F1010B
100
AcDbEntity
8
Geo
100
AcDbLine
10
-50.8510841283608
20
8.98306521498023
30
0.000000000000000
11
-50.7510841283608
21
8.95715035487320
31
0.000000000000000
  0
LINE
  5
F1010C
330
F1010D
100
AcDbEntity
8
Geo
100
AcDbLine
10
-50.7510841283608
20
8.95715035487320
30
0.000000000000000
11
-50.6510841283608
21
8.93086383936318
31
0.000000000000000
  0
LINE
  5
F1010E
330
F1010F
100
AcDbEntity
8
Geo
100
AcDbLine
10
-50.6510841283608
20
8.93086383936318
30
0.000000000000000
11
-50.5510841283608
21
8.90420703753357
31
0.000000000000000
  0
LINE
  5
F10110
330
F10111
100
AcDbEntity
8
Geo
100
AcDbLine
10
-50.5510841283608
20
8.90420703753357
30
0.000000000000000
11
-50.4510841283608
21
8.87718133775346
31
0.000000000000000
  0
LINE
  5
F10112
330
F10113
100
AcDbEntity
8
Geo
100
AcDbLine
10
-50.4510841283608
20
8.87718133775346
30
0.000000000000000
11
-50.3510841283608
21
8.84978814760526
31
0.000000000000000
  0
LINE
  5
F10114
330
F10115
100
AcDbEntity
8
Geo
100
AcDbLine
10
-50.3510841283608
20
8.84978814760526
30
0.000000000000000
11
-50.2510841283608
21
8.82202889381143
31
0.000000000000000
  0
LINE
  5
F10116
330
F10117
100
AcDbEntity
8
Geo
100
AcDbLine
10
-50.2510841283608
20
8.82202889381143
30
0.000000000000000
11
-50.1510841283608
21
8.79390502216016
31
0.000000000000000
  0
LINE
  5
F10118
330
F10119
100
AcDbEntity
8
Geo
100
AcDbLine
10
-50.1510841283608
20
8.79390502216016
30
0.000000000000000
11
-50.0510841283608
21
8.76541799743008
31
0.000000000000000
  0
LINE
  5
F1011A
330
F1011B
100
AcDbEntity
8
Geo
100
AcDbLine
10
-50.0510841283608
20
8.76541799743008
30
0.000000000000000
11
-49.9510841283608
21
8.73656930331395
31
0.000000000000000
  0
LINE
  5
F1011C
330
F1011D
100
AcDbEntity
8
Geo
100
AcDbLine
10
-49.9510841283608
20
8.73656930331395
30
0.000000000000000
11
-49.8510841283608
21
8.70736044234141
31
0.000000000000000
  0
LINE
  5
F1011E
330
F1011F
100
AcDbEntity
8
Geo
100
AcDbLine
10
-49.8510841283608
20
8.70736044234141
30
0.000000000000000
11
-49.7510841283608
21
8.67779293580069
31
0.000000000000000
  0
LINE
  5
F10120
330
F10121
100
AcDbEntity
8
Geo
100
AcDbLine
10
-49.7510841283608
20
8.67779293580069
30
0.000000000000000
11
-49.6510841283608
21
8.64786832365941
31
0.000000000000000
  0
LINE
  5
F10122
330
F10123
100
AcDbEntity
8
Geo
100
AcDbLine
10
-49.6510841283608
20
8.64786832365941
30
0.000000000000000
11
-49.5510841283608
21
8.61758816448435
31
0.000000000000000
  0
LINE
  5
F10124
330
F10125
100
AcDbEntity
8
Geo
100
AcDbLine
10
-49.5510841283608
20
8.61758816448435
30
0.000000000000000
11
-49.4510841283608
21
8.58695403536029
31
0.000000000000000
  0
LINE
  5
F10126
330
F10127
100
AcDbEntity
8
Geo
100
AcDbLine
10
-49.4510841283608
20
8.58695403536029
30
0.000000000000000
11
-49.3510841283608
21
8.55596753180787
31
0.000000000000000
  0
LINE
  5
F10128
330
F10129
100
AcDbEntity
8
Geo
100
AcDbLine
10
-49.3510841283608
20
8.55596753180787
30
0.000000000000000
11
-49.2510841283608
21
8.52463026770048
31
0.000000000000000
  0
LINE
  5
F1012A
330
F1012B
100
AcDbEntity
8
Geo
100
AcDbLine
10
-49.2510841283608
20
8.52463026770048
30
0.000000000000000
11
-49.1510841283608
21
8.49294387518019
31
0.000000000000000
  0
LINE
  5
F1012C
330
F1012D
100
AcDbEntity
8
Geo
100
AcDbLine
10
-49.1510841283608
20
8.49294387518019
30
0.000000000000000
11
-49.0510841283608
21
8.46091000457280
31
0.000000000000000
  0
LINE
  5
F1012E
330
F1012F
100
AcDbEntity
8
Geo
100
AcDbLine
10
-49.0510841283608
20
8.46091000457280
30
0.000000000000000
11
-48.9510841283608
21
8.42853032430182
31
0.000000000000000
  0
LINE
  5
F10130
330
F10131
100
AcDbEntity
8
Geo
100
AcDbLine
10
-48.9510841283608
20
8.42853032430182
30
0.000000000000000
11
-48.8510841283608
21
8.39580652080161
31
0.000000000000000
  0
LINE
  5
F10132
330
F10133
100
AcDbEntity
8
Geo
100
AcDbLine
10
-48.8510841283608
20
8.39580652080161
30
0.000000000000000
11
-48.7510841283608
21
8.36274029842954
31
0.000000000000000
  0
LINE
  5
F10134
330
F10135
100
AcDbEntity
8
Geo
100
AcDbLine
10
-48.7510841283608
20
8.36274029842954
30
0.000000000000000
11
-48.6510841283608
21
8.32933337937722
31
0.000000000000000
  0
LINE
  5
F10136
330
F10137
100
AcDbEntity
8
Geo
100
AcDbLine
10
-48.6510841283608
20
8.32933337937722
30
0.000000000000000
11
-48.5510841283608
21
8.29558750358080
31
0.000000000000000
  0
LINE
  5
F10138
330
F10139
100
AcDbEntity
8
Geo
100
AcDbLine
10
-48.5510841283608
20
8.29558750358080
30
0.000000000000000
11
-48.4510841283608
21
8.26150442863035
31
0.000000000000000
  0
LINE
  5
F1013A
330
F1013B
100
AcDbEntity
8
Geo
100
AcDbLine
10
-48.4510841283608
20
8.26150442863035
30
0.000000000000000
11
-48.3510841283608
21
8.22708592967832
31
0.000000000000000
  0
LINE
  5
F1013C
330
F1013D
100
AcDbEntity
8
Geo
100
AcDbLine
10
-48.3510841283608
20
8.22708592967832
30
0.000000000000000
11
-48.2510841283608
21
8.19233379934707
31
0.000000000000000
  0
LINE
  5
F1013E
330
F1013F
100
AcDbEntity
8
Geo
100
AcDbLine
10
-48.2510841283608
20
8.19233379934707
30
0.000000000000000
11
-48.1510841283608
21
8.15724984763554
31
0.000000000000000
  0
LINE
  5
F10140
330
F10141
100
AcDbEntity
8
Geo
100
AcDbLine
10
-48.1510841283608
20
8.15724984763554
30
0.000000000000000
11
-48.0510841283608
21
8.12183590182496
31
0.000000000000000
  0
LINE
  5
F10142
330
F10143
100
AcDbEntity
8
Geo
100
AcDbLine
10
-48.0510841283608
20
8.12183590182496
30
0.000000000000000
11
-47.9510841283608
21
8.08609380638365
31
0.000000000000000
  0
LINE
  5
F10144
330
F10145
100
AcDbEntity
8
Geo
100
AcDbLine
10
-47.9510841283608
20
8.08609380638365
30
0.000000000000000
11
-47.8510841283608
21
8.05002542287102
31
0.000000000000000
  0
LINE
  5
F10146
330
F10147
100
AcDbEntity
8
Geo
100
AcDbLine
10
-47.8510841283608
20
8.05002542287102
30
0.000000000000000
11
-47.7510841283608
21
8.01363262984055
31
0.000000000000000
  0
LINE
  5
F10148
330
F10149
100
AcDbEntity
8
Geo
100
AcDbLine
10
-47.7510841283608
20
8.01363262984055
30
0.000000000000000
11
-47.6510841283608
21
7.97691732274198
31
0.000000000000000
  0
LINE
  5
F1014A
330
F1014B
100
AcDbEntity
8
Geo
100
AcDbLine
10
-47.6510841283608
20
7.97691732274198
30
0.000000000000000
11
-47.5510841283608
21
7.93988141382259
31
0.000000000000000
  0
LINE
  5
F1014C
330
F1014D
100
AcDbEntity
8
Geo
100
AcDbLine
10
-47.5510841283608
20
7.93988141382259
30
0.000000000000000
11
-47.4510841283608
21
7.90252683202760
31
0.000000000000000
  0
LINE
  5
F1014E
330
F1014F
100
AcDbEntity
8
Geo
100
AcDbLine
10
-47.4510841283608
20
7.90252683202760
30
0.000000000000000
11
-47.3510841283608
21
7.86485552289970
31
0.000000000000000
  0
LINE
  5
F10150
330
F10151
100
AcDbEntity
8
Geo
100
AcDbLine
10
-47.3510841283608
20
7.86485552289970
30
0.000000000000000
11
-47.2510841283608
21
7.82686944847773
31
0.000000000000000
  0
LINE
  5
F10152
330
F10153
100
AcDbEntity
8
Geo
100
AcDbLine
10
-47.2510841283608
20
7.82686944847773
30
0.000000000000000
11
-47.1510841283608
21
7.78857058719447
31
0.000000000000000
  0
LINE
  5
F10154
330
F10155
100
AcDbEntity
8
Geo
100
AcDbLine
10
-47.1510841283608
20
7.78857058719447
30
0.000000000000000
11
-47.0510841283608
21
7.74996093377362
31
0.000000000000000
  0
LINE
  5
F10156
330
F10157
100
AcDbEntity
8
Geo
100
AcDbLine
10
-47.0510841283608
20
7.74996093377362
30
0.000000000000000
11
-46.9510841283608
21
7.71104249912591
31
0.000000000000000
  0
LINE
  5
F10158
330
F10159
100
AcDbEntity
8
Geo
100
AcDbLine
10
-46.9510841283608
20
7.71104249912591
30
0.000000000000000
11
-46.8510841283608
21
7.67181731024434
31
0.000000000000000
  0
LINE
  5
F1015A
330
F1015B
100
AcDbEntity
8
Geo
100
AcDbLine
10
-46.8510841283608
20
7.67181731024434
30
0.000000000000000
11
-46.7510841283608
21
7.63228741009864
31
0.000000000000000
  0
LINE
  5
F1015C
330
F1015D
100
AcDbEntity
8
Geo
100
AcDbLine
10
-46.7510841283608
20
7.63228741009864
30
0.000000000000000
11
-46.6510841283608
21
7.59245485752883
31
0.000000000000000
  0
LINE
  5
F1015E
330
F1015F
100
AcDbEntity
8
Geo
100
AcDbLine
10
-46.6510841283608
20
7.59245485752883
30
0.000000000000000
11
-46.5510841283608
21
7.55232172713802
31
0.000000000000000
  0
LINE
  5
F10160
330
F10161
100
AcDbEntity
8
Geo
100
AcDbLine
10
-46.5510841283608
20
7.55232172713802
30
0.000000000000000
11
-46.4510841283608
21
7.51189010918434
31
0.000000000000000
  0
LINE
  5
F10162
330
F10163
100
AcDbEntity
8
Geo
100
AcDbLine
10
-46.4510841283608
20
7.51189010918434
30
0.000000000000000
11
-46.3510841283608
21
7.47116210947210
31
0.000000000000000
  0
LINE
  5
F10164
330
F10165
100
AcDbEntity
8
Geo
100
AcDbLine
10
-46.3510841283608
20
7.47116210947210
30
0.000000000000000
11
-46.2510841283608
21
7.43013984924207
31
0.000000000000000
  0
LINE
  5
F10166
330
F10167
100
AcDbEntity
8
Geo
100
AcDbLine
10
-46.2510841283608
20
7.43013984924207
30
0.000000000000000
11
-46.1510841283608
21
7.38882546506103
31
0.000000000000000
  0
LINE
  5
F10168
330
F10169
100
AcDbEntity
8
Geo
100
AcDbLine
10
-46.1510841283608
20
7.38882546506103
30
0.000000000000000
11
-46.0510841283608
21
7.34722110871048
31
0.000000000000000
  0
LINE
  5
F1016A
330
F1016B
100
AcDbEntity
8
Geo
100
AcDbLine
10
-46.0510841283608
20
7.34722110871048
30
0.000000000000000
11
-45.9510841283608
21
7.30532894707459
31
0.000000000000000
  0
LINE
  5
F1016C
330
F1016D
100
AcDbEntity
8
Geo
100
AcDbLine
10
-45.9510841283608
20
7.30532894707459
30
0.000000000000000
11
-45.8510841283608
21
7.26315116202729
31
0.000000000000000
  0
LINE
  5
F1016E
330
F1016F
100
AcDbEntity
8
Geo
100
AcDbLine
10
-45.8510841283608
20
7.26315116202729
30
0.000000000000000
11
-45.7510841283608
21
7.22068995031869
31
0.000000000000000
  0
LINE
  5
F10170
330
F10171
100
AcDbEntity
8
Geo
100
AcDbLine
10
-45.7510841283608
20
7.22068995031869
30
0.000000000000000
11
-45.6510841283608
21
7.17794752346064
31
0.000000000000000
  0
LINE
  5
F10172
330
F10173
100
AcDbEntity
8
Geo
100
AcDbLine
10
-45.6510841283608
20
7.17794752346064
30
0.000000000000000
11
-45.5510841283608
21
7.13492610761154
31
0.000000000000000
  0
LINE
  5
F10174
330
F10175
100
AcDbEntity
8
Geo
100
AcDbLine
10
-45.5510841283608
20
7.13492610761154
30
0.000000000000000
11
-45.4510841283608
21
7.09162794346040
31
0.000000000000000
  0
LINE
  5
F10176
330
F10177
100
AcDbEntity
8
Geo
100
AcDbLine
10
-45.4510841283608
20
7.09162794346040
30
0.000000000000000
11
-45.3510841283608
21
7.04805528611016
31
0.000000000000000
  0
LINE
  5
F10178
330
F10179
100
AcDbEntity
8
Geo
100
AcDbLine
10
-45.3510841283608
20
7.04805528611016
30
0.000000000000000
11
-45.2510841283608
21
7.00421040496020
31
0.000000000000000
  0
LINE
  5
F1017A
330
F1017B
100
AcDbEntity
8
Geo
100
AcDbLine
10
-45.2510841283608
20
7.00421040496020
30
0.000000000000000
11
-45.1510841283608
21
6.96009558358817
31
0.000000000000000
  0
LINE
  5
F1017C
330
F1017D
100
AcDbEntity
8
Geo
100
AcDbLine
10
-45.1510841283608
20
6.96009558358817
30
0.000000000000000
11
-45.0510841283608
21
6.91571311963104
31
0.000000000000000
  0
LINE
  5
F1017E
330
F1017F
100
AcDbEntity
8
Geo
100
AcDbLine
10
-45.0510841283608
20
6.91571311963104
30
0.000000000000000
11
-44.9510841283608
21
6.87106532466545
31
0.000000000000000
  0
LINE
  5
F10180
330
F10181
100
AcDbEntity
8
Geo
100
AcDbLine
10
-44.9510841283608
20
6.87106532466545
30
0.000000000000000
11
-44.8510841283608
21
6.82615452408729
31
0.000000000000000
  0
LINE
  5
F10182
330
F10183
100
AcDbEntity
8
Geo
100
AcDbLine
10
-44.8510841283608
20
6.82615452408729
30
0.000000000000000
11
-44.7510841283608
21
6.78098305699060
31
0.000000000000000
  0
LINE
  5
F10184
330
F10185
100
AcDbEntity
8
Geo
100
AcDbLine
10
-44.7510841283608
20
6.78098305699060
30
0.000000000000000
11
-44.6510841283608
21
6.73555327604576
31
0.000000000000000
  0
LINE
  5
F10186
330
F10187
100
AcDbEntity
8
Geo
100
AcDbLine
10
-44.6510841283608
20
6.73555327604576
30
0.000000000000000
11
-44.5510841283608
21
6.68986754737691
31
0.000000000000000
  0
LINE
  5
F10188
330
F10189
100
AcDbEntity
8
Geo
100
AcDbLine
10
-44.5510841283608
20
6.68986754737691
30
0.000000000000000
11
-44.4510841283608
21
6.64392825043877
31
0.000000000000000
  0
LINE
  5
F1018A
330
F1018B
100
AcDbEntity
8
Geo
100
AcDbLine
10
-44.4510841283608
20
6.64392825043877
30
0.000000000000000
11
-44.3510841283608
21
6.59773777789266
31
0.000000000000000
  0
LINE
  5
F1018C
330
F1018D
100
AcDbEntity
8
Geo
100
AcDbLine
10
-44.3510841283608
20
6.59773777789266
30
0.000000000000000
11
-44.2510841283608
21
6.55129853548192
31
0.000000000000000
  0
LINE
  5
F1018E
330
F1018F
100
AcDbEntity
8
Geo
100
AcDbLine
10
-44.2510841283608
20
6.55129853548192
30
0.000000000000000
11
-44.1510841283608
21
6.50461294190660
31
0.000000000000000
  0
LINE
  5
F10190
330
F10191
100
AcDbEntity
8
Geo
100
AcDbLine
10
-44.1510841283608
20
6.50461294190660
30
0.000000000000000
11
-44.0510841283608
21
6.45768342869747
31
0.000000000000000
  0
LINE
  5
F10192
330
F10193
100
AcDbEntity
8
Geo
100
AcDbLine
10
-44.0510841283608
20
6.45768342869747
30
0.000000000000000
11
-43.9510841283608
21
6.41051244008940
31
0.000000000000000
  0
LINE
  5
F10194
330
F10195
100
AcDbEntity
8
Geo
100
AcDbLine
10
-43.9510841283608
20
6.41051244008940
30
0.000000000000000
11
-43.8510841283608
21
6.36310243289407
31
0.000000000000000
  0
LINE
  5
F10196
330
F10197
100
AcDbEntity
8
Geo
100
AcDbLine
10
-43.8510841283608
20
6.36310243289407
30
0.000000000000000
11
-43.7510841283608
21
6.31545587637194
31
0.000000000000000
  0
LINE
  5
F10198
330
F10199
100
AcDbEntity
8
Geo
100
AcDbLine
10
-43.7510841283608
20
6.31545587637194
30
0.000000000000000
11
-43.6510841283608
21
6.26757525210375
31
0.000000000000000
  0
LINE
  5
F1019A
330
F1019B
100
AcDbEntity
8
Geo
100
AcDbLine
10
-43.6510841283608
20
6.26757525210375
30
0.000000000000000
11
-43.5510841283608
21
6.21946305386118
31
0.000000000000000
  0
LINE
  5
F1019C
330
F1019D
100
AcDbEntity
8
Geo
100
AcDbLine
10
-43.5510841283608
20
6.21946305386118
30
0.000000000000000
11
-43.4510841283608
21
6.17112178747701
31
0.000000000000000
  0
LINE
  5
F1019E
330
F1019F
100
AcDbEntity
8
Geo
100
AcDbLine
10
-43.4510841283608
20
6.17112178747701
30
0.000000000000000
11
-43.3510841283609
21
6.12255397071460
31
0.000000000000000
  0
LINE
  5
F101A0
330
F101A1
100
AcDbEntity
8
Geo
100
AcDbLine
10
-43.3510841283609
20
6.12255397071460
30
0.000000000000000
11
-43.2510841283609
21
6.07376213313678
31
0.000000000000000
  0
LINE
  5
F101A2
330
F101A3
100
AcDbEntity
8
Geo
100
AcDbLine
10
-43.2510841283609
20
6.07376213313678
30
0.000000000000000
11
-43.1510841283608
21
6.02474881597404
31
0.000000000000000
  0
LINE
  5
F101A4
330
F101A5
100
AcDbEntity
8
Geo
100
AcDbLine
10
-43.1510841283608
20
6.02474881597404
30
0.000000000000000
11
-43.0510841283608
21
5.97551657199224
31
0.000000000000000
  0
LINE
  5
F101A6
330
F101A7
100
AcDbEntity
8
Geo
100
AcDbLine
10
-43.0510841283608
20
5.97551657199224
30
0.000000000000000
11
-42.9510841283608
21
5.92606796535964
31
0.000000000000000
  0
LINE
  5
F101A8
330
F101A9
100
AcDbEntity
8
Geo
100
AcDbLine
10
-42.9510841283608
20
5.92606796535964
30
0.000000000000000
11
-42.8510841283609
21
5.87640557151330
31
0.000000000000000
  0
LINE
  5
F101AA
330
F101AB
100
AcDbEntity
8
Geo
100
AcDbLine
10
-42.8510841283609
20
5.87640557151330
30
0.000000000000000
11
-42.7510841283609
21
5.82653197702503
31
0.000000000000000
  0
LINE
  5
F101AC
330
F101AD
100
AcDbEntity
8
Geo
100
AcDbLine
10
-42.7510841283609
20
5.82653197702503
30
0.000000000000000
11
-42.6510841283608
21
5.77644977946658
31
0.000000000000000
  0
LINE
  5
F101AE
330
F101AF
100
AcDbEntity
8
Geo
100
AcDbLine
10
-42.6510841283608
20
5.77644977946658
30
0.000000000000000
11
-42.5510841283609
21
5.72616158727444
31
0.000000000000000
  0
LINE
  5
F101B0
330
F101B1
100
AcDbEntity
8
Geo
100
AcDbLine
10
-42.5510841283609
20
5.72616158727444
30
0.000000000000000
11
-42.4510841283609
21
5.67567001961390
31
0.000000000000000
  0
LINE
  5
F101B2
330
F101B3
100
AcDbEntity
8
Geo
100
AcDbLine
10
-42.4510841283609
20
5.67567001961390
30
0.000000000000000
11
-42.3510841283609
21
5.62497770624270
31
0.000000000000000
  0
LINE
  5
F101B4
330
F101B5
100
AcDbEntity
8
Geo
100
AcDbLine
10
-42.3510841283609
20
5.62497770624270
30
0.000000000000000
11
-42.2510841283609
21
5.57408728737404
31
0.000000000000000
  0
LINE
  5
F101B6
330
F101B7
100
AcDbEntity
8
Geo
100
AcDbLine
10
-57.2510841283608
20
1.77212410812095
30
0.000000000000000
11
-57.1510841283608
21
1.73026040562202
31
0.000000000000000
  0
LINE
  5
F101B8
330
F101B9
100
AcDbEntity
8
Geo
100
AcDbLine
10
-57.1510841283608
20
1.73026040562202
30
0.000000000000000
11
-57.0510841283608
21
1.68695209006080
31
0.000000000000000
  0
LINE
  5
F101BA
330
F101BB
100
AcDbEntity
8
Geo
100
AcDbLine
10
-57.0510841283608
20
1.68695209006080
30
0.000000000000000
11
-56.9510841283608
21
1.64220077988441
31
0.000000000000000
  0
LINE
  5
F101BC
330
F101BD
100
AcDbEntity
8
Geo
100
AcDbLine
10
-56.9510841283608
20
1.64220077988441
30
0.000000000000000
11
-56.8510841283608
21
1.59042761214317
31
0.000000000000000
  0
LINE
  5
F101BE
330
F101BF
100
AcDbEntity
8
Geo
100
AcDbLine
10
-56.8510841283608
20
1.59042761214317
30
0.000000000000000
11
-56.7510841283608
21
1.53272315398085
31
0.000000000000000
  0
LINE
  5
F101C0
330
F101C1
100
AcDbEntity
8
Geo
100
AcDbLine
10
-56.7510841283608
20
1.53272315398085
30
0.000000000000000
11
-56.6510841283608
21
1.47503372765391
31
0.000000000000000
  0
LINE
  5
F101C2
330
F101C3
100
AcDbEntity
8
Geo
100
AcDbLine
10
-56.6510841283608
20
1.47503372765391
30
0.000000000000000
11
-56.5510841283608
21
1.41736233780695
31
0.000000000000000
  0
LINE
  5
F101C4
330
F101C5
100
AcDbEntity
8
Geo
100
AcDbLine
10
-56.5510841283608
20
1.41736233780695
30
0.000000000000000
11
-56.4510841283608
21
1.35971198814514
31
0.000000000000000
  0
LINE
  5
F101C6
330
F101C7
100
AcDbEntity
8
Geo
100
AcDbLine
10
-56.4510841283608
20
1.35971198814514
30
0.000000000000000
11
-56.3510841283608
21
1.30208568127784
31
0.000000000000000
  0
LINE
  5
F101C8
330
F101C9
100
AcDbEntity
8
Geo
100
AcDbLine
10
-56.3510841283608
20
1.30208568127784
30
0.000000000000000
11
-56.2510841283608
21
1.24448641856216
31
0.000000000000000
  0
LINE
  5
F101CA
330
F101CB
100
AcDbEntity
8
Geo
100
AcDbLine
10
-56.2510841283608
20
1.24448641856216
30
0.000000000000000
11
-56.1510841283608
21
1.18691719994668
31
0.000000000000000
  0
LINE
  5
F101CC
330
F101CD
100
AcDbEntity
8
Geo
100
AcDbLine
10
-56.1510841283608
20
1.18691719994668
30
0.000000000000000
11
-56.0510841283608
21
1.12938102381519
31
0.000000000000000
  0
LINE
  5
F101CE
330
F101CF
100
AcDbEntity
8
Geo
100
AcDbLine
10
-56.0510841283608
20
1.12938102381519
30
0.000000000000000
11
-55.9510841283608
21
1.07188088683053
31
0.000000000000000
  0
LINE
  5
F101D0
330
F101D1
100
AcDbEntity
8
Geo
100
AcDbLine
10
-55.9510841283608
20
1.07188088683053
30
0.000000000000000
11
-55.8510841283608
21
1.01441978377850
31
0.000000000000000
  0
LINE
  5
F101D2
330
F101D3
100
AcDbEntity
8
Geo
100
AcDbLine
10
-55.8510841283608
20
1.01441978377850
30
0.000000000000000
11
-55.7510841283608
21
0.957000707411889
31
0.000000000000000
  0
LINE
  5
F101D4
330
F101D5
100
AcDbEntity
8
Geo
100
AcDbLine
10
-55.7510841283608
20
0.957000707411889
30
0.000000000000000
11
-55.6510841283608
21
0.899626648294618
31
0.000000000000000
  0
LINE
  5
F101D6
330
F101D7
100
AcDbEntity
8
Geo
100
AcDbLine
10
-55.6510841283608
20
0.899626648294618
30
0.000000000000000
11
-55.5510841283608
21
0.842300594645960
31
0.000000000000000
  0
LINE
  5
F101D8
330
F101D9
100
AcDbEntity
8
Geo
100
AcDbLine
10
-55.5510841283608
20
0.842300594645960
30
0.000000000000000
11
-55.4510841283608
21
0.785025532184918
31
0.000000000000000
  0
LINE
  5
F101DA
330
F101DB
100
AcDbEntity
8
Geo
100
AcDbLine
10
-55.4510841283608
20
0.785025532184918
30
0.000000000000000
11
-55.3510841283608
21
0.727804443974713
31
0.000000000000000
  0
LINE
  5
F101DC
330
F101DD
100
AcDbEntity
8
Geo
100
AcDbLine
10
-55.3510841283608
20
0.727804443974713
30
0.000000000000000
11
-55.2510841283608
21
0.670640310267423
31
0.000000000000000
  0
LINE
  5
F101DE
330
F101DF
100
AcDbEntity
8
Geo
100
AcDbLine
10
-55.2510841283608
20
0.670640310267423
30
0.000000000000000
11
-55.1510841283608
21
0.613536108348755
31
0.000000000000000
  0
LINE
  5
F101E0
330
F101E1
100
AcDbEntity
8
Geo
100
AcDbLine
10
-55.1510841283608
20
0.613536108348755
30
0.000000000000000
11
-55.0510841283608
21
0.556494812382983
31
0.000000000000000
  0
LINE
  5
F101E2
330
F101E3
100
AcDbEntity
8
Geo
100
AcDbLine
10
-55.0510841283608
20
0.556494812382983
30
0.000000000000000
11
-54.9510841283608
21
0.499519393258045
31
0.000000000000000
  0
LINE
  5
F101E4
330
F101E5
100
AcDbEntity
8
Geo
100
AcDbLine
10
-54.9510841283608
20
0.499519393258045
30
0.000000000000000
11
-54.8510841283608
21
0.442612818430807
31
0.000000000000000
  0
LINE
  5
F101E6
330
F101E7
100
AcDbEntity
8
Geo
100
AcDbLine
10
-54.8510841283608
20
0.442612818430807
30
0.000000000000000
11
-54.7510841283608
21
0.385778051772511
31
0.000000000000000
  0
LINE
  5
F101E8
330
F101E9
100
AcDbEntity
8
Geo
100
AcDbLine
10
-54.7510841283608
20
0.385778051772511
30
0.000000000000000
11
-54.6510841283608
21
0.329018053414405
31
0.000000000000000
  0
LINE
  5
F101EA
330
F101EB
100
AcDbEntity
8
Geo
100
AcDbLine
10
-54.6510841283608
20
0.329018053414405
30
0.000000000000000
11
-54.5510841283608
21
0.272335779593574
31
0.000000000000000
  0
LINE
  5
F101EC
330
F101ED
100
AcDbEntity
8
Geo
100
AcDbLine
10
-54.5510841283608
20
0.272335779593574
30
0.000000000000000
11
-54.4510841283608
21
0.215734182498965
31
0.000000000000000
  0
LINE
  5
F101EE
330
F101EF
100
AcDbEntity
8
Geo
100
AcDbLine
10
-54.4510841283608
20
0.215734182498965
30
0.000000000000000
11
-54.3510841283608
21
0.159216210117632
31
0.000000000000000
  0
LINE
  5
F101F0
330
F101F1
100
AcDbEntity
8
Geo
100
AcDbLine
10
-54.3510841283608
20
0.159216210117632
30
0.000000000000000
11
-54.2510841283608
21
0.102784806081193
31
0.000000000000000
  0
LINE
  5
F101F2
330
F101F3
100
AcDbEntity
8
Geo
100
AcDbLine
10
-54.2510841283608
20
0.102784806081193
30
0.000000000000000
11
-54.1510841283608
21
0.0464429095125194
31
0.000000000000000
  0
LINE
  5
F101F4
330
F101F5
100
AcDbEntity
8
Geo
100
AcDbLine
10
-54.1510841283608
20
0.0464429095125194
30
0.000000000000000
11
-54.0510841283608
21
-0.00980654512734613
31
0.000000000000000
  0
LINE
  5
F101F6
330
F101F7
100
AcDbEntity
8
Geo
100
AcDbLine
10
-54.0510841283608
20
-0.00980654512734613
30
0.000000000000000
11
-53.9510841283608
21
-0.0659606281920238
31
0.000000000000000
  0
LINE
  5
F101F8
330
F101F9
100
AcDbEntity
8
Geo
100
AcDbLine
10
-53.9510841283608
20
-0.0659606281920238
30
0.000000000000000
11
-53.8510841283608
21
-0.122016415002381
31
0.000000000000000
  0
LINE
  5
F101FA
330
F101FB
100
AcDbEntity
8
Geo
100
AcDbLine
10
-53.8510841283608
20
-0.122016415002381
30
0.000000000000000
11
-53.7510841283608
21
-0.177970985998859
31
0.000000000000000
  0
LINE
  5
F101FC
330
F101FD
100
AcDbEntity
8
Geo
100
AcDbLine
10
-53.7510841283608
20
-0.177970985998859
30
0.000000000000000
11
-53.6510841283608
21
-0.233821426893535
31
0.000000000000000
  0
LINE
  5
F101FE
330
F101FF
100
AcDbEntity
8
Geo
100
AcDbLine
10
-53.6510841283608
20
-0.233821426893535
30
0.000000000000000
11
-53.5510841283608
21
-0.289564828821903
31
0.000000000000000
  0
LINE
  5
F10200
330
F10201
100
AcDbEntity
8
Geo
100
AcDbLine
10
-53.5510841283608
20
-0.289564828821903
30
0.000000000000000
11
-53.4510841283608
21
-0.345198288494382
31
0.000000000000000
  0
LINE
  5
F10202
330
F10203
100
AcDbEntity
8
Geo
100
AcDbLine
10
-53.4510841283608
20
-0.345198288494382
30
0.000000000000000
11
-53.3510841283608
21
-0.400718908347522
31
0.000000000000000
  0
LINE
  5
F10204
330
F10205
100
AcDbEntity
8
Geo
100
AcDbLine
10
-53.3510841283608
20
-0.400718908347522
30
0.000000000000000
11
-53.2510841283608
21
-0.456123796694924
31
0.000000000000000
  0
LINE
  5
F10206
330
F10207
100
AcDbEntity
8
Geo
100
AcDbLine
10
-53.2510841283608
20
-0.456123796694924
30
0.000000000000000
11
-53.1510841283608
21
-0.511410067877845
31
0.000000000000000
  0
LINE
  5
F10208
330
F10209
100
AcDbEntity
8
Geo
100
AcDbLine
10
-53.1510841283608
20
-0.511410067877845
30
0.000000000000000
11
-53.0510841283608
21
-0.566574842415491
31
0.000000000000000
  0
LINE
  5
F1020A
330
F1020B
100
AcDbEntity
8
Geo
100
AcDbLine
10
-53.0510841283608
20
-0.566574842415491
30
0.000000000000000
11
-52.9510841283608
21
-0.621615247154992
31
0.000000000000000
  0
LINE
  5
F1020C
330
F1020D
100
AcDbEntity
8
Geo
100
AcDbLine
10
-52.9510841283608
20
-0.621615247154992
30
0.000000000000000
11
-52.8510841283608
21
-0.676528415421044
31
0.000000000000000
  0
LINE
  5
F1020E
330
F1020F
100
AcDbEntity
8
Geo
100
AcDbLine
10
-52.8510841283608
20
-0.676528415421044
30
0.000000000000000
11
-52.7510841283608
21
-0.731311487165212
31
0.000000000000000
  0
LINE
  5
F10210
330
F10211
100
AcDbEntity
8
Geo
100
AcDbLine
10
-52.7510841283608
20
-0.731311487165212
30
0.000000000000000
11
-52.6510841283608
21
-0.785961609114895
31
0.000000000000000
  0
LINE
  5
F10212
330
F10213
100
AcDbEntity
8
Geo
100
AcDbLine
10
-52.6510841283608
20
-0.785961609114895
30
0.000000000000000
11
-52.5510841283608
21
-0.840475934921928
31
0.000000000000000
  0
LINE
  5
F10214
330
F10215
100
AcDbEntity
8
Geo
100
AcDbLine
10
-52.5510841283608
20
-0.840475934921928
30
0.000000000000000
11
-52.4510841283608
21
-0.894851625310832
31
0.000000000000000
  0
LINE
  5
F10216
330
F10217
100
AcDbEntity
8
Geo
100
AcDbLine
10
-52.4510841283608
20
-0.894851625310832
30
0.000000000000000
11
-52.3510841283608
21
-0.949085848226690
31
0.000000000000000
  0
LINE
  5
F10218
330
F10219
100
AcDbEntity
8
Geo
100
AcDbLine
10
-52.3510841283608
20
-0.949085848226690
30
0.000000000000000
11
-52.2510841283608
21
-1.00317577898265
31
0.000000000000000
  0
LINE
  5
F1021A
330
F1021B
100
AcDbEntity
8
Geo
100
AcDbLine
10
-52.2510841283608
20
-1.00317577898265
30
0.000000000000000
11
-52.1510841283608
21
-1.05711860040706
31
0.000000000000000
  0
LINE
  5
F1021C
330
F1021D
100
AcDbEntity
8
Geo
100
AcDbLine
10
-52.1510841283608
20
-1.05711860040706
30
0.000000000000000
11
-52.0510841283608
21
-1.11091150299014
31
0.000000000000000
  0
LINE
  5
F1021E
330
F1021F
100
AcDbEntity
8
Geo
100
AcDbLine
10
-52.0510841283608
20
-1.11091150299014
30
0.000000000000000
11
-51.9510841283608
21
-1.16455168503039
31
0.000000000000000
  0
LINE
  5
F10220
330
F10221
100
AcDbEntity
8
Geo
100
AcDbLine
10
-51.9510841283608
20
-1.16455168503039
30
0.000000000000000
11
-51.8510841283608
21
-1.21803635278046
31
0.000000000000000
  0
LINE
  5
F10222
330
F10223
100
AcDbEntity
8
Geo
100
AcDbLine
10
-51.8510841283608
20
-1.21803635278046
30
0.000000000000000
11
-51.7510841283608
21
-1.27136272059265
31
0.000000000000000
  0
LINE
  5
F10224
330
F10225
100
AcDbEntity
8
Geo
100
AcDbLine
10
-51.7510841283608
20
-1.27136272059265
30
0.000000000000000
11
-51.6510841283608
21
-1.32452801106402
31
0.000000000000000
  0
LINE
  5
F10226
330
F10227
100
AcDbEntity
8
Geo
100
AcDbLine
10
-51.6510841283608
20
-1.32452801106402
30
0.000000000000000
11
-51.5510841283608
21
-1.37752945518106
31
0.000000000000000
  0
LINE
  5
F10228
330
F10229
100
AcDbEntity
8
Geo
100
AcDbLine
10
-51.5510841283608
20
-1.37752945518106
30
0.000000000000000
11
-51.4510841283608
21
-1.43036429246386
31
0.000000000000000
  0
LINE
  5
F1022A
330
F1022B
100
AcDbEntity
8
Geo
100
AcDbLine
10
-51.4510841283608
20
-1.43036429246386
30
0.000000000000000
11
-51.3510841283608
21
-1.48302977110992
31
0.000000000000000
  0
LINE
  5
F1022C
330
F1022D
100
AcDbEntity
8
Geo
100
AcDbLine
10
-51.3510841283608
20
-1.48302977110992
30
0.000000000000000
11
-51.2510841283608
21
-1.53552314813747
31
0.000000000000000
  0
LINE
  5
F1022E
330
F1022F
100
AcDbEntity
8
Geo
100
AcDbLine
10
-51.2510841283608
20
-1.53552314813747
30
0.000000000000000
11
-51.1510841283608
21
-1.58784168952833
31
0.000000000000000
  0
LINE
  5
F10230
330
F10231
100
AcDbEntity
8
Geo
100
AcDbLine
10
-51.1510841283608
20
-1.58784168952833
30
0.000000000000000
11
-51.0510841283608
21
-1.63998267037028
31
0.000000000000000
  0
LINE
  5
F10232
330
F10233
100
AcDbEntity
8
Geo
100
AcDbLine
10
-51.0510841283608
20
-1.63998267037028
30
0.000000000000000
11
-50.9510841283608
21
-1.69194337499903
31
0.000000000000000
  0
LINE
  5
F10234
330
F10235
100
AcDbEntity
8
Geo
100
AcDbLine
10
-50.9510841283608
20
-1.69194337499903
30
0.000000000000000
11
-50.8510841283608
21
-1.74372109713962
31
0.000000000000000
  0
LINE
  5
F10236
330
F10237
100
AcDbEntity
8
Geo
100
AcDbLine
10
-50.8510841283608
20
-1.74372109713962
30
0.000000000000000
11
-50.7510841283608
21
-1.79531314004741
31
0.000000000000000
  0
LINE
  5
F10238
330
F10239
100
AcDbEntity
8
Geo
100
AcDbLine
10
-50.7510841283608
20
-1.79531314004741
30
0.000000000000000
11
-50.6510841283608
21
-1.84671681664848
31
0.000000000000000
  0
LINE
  5
F1023A
330
F1023B
100
AcDbEntity
8
Geo
100
AcDbLine
10
-50.6510841283608
20
-1.84671681664848
30
0.000000000000000
11
-50.5510841283608
21
-1.89792944967963
31
0.000000000000000
  0
LINE
  5
F1023C
330
F1023D
100
AcDbEntity
8
Geo
100
AcDbLine
10
-50.5510841283608
20
-1.89792944967963
30
0.000000000000000
11
-50.4510841283608
21
-1.94894837182780
31
0.000000000000000
  0
LINE
  5
F1023E
330
F1023F
100
AcDbEntity
8
Geo
100
AcDbLine
10
-50.4510841283608
20
-1.94894837182780
30
0.000000000000000
11
-50.3510841283608
21
-1.99977092586899
31
0.000000000000000
  0
LINE
  5
F10240
330
F10241
100
AcDbEntity
8
Geo
100
AcDbLine
10
-50.3510841283608
20
-1.99977092586899
30
0.000000000000000
11
-50.2510841283608
21
-2.05039446480668
31
0.000000000000000
  0
LINE
  5
F10242
330
F10243
100
AcDbEntity
8
Geo
100
AcDbLine
10
-50.2510841283608
20
-2.05039446480668
30
0.000000000000000
11
-50.1510841283608
21
-2.10081635200965
31
0.000000000000000
  0
LINE
  5
F10244
330
F10245
100
AcDbEntity
8
Geo
100
AcDbLine
10
-50.1510841283608
20
-2.10081635200965
30
0.000000000000000
11
-50.0510841283608
21
-2.15103396134933
31
0.000000000000000
  0
LINE
  5
F10246
330
F10247
100
AcDbEntity
8
Geo
100
AcDbLine
10
-50.0510841283608
20
-2.15103396134933
30
0.000000000000000
11
-49.9510841283608
21
-2.20104467733661
31
0.000000000000000
  0
LINE
  5
F10248
330
F10249
100
AcDbEntity
8
Geo
100
AcDbLine
10
-49.9510841283608
20
-2.20104467733661
30
0.000000000000000
11
-49.8510841283608
21
-2.25084589525799
31
0.000000000000000
  0
LINE
  5
F1024A
330
F1024B
100
AcDbEntity
8
Geo
100
AcDbLine
10
-49.8510841283608
20
-2.25084589525799
30
0.000000000000000
11
-49.7510841283608
21
-2.30043502131129
31
0.000000000000000
  0
LINE
  5
F1024C
330
F1024D
100
AcDbEntity
8
Geo
100
AcDbLine
10
-49.7510841283608
20
-2.30043502131129
30
0.000000000000000
11
-49.6510841283608
21
-2.34980947274075
31
0.000000000000000
  0
LINE
  5
F1024E
330
F1024F
100
AcDbEntity
8
Geo
100
AcDbLine
10
-49.6510841283608
20
-2.34980947274075
30
0.000000000000000
11
-49.5510841283608
21
-2.39896667797150
31
0.000000000000000
  0
LINE
  5
F10250
330
F10251
100
AcDbEntity
8
Geo
100
AcDbLine
10
-49.5510841283608
20
-2.39896667797150
30
0.000000000000000
11
-49.4510841283608
21
-2.44790407674357
31
0.000000000000000
  0
LINE
  5
F10252
330
F10253
100
AcDbEntity
8
Geo
100
AcDbLine
10
-49.4510841283608
20
-2.44790407674357
30
0.000000000000000
11
-49.3510841283608
21
-2.49661912024516
31
0.000000000000000
  0
LINE
  5
F10254
330
F10255
100
AcDbEntity
8
Geo
100
AcDbLine
10
-49.3510841283608
20
-2.49661912024516
30
0.000000000000000
11
-49.2510841283608
21
-2.54510927124543
31
0.000000000000000
  0
LINE
  5
F10256
330
F10257
100
AcDbEntity
8
Geo
100
AcDbLine
10
-49.2510841283608
20
-2.54510927124543
30
0.000000000000000
11
-49.1510841283608
21
-2.59337200422665
31
0.000000000000000
  0
LINE
  5
F10258
330
F10259
100
AcDbEntity
8
Geo
100
AcDbLine
10
-49.1510841283608
20
-2.59337200422665
30
0.000000000000000
11
-49.0510841283608
21
-2.64140480551571
31
0.000000000000000
  0
LINE
  5
F1025A
330
F1025B
100
AcDbEntity
8
Geo
100
AcDbLine
10
-49.0510841283608
20
-2.64140480551571
30
0.000000000000000
11
-48.9510841283608
21
-2.68920517341508
31
0.000000000000000
  0
LINE
  5
F1025C
330
F1025D
100
AcDbEntity
8
Geo
100
AcDbLine
10
-48.9510841283608
20
-2.68920517341508
30
0.000000000000000
11
-48.8510841283608
21
-2.73677061833306
31
0.000000000000000
  0
LINE
  5
F1025E
330
F1025F
100
AcDbEntity
8
Geo
100
AcDbLine
10
-48.8510841283608
20
-2.73677061833306
30
0.000000000000000
11
-48.7510841283608
21
-2.78409866291349
31
0.000000000000000
  0
LINE
  5
F10260
330
F10261
100
AcDbEntity
8
Geo
100
AcDbLine
10
-48.7510841283608
20
-2.78409866291349
30
0.000000000000000
11
-48.6510841283608
21
-2.83118684216474
31
0.000000000000000
  0
LINE
  5
F10262
330
F10263
100
AcDbEntity
8
Geo
100
AcDbLine
10
-48.6510841283608
20
-2.83118684216474
30
0.000000000000000
11
-48.5510841283608
21
-2.87803270358812
31
0.000000000000000
  0
LINE
  5
F10264
330
F10265
100
AcDbEntity
8
Geo
100
AcDbLine
10
-48.5510841283608
20
-2.87803270358812
30
0.000000000000000
11
-48.4510841283608
21
-2.92463380730560
31
0.000000000000000
  0
LINE
  5
F10266
330
F10267
100
AcDbEntity
8
Geo
100
AcDbLine
10
-48.4510841283608
20
-2.92463380730560
30
0.000000000000000
11
-48.3510841283608
21
-2.97098772618690
31
0.000000000000000
  0
LINE
  5
F10268
330
F10269
100
AcDbEntity
8
Geo
100
AcDbLine
10
-48.3510841283608
20
-2.97098772618690
30
0.000000000000000
11
-48.2510841283608
21
-3.01709204597589
31
0.000000000000000
  0
LINE
  5
F1026A
330
F1026B
100
AcDbEntity
8
Geo
100
AcDbLine
10
-48.2510841283608
20
-3.01709204597589
30
0.000000000000000
11
-48.1510841283608
21
-3.06294436541635
31
0.000000000000000
  0
LINE
  5
F1026C
330
F1026D
100
AcDbEntity
8
Geo
100
AcDbLine
10
-48.1510841283608
20
-3.06294436541635
30
0.000000000000000
11
-48.0510841283608
21
-3.10854229637698
31
0.000000000000000
  0
LINE
  5
F1026E
330
F1026F
100
AcDbEntity
8
Geo
100
AcDbLine
10
-48.0510841283608
20
-3.10854229637698
30
0.000000000000000
11
-47.9510841283608
21
-3.15388346397587
31
0.000000000000000
  0
LINE
  5
F10270
330
F10271
100
AcDbEntity
8
Geo
100
AcDbLine
10
-47.9510841283608
20
-3.15388346397587
30
0.000000000000000
11
-47.8510841283608
21
-3.19896550670411
31
0.000000000000000
  0
LINE
  5
F10272
330
F10273
100
AcDbEntity
8
Geo
100
AcDbLine
10
-47.8510841283608
20
-3.19896550670411
30
0.000000000000000
11
-47.7510841283608
21
-3.24378607654885
31
0.000000000000000
  0
LINE
  5
F10274
330
F10275
100
AcDbEntity
8
Geo
100
AcDbLine
10
-47.7510841283608
20
-3.24378607654885
30
0.000000000000000
11
-47.6510841283608
21
-3.28834283911553
31
0.000000000000000
  0
LINE
  5
F10276
330
F10277
100
AcDbEntity
8
Geo
100
AcDbLine
10
-47.6510841283608
20
-3.28834283911553
30
0.000000000000000
11
-47.5510841283608
21
-3.33263347374951
31
0.000000000000000
  0
LINE
  5
F10278
330
F10279
100
AcDbEntity
8
Geo
100
AcDbLine
10
-47.5510841283608
20
-3.33263347374951
30
0.000000000000000
11
-47.4510841283608
21
-3.37665567365692
31
0.000000000000000
  0
LINE
  5
F1027A
330
F1027B
100
AcDbEntity
8
Geo
100
AcDbLine
10
-47.4510841283608
20
-3.37665567365692
30
0.000000000000000
11
-47.3510841283608
21
-3.42040714602478
31
0.000000000000000
  0
LINE
  5
F1027C
330
F1027D
100
AcDbEntity
8
Geo
100
AcDbLine
10
-47.3510841283608
20
-3.42040714602478
30
0.000000000000000
11
-47.2510841283608
21
-3.46388561214048
31
0.000000000000000
  0
LINE
  5
F1027E
330
F1027F
100
AcDbEntity
8
Geo
100
AcDbLine
10
-47.2510841283608
20
-3.46388561214048
30
0.000000000000000
11
-47.1510841283608
21
-3.50708880751040
31
0.000000000000000
  0
LINE
  5
F10280
330
F10281
100
AcDbEntity
8
Geo
100
AcDbLine
10
-47.1510841283608
20
-3.50708880751040
30
0.000000000000000
11
-47.0510841283608
21
-3.55001448197788
31
0.000000000000000
  0
LINE
  5
F10282
330
F10283
100
AcDbEntity
8
Geo
100
AcDbLine
10
-47.0510841283608
20
-3.55001448197788
30
0.000000000000000
11
-46.9510841283608
21
-3.59266039984041
31
0.000000000000000
  0
LINE
  5
F10284
330
F10285
100
AcDbEntity
8
Geo
100
AcDbLine
10
-46.9510841283608
20
-3.59266039984041
30
0.000000000000000
11
-46.8510841283608
21
-3.63502433996608
31
0.000000000000000
  0
LINE
  5
F10286
330
F10287
100
AcDbEntity
8
Geo
100
AcDbLine
10
-46.8510841283608
20
-3.63502433996608
30
0.000000000000000
11
-46.7510841283608
21
-3.67710409590924
31
0.000000000000000
  0
LINE
  5
F10288
330
F10289
100
AcDbEntity
8
Geo
100
AcDbLine
10
-46.7510841283608
20
-3.67710409590924
30
0.000000000000000
11
-46.6510841283608
21
-3.71889747602546
31
0.000000000000000
  0
LINE
  5
F1028A
330
F1028B
100
AcDbEntity
8
Geo
100
AcDbLine
10
-46.6510841283608
20
-3.71889747602546
30
0.000000000000000
11
-46.5510841283608
21
-3.76040230358564
31
0.000000000000000
  0
LINE
  5
F1028C
330
F1028D
100
AcDbEntity
8
Geo
100
AcDbLine
10
-46.5510841283608
20
-3.76040230358564
30
0.000000000000000
11
-46.4510841283608
21
-3.80161641688938
31
0.000000000000000
  0
LINE
  5
F1028E
330
F1028F
100
AcDbEntity
8
Geo
100
AcDbLine
10
-46.4510841283608
20
-3.80161641688938
30
0.000000000000000
11
-46.3510841283608
21
-3.84253766937761
31
0.000000000000000
  0
LINE
  5
F10290
330
F10291
100
AcDbEntity
8
Geo
100
AcDbLine
10
-46.3510841283608
20
-3.84253766937761
30
0.000000000000000
11
-46.2510841283608
21
-3.88316392974435
31
0.000000000000000
  0
LINE
  5
F10292
330
F10293
100
AcDbEntity
8
Geo
100
AcDbLine
10
-46.2510841283608
20
-3.88316392974435
30
0.000000000000000
11
-46.1510841283608
21
-3.92349308204770
31
0.000000000000000
  0
LINE
  5
F10294
330
F10295
100
AcDbEntity
8
Geo
100
AcDbLine
10
-46.1510841283608
20
-3.92349308204770
30
0.000000000000000
11
-46.0510841283608
21
-3.96352302582012
31
0.000000000000000
  0
LINE
  5
F10296
330
F10297
100
AcDbEntity
8
Geo
100
AcDbLine
10
-46.0510841283608
20
-3.96352302582012
30
0.000000000000000
11
-45.9510841283608
21
-4.00325167617773
31
0.000000000000000
  0
LINE
  5
F10298
330
F10299
100
AcDbEntity
8
Geo
100
AcDbLine
10
-45.9510841283608
20
-4.00325167617773
30
0.000000000000000
11
-45.8510841283608
21
-4.04267696392899
31
0.000000000000000
  0
LINE
  5
F1029A
330
F1029B
100
AcDbEntity
8
Geo
100
AcDbLine
10
-45.8510841283608
20
-4.04267696392899
30
0.000000000000000
11
-45.7510841283608
21
-4.08179683568240
31
0.000000000000000
  0
LINE
  5
F1029C
330
F1029D
100
AcDbEntity
8
Geo
100
AcDbLine
10
-45.7510841283608
20
-4.08179683568240
30
0.000000000000000
11
-45.6510841283608
21
-4.12060925395349
31
0.000000000000000
  0
LINE
  5
F1029E
330
F1029F
100
AcDbEntity
8
Geo
100
AcDbLine
10
-45.6510841283608
20
-4.12060925395349
30
0.000000000000000
11
-45.5510841283608
21
-4.15911219727091
31
0.000000000000000
  0
LINE
  5
F102A0
330
F102A1
100
AcDbEntity
8
Geo
100
AcDbLine
10
-45.5510841283608
20
-4.15911219727091
30
0.000000000000000
11
-45.4510841283608
21
-4.19730366028173
31
0.000000000000000
  0
LINE
  5
F102A2
330
F102A3
100
AcDbEntity
8
Geo
100
AcDbLine
10
-45.4510841283608
20
-4.19730366028173
30
0.000000000000000
11
-45.3510841283608
21
-4.23518165385590
31
0.000000000000000
  0
LINE
  5
F102A4
330
F102A5
100
AcDbEntity
8
Geo
100
AcDbLine
10
-45.3510841283608
20
-4.23518165385590
30
0.000000000000000
11
-45.2510841283608
21
-4.27274420518979
31
0.000000000000000
  0
LINE
  5
F102A6
330
F102A7
100
AcDbEntity
8
Geo
100
AcDbLine
10
-45.2510841283608
20
-4.27274420518979
30
0.000000000000000
11
-45.1510841283608
21
-4.30998935790903
31
0.000000000000000
  0
LINE
  5
F102A8
330
F102A9
100
AcDbEntity
8
Geo
100
AcDbLine
10
-45.1510841283608
20
-4.30998935790903
30
0.000000000000000
11
-45.0510841283608
21
-4.34691517217034
31
0.000000000000000
  0
LINE
  5
F102AA
330
F102AB
100
AcDbEntity
8
Geo
100
AcDbLine
10
-45.0510841283608
20
-4.34691517217034
30
0.000000000000000
11
-44.9510841283608
21
-4.38351972476255
31
0.000000000000000
  0
LINE
  5
F102AC
330
F102AD
100
AcDbEntity
8
Geo
100
AcDbLine
10
-44.9510841283608
20
-4.38351972476255
30
0.000000000000000
11
-44.8510841283608
21
-4.41980110920685
31
0.000000000000000
  0
LINE
  5
F102AE
330
F102AF
100
AcDbEntity
8
Geo
100
AcDbLine
10
-44.8510841283608
20
-4.41980110920685
30
0.000000000000000
11
-44.7510841283608
21
-4.45575743585597
31
0.000000000000000
  0
LINE
  5
F102B0
330
F102B1
100
AcDbEntity
8
Geo
100
AcDbLine
10
-44.7510841283608
20
-4.45575743585597
30
0.000000000000000
11
-44.6510841283608
21
-4.49138683199272
31
0.000000000000000
  0
LINE
  5
F102B2
330
F102B3
100
AcDbEntity
8
Geo
100
AcDbLine
10
-44.6510841283608
20
-4.49138683199272
30
0.000000000000000
11
-44.5510841283608
21
-4.52668744192743
31
0.000000000000000
  0
LINE
  5
F102B4
330
F102B5
100
AcDbEntity
8
Geo
100
AcDbLine
10
-44.5510841283608
20
-4.52668744192743
30
0.000000000000000
11
-44.4510841283608
21
-4.56165742709464
31
0.000000000000000
  0
LINE
  5
F102B6
330
F102B7
100
AcDbEntity
8
Geo
100
AcDbLine
10
-44.4510841283608
20
-4.56165742709464
30
0.000000000000000
11
-44.3510841283608
21
-4.59629496614886
31
0.000000000000000
  0
LINE
  5
F102B8
330
F102B9
100
AcDbEntity
8
Geo
100
AcDbLine
10
-44.3510841283608
20
-4.59629496614886
30
0.000000000000000
11
-44.2510841283608
21
-4.63059825505944
31
0.000000000000000
  0
LINE
  5
F102BA
330
F102BB
100
AcDbEntity
8
Geo
100
AcDbLine
10
-44.2510841283608
20
-4.63059825505944
30
0.000000000000000
11
-44.1510841283608
21
-4.66456550720449
31
0.000000000000000
  0
LINE
  5
F102BC
330
F102BD
100
AcDbEntity
8
Geo
100
AcDbLine
10
-44.1510841283608
20
-4.66456550720449
30
0.000000000000000
11
-44.0510841283608
21
-4.69819495346398
31
0.000000000000000
  0
LINE
  5
F102BE
330
F102BF
100
AcDbEntity
8
Geo
100
AcDbLine
10
-44.0510841283608
20
-4.69819495346398
30
0.000000000000000
11
-43.9510841283608
21
-4.73148484231185
31
0.000000000000000
  0
LINE
  5
F102C0
330
F102C1
100
AcDbEntity
8
Geo
100
AcDbLine
10
-43.9510841283608
20
-4.73148484231185
30
0.000000000000000
11
-43.8510841283608
21
-4.76443343990726
31
0.000000000000000
  0
LINE
  5
F102C2
330
F102C3
100
AcDbEntity
8
Geo
100
AcDbLine
10
-43.8510841283608
20
-4.76443343990726
30
0.000000000000000
11
-43.7510841283608
21
-4.79703903018484
31
0.000000000000000
  0
LINE
  5
F102C4
330
F102C5
100
AcDbEntity
8
Geo
100
AcDbLine
10
-43.7510841283608
20
-4.79703903018484
30
0.000000000000000
11
-43.6510841283608
21
-4.82929991494416
31
0.000000000000000
  0
LINE
  5
F102C6
330
F102C7
100
AcDbEntity
8
Geo
100
AcDbLine
10
-43.6510841283608
20
-4.82929991494416
30
0.000000000000000
11
-43.5510841283608
21
-4.86121441393808
31
0.000000000000000
  0
LINE
  5
F102C8
330
F102C9
100
AcDbEntity
8
Geo
100
AcDbLine
10
-43.5510841283608
20
-4.86121441393808
30
0.000000000000000
11
-43.4510841283608
21
-4.89278086496034
31
0.000000000000000
  0
LINE
  5
F102CA
330
F102CB
100
AcDbEntity
8
Geo
100
AcDbLine
10
-43.4510841283608
20
-4.89278086496034
30
0.000000000000000
11
-43.3510841283609
21
-4.92399762393208
31
0.000000000000000
  0
LINE
  5
F102CC
330
F102CD
100
AcDbEntity
8
Geo
100
AcDbLine
10
-43.3510841283609
20
-4.92399762393208
30
0.000000000000000
11
-43.2510841283609
21
-4.95486306498749
31
0.000000000000000
  0
LINE
  5
F102CE
330
F102CF
100
AcDbEntity
8
Geo
100
AcDbLine
10
-43.2510841283609
20
-4.95486306498749
30
0.000000000000000
11
-43.1510841283608
21
-4.98537558055849
31
0.000000000000000
  0
LINE
  5
F102D0
330
F102D1
100
AcDbEntity
8
Geo
100
AcDbLine
10
-43.1510841283608
20
-4.98537558055849
30
0.000000000000000
11
-43.0510841283608
21
-5.01553358145846
31
0.000000000000000
  0
LINE
  5
F102D2
330
F102D3
100
AcDbEntity
8
Geo
100
AcDbLine
10
-43.0510841283608
20
-5.01553358145846
30
0.000000000000000
11
-42.9510841283608
21
-5.04533549696501
31
0.000000000000000
  0
LINE
  5
F102D4
330
F102D5
100
AcDbEntity
8
Geo
100
AcDbLine
10
-42.9510841283608
20
-5.04533549696501
30
0.000000000000000
11
-42.8510841283609
21
-5.07477977490177
31
0.000000000000000
  0
LINE
  5
F102D6
330
F102D7
100
AcDbEntity
8
Geo
100
AcDbLine
10
-42.8510841283609
20
-5.07477977490177
30
0.000000000000000
11
-42.7510841283609
21
-5.10386488171927
31
0.000000000000000
  0
LINE
  5
F102D8
330
F102D9
100
AcDbEntity
8
Geo
100
AcDbLine
10
-42.7510841283609
20
-5.10386488171927
30
0.000000000000000
11
-42.6510841283608
21
-5.13258930257475
31
0.000000000000000
  0
LINE
  5
F102DA
330
F102DB
100
AcDbEntity
8
Geo
100
AcDbLine
10
-42.6510841283608
20
-5.13258930257475
30
0.000000000000000
11
-42.5510841283609
21
-5.16095154141112
31
0.000000000000000
  0
LINE
  5
F102DC
330
F102DD
100
AcDbEntity
8
Geo
100
AcDbLine
10
-42.5510841283609
20
-5.16095154141112
30
0.000000000000000
11
-42.4510841283609
21
-5.18895012103486
31
0.000000000000000
  0
LINE
  5
F102DE
330
F102DF
100
AcDbEntity
8
Geo
100
AcDbLine
10
-42.4510841283609
20
-5.18895012103486
30
0.000000000000000
11
-42.3510841283609
21
-5.21658358319295
31
0.000000000000000
  0
LINE
  5
F102E0
330
F102E1
100
AcDbEntity
8
Geo
100
AcDbLine
10
-42.3510841283609
20
-5.21658358319295
30
0.000000000000000
11
-42.2510841283609
21
-5.24385048864880
31
0.000000000000000
  0
LINE
  5
F102E2
330
F102E3
100
AcDbEntity
8
Geo
100
AcDbLine
10
-57.2510841283608
20
9.03143168092528
30
0.000000000000000
11
-57.1510841283608
21
9.12743260205008
31
0.000000000000000
  0
LINE
  5
F102E4
330
F102E5
100
AcDbEntity
8
Geo
100
AcDbLine
10
-57.1510841283608
20
9.12743260205008
30
0.000000000000000
11
-57.0510841283608
21
9.22285552989450
31
0.000000000000000
  0
LINE
  5
F102E6
330
F102E7
100
AcDbEntity
8
Geo
100
AcDbLine
10
-57.0510841283608
20
9.22285552989450
30
0.000000000000000
11
-56.9510841283608
21
9.31770858829896
31
0.000000000000000
  0
LINE
  5
F102E8
330
F102E9
100
AcDbEntity
8
Geo
100
AcDbLine
10
-56.9510841283608
20
9.31770858829896
30
0.000000000000000
11
-56.8510841283608
21
9.35526330161707
31
0.000000000000000
  0
LINE
  5
F102EA
330
F102EB
100
AcDbEntity
8
Geo
100
AcDbLine
10
-56.8510841283608
20
9.35526330161707
30
0.000000000000000
11
-56.7510841283608
21
9.33564872973687
31
0.000000000000000
  0
LINE
  5
F102EC
330
F102ED
100
AcDbEntity
8
Geo
100
AcDbLine
10
-56.7510841283608
20
9.33564872973687
30
0.000000000000000
11
-56.6510841283608
21
9.31564278908223
31
0.000000000000000
  0
LINE
  5
F102EE
330
F102EF
100
AcDbEntity
8
Geo
100
AcDbLine
10
-56.6510841283608
20
9.31564278908223
30
0.000000000000000
11
-56.5510841283608
21
9.29524652162469
31
0.000000000000000
  0
LINE
  5
F102F0
330
F102F1
100
AcDbEntity
8
Geo
100
AcDbLine
10
-56.5510841283608
20
9.29524652162469
30
0.000000000000000
11
-56.4510841283608
21
9.27446098966523
31
0.000000000000000
  0
LINE
  5
F102F2
330
F102F3
100
AcDbEntity
8
Geo
100
AcDbLine
10
-56.4510841283608
20
9.27446098966523
30
0.000000000000000
11
-56.3510841283608
21
9.25328727577896
31
0.000000000000000
  0
LINE
  5
F102F4
330
F102F5
100
AcDbEntity
8
Geo
100
AcDbLine
10
-56.3510841283608
20
9.25328727577896
30
0.000000000000000
11
-56.2510841283608
21
9.23172648275868
31
0.000000000000000
  0
LINE
  5
F102F6
330
F102F7
100
AcDbEntity
8
Geo
100
AcDbLine
10
-56.2510841283608
20
9.23172648275868
30
0.000000000000000
11
-56.1510841283608
21
9.20977973355748
31
0.000000000000000
  0
LINE
  5
F102F8
330
F102F9
100
AcDbEntity
8
Geo
100
AcDbLine
10
-56.1510841283608
20
9.20977973355748
30
0.000000000000000
11
-56.0510841283608
21
9.18744817123027
31
0.000000000000000
  0
LINE
  5
F102FA
330
F102FB
100
AcDbEntity
8
Geo
100
AcDbLine
10
-56.0510841283608
20
9.18744817123027
30
0.000000000000000
11
-55.9510841283608
21
9.16473295887419
31
0.000000000000000
  0
LINE
  5
F102FC
330
F102FD
100
AcDbEntity
8
Geo
100
AcDbLine
10
-55.9510841283608
20
9.16473295887419
30
0.000000000000000
11
-55.8510841283608
21
9.14163527956810
31
0.000000000000000
  0
LINE
  5
F102FE
330
F102FF
100
AcDbEntity
8
Geo
100
AcDbLine
10
-55.8510841283608
20
9.14163527956810
30
0.000000000000000
11
-55.7510841283608
21
9.11815633631089
31
0.000000000000000
  0
LINE
  5
F10300
330
F10301
100
AcDbEntity
8
Geo
100
AcDbLine
10
-55.7510841283608
20
9.11815633631089
30
0.000000000000000
11
-55.6510841283608
21
9.09429735195889
31
0.000000000000000
  0
LINE
  5
F10302
330
F10303
100
AcDbEntity
8
Geo
100
AcDbLine
10
-55.6510841283608
20
9.09429735195889
30
0.000000000000000
11
-55.5510841283608
21
9.07005956916213
31
0.000000000000000
  0
LINE
  5
F10304
330
F10305
100
AcDbEntity
8
Geo
100
AcDbLine
10
-55.5510841283608
20
9.07005956916213
30
0.000000000000000
11
-55.4510841283608
21
9.04544425029967
31
0.000000000000000
  0
LINE
  5
F10306
330
F10307
100
AcDbEntity
8
Geo
100
AcDbLine
10
-55.4510841283608
20
9.04544425029967
30
0.000000000000000
11
-55.3510841283608
21
9.02045267741380
31
0.000000000000000
  0
LINE
  5
F10308
330
F10309
100
AcDbEntity
8
Geo
100
AcDbLine
10
-55.3510841283608
20
9.02045267741380
30
0.000000000000000
11
-55.2510841283608
21
8.99508615214328
31
0.000000000000000
  0
LINE
  5
F1030A
330
F1030B
100
AcDbEntity
8
Geo
100
AcDbLine
10
-55.2510841283608
20
8.99508615214328
30
0.000000000000000
11
-55.1510841283608
21
8.96934599565558
31
0.000000000000000
  0
LINE
  5
F1030C
330
F1030D
100
AcDbEntity
8
Geo
100
AcDbLine
10
-55.1510841283608
20
8.96934599565558
30
0.000000000000000
11
-55.0510841283608
21
8.94323354857801
31
0.000000000000000
  0
LINE
  5
F1030E
330
F1030F
100
AcDbEntity
8
Geo
100
AcDbLine
10
-55.0510841283608
20
8.94323354857801
30
0.000000000000000
11
-54.9510841283608
21
8.91675017092798
31
0.000000000000000
  0
LINE
  5
F10310
330
F10311
100
AcDbEntity
8
Geo
100
AcDbLine
10
-54.9510841283608
20
8.91675017092798
30
0.000000000000000
11
-54.8510841283608
21
8.88989724204207
31
0.000000000000000
  0
LINE
  5
F10312
330
F10313
100
AcDbEntity
8
Geo
100
AcDbLine
10
-54.8510841283608
20
8.88989724204207
30
0.000000000000000
11
-54.7510841283608
21
8.86267616050427
31
0.000000000000000
  0
LINE
  5
F10314
330
F10315
100
AcDbEntity
8
Geo
100
AcDbLine
10
-54.7510841283608
20
8.86267616050427
30
0.000000000000000
11
-54.6510841283608
21
8.83508834407308
31
0.000000000000000
  0
LINE
  5
F10316
330
F10317
100
AcDbEntity
8
Geo
100
AcDbLine
10
-54.6510841283608
20
8.83508834407308
30
0.000000000000000
11
-54.5510841283608
21
8.80713522960770
31
0.000000000000000
  0
LINE
  5
F10318
330
F10319
100
AcDbEntity
8
Geo
100
AcDbLine
10
-54.5510841283608
20
8.80713522960770
30
0.000000000000000
11
-54.4510841283608
21
8.77881827299320
31
0.000000000000000
  0
LINE
  5
F1031A
330
F1031B
100
AcDbEntity
8
Geo
100
AcDbLine
10
-54.4510841283608
20
8.77881827299320
30
0.000000000000000
11
-54.3510841283608
21
8.75013894906466
31
0.000000000000000
  0
LINE
  5
F1031C
330
F1031D
100
AcDbEntity
8
Geo
100
AcDbLine
10
-54.3510841283608
20
8.75013894906466
30
0.000000000000000
11
-54.2510841283608
21
8.72109875153039
31
0.000000000000000
  0
LINE
  5
F1031E
330
F1031F
100
AcDbEntity
8
Geo
100
AcDbLine
10
-54.2510841283608
20
8.72109875153039
30
0.000000000000000
11
-54.1510841283608
21
8.69169919289411
31
0.000000000000000
  0
LINE
  5
F10320
330
F10321
100
AcDbEntity
8
Geo
100
AcDbLine
10
-54.1510841283608
20
8.69169919289411
30
0.000000000000000
11
-54.0510841283608
21
8.66194180437619
31
0.000000000000000
  0
LINE
  5
F10322
330
F10323
100
AcDbEntity
8
Geo
100
AcDbLine
10
-54.0510841283608
20
8.66194180437619
30
0.000000000000000
11
-53.9510841283608
21
8.63182813583389
31
0.000000000000000
  0
LINE
  5
F10324
330
F10325
100
AcDbEntity
8
Geo
100
AcDbLine
10
-53.9510841283608
20
8.63182813583389
30
0.000000000000000
11
-53.8510841283608
21
8.60135975568063
31
0.000000000000000
  0
LINE
  5
F10326
330
F10327
100
AcDbEntity
8
Geo
100
AcDbLine
10
-53.8510841283608
20
8.60135975568063
30
0.000000000000000
11
-53.7510841283608
21
8.57053825080433
31
0.000000000000000
  0
LINE
  5
F10328
330
F10329
100
AcDbEntity
8
Geo
100
AcDbLine
10
-53.7510841283608
20
8.57053825080433
30
0.000000000000000
11
-53.6510841283608
21
8.53936522648474
31
0.000000000000000
  0
LINE
  5
F1032A
330
F1032B
100
AcDbEntity
8
Geo
100
AcDbLine
10
-53.6510841283608
20
8.53936522648474
30
0.000000000000000
11
-53.5510841283608
21
8.50784230630982
31
0.000000000000000
  0
LINE
  5
F1032C
330
F1032D
100
AcDbEntity
8
Geo
100
AcDbLine
10
-53.5510841283608
20
8.50784230630982
30
0.000000000000000
11
-53.4510841283608
21
8.47597113209120
31
0.000000000000000
  0
LINE
  5
F1032E
330
F1032F
100
AcDbEntity
8
Geo
100
AcDbLine
10
-53.4510841283608
20
8.47597113209120
30
0.000000000000000
11
-53.3510841283608
21
8.44375336377867
31
0.000000000000000
  0
LINE
  5
F10330
330
F10331
100
AcDbEntity
8
Geo
100
AcDbLine
10
-53.3510841283608
20
8.44375336377867
30
0.000000000000000
11
-53.2510841283608
21
8.41119067937372
31
0.000000000000000
  0
LINE
  5
F10332
330
F10333
100
AcDbEntity
8
Geo
100
AcDbLine
10
-53.2510841283608
20
8.41119067937372
30
0.000000000000000
11
-53.1510841283608
21
8.37828477484214
31
0.000000000000000
  0
LINE
  5
F10334
330
F10335
100
AcDbEntity
8
Geo
100
AcDbLine
10
-53.1510841283608
20
8.37828477484214
30
0.000000000000000
11
-53.0510841283608
21
8.34503736402566
31
0.000000000000000
  0
LINE
  5
F10336
330
F10337
100
AcDbEntity
8
Geo
100
AcDbLine
10
-53.0510841283608
20
8.34503736402566
30
0.000000000000000
11
-52.9510841283608
21
8.31145017855277
31
0.000000000000000
  0
LINE
  5
F10338
330
F10339
100
AcDbEntity
8
Geo
100
AcDbLine
10
-52.9510841283608
20
8.31145017855277
30
0.000000000000000
11
-52.8510841283608
21
8.27752496774844
31
0.000000000000000
  0
LINE
  5
F1033A
330
F1033B
100
AcDbEntity
8
Geo
100
AcDbLine
10
-52.8510841283608
20
8.27752496774844
30
0.000000000000000
11
-52.7510841283608
21
8.24326349854307
31
0.000000000000000
  0
LINE
  5
F1033C
330
F1033D
100
AcDbEntity
8
Geo
100
AcDbLine
10
-52.7510841283608
20
8.24326349854307
30
0.000000000000000
11
-52.6510841283608
21
8.20866755538044
31
0.000000000000000
  0
LINE
  5
F1033E
330
F1033F
100
AcDbEntity
8
Geo
100
AcDbLine
10
-52.6510841283608
20
8.20866755538044
30
0.000000000000000
11
-52.5510841283608
21
8.17373894012476
31
0.000000000000000
  0
LINE
  5
F10340
330
F10341
100
AcDbEntity
8
Geo
100
AcDbLine
10
-52.5510841283608
20
8.17373894012476
30
0.000000000000000
11
-52.4510841283608
21
8.13847947196684
31
0.000000000000000
  0
LINE
  5
F10342
330
F10343
100
AcDbEntity
8
Geo
100
AcDbLine
10
-52.4510841283608
20
8.13847947196684
30
0.000000000000000
11
-52.3510841283608
21
8.10289098732936
31
0.000000000000000
  0
LINE
  5
F10344
330
F10345
100
AcDbEntity
8
Geo
100
AcDbLine
10
-52.3510841283608
20
8.10289098732936
30
0.000000000000000
11
-52.2510841283608
21
8.06697533977118
31
0.000000000000000
  0
LINE
  5
F10346
330
F10347
100
AcDbEntity
8
Geo
100
AcDbLine
10
-52.2510841283608
20
8.06697533977118
30
0.000000000000000
11
-52.1510841283608
21
8.03073439989081
31
0.000000000000000
  0
LINE
  5
F10348
330
F10349
100
AcDbEntity
8
Geo
100
AcDbLine
10
-52.1510841283608
20
8.03073439989081
30
0.000000000000000
11
-52.0510841283608
21
7.99417005522902
31
0.000000000000000
  0
LINE
  5
F1034A
330
F1034B
100
AcDbEntity
8
Geo
100
AcDbLine
10
-52.0510841283608
20
7.99417005522902
30
0.000000000000000
11
-51.9510841283608
21
7.95728421017050
31
0.000000000000000
  0
LINE
  5
F1034C
330
F1034D
100
AcDbEntity
8
Geo
100
AcDbLine
10
-51.9510841283608
20
7.95728421017050
30
0.000000000000000
11
-51.8510841283608
21
7.92007878584466
31
0.000000000000000
  0
LINE
  5
F1034E
330
F1034F
100
AcDbEntity
8
Geo
100
AcDbLine
10
-51.8510841283608
20
7.92007878584466
30
0.000000000000000
11
-51.7510841283608
21
7.88255572002563
31
0.000000000000000
  0
LINE
  5
F10350
330
F10351
100
AcDbEntity
8
Geo
100
AcDbLine
10
-51.7510841283608
20
7.88255572002563
30
0.000000000000000
11
-51.6510841283608
21
7.84471696703125
31
0.000000000000000
  0
LINE
  5
F10352
330
F10353
100
AcDbEntity
8
Geo
100
AcDbLine
10
-51.6510841283608
20
7.84471696703125
30
0.000000000000000
11
-51.5510841283608
21
7.80656449762136
31
0.000000000000000
  0
LINE
  5
F10354
330
F10355
100
AcDbEntity
8
Geo
100
AcDbLine
10
-51.5510841283608
20
7.80656449762136
30
0.000000000000000
11
-51.4510841283608
21
7.76810029889512
31
0.000000000000000
  0
LINE
  5
F10356
330
F10357
100
AcDbEntity
8
Geo
100
AcDbLine
10
-51.4510841283608
20
7.76810029889512
30
0.000000000000000
11
-51.3510841283608
21
7.72932637418751
31
0.000000000000000
  0
LINE
  5
F10358
330
F10359
100
AcDbEntity
8
Geo
100
AcDbLine
10
-51.3510841283608
20
7.72932637418751
30
0.000000000000000
11
-51.2510841283608
21
7.69024474296503
31
0.000000000000000
  0
LINE
  5
F1035A
330
F1035B
100
AcDbEntity
8
Geo
100
AcDbLine
10
-51.2510841283608
20
7.69024474296503
30
0.000000000000000
11
-51.1510841283608
21
7.65085744072044
31
0.000000000000000
  0
LINE
  5
F1035C
330
F1035D
100
AcDbEntity
8
Geo
100
AcDbLine
10
-51.1510841283608
20
7.65085744072044
30
0.000000000000000
11
-51.0510841283608
21
7.61116651886686
31
0.000000000000000
  0
LINE
  5
F1035E
330
F1035F
100
AcDbEntity
8
Geo
100
AcDbLine
10
-51.0510841283608
20
7.61116651886686
30
0.000000000000000
11
-50.9510841283608
21
7.57117404463081
31
0.000000000000000
  0
LINE
  5
F10360
330
F10361
100
AcDbEntity
8
Geo
100
AcDbLine
10
-50.9510841283608
20
7.57117404463081
30
0.000000000000000
11
-50.8510841283608
21
7.53088210094462
31
0.000000000000000
  0
LINE
  5
F10362
330
F10363
100
AcDbEntity
8
Geo
100
AcDbLine
10
-50.8510841283608
20
7.53088210094462
30
0.000000000000000
11
-50.7510841283608
21
7.49029278633793
31
0.000000000000000
  0
LINE
  5
F10364
330
F10365
100
AcDbEntity
8
Geo
100
AcDbLine
10
-50.7510841283608
20
7.49029278633793
30
0.000000000000000
11
-50.6510841283608
21
7.44940821482834
31
0.000000000000000
  0
LINE
  5
F10366
330
F10367
100
AcDbEntity
8
Geo
100
AcDbLine
10
-50.6510841283608
20
7.44940821482834
30
0.000000000000000
11
-50.5510841283608
21
7.40823051581140
31
0.000000000000000
  0
LINE
  5
F10368
330
F10369
100
AcDbEntity
8
Geo
100
AcDbLine
10
-50.5510841283608
20
7.40823051581140
30
0.000000000000000
11
-50.4510841283608
21
7.36676183394961
31
0.000000000000000
  0
LINE
  5
F1036A
330
F1036B
100
AcDbEntity
8
Geo
100
AcDbLine
10
-50.4510841283608
20
7.36676183394961
30
0.000000000000000
11
-50.3510841283608
21
7.32500432906078
31
0.000000000000000
  0
LINE
  5
F1036C
330
F1036D
100
AcDbEntity
8
Geo
100
AcDbLine
10
-50.3510841283608
20
7.32500432906078
30
0.000000000000000
11
-50.2510841283608
21
7.28296017600552
31
0.000000000000000
  0
LINE
  5
F1036E
330
F1036F
100
AcDbEntity
8
Geo
100
AcDbLine
10
-50.2510841283608
20
7.28296017600552
30
0.000000000000000
11
-50.1510841283608
21
7.24063156457396
31
0.000000000000000
  0
LINE
  5
F10370
330
F10371
100
AcDbEntity
8
Geo
100
AcDbLine
10
-50.1510841283608
20
7.24063156457396
30
0.000000000000000
11
-50.0510841283608
21
7.19802069937171
31
0.000000000000000
  0
LINE
  5
F10372
330
F10373
100
AcDbEntity
8
Geo
100
AcDbLine
10
-50.0510841283608
20
7.19802069937171
30
0.000000000000000
11
-49.9510841283608
21
7.15512979970503
31
0.000000000000000
  0
LINE
  5
F10374
330
F10375
100
AcDbEntity
8
Geo
100
AcDbLine
10
-49.9510841283608
20
7.15512979970503
30
0.000000000000000
11
-49.8510841283608
21
7.11196109946526
31
0.000000000000000
  0
LINE
  5
F10376
330
F10377
100
AcDbEntity
8
Geo
100
AcDbLine
10
-49.8510841283608
20
7.11196109946526
30
0.000000000000000
11
-49.7510841283608
21
7.06851684701244
31
0.000000000000000
  0
LINE
  5
F10378
330
F10379
100
AcDbEntity
8
Geo
100
AcDbLine
10
-49.7510841283608
20
7.06851684701244
30
0.000000000000000
11
-49.6510841283608
21
7.02479930505822
31
0.000000000000000
  0
LINE
  5
F1037A
330
F1037B
100
AcDbEntity
8
Geo
100
AcDbLine
10
-49.6510841283608
20
7.02479930505822
30
0.000000000000000
11
-49.5510841283608
21
6.98081075054805
31
0.000000000000000
  0
LINE
  5
F1037C
330
F1037D
100
AcDbEntity
8
Geo
100
AcDbLine
10
-49.5510841283608
20
6.98081075054805
30
0.000000000000000
11
-49.4510841283608
21
6.93655347454252
31
0.000000000000000
  0
LINE
  5
F1037E
330
F1037F
100
AcDbEntity
8
Geo
100
AcDbLine
10
-49.4510841283608
20
6.93655347454252
30
0.000000000000000
11
-49.3510841283608
21
6.89202978209808
31
0.000000000000000
  0
LINE
  5
F10380
330
F10381
100
AcDbEntity
8
Geo
100
AcDbLine
10
-49.3510841283608
20
6.89202978209808
30
0.000000000000000
11
-49.2510841283608
21
6.84724199214698
31
0.000000000000000
  0
LINE
  5
F10382
330
F10383
100
AcDbEntity
8
Geo
100
AcDbLine
10
-49.2510841283608
20
6.84724199214698
30
0.000000000000000
11
-49.1510841283608
21
6.80219243737650
31
0.000000000000000
  0
LINE
  5
F10384
330
F10385
100
AcDbEntity
8
Geo
100
AcDbLine
10
-49.1510841283608
20
6.80219243737650
30
0.000000000000000
11
-49.0510841283608
21
6.75688346410743
31
0.000000000000000
  0
LINE
  5
F10386
330
F10387
100
AcDbEntity
8
Geo
100
AcDbLine
10
-49.0510841283608
20
6.75688346410743
30
0.000000000000000
11
-48.9510841283608
21
6.71131743217188
31
0.000000000000000
  0
LINE
  5
F10388
330
F10389
100
AcDbEntity
8
Geo
100
AcDbLine
10
-48.9510841283608
20
6.71131743217188
30
0.000000000000000
11
-48.8510841283608
21
6.66549671479038
31
0.000000000000000
  0
LINE
  5
F1038A
330
F1038B
100
AcDbEntity
8
Geo
100
AcDbLine
10
-48.8510841283608
20
6.66549671479038
30
0.000000000000000
11
-48.7510841283608
21
6.61942369844828
31
0.000000000000000
  0
LINE
  5
F1038C
330
F1038D
100
AcDbEntity
8
Geo
100
AcDbLine
10
-48.7510841283608
20
6.61942369844828
30
0.000000000000000
11
-48.6510841283608
21
6.57310078277142
31
0.000000000000000
  0
LINE
  5
F1038E
330
F1038F
100
AcDbEntity
8
Geo
100
AcDbLine
10
-48.6510841283608
20
6.57310078277142
30
0.000000000000000
11
-48.5510841283608
21
6.52653038040119
31
0.000000000000000
  0
LINE
  5
F10390
330
F10391
100
AcDbEntity
8
Geo
100
AcDbLine
10
-48.5510841283608
20
6.52653038040119
30
0.000000000000000
11
-48.4510841283608
21
6.47971491686885
31
0.000000000000000
  0
LINE
  5
F10392
330
F10393
100
AcDbEntity
8
Geo
100
AcDbLine
10
-48.4510841283608
20
6.47971491686885
30
0.000000000000000
11
-48.3510841283608
21
6.43265683046922
31
0.000000000000000
  0
LINE
  5
F10394
330
F10395
100
AcDbEntity
8
Geo
100
AcDbLine
10
-48.3510841283608
20
6.43265683046922
30
0.000000000000000
11
-48.2510841283608
21
6.38535857213365
31
0.000000000000000
  0
LINE
  5
F10396
330
F10397
100
AcDbEntity
8
Geo
100
AcDbLine
10
-48.2510841283608
20
6.38535857213365
30
0.000000000000000
11
-48.1510841283608
21
6.33782260530241
31
0.000000000000000
  0
LINE
  5
F10398
330
F10399
100
AcDbEntity
8
Geo
100
AcDbLine
10
-48.1510841283608
20
6.33782260530241
30
0.000000000000000
11
-48.0510841283608
21
6.29005140579636
31
0.000000000000000
  0
LINE
  5
F1039A
330
F1039B
100
AcDbEntity
8
Geo
100
AcDbLine
10
-48.0510841283608
20
6.29005140579636
30
0.000000000000000
11
-47.9510841283608
21
6.24204746168800
31
0.000000000000000
  0
LINE
  5
F1039C
330
F1039D
100
AcDbEntity
8
Geo
100
AcDbLine
10
-47.9510841283608
20
6.24204746168800
30
0.000000000000000
11
-47.8510841283608
21
6.19381327317192
31
0.000000000000000
  0
LINE
  5
F1039E
330
F1039F
100
AcDbEntity
8
Geo
100
AcDbLine
10
-47.8510841283608
20
6.19381327317192
30
0.000000000000000
11
-47.7510841283608
21
6.14535135243451
31
0.000000000000000
  0
LINE
  5
F103A0
330
F103A1
100
AcDbEntity
8
Geo
100
AcDbLine
10
-47.7510841283608
20
6.14535135243451
30
0.000000000000000
11
-47.6510841283608
21
6.09666422352320
31
0.000000000000000
  0
LINE
  5
F103A2
330
F103A3
100
AcDbEntity
8
Geo
100
AcDbLine
10
-47.6510841283608
20
6.09666422352320
30
0.000000000000000
11
-47.5510841283608
21
6.04775442221496
31
0.000000000000000
  0
LINE
  5
F103A4
330
F103A5
100
AcDbEntity
8
Geo
100
AcDbLine
10
-47.5510841283608
20
6.04775442221496
30
0.000000000000000
11
-47.4510841283608
21
5.99862449588419
31
0.000000000000000
  0
LINE
  5
F103A6
330
F103A7
100
AcDbEntity
8
Geo
100
AcDbLine
10
-47.4510841283608
20
5.99862449588419
30
0.000000000000000
11
-47.3510841283608
21
5.94927700337014
31
0.000000000000000
  0
LINE
  5
F103A8
330
F103A9
100
AcDbEntity
8
Geo
100
AcDbLine
10
-47.3510841283608
20
5.94927700337014
30
0.000000000000000
11
-47.2510841283608
21
5.89971451484354
31
0.000000000000000
  0
LINE
  5
F103AA
330
F103AB
100
AcDbEntity
8
Geo
100
AcDbLine
10
-47.2510841283608
20
5.89971451484354
30
0.000000000000000
11
-47.1510841283608
21
5.84993961167281
31
0.000000000000000
  0
LINE
  5
F103AC
330
F103AD
100
AcDbEntity
8
Geo
100
AcDbLine
10
-47.1510841283608
20
5.84993961167281
30
0.000000000000000
11
-47.0510841283608
21
5.79995488628956
31
0.000000000000000
  0
LINE
  5
F103AE
330
F103AF
100
AcDbEntity
8
Geo
100
AcDbLine
10
-47.0510841283608
20
5.79995488628956
30
0.000000000000000
11
-46.9510841283608
21
5.74976294205360
31
0.000000000000000
  0
LINE
  5
F103B0
330
F103B1
100
AcDbEntity
8
Geo
100
AcDbLine
10
-46.9510841283608
20
5.74976294205360
30
0.000000000000000
11
-46.8510841283608
21
5.69936639311737
31
0.000000000000000
  0
LINE
  5
F103B2
330
F103B3
100
AcDbEntity
8
Geo
100
AcDbLine
10
-46.8510841283608
20
5.69936639311737
30
0.000000000000000
11
-46.7510841283608
21
5.64876786428971
31
0.000000000000000
  0
LINE
  5
F103B4
330
F103B5
100
AcDbEntity
8
Geo
100
AcDbLine
10
-46.7510841283608
20
5.64876786428971
30
0.000000000000000
11
-46.6510841283608
21
5.59796999089924
31
0.000000000000000
  0
LINE
  5
F103B6
330
F103B7
100
AcDbEntity
8
Geo
100
AcDbLine
10
-46.6510841283608
20
5.59796999089924
30
0.000000000000000
11
-46.5510841283608
21
5.54697541865703
31
0.000000000000000
  0
LINE
  5
F103B8
330
F103B9
100
AcDbEntity
8
Geo
100
AcDbLine
10
-46.5510841283608
20
5.54697541865703
30
0.000000000000000
11
-46.4510841283608
21
5.49578680351888
31
0.000000000000000
  0
LINE
  5
F103BA
330
F103BB
100
AcDbEntity
8
Geo
100
AcDbLine
10
-46.4510841283608
20
5.49578680351888
30
0.000000000000000
11
-46.3510841283608
21
5.44440681154692
31
0.000000000000000
  0
LINE
  5
F103BC
330
F103BD
100
AcDbEntity
8
Geo
100
AcDbLine
10
-46.3510841283608
20
5.44440681154692
30
0.000000000000000
11
-46.2510841283608
21
5.39283811877077
31
0.000000000000000
  0
LINE
  5
F103BE
330
F103BF
100
AcDbEntity
8
Geo
100
AcDbLine
10
-46.2510841283608
20
5.39283811877077
30
0.000000000000000
11
-46.1510841283608
21
5.34108341104820
31
0.000000000000000
  0
LINE
  5
F103C0
330
F103C1
100
AcDbEntity
8
Geo
100
AcDbLine
10
-46.1510841283608
20
5.34108341104820
30
0.000000000000000
11
-46.0510841283608
21
5.28914538392520
31
0.000000000000000
  0
LINE
  5
F103C2
330
F103C3
100
AcDbEntity
8
Geo
100
AcDbLine
10
-46.0510841283608
20
5.28914538392520
30
0.000000000000000
11
-45.9510841283608
21
5.23702674249560
31
0.000000000000000
  0
LINE
  5
F103C4
330
F103C5
100
AcDbEntity
8
Geo
100
AcDbLine
10
-45.9510841283608
20
5.23702674249560
30
0.000000000000000
11
-45.8510841283608
21
5.18473020126021
31
0.000000000000000
  0
LINE
  5
F103C6
330
F103C7
100
AcDbEntity
8
Geo
100
AcDbLine
10
-45.8510841283608
20
5.18473020126021
30
0.000000000000000
11
-45.7510841283608
21
5.13225848398539
31
0.000000000000000
  0
LINE
  5
F103C8
330
F103C9
100
AcDbEntity
8
Geo
100
AcDbLine
10
-45.7510841283608
20
5.13225848398539
30
0.000000000000000
11
-45.6510841283608
21
5.07961432356121
31
0.000000000000000
  0
LINE
  5
F103CA
330
F103CB
100
AcDbEntity
8
Geo
100
AcDbLine
10
-45.6510841283608
20
5.07961432356121
30
0.000000000000000
11
-45.5510841283608
21
5.02680046185914
31
0.000000000000000
  0
LINE
  5
F103CC
330
F103CD
100
AcDbEntity
8
Geo
100
AcDbLine
10
-45.5510841283608
20
5.02680046185914
30
0.000000000000000
11
-45.4510841283608
21
4.97381964958920
31
0.000000000000000
  0
LINE
  5
F103CE
330
F103CF
100
AcDbEntity
8
Geo
100
AcDbLine
10
-45.4510841283608
20
4.97381964958920
30
0.000000000000000
11
-45.3510841283608
21
4.92067464615672
31
0.000000000000000
  0
LINE
  5
F103D0
330
F103D1
100
AcDbEntity
8
Geo
100
AcDbLine
10
-45.3510841283608
20
4.92067464615672
30
0.000000000000000
11
-45.2510841283608
21
4.86736821951860
31
0.000000000000000
  0
LINE
  5
F103D2
330
F103D3
100
AcDbEntity
8
Geo
100
AcDbLine
10
-45.2510841283608
20
4.86736821951860
30
0.000000000000000
11
-45.1510841283608
21
4.81390314603920
31
0.000000000000000
  0
LINE
  5
F103D4
330
F103D5
100
AcDbEntity
8
Geo
100
AcDbLine
10
-45.1510841283608
20
4.81390314603920
30
0.000000000000000
11
-45.0510841283608
21
4.76028221034567
31
0.000000000000000
  0
LINE
  5
F103D6
330
F103D7
100
AcDbEntity
8
Geo
100
AcDbLine
10
-45.0510841283608
20
4.76028221034567
30
0.000000000000000
11
-44.9510841283608
21
4.70650820518295
31
0.000000000000000
  0
LINE
  5
F103D8
330
F103D9
100
AcDbEntity
8
Geo
100
AcDbLine
10
-44.9510841283608
20
4.70650820518295
30
0.000000000000000
11
-44.8510841283608
21
4.65258393126832
31
0.000000000000000
  0
LINE
  5
F103DA
330
F103DB
100
AcDbEntity
8
Geo
100
AcDbLine
10
-44.8510841283608
20
4.65258393126832
30
0.000000000000000
11
-44.7510841283608
21
4.59851219714552
31
0.000000000000000
  0
LINE
  5
F103DC
330
F103DD
100
AcDbEntity
8
Geo
100
AcDbLine
10
-44.7510841283608
20
4.59851219714552
30
0.000000000000000
11
-44.6510841283608
21
4.54429581903850
31
0.000000000000000
  0
LINE
  5
F103DE
330
F103DF
100
AcDbEntity
8
Geo
100
AcDbLine
10
-44.6510841283608
20
4.54429581903850
30
0.000000000000000
11
-44.5510841283608
21
4.48993762070467
31
0.000000000000000
  0
LINE
  5
F103E0
330
F103E1
100
AcDbEntity
8
Geo
100
AcDbLine
10
-44.5510841283608
20
4.48993762070467
30
0.000000000000000
11
-44.4510841283608
21
4.43544043328793
31
0.000000000000000
  0
LINE
  5
F103E2
330
F103E3
100
AcDbEntity
8
Geo
100
AcDbLine
10
-44.4510841283608
20
4.43544043328793
30
0.000000000000000
11
-44.3510841283608
21
4.38080709517111
31
0.000000000000000
  0
LINE
  5
F103E4
330
F103E5
100
AcDbEntity
8
Geo
100
AcDbLine
10
-44.3510841283608
20
4.38080709517111
30
0.000000000000000
11
-44.2510841283608
21
4.32604045182825
31
0.000000000000000
  0
LINE
  5
F103E6
330
F103E7
100
AcDbEntity
8
Geo
100
AcDbLine
10
-44.2510841283608
20
4.32604045182825
30
0.000000000000000
11
-44.1510841283608
21
4.27114335567629
31
0.000000000000000
  0
LINE
  5
F103E8
330
F103E9
100
AcDbEntity
8
Geo
100
AcDbLine
10
-44.1510841283608
20
4.27114335567629
30
0.000000000000000
11
-44.0510841283608
21
4.21611866592659
31
0.000000000000000
  0
LINE
  5
F103EA
330
F103EB
100
AcDbEntity
8
Geo
100
AcDbLine
10
-44.0510841283608
20
4.21611866592659
30
0.000000000000000
11
-43.9510841283608
21
4.16096924843596
31
0.000000000000000
  0
LINE
  5
F103EC
330
F103ED
100
AcDbEntity
8
Geo
100
AcDbLine
10
-43.9510841283608
20
4.16096924843596
30
0.000000000000000
11
-43.8510841283608
21
4.10569797555743
31
0.000000000000000
  0
LINE
  5
F103EE
330
F103EF
100
AcDbEntity
8
Geo
100
AcDbLine
10
-43.8510841283608
20
4.10569797555743
30
0.000000000000000
11
-43.7510841283608
21
4.05030772599064
31
0.000000000000000
  0
LINE
  5
F103F0
330
F103F1
100
AcDbEntity
8
Geo
100
AcDbLine
10
-43.7510841283608
20
4.05030772599064
30
0.000000000000000
11
-43.6510841283608
21
3.99480138463189
31
0.000000000000000
  0
LINE
  5
F103F2
330
F103F3
100
AcDbEntity
8
Geo
100
AcDbLine
10
-43.6510841283608
20
3.99480138463189
30
0.000000000000000
11
-43.5510841283608
21
3.93918184242392
31
0.000000000000000
  0
LINE
  5
F103F4
330
F103F5
100
AcDbEntity
8
Geo
100
AcDbLine
10
-43.5510841283608
20
3.93918184242392
30
0.000000000000000
11
-43.4510841283608
21
3.88345199620532
31
0.000000000000000
  0
LINE
  5
F103F6
330
F103F7
100
AcDbEntity
8
Geo
100
AcDbLine
10
-43.4510841283608
20
3.88345199620532
30
0.000000000000000
11
-43.3510841283609
21
3.82761474855963
31
0.000000000000000
  0
LINE
  5
F103F8
330
F103F9
100
AcDbEntity
8
Geo
100
AcDbLine
10
-43.3510841283609
20
3.82761474855963
30
0.000000000000000
11
-43.2510841283609
21
3.77167300766423
31
0.000000000000000
  0
LINE
  5
F103FA
330
F103FB
100
AcDbEntity
8
Geo
100
AcDbLine
10
-43.2510841283609
20
3.77167300766423
30
0.000000000000000
11
-43.1510841283608
21
3.71562968713879
31
0.000000000000000
  0
LINE
  5
F103FC
330
F103FD
100
AcDbEntity
8
Geo
100
AcDbLine
10
-43.1510841283608
20
3.71562968713879
30
0.000000000000000
11
-43.0510841283608
21
3.65948770589361
31
0.000000000000000
  0
LINE
  5
F103FE
330
F103FF
100
AcDbEntity
8
Geo
100
AcDbLine
10
-43.0510841283608
20
3.65948770589361
30
0.000000000000000
11
-42.9510841283608
21
3.60324998797750
31
0.000000000000000
  0
LINE
  5
F10400
330
F10401
100
AcDbEntity
8
Geo
100
AcDbLine
10
-42.9510841283608
20
3.60324998797750
30
0.000000000000000
11
-42.8510841283609
21
3.54691946242557
31
0.000000000000000
  0
LINE
  5
F10402
330
F10403
100
AcDbEntity
8
Geo
100
AcDbLine
10
-42.8510841283609
20
3.54691946242557
30
0.000000000000000
11
-42.7510841283609
21
3.49049906310662
31
0.000000000000000
  0
LINE
  5
F10404
330
F10405
100
AcDbEntity
8
Geo
100
AcDbLine
10
-42.7510841283609
20
3.49049906310662
30
0.000000000000000
11
-42.6510841283608
21
3.43399172857035
31
0.000000000000000
  0
LINE
  5
F10406
330
F10407
100
AcDbEntity
8
Geo
100
AcDbLine
10
-42.6510841283608
20
3.43399172857035
30
0.000000000000000
11
-42.5510841283609
21
3.37740040189435
31
0.000000000000000
  0
LINE
  5
F10408
330
F10409
100
AcDbEntity
8
Geo
100
AcDbLine
10
-42.5510841283609
20
3.37740040189435
30
0.000000000000000
11
-42.4510841283609
21
3.32072803053074
31
0.000000000000000
  0
LINE
  5
F1040A
330
F1040B
100
AcDbEntity
8
Geo
100
AcDbLine
10
-42.4510841283609
20
3.32072803053074
30
0.000000000000000
11
-42.3510841283609
21
3.26397756615272
31
0.000000000000000
  0
LINE
  5
F1040C
330
F1040D
100
AcDbEntity
8
Geo
100
AcDbLine
10
-42.3510841283609
20
3.26397756615272
30
0.000000000000000
11
-42.2510841283609
21
3.20715196450082
31
0.000000000000000
  0
LINE
  5
F1040E
330
F1040F
100
AcDbEntity
8
Geo
100
AcDbLine
10
-57.2510841283608
20
-0.735423077161494
30
0.000000000000000
11
-57.1510841283608
21
-0.763900759074465
31
0.000000000000000
  0
LINE
  5
F10410
330
F10411
100
AcDbEntity
8
Geo
100
AcDbLine
10
-57.1510841283608
20
-0.763900759074465
30
0.000000000000000
11
-57.0510841283608
21
-0.794004371982215
31
0.000000000000000
  0
LINE
  5
F10412
330
F10413
100
AcDbEntity
8
Geo
100
AcDbLine
10
-57.0510841283608
20
-0.794004371982215
30
0.000000000000000
11
-56.9510841283608
21
-0.825717944566448
31
0.000000000000000
  0
LINE
  5
F10414
330
F10415
100
AcDbEntity
8
Geo
100
AcDbLine
10
-56.9510841283608
20
-0.825717944566448
30
0.000000000000000
11
-56.8510841283608
21
-0.869376914138900
31
0.000000000000000
  0
LINE
  5
F10416
330
F10417
100
AcDbEntity
8
Geo
100
AcDbLine
10
-56.8510841283608
20
-0.869376914138900
30
0.000000000000000
11
-56.7510841283608
21
-0.923677811329669
31
0.000000000000000
  0
LINE
  5
F10418
330
F10419
100
AcDbEntity
8
Geo
100
AcDbLine
10
-56.7510841283608
20
-0.923677811329669
30
0.000000000000000
11
-56.6510841283608
21
-0.977835739690055
31
0.000000000000000
  0
LINE
  5
F1041A
330
F1041B
100
AcDbEntity
8
Geo
100
AcDbLine
10
-56.6510841283608
20
-0.977835739690055
30
0.000000000000000
11
-56.5510841283608
21
-1.03184787850686
31
0.000000000000000
  0
LINE
  5
F1041C
330
F1041D
100
AcDbEntity
8
Geo
100
AcDbLine
10
-56.5510841283608
20
-1.03184787850686
30
0.000000000000000
11
-56.4510841283608
21
-1.08571141466008
31
0.000000000000000
  0
LINE
  5
F1041E
330
F1041F
100
AcDbEntity
8
Geo
100
AcDbLine
10
-56.4510841283608
20
-1.08571141466008
30
0.000000000000000
11
-56.3510841283608
21
-1.13942354276936
31
0.000000000000000
  0
LINE
  5
F10420
330
F10421
100
AcDbEntity
8
Geo
100
AcDbLine
10
-56.3510841283608
20
-1.13942354276936
30
0.000000000000000
11
-56.2510841283608
21
-1.19298146534019
31
0.000000000000000
  0
LINE
  5
F10422
330
F10423
100
AcDbEntity
8
Geo
100
AcDbLine
10
-56.2510841283608
20
-1.19298146534019
30
0.000000000000000
11
-56.1510841283608
21
-1.24638239290952
31
0.000000000000000
  0
LINE
  5
F10424
330
F10425
100
AcDbEntity
8
Geo
100
AcDbLine
10
-56.1510841283608
20
-1.24638239290952
30
0.000000000000000
11
-56.0510841283608
21
-1.29962354419114
31
0.000000000000000
  0
LINE
  5
F10426
330
F10427
100
AcDbEntity
8
Geo
100
AcDbLine
10
-56.0510841283608
20
-1.29962354419114
30
0.000000000000000
11
-55.9510841283608
21
-1.35270214622043
31
0.000000000000000
  0
LINE
  5
F10428
330
F10429
100
AcDbEntity
8
Geo
100
AcDbLine
10
-55.9510841283608
20
-1.35270214622043
30
0.000000000000000
11
-55.8510841283608
21
-1.40561543449888
31
0.000000000000000
  0
LINE
  5
F1042A
330
F1042B
100
AcDbEntity
8
Geo
100
AcDbLine
10
-55.8510841283608
20
-1.40561543449888
30
0.000000000000000
11
-55.7510841283608
21
-1.45836065313802
31
0.000000000000000
  0
LINE
  5
F1042C
330
F1042D
100
AcDbEntity
8
Geo
100
AcDbLine
10
-55.7510841283608
20
-1.45836065313802
30
0.000000000000000
11
-55.6510841283608
21
-1.51093505500297
31
0.000000000000000
  0
LINE
  5
F1042E
330
F1042F
100
AcDbEntity
8
Geo
100
AcDbLine
10
-55.6510841283608
20
-1.51093505500297
30
0.000000000000000
11
-55.5510841283608
21
-1.56333590185551
31
0.000000000000000
  0
LINE
  5
F10430
330
F10431
100
AcDbEntity
8
Geo
100
AcDbLine
10
-55.5510841283608
20
-1.56333590185551
30
0.000000000000000
11
-55.4510841283608
21
-1.61556046449672
31
0.000000000000000
  0
LINE
  5
F10432
330
F10433
100
AcDbEntity
8
Geo
100
AcDbLine
10
-55.4510841283608
20
-1.61556046449672
30
0.000000000000000
11
-55.3510841283608
21
-1.66760602290909
31
0.000000000000000
  0
LINE
  5
F10434
330
F10435
100
AcDbEntity
8
Geo
100
AcDbLine
10
-55.3510841283608
20
-1.66760602290909
30
0.000000000000000
11
-55.2510841283608
21
-1.71946986639823
31
0.000000000000000
  0
LINE
  5
F10436
330
F10437
100
AcDbEntity
8
Geo
100
AcDbLine
10
-55.2510841283608
20
-1.71946986639823
30
0.000000000000000
11
-55.1510841283608
21
-1.77114929373401
31
0.000000000000000
  0
LINE
  5
F10438
330
F10439
100
AcDbEntity
8
Geo
100
AcDbLine
10
-55.1510841283608
20
-1.77114929373401
30
0.000000000000000
11
-55.0510841283608
21
-1.82264161329128
31
0.000000000000000
  0
LINE
  5
F1043A
330
F1043B
100
AcDbEntity
8
Geo
100
AcDbLine
10
-55.0510841283608
20
-1.82264161329128
30
0.000000000000000
11
-54.9510841283608
21
-1.87394414319002
31
0.000000000000000
  0
LINE
  5
F1043C
330
F1043D
100
AcDbEntity
8
Geo
100
AcDbLine
10
-54.9510841283608
20
-1.87394414319002
30
0.000000000000000
11
-54.8510841283608
21
-1.92505421143508
31
0.000000000000000
  0
LINE
  5
F1043E
330
F1043F
100
AcDbEntity
8
Geo
100
AcDbLine
10
-54.8510841283608
20
-1.92505421143508
30
0.000000000000000
11
-54.7510841283608
21
-1.97596915605528
31
0.000000000000000
  0
LINE
  5
F10440
330
F10441
100
AcDbEntity
8
Geo
100
AcDbLine
10
-54.7510841283608
20
-1.97596915605528
30
0.000000000000000
11
-54.6510841283608
21
-2.02668632524210
31
0.000000000000000
  0
LINE
  5
F10442
330
F10443
100
AcDbEntity
8
Geo
100
AcDbLine
10
-54.6510841283608
20
-2.02668632524210
30
0.000000000000000
11
-54.5510841283608
21
-2.07720307748778
31
0.000000000000000
  0
LINE
  5
F10444
330
F10445
100
AcDbEntity
8
Geo
100
AcDbLine
10
-54.5510841283608
20
-2.07720307748778
30
0.000000000000000
11
-54.4510841283608
21
-2.12751678172289
31
0.000000000000000
  0
LINE
  5
F10446
330
F10447
100
AcDbEntity
8
Geo
100
AcDbLine
10
-54.4510841283608
20
-2.12751678172289
30
0.000000000000000
11
-54.3510841283608
21
-2.17762481745338
31
0.000000000000000
  0
LINE
  5
F10448
330
F10449
100
AcDbEntity
8
Geo
100
AcDbLine
10
-54.3510841283608
20
-2.17762481745338
30
0.000000000000000
11
-54.2510841283608
21
-2.22752457489705
31
0.000000000000000
  0
LINE
  5
F1044A
330
F1044B
100
AcDbEntity
8
Geo
100
AcDbLine
10
-54.2510841283608
20
-2.22752457489705
30
0.000000000000000
11
-54.1510841283608
21
-2.27721345511947
31
0.000000000000000
  0
LINE
  5
F1044C
330
F1044D
100
AcDbEntity
8
Geo
100
AcDbLine
10
-54.1510841283608
20
-2.27721345511947
30
0.000000000000000
11
-54.0510841283608
21
-2.32668887016936
31
0.000000000000000
  0
LINE
  5
F1044E
330
F1044F
100
AcDbEntity
8
Geo
100
AcDbLine
10
-54.0510841283608
20
-2.32668887016936
30
0.000000000000000
11
-53.9510841283608
21
-2.37594824321338
31
0.000000000000000
  0
LINE
  5
F10450
330
F10451
100
AcDbEntity
8
Geo
100
AcDbLine
10
-53.9510841283608
20
-2.37594824321338
30
0.000000000000000
11
-53.8510841283608
21
-2.42498900867032
31
0.000000000000000
  0
LINE
  5
F10452
330
F10453
100
AcDbEntity
8
Geo
100
AcDbLine
10
-53.8510841283608
20
-2.42498900867032
30
0.000000000000000
11
-53.7510841283608
21
-2.47380861234473
31
0.000000000000000
  0
LINE
  5
F10454
330
F10455
100
AcDbEntity
8
Geo
100
AcDbLine
10
-53.7510841283608
20
-2.47380861234473
30
0.000000000000000
11
-53.6510841283608
21
-2.52240451155995
31
0.000000000000000
  0
LINE
  5
F10456
330
F10457
100
AcDbEntity
8
Geo
100
AcDbLine
10
-53.6510841283608
20
-2.52240451155995
30
0.000000000000000
11
-53.5510841283608
21
-2.57077417529055
31
0.000000000000000
  0
LINE
  5
F10458
330
F10459
100
AcDbEntity
8
Geo
100
AcDbLine
10
-53.5510841283608
20
-2.57077417529055
30
0.000000000000000
11
-53.4510841283608
21
-2.61891508429415
31
0.000000000000000
  0
LINE
  5
F1045A
330
F1045B
100
AcDbEntity
8
Geo
100
AcDbLine
10
-53.4510841283608
20
-2.61891508429415
30
0.000000000000000
11
-53.3510841283608
21
-2.66682473124261
31
0.000000000000000
  0
LINE
  5
F1045C
330
F1045D
100
AcDbEntity
8
Geo
100
AcDbLine
10
-53.3510841283608
20
-2.66682473124261
30
0.000000000000000
11
-53.2510841283608
21
-2.71450062085266
31
0.000000000000000
  0
LINE
  5
F1045E
330
F1045F
100
AcDbEntity
8
Geo
100
AcDbLine
10
-53.2510841283608
20
-2.71450062085266
30
0.000000000000000
11
-53.1510841283608
21
-2.76194027001582
31
0.000000000000000
  0
LINE
  5
F10460
330
F10461
100
AcDbEntity
8
Geo
100
AcDbLine
10
-53.1510841283608
20
-2.76194027001582
30
0.000000000000000
11
-53.0510841283608
21
-2.80914120792776
31
0.000000000000000
  0
LINE
  5
F10462
330
F10463
100
AcDbEntity
8
Geo
100
AcDbLine
10
-53.0510841283608
20
-2.80914120792776
30
0.000000000000000
11
-52.9510841283608
21
-2.85610097621695
31
0.000000000000000
  0
LINE
  5
F10464
330
F10465
100
AcDbEntity
8
Geo
100
AcDbLine
10
-52.9510841283608
20
-2.85610097621695
30
0.000000000000000
11
-52.8510841283608
21
-2.90281712907277
31
0.000000000000000
  0
LINE
  5
F10466
330
F10467
100
AcDbEntity
8
Geo
100
AcDbLine
10
-52.8510841283608
20
-2.90281712907277
30
0.000000000000000
11
-52.7510841283608
21
-2.94928723337280
31
0.000000000000000
  0
LINE
  5
F10468
330
F10469
100
AcDbEntity
8
Geo
100
AcDbLine
10
-52.7510841283608
20
-2.94928723337280
30
0.000000000000000
11
-52.6510841283608
21
-2.99550886880961
31
0.000000000000000
  0
LINE
  5
F1046A
330
F1046B
100
AcDbEntity
8
Geo
100
AcDbLine
10
-52.6510841283608
20
-2.99550886880961
30
0.000000000000000
11
-52.5510841283608
21
-3.04147962801681
31
0.000000000000000
  0
LINE
  5
F1046C
330
F1046D
100
AcDbEntity
8
Geo
100
AcDbLine
10
-52.5510841283608
20
-3.04147962801681
30
0.000000000000000
11
-52.4510841283608
21
-3.08719711669441
31
0.000000000000000
  0
LINE
  5
F1046E
330
F1046F
100
AcDbEntity
8
Geo
100
AcDbLine
10
-52.4510841283608
20
-3.08719711669441
30
0.000000000000000
11
-52.3510841283608
21
-3.13265895373356
31
0.000000000000000
  0
LINE
  5
F10470
330
F10471
100
AcDbEntity
8
Geo
100
AcDbLine
10
-52.3510841283608
20
-3.13265895373356
30
0.000000000000000
11
-52.2510841283608
21
-3.17786277134050
31
0.000000000000000
  0
LINE
  5
F10472
330
F10473
100
AcDbEntity
8
Geo
100
AcDbLine
10
-52.2510841283608
20
-3.17786277134050
30
0.000000000000000
11
-52.1510841283608
21
-3.22280621515997
31
0.000000000000000
  0
LINE
  5
F10474
330
F10475
100
AcDbEntity
8
Geo
100
AcDbLine
10
-52.1510841283608
20
-3.22280621515997
30
0.000000000000000
11
-52.0510841283608
21
-3.26748694439775
31
0.000000000000000
  0
LINE
  5
F10476
330
F10477
100
AcDbEntity
8
Geo
100
AcDbLine
10
-52.0510841283608
20
-3.26748694439775
30
0.000000000000000
11
-51.9510841283608
21
-3.31190263194263
31
0.000000000000000
  0
LINE
  5
F10478
330
F10479
100
AcDbEntity
8
Geo
100
AcDbLine
10
-51.9510841283608
20
-3.31190263194263
30
0.000000000000000
11
-51.8510841283608
21
-3.35605096448759
31
0.000000000000000
  0
LINE
  5
F1047A
330
F1047B
100
AcDbEntity
8
Geo
100
AcDbLine
10
-51.8510841283608
20
-3.35605096448759
30
0.000000000000000
11
-51.7510841283608
21
-3.39992964265029
31
0.000000000000000
  0
LINE
  5
F1047C
330
F1047D
100
AcDbEntity
8
Geo
100
AcDbLine
10
-51.7510841283608
20
-3.39992964265029
30
0.000000000000000
11
-51.6510841283608
21
-3.44353638109283
31
0.000000000000000
  0
LINE
  5
F1047E
330
F1047F
100
AcDbEntity
8
Geo
100
AcDbLine
10
-51.6510841283608
20
-3.44353638109283
30
0.000000000000000
11
-51.5510841283608
21
-3.48686890864078
31
0.000000000000000
  0
LINE
  5
F10480
330
F10481
100
AcDbEntity
8
Geo
100
AcDbLine
10
-51.5510841283608
20
-3.48686890864078
30
0.000000000000000
11
-51.4510841283608
21
-3.52992496840144
31
0.000000000000000
  0
LINE
  5
F10482
330
F10483
100
AcDbEntity
8
Geo
100
AcDbLine
10
-51.4510841283608
20
-3.52992496840144
30
0.000000000000000
11
-51.3510841283608
21
-3.57270231788145
31
0.000000000000000
  0
LINE
  5
F10484
330
F10485
100
AcDbEntity
8
Geo
100
AcDbLine
10
-51.3510841283608
20
-3.57270231788145
30
0.000000000000000
11
-51.2510841283608
21
-3.61519872910352
31
0.000000000000000
  0
LINE
  5
F10486
330
F10487
100
AcDbEntity
8
Geo
100
AcDbLine
10
-51.2510841283608
20
-3.61519872910352
30
0.000000000000000
11
-51.1510841283608
21
-3.65741198872251
31
0.000000000000000
  0
LINE
  5
F10488
330
F10489
100
AcDbEntity
8
Geo
100
AcDbLine
10
-51.1510841283608
20
-3.65741198872251
30
0.000000000000000
11
-51.0510841283608
21
-3.69933989814068
31
0.000000000000000
  0
LINE
  5
F1048A
330
F1048B
100
AcDbEntity
8
Geo
100
AcDbLine
10
-51.0510841283608
20
-3.69933989814068
30
0.000000000000000
11
-50.9510841283608
21
-3.74098027362223
31
0.000000000000000
  0
LINE
  5
F1048C
330
F1048D
100
AcDbEntity
8
Geo
100
AcDbLine
10
-50.9510841283608
20
-3.74098027362223
30
0.000000000000000
11
-50.8510841283608
21
-3.78233094640703
31
0.000000000000000
  0
LINE
  5
F1048E
330
F1048F
100
AcDbEntity
8
Geo
100
AcDbLine
10
-50.8510841283608
20
-3.78233094640703
30
0.000000000000000
11
-50.7510841283608
21
-3.82338976282353
31
0.000000000000000
  0
LINE
  5
F10490
330
F10491
100
AcDbEntity
8
Geo
100
AcDbLine
10
-50.7510841283608
20
-3.82338976282353
30
0.000000000000000
11
-50.6510841283608
21
-3.86415458440101
31
0.000000000000000
  0
LINE
  5
F10492
330
F10493
100
AcDbEntity
8
Geo
100
AcDbLine
10
-50.6510841283608
20
-3.86415458440101
30
0.000000000000000
11
-50.5510841283608
21
-3.90462328798089
31
0.000000000000000
  0
LINE
  5
F10494
330
F10495
100
AcDbEntity
8
Geo
100
AcDbLine
10
-50.5510841283608
20
-3.90462328798089
30
0.000000000000000
11
-50.4510841283608
21
-3.94479376582733
31
0.000000000000000
  0
LINE
  5
F10496
330
F10497
100
AcDbEntity
8
Geo
100
AcDbLine
10
-50.4510841283608
20
-3.94479376582733
30
0.000000000000000
11
-50.3510841283608
21
-3.98466392573703
31
0.000000000000000
  0
LINE
  5
F10498
330
F10499
100
AcDbEntity
8
Geo
100
AcDbLine
10
-50.3510841283608
20
-3.98466392573703
30
0.000000000000000
11
-50.2510841283608
21
-4.02423169114818
31
0.000000000000000
  0
LINE
  5
F1049A
330
F1049B
100
AcDbEntity
8
Geo
100
AcDbLine
10
-50.2510841283608
20
-4.02423169114818
30
0.000000000000000
11
-50.1510841283608
21
-4.06349500124860
31
0.000000000000000
  0
LINE
  5
F1049C
330
F1049D
100
AcDbEntity
8
Geo
100
AcDbLine
10
-50.1510841283608
20
-4.06349500124860
30
0.000000000000000
11
-50.0510841283608
21
-4.10245181108310
31
0.000000000000000
  0
LINE
  5
F1049E
330
F1049F
100
AcDbEntity
8
Geo
100
AcDbLine
10
-50.0510841283608
20
-4.10245181108310
30
0.000000000000000
11
-49.9510841283608
21
-4.14110009165998
31
0.000000000000000
  0
LINE
  5
F104A0
330
F104A1
100
AcDbEntity
8
Geo
100
AcDbLine
10
-49.9510841283608
20
-4.14110009165998
30
0.000000000000000
11
-49.8510841283608
21
-4.17943783005669
31
0.000000000000000
  0
LINE
  5
F104A2
330
F104A3
100
AcDbEntity
8
Geo
100
AcDbLine
10
-49.8510841283608
20
-4.17943783005669
30
0.000000000000000
11
-49.7510841283608
21
-4.21746302952469
31
0.000000000000000
  0
LINE
  5
F104A4
330
F104A5
100
AcDbEntity
8
Geo
100
AcDbLine
10
-49.7510841283608
20
-4.21746302952469
30
0.000000000000000
11
-49.6510841283608
21
-4.25517370959344
31
0.000000000000000
  0
LINE
  5
F104A6
330
F104A7
100
AcDbEntity
8
Geo
100
AcDbLine
10
-49.6510841283608
20
-4.25517370959344
30
0.000000000000000
11
-49.5510841283608
21
-4.29256790617354
31
0.000000000000000
  0
LINE
  5
F104A8
330
F104A9
100
AcDbEntity
8
Geo
100
AcDbLine
10
-49.5510841283608
20
-4.29256790617354
30
0.000000000000000
11
-49.4510841283608
21
-4.32964367165904
31
0.000000000000000
  0
LINE
  5
F104AA
330
F104AB
100
AcDbEntity
8
Geo
100
AcDbLine
10
-49.4510841283608
20
-4.32964367165904
30
0.000000000000000
11
-49.3510841283608
21
-4.36639907502887
31
0.000000000000000
  0
LINE
  5
F104AC
330
F104AD
100
AcDbEntity
8
Geo
100
AcDbLine
10
-49.3510841283608
20
-4.36639907502887
30
0.000000000000000
11
-49.2510841283608
21
-4.40283220194741
31
0.000000000000000
  0
LINE
  5
F104AE
330
F104AF
100
AcDbEntity
8
Geo
100
AcDbLine
10
-49.2510841283608
20
-4.40283220194741
30
0.000000000000000
11
-49.1510841283608
21
-4.43894115486420
31
0.000000000000000
  0
LINE
  5
F104B0
330
F104B1
100
AcDbEntity
8
Geo
100
AcDbLine
10
-49.1510841283608
20
-4.43894115486420
30
0.000000000000000
11
-49.0510841283608
21
-4.47472405311279
31
0.000000000000000
  0
LINE
  5
F104B2
330
F104B3
100
AcDbEntity
8
Geo
100
AcDbLine
10
-49.0510841283608
20
-4.47472405311279
30
0.000000000000000
11
-48.9510841283608
21
-4.51017903300863
31
0.000000000000000
  0
LINE
  5
F104B4
330
F104B5
100
AcDbEntity
8
Geo
100
AcDbLine
10
-48.9510841283608
20
-4.51017903300863
30
0.000000000000000
11
-48.8510841283608
21
-4.54530424794620
31
0.000000000000000
  0
LINE
  5
F104B6
330
F104B7
100
AcDbEntity
8
Geo
100
AcDbLine
10
-48.8510841283608
20
-4.54530424794620
30
0.000000000000000
11
-48.7510841283608
21
-4.58009786849518
31
0.000000000000000
  0
LINE
  5
F104B8
330
F104B9
100
AcDbEntity
8
Geo
100
AcDbLine
10
-48.7510841283608
20
-4.58009786849518
30
0.000000000000000
11
-48.6510841283608
21
-4.61455808249568
31
0.000000000000000
  0
LINE
  5
F104BA
330
F104BB
100
AcDbEntity
8
Geo
100
AcDbLine
10
-48.6510841283608
20
-4.61455808249568
30
0.000000000000000
11
-48.5510841283608
21
-4.64868309515268
31
0.000000000000000
  0
LINE
  5
F104BC
330
F104BD
100
AcDbEntity
8
Geo
100
AcDbLine
10
-48.5510841283608
20
-4.64868309515268
30
0.000000000000000
11
-48.4510841283608
21
-4.68247112912949
31
0.000000000000000
  0
LINE
  5
F104BE
330
F104BF
100
AcDbEntity
8
Geo
100
AcDbLine
10
-48.4510841283608
20
-4.68247112912949
30
0.000000000000000
11
-48.3510841283608
21
-4.71592042464032
31
0.000000000000000
  0
LINE
  5
F104C0
330
F104C1
100
AcDbEntity
8
Geo
100
AcDbLine
10
-48.3510841283608
20
-4.71592042464032
30
0.000000000000000
11
-48.2510841283608
21
-4.74902923954191
31
0.000000000000000
  0
LINE
  5
F104C2
330
F104C3
100
AcDbEntity
8
Geo
100
AcDbLine
10
-48.2510841283608
20
-4.74902923954191
30
0.000000000000000
11
-48.1510841283608
21
-4.78179584942430
31
0.000000000000000
  0
LINE
  5
F104C4
330
F104C5
100
AcDbEntity
8
Geo
100
AcDbLine
10
-48.1510841283608
20
-4.78179584942430
30
0.000000000000000
11
-48.0510841283608
21
-4.81421854770065
31
0.000000000000000
  0
LINE
  5
F104C6
330
F104C7
100
AcDbEntity
8
Geo
100
AcDbLine
10
-48.0510841283608
20
-4.81421854770065
30
0.000000000000000
11
-47.9510841283608
21
-4.84629564569607
31
0.000000000000000
  0
LINE
  5
F104C8
330
F104C9
100
AcDbEntity
8
Geo
100
AcDbLine
10
-47.9510841283608
20
-4.84629564569607
30
0.000000000000000
11
-47.8510841283608
21
-4.87802547273563
31
0.000000000000000
  0
LINE
  5
F104CA
330
F104CB
100
AcDbEntity
8
Geo
100
AcDbLine
10
-47.8510841283608
20
-4.87802547273563
30
0.000000000000000
11
-47.7510841283608
21
-4.90940637623134
31
0.000000000000000
  0
LINE
  5
F104CC
330
F104CD
100
AcDbEntity
8
Geo
100
AcDbLine
10
-47.7510841283608
20
-4.90940637623134
30
0.000000000000000
11
-47.6510841283608
21
-4.94043672176825
31
0.000000000000000
  0
LINE
  5
F104CE
330
F104CF
100
AcDbEntity
8
Geo
100
AcDbLine
10
-47.6510841283608
20
-4.94043672176825
30
0.000000000000000
11
-47.5510841283608
21
-4.97111489318953
31
0.000000000000000
  0
LINE
  5
F104D0
330
F104D1
100
AcDbEntity
8
Geo
100
AcDbLine
10
-47.5510841283608
20
-4.97111489318953
30
0.000000000000000
11
-47.4510841283608
21
-5.00143929268069
31
0.000000000000000
  0
LINE
  5
F104D2
330
F104D3
100
AcDbEntity
8
Geo
100
AcDbLine
10
-47.4510841283608
20
-5.00143929268069
30
0.000000000000000
11
-47.3510841283608
21
-5.03140834085278
31
0.000000000000000
  0
LINE
  5
F104D4
330
F104D5
100
AcDbEntity
8
Geo
100
AcDbLine
10
-47.3510841283608
20
-5.03140834085278
30
0.000000000000000
11
-47.2510841283608
21
-5.06102047682466
31
0.000000000000000
  0
LINE
  5
F104D6
330
F104D7
100
AcDbEntity
8
Geo
100
AcDbLine
10
-47.2510841283608
20
-5.06102047682466
30
0.000000000000000
11
-47.1510841283608
21
-5.09027415830425
31
0.000000000000000
  0
LINE
  5
F104D8
330
F104D9
100
AcDbEntity
8
Geo
100
AcDbLine
10
-47.1510841283608
20
-5.09027415830425
30
0.000000000000000
11
-47.0510841283608
21
-5.11916786166895
31
0.000000000000000
  0
LINE
  5
F104DA
330
F104DB
100
AcDbEntity
8
Geo
100
AcDbLine
10
-47.0510841283608
20
-5.11916786166895
30
0.000000000000000
11
-46.9510841283608
21
-5.14770008204488
31
0.000000000000000
  0
LINE
  5
F104DC
330
F104DD
100
AcDbEntity
8
Geo
100
AcDbLine
10
-46.9510841283608
20
-5.14770008204488
30
0.000000000000000
11
-46.8510841283608
21
-5.17586933338536
31
0.000000000000000
  0
LINE
  5
F104DE
330
F104DF
100
AcDbEntity
8
Geo
100
AcDbLine
10
-46.8510841283608
20
-5.17586933338536
30
0.000000000000000
11
-46.7510841283608
21
-5.20367414854825
31
0.000000000000000
  0
LINE
  5
F104E0
330
F104E1
100
AcDbEntity
8
Geo
100
AcDbLine
10
-46.7510841283608
20
-5.20367414854825
30
0.000000000000000
11
-46.6510841283608
21
-5.23111307937238
31
0.000000000000000
  0
LINE
  5
F104E2
330
F104E3
100
AcDbEntity
8
Geo
100
AcDbLine
10
-46.6510841283608
20
-5.23111307937238
30
0.000000000000000
11
-46.5510841283608
21
-5.25818469675297
31
0.000000000000000
  0
LINE
  5
F104E4
330
F104E5
100
AcDbEntity
8
Geo
100
AcDbLine
10
-46.5510841283608
20
-5.25818469675297
30
0.000000000000000
11
-46.4510841283608
21
-5.28488759071606
31
0.000000000000000
  0
LINE
  5
F104E6
330
F104E7
100
AcDbEntity
8
Geo
100
AcDbLine
10
-46.4510841283608
20
-5.28488759071606
30
0.000000000000000
11
-46.3510841283608
21
-5.31122037049197
31
0.000000000000000
  0
LINE
  5
F104E8
330
F104E9
100
AcDbEntity
8
Geo
100
AcDbLine
10
-46.3510841283608
20
-5.31122037049197
30
0.000000000000000
11
-46.2510841283608
21
-5.33718166458770
31
0.000000000000000
  0
LINE
  5
F104EA
330
F104EB
100
AcDbEntity
8
Geo
100
AcDbLine
10
-46.2510841283608
20
-5.33718166458770
30
0.000000000000000
11
-46.1510841283608
21
-5.36277012085839
31
0.000000000000000
  0
LINE
  5
F104EC
330
F104ED
100
AcDbEntity
8
Geo
100
AcDbLine
10
-46.1510841283608
20
-5.36277012085839
30
0.000000000000000
11
-46.0510841283608
21
-5.38798440657772
31
0.000000000000000
  0
LINE
  5
F104EE
330
F104EF
100
AcDbEntity
8
Geo
100
AcDbLine
10
-46.0510841283608
20
-5.38798440657772
30
0.000000000000000
11
-45.9510841283608
21
-5.41282320850735
31
0.000000000000000
  0
LINE
  5
F104F0
330
F104F1
100
AcDbEntity
8
Geo
100
AcDbLine
10
-45.9510841283608
20
-5.41282320850735
30
0.000000000000000
11
-45.8510841283608
21
-5.43728523296529
31
0.000000000000000
  0
LINE
  5
F104F2
330
F104F3
100
AcDbEntity
8
Geo
100
AcDbLine
10
-45.8510841283608
20
-5.43728523296529
30
0.000000000000000
11
-45.7510841283608
21
-5.46136920589330
31
0.000000000000000
  0
LINE
  5
F104F4
330
F104F5
100
AcDbEntity
8
Geo
100
AcDbLine
10
-45.7510841283608
20
-5.46136920589330
30
0.000000000000000
11
-45.6510841283608
21
-5.48507387292322
31
0.000000000000000
  0
LINE
  5
F104F6
330
F104F7
100
AcDbEntity
8
Geo
100
AcDbLine
10
-45.6510841283608
20
-5.48507387292322
30
0.000000000000000
11
-45.5510841283608
21
-5.50839799944235
31
0.000000000000000
  0
LINE
  5
F104F8
330
F104F9
100
AcDbEntity
8
Geo
100
AcDbLine
10
-45.5510841283608
20
-5.50839799944235
30
0.000000000000000
11
-45.4510841283608
21
-5.53134037065771
31
0.000000000000000
  0
LINE
  5
F104FA
330
F104FB
100
AcDbEntity
8
Geo
100
AcDbLine
10
-45.4510841283608
20
-5.53134037065771
30
0.000000000000000
11
-45.3510841283608
21
-5.55389979165930
31
0.000000000000000
  0
LINE
  5
F104FC
330
F104FD
100
AcDbEntity
8
Geo
100
AcDbLine
10
-45.3510841283608
20
-5.55389979165930
30
0.000000000000000
11
-45.2510841283608
21
-5.57607508748238
31
0.000000000000000
  0
LINE
  5
F104FE
330
F104FF
100
AcDbEntity
8
Geo
100
AcDbLine
10
-45.2510841283608
20
-5.57607508748238
30
0.000000000000000
11
-45.1510841283608
21
-5.59786510316865
31
0.000000000000000
  0
LINE
  5
F10500
330
F10501
100
AcDbEntity
8
Geo
100
AcDbLine
10
-45.1510841283608
20
-5.59786510316865
30
0.000000000000000
11
-45.0510841283608
21
-5.61926870382638
31
0.000000000000000
  0
LINE
  5
F10502
330
F10503
100
AcDbEntity
8
Geo
100
AcDbLine
10
-45.0510841283608
20
-5.61926870382638
30
0.000000000000000
11
-44.9510841283608
21
-5.64028477468955
31
0.000000000000000
  0
LINE
  5
F10504
330
F10505
100
AcDbEntity
8
Geo
100
AcDbLine
10
-44.9510841283608
20
-5.64028477468955
30
0.000000000000000
11
-44.8510841283608
21
-5.66091222117586
31
0.000000000000000
  0
LINE
  5
F10506
330
F10507
100
AcDbEntity
8
Geo
100
AcDbLine
10
-44.8510841283608
20
-5.66091222117586
30
0.000000000000000
11
-44.7510841283608
21
-5.68114996894383
31
0.000000000000000
  0
LINE
  5
F10508
330
F10509
100
AcDbEntity
8
Geo
100
AcDbLine
10
-44.7510841283608
20
-5.68114996894383
30
0.000000000000000
11
-44.6510841283608
21
-5.70099696394866
31
0.000000000000000
  0
LINE
  5
F1050A
330
F1050B
100
AcDbEntity
8
Geo
100
AcDbLine
10
-44.6510841283608
20
-5.70099696394866
30
0.000000000000000
11
-44.5510841283608
21
-5.72045217249718
31
0.000000000000000
  0
LINE
  5
F1050C
330
F1050D
100
AcDbEntity
8
Geo
100
AcDbLine
10
-44.5510841283608
20
-5.72045217249718
30
0.000000000000000
11
-44.4510841283608
21
-5.73951458130168
31
0.000000000000000
  0
LINE
  5
F1050E
330
F1050F
100
AcDbEntity
8
Geo
100
AcDbLine
10
-44.4510841283608
20
-5.73951458130168
30
0.000000000000000
11
-44.3510841283608
21
-5.75818319753267
31
0.000000000000000
  0
LINE
  5
F10510
330
F10511
100
AcDbEntity
8
Geo
100
AcDbLine
10
-44.3510841283608
20
-5.75818319753267
30
0.000000000000000
11
-44.2510841283608
21
-5.77645704887061
31
0.000000000000000
  0
LINE
  5
F10512
330
F10513
100
AcDbEntity
8
Geo
100
AcDbLine
10
-44.2510841283608
20
-5.77645704887061
30
0.000000000000000
11
-44.1510841283608
21
-5.79433518355655
31
0.000000000000000
  0
LINE
  5
F10514
330
F10515
100
AcDbEntity
8
Geo
100
AcDbLine
10
-44.1510841283608
20
-5.79433518355655
30
0.000000000000000
11
-44.0510841283608
21
-5.81181667044167
31
0.000000000000000
  0
LINE
  5
F10516
330
F10517
100
AcDbEntity
8
Geo
100
AcDbLine
10
-44.0510841283608
20
-5.81181667044167
30
0.000000000000000
11
-43.9510841283608
21
-5.82890059903582
31
0.000000000000000
  0
LINE
  5
F10518
330
F10519
100
AcDbEntity
8
Geo
100
AcDbLine
10
-43.9510841283608
20
-5.82890059903582
30
0.000000000000000
11
-43.8510841283608
21
-5.84558607955492
31
0.000000000000000
  0
LINE
  5
F1051A
330
F1051B
100
AcDbEntity
8
Geo
100
AcDbLine
10
-43.8510841283608
20
-5.84558607955492
30
0.000000000000000
11
-43.7510841283608
21
-5.86187224296728
31
0.000000000000000
  0
LINE
  5
F1051C
330
F1051D
100
AcDbEntity
8
Geo
100
AcDbLine
10
-43.7510841283608
20
-5.86187224296728
30
0.000000000000000
11
-43.6510841283608
21
-5.87775824103892
31
0.000000000000000
  0
LINE
  5
F1051E
330
F1051F
100
AcDbEntity
8
Geo
100
AcDbLine
10
-43.6510841283608
20
-5.87775824103892
30
0.000000000000000
11
-43.5510841283608
21
-5.89324324637770
31
0.000000000000000
  0
LINE
  5
F10520
330
F10521
100
AcDbEntity
8
Geo
100
AcDbLine
10
-43.5510841283608
20
-5.89324324637770
30
0.000000000000000
11
-43.4510841283608
21
-5.90832645247642
31
0.000000000000000
  0
LINE
  5
F10522
330
F10523
100
AcDbEntity
8
Geo
100
AcDbLine
10
-43.4510841283608
20
-5.90832645247642
30
0.000000000000000
11
-43.3510841283609
21
-5.92300707375483
31
0.000000000000000
  0
LINE
  5
F10524
330
F10525
100
AcDbEntity
8
Geo
100
AcDbLine
10
-43.3510841283609
20
-5.92300707375483
30
0.000000000000000
11
-43.2510841283609
21
-5.93728434560057
31
0.000000000000000
  0
LINE
  5
F10526
330
F10527
100
AcDbEntity
8
Geo
100
AcDbLine
10
-43.2510841283609
20
-5.93728434560057
30
0.000000000000000
11
-43.1510841283608
21
-5.95115752440895
31
0.000000000000000
  0
LINE
  5
F10528
330
F10529
100
AcDbEntity
8
Geo
100
AcDbLine
10
-43.1510841283608
20
-5.95115752440895
30
0.000000000000000
11
-43.0510841283608
21
-5.96462588762172
31
0.000000000000000
  0
LINE
  5
F1052A
330
F1052B
100
AcDbEntity
8
Geo
100
AcDbLine
10
-43.0510841283608
20
-5.96462588762172
30
0.000000000000000
11
-42.9510841283608
21
-5.97768873376466
31
0.000000000000000
  0
LINE
  5
F1052C
330
F1052D
100
AcDbEntity
8
Geo
100
AcDbLine
10
-42.9510841283608
20
-5.97768873376466
30
0.000000000000000
11
-42.8510841283609
21
-5.99034538248417
31
0.000000000000000
  0
LINE
  5
F1052E
330
F1052F
100
AcDbEntity
8
Geo
100
AcDbLine
10
-42.8510841283609
20
-5.99034538248417
30
0.000000000000000
11
-42.7510841283609
21
-6.00259517458264
31
0.000000000000000
  0
LINE
  5
F10530
330
F10531
100
AcDbEntity
8
Geo
100
AcDbLine
10
-42.7510841283609
20
-6.00259517458264
30
0.000000000000000
11
-42.6510841283608
21
-6.01443747205285
31
0.000000000000000
  0
LINE
  5
F10532
330
F10533
100
AcDbEntity
8
Geo
100
AcDbLine
10
-42.6510841283608
20
-6.01443747205285
30
0.000000000000000
11
-42.5510841283609
21
-6.02587165811114
31
0.000000000000000
  0
LINE
  5
F10534
330
F10535
100
AcDbEntity
8
Geo
100
AcDbLine
10
-42.5510841283609
20
-6.02587165811114
30
0.000000000000000
11
-42.4510841283609
21
-6.03689713722957
31
0.000000000000000
  0
LINE
  5
F10536
330
F10537
100
AcDbEntity
8
Geo
100
AcDbLine
10
-42.4510841283609
20
-6.03689713722957
30
0.000000000000000
11
-42.3510841283609
21
-6.04751333516693
31
0.000000000000000
  0
LINE
  5
F10538
330
F10539
100
AcDbEntity
8
Geo
100
AcDbLine
10
-42.3510841283609
20
-6.04751333516693
30
0.000000000000000
11
-42.2510841283609
21
-6.05771969899865
31
0.000000000000000
  0
LINE
  5
F1053A
330
F1053B
100
AcDbEntity
8
Geo
100
AcDbLine
10
-42.2510841283609
20
5.57408728737404
30
0.000000000000000
11
-42.1510841283608
21
5.52300141353907
31
0.000000000000000
  0
LINE
  5
F1053C
330
F1053D
100
AcDbEntity
8
Geo
100
AcDbLine
10
-42.1510841283608
20
5.52300141353907
30
0.000000000000000
11
-42.0510841283609
21
5.47172274544883
31
0.000000000000000
  0
LINE
  5
F1053E
330
F1053F
100
AcDbEntity
8
Geo
100
AcDbLine
10
-42.0510841283609
20
5.47172274544883
30
0.000000000000000
11
-41.9510841283609
21
5.42025395385569
31
0.000000000000000
  0
LINE
  5
F10540
330
F10541
100
AcDbEntity
8
Geo
100
AcDbLine
10
-41.9510841283609
20
5.42025395385569
30
0.000000000000000
11
-41.8510841283609
21
5.36859771941448
31
0.000000000000000
  0
LINE
  5
F10542
330
F10543
100
AcDbEntity
8
Geo
100
AcDbLine
10
-41.8510841283609
20
5.36859771941448
30
0.000000000000000
11
-41.7510841283609
21
5.31675673254522
31
0.000000000000000
  0
LINE
  5
F10544
330
F10545
100
AcDbEntity
8
Geo
100
AcDbLine
10
-41.7510841283609
20
5.31675673254522
30
0.000000000000000
11
-41.6510841283609
21
5.26473369330927
31
0.000000000000000
  0
LINE
  5
F10546
330
F10547
100
AcDbEntity
8
Geo
100
AcDbLine
10
-41.6510841283609
20
5.26473369330927
30
0.000000000000000
11
-41.5510841283609
21
5.21253131134518
31
0.000000000000000
  0
LINE
  5
F10548
330
F10549
100
AcDbEntity
8
Geo
100
AcDbLine
10
-41.5510841283609
20
5.21253131134518
30
0.000000000000000
11
-41.4510841283609
21
5.16015230600525
31
0.000000000000000
  0
LINE
  5
F1054A
330
F1054B
100
AcDbEntity
8
Geo
100
AcDbLine
10
-41.4510841283609
20
5.16015230600525
30
0.000000000000000
11
-41.3510841283609
21
5.10759940704992
31
0.000000000000000
  0
LINE
  5
F1054C
330
F1054D
100
AcDbEntity
8
Geo
100
AcDbLine
10
-41.3510841283609
20
5.10759940704992
30
0.000000000000000
11
-41.2510841283609
21
5.05487535668813
31
0.000000000000000
  0
LINE
  5
F1054E
330
F1054F
100
AcDbEntity
8
Geo
100
AcDbLine
10
-41.2510841283609
20
5.05487535668813
30
0.000000000000000
11
-41.1510841283609
21
5.00198291453485
31
0.000000000000000
  0
LINE
  5
F10550
330
F10551
100
AcDbEntity
8
Geo
100
AcDbLine
10
-41.1510841283609
20
5.00198291453485
30
0.000000000000000
11
-41.0510841283609
21
4.94892486837780
31
0.000000000000000
  0
LINE
  5
F10552
330
F10553
100
AcDbEntity
8
Geo
100
AcDbLine
10
-41.0510841283609
20
4.94892486837780
30
0.000000000000000
11
-40.9510841283609
21
4.89570405574712
31
0.000000000000000
  0
LINE
  5
F10554
330
F10555
100
AcDbEntity
8
Geo
100
AcDbLine
10
-40.9510841283609
20
4.89570405574712
30
0.000000000000000
11
-40.8510841283609
21
4.84232340447716
31
0.000000000000000
  0
LINE
  5
F10556
330
F10557
100
AcDbEntity
8
Geo
100
AcDbLine
10
-40.8510841283609
20
4.84232340447716
30
0.000000000000000
11
-40.7510841283609
21
4.78878600512185
31
0.000000000000000
  0
LINE
  5
F10558
330
F10559
100
AcDbEntity
8
Geo
100
AcDbLine
10
-40.7510841283609
20
4.78878600512185
30
0.000000000000000
11
-40.6510841283608
21
4.73509523470602
31
0.000000000000000
  0
LINE
  5
F1055A
330
F1055B
100
AcDbEntity
8
Geo
100
AcDbLine
10
-40.6510841283608
20
4.73509523470602
30
0.000000000000000
11
-40.5510841283608
21
4.68125496042335
31
0.000000000000000
  0
LINE
  5
F1055C
330
F1055D
100
AcDbEntity
8
Geo
100
AcDbLine
10
-40.5510841283608
20
4.68125496042335
30
0.000000000000000
11
-40.4510841283608
21
4.62726986419066
31
0.000000000000000
  0
LINE
  5
F1055E
330
F1055F
100
AcDbEntity
8
Geo
100
AcDbLine
10
-40.4510841283608
20
4.62726986419066
30
0.000000000000000
11
-40.3510841283608
21
4.57314594520563
31
0.000000000000000
  0
LINE
  5
F10560
330
F10561
100
AcDbEntity
8
Geo
100
AcDbLine
10
-40.3510841283608
20
4.57314594520563
30
0.000000000000000
11
-40.2510841283608
21
4.51889127871775
31
0.000000000000000
  0
LINE
  5
F10562
330
F10563
100
AcDbEntity
8
Geo
100
AcDbLine
10
-40.2510841283608
20
4.51889127871775
30
0.000000000000000
11
-40.1510841283608
21
4.46451713611749
31
0.000000000000000
  0
LINE
  5
F10564
330
F10565
100
AcDbEntity
8
Geo
100
AcDbLine
10
-40.1510841283608
20
4.46451713611749
30
0.000000000000000
11
-40.0510841283608
21
4.41003960531373
31
0.000000000000000
  0
LINE
  5
F10566
330
F10567
100
AcDbEntity
8
Geo
100
AcDbLine
10
-40.0510841283608
20
4.41003960531373
30
0.000000000000000
11
-39.9510841283608
21
4.35548189247445
31
0.000000000000000
  0
LINE
  5
F10568
330
F10569
100
AcDbEntity
8
Geo
100
AcDbLine
10
-39.9510841283608
20
4.35548189247445
30
0.000000000000000
11
-39.8510841283608
21
4.30087753795248
31
0.000000000000000
  0
LINE
  5
F1056A
330
F1056B
100
AcDbEntity
8
Geo
100
AcDbLine
10
-39.8510841283608
20
4.30087753795248
30
0.000000000000000
11
-39.7510841283608
21
4.24627484213778
31
0.000000000000000
  0
LINE
  5
F1056C
330
F1056D
100
AcDbEntity
8
Geo
100
AcDbLine
10
-39.7510841283608
20
4.24627484213778
30
0.000000000000000
11
-39.6510841283608
21
4.19174287271539
31
0.000000000000000
  0
LINE
  5
F1056E
330
F1056F
100
AcDbEntity
8
Geo
100
AcDbLine
10
-39.6510841283608
20
4.19174287271539
30
0.000000000000000
11
-39.5510841283608
21
4.13737951509419
31
0.000000000000000
  0
LINE
  5
F10570
330
F10571
100
AcDbEntity
8
Geo
100
AcDbLine
10
-39.5510841283608
20
4.13737951509419
30
0.000000000000000
11
-39.4510841283608
21
4.08332213437398
31
0.000000000000000
  0
LINE
  5
F10572
330
F10573
100
AcDbEntity
8
Geo
100
AcDbLine
10
-39.4510841283608
20
4.08332213437398
30
0.000000000000000
11
-39.3510841283608
21
4.02976154185671
31
0.000000000000000
  0
LINE
  5
F10574
330
F10575
100
AcDbEntity
8
Geo
100
AcDbLine
10
-39.3510841283608
20
4.02976154185671
30
0.000000000000000
11
-39.2510841283608
21
3.97696010332198
31
0.000000000000000
  0
LINE
  5
F10576
330
F10577
100
AcDbEntity
8
Geo
100
AcDbLine
10
-39.2510841283608
20
3.97696010332198
30
0.000000000000000
11
-39.1510841283608
21
3.92527499121548
31
0.000000000000000
  0
LINE
  5
F10578
330
F10579
100
AcDbEntity
8
Geo
100
AcDbLine
10
-39.1510841283608
20
3.92527499121548
30
0.000000000000000
11
-39.0510841283608
21
3.87518776893891
31
0.000000000000000
  0
LINE
  5
F1057A
330
F1057B
100
AcDbEntity
8
Geo
100
AcDbLine
10
-39.0510841283608
20
3.87518776893891
30
0.000000000000000
11
-38.9510841283608
21
3.82734170165669
31
0.000000000000000
  0
LINE
  5
F1057C
330
F1057D
100
AcDbEntity
8
Geo
100
AcDbLine
10
-38.9510841283608
20
3.82734170165669
30
0.000000000000000
11
-38.8510841283608
21
3.78258841123523
31
0.000000000000000
  0
LINE
  5
F1057E
330
F1057F
100
AcDbEntity
8
Geo
100
AcDbLine
10
-38.8510841283608
20
3.78258841123523
30
0.000000000000000
11
-38.7510841283608
21
3.74204572586407
31
0.000000000000000
  0
LINE
  5
F10580
330
F10581
100
AcDbEntity
8
Geo
100
AcDbLine
10
-38.7510841283608
20
3.74204572586407
30
0.000000000000000
11
-38.6510841283608
21
3.70716880309441
31
0.000000000000000
  0
LINE
  5
F10582
330
F10583
100
AcDbEntity
8
Geo
100
AcDbLine
10
-38.6510841283608
20
3.70716880309441
30
0.000000000000000
11
-38.5510841283608
21
3.67983680059661
31
0.000000000000000
  0
LINE
  5
F10584
330
F10585
100
AcDbEntity
8
Geo
100
AcDbLine
10
-38.5510841283608
20
3.67983680059661
30
0.000000000000000
11
-38.4510841283608
21
3.66245747862432
31
0.000000000000000
  0
LINE
  5
F10586
330
F10587
100
AcDbEntity
8
Geo
100
AcDbLine
10
-38.4510841283608
20
3.66245747862432
30
0.000000000000000
11
-38.3510841283608
21
3.65809203978617
31
0.000000000000000
  0
LINE
  5
F10588
330
F10589
100
AcDbEntity
8
Geo
100
AcDbLine
10
-38.3510841283608
20
3.65809203978617
30
0.000000000000000
11
-38.2510841283608
21
3.67060204804326
31
0.000000000000000
  0
LINE
  5
F1058A
330
F1058B
100
AcDbEntity
8
Geo
100
AcDbLine
10
-38.2510841283608
20
3.67060204804326
30
0.000000000000000
11
-38.1510841283608
21
3.70481903825183
31
0.000000000000000
  0
LINE
  5
F1058C
330
F1058D
100
AcDbEntity
8
Geo
100
AcDbLine
10
-38.1510841283608
20
3.70481903825183
30
0.000000000000000
11
-38.0510841283608
21
3.76673469325997
31
0.000000000000000
  0
LINE
  5
F1058E
330
F1058F
100
AcDbEntity
8
Geo
100
AcDbLine
10
-38.0510841283608
20
3.76673469325997
30
0.000000000000000
11
-37.9510841283608
21
3.86370381527722
31
0.000000000000000
  0
LINE
  5
F10590
330
F10591
100
AcDbEntity
8
Geo
100
AcDbLine
10
-37.9510841283608
20
3.86370381527722
30
0.000000000000000
11
-37.8510841283608
21
4.00464107710589
31
0.000000000000000
  0
LINE
  5
F10592
330
F10593
100
AcDbEntity
8
Geo
100
AcDbLine
10
-37.8510841283608
20
4.00464107710589
30
0.000000000000000
11
-37.7510841283608
21
4.20017072439809
31
0.000000000000000
  0
LINE
  5
F10594
330
F10595
100
AcDbEntity
8
Geo
100
AcDbLine
10
-37.7510841283608
20
4.20017072439809
30
0.000000000000000
11
-37.6510841283608
21
4.46264693650221
31
0.000000000000000
  0
LINE
  5
F10596
330
F10597
100
AcDbEntity
8
Geo
100
AcDbLine
10
-37.6510841283608
20
4.46264693650221
30
0.000000000000000
11
-37.5510841283608
21
4.80588540651432
31
0.000000000000000
  0
LINE
  5
F10598
330
F10599
100
AcDbEntity
8
Geo
100
AcDbLine
10
-37.5510841283608
20
4.80588540651432
30
0.000000000000000
11
-37.4510841283608
21
5.24430678524892
31
0.000000000000000
  0
LINE
  5
F1059A
330
F1059B
100
AcDbEntity
8
Geo
100
AcDbLine
10
-37.4510841283608
20
5.24430678524892
30
0.000000000000000
11
-37.3510841283608
21
5.79094741655610
31
0.000000000000000
  0
LINE
  5
F1059C
330
F1059D
100
AcDbEntity
8
Geo
100
AcDbLine
10
-37.3510841283608
20
5.79094741655610
30
0.000000000000000
11
-37.2510841283608
21
6.45338425886424
31
0.000000000000000
  0
LINE
  5
F1059E
330
F1059F
100
AcDbEntity
8
Geo
100
AcDbLine
10
-37.2510841283608
20
6.45338425886424
30
0.000000000000000
11
-37.2510841283608
21
6.17580298664558
31
0.000000000000000
  0
LINE
  5
F105A0
330
F105A1
100
AcDbEntity
8
Geo
100
AcDbLine
10
-37.2510841283608
20
6.17580298664558
30
0.000000000000000
11
-37.2510841283608
21
6.18750067339126
31
0.000000000000000
  0
LINE
  5
F105A2
330
F105A3
100
AcDbEntity
8
Geo
100
AcDbLine
10
-37.2510841283608
20
6.18750067339126
30
0.000000000000000
11
-37.2510841283608
21
6.61583461221578
31
0.000000000000000
  0
LINE
  5
F105A4
330
F105A5
100
AcDbEntity
8
Geo
100
AcDbLine
10
-37.2510841283608
20
6.61583461221578
30
0.000000000000000
11
-37.3510841283608
21
7.18304707064819
31
0.000000000000000
  0
LINE
  5
F105A6
330
F105A7
100
AcDbEntity
8
Geo
100
AcDbLine
10
-37.3510841283608
20
7.18304707064819
30
0.000000000000000
11
-37.4510841283608
21
7.66035399424666
31
0.000000000000000
  0
LINE
  5
F105A8
330
F105A9
100
AcDbEntity
8
Geo
100
AcDbLine
10
-37.4510841283608
20
7.66035399424666
30
0.000000000000000
11
-37.5510841283608
21
8.05914297641133
31
0.000000000000000
  0
LINE
  5
F105AA
330
F105AB
100
AcDbEntity
8
Geo
100
AcDbLine
10
-37.5510841283608
20
8.05914297641133
30
0.000000000000000
11
-37.6510841283608
21
8.39026569813211
31
0.000000000000000
  0
LINE
  5
F105AC
330
F105AD
100
AcDbEntity
8
Geo
100
AcDbLine
10
-37.6510841283608
20
8.39026569813211
30
0.000000000000000
11
-37.7510841283608
21
8.66370975066269
31
0.000000000000000
  0
LINE
  5
F105AE
330
F105AF
100
AcDbEntity
8
Geo
100
AcDbLine
10
-37.7510841283608
20
8.66370975066269
30
0.000000000000000
11
-37.8510841283608
21
8.88843728637088
31
0.000000000000000
  0
LINE
  5
F105B0
330
F105B1
100
AcDbEntity
8
Geo
100
AcDbLine
10
-37.8510841283608
20
8.88843728637088
30
0.000000000000000
11
-37.9510841283608
21
9.07233637742490
31
0.000000000000000
  0
LINE
  5
F105B2
330
F105B3
100
AcDbEntity
8
Geo
100
AcDbLine
10
-37.9510841283608
20
9.07233637742490
30
0.000000000000000
11
-38.0510841283608
21
9.22224484594686
31
0.000000000000000
  0
LINE
  5
F105B4
330
F105B5
100
AcDbEntity
8
Geo
100
AcDbLine
10
-38.0510841283608
20
9.22224484594686
30
0.000000000000000
11
-38.1510841283608
21
9.34401758159809
31
0.000000000000000
  0
LINE
  5
F105B6
330
F105B7
100
AcDbEntity
8
Geo
100
AcDbLine
10
-38.1510841283608
20
9.34401758159809
30
0.000000000000000
11
-38.2510841283608
21
9.44261710758686
31
0.000000000000000
  0
LINE
  5
F105B8
330
F105B9
100
AcDbEntity
8
Geo
100
AcDbLine
10
-38.2510841283608
20
9.44261710758686
30
0.000000000000000
11
-38.3510841283608
21
9.52221373164243
31
0.000000000000000
  0
LINE
  5
F105BA
330
F105BB
100
AcDbEntity
8
Geo
100
AcDbLine
10
-38.3510841283608
20
9.52221373164243
30
0.000000000000000
11
-38.4510841283608
21
9.58628642558485
31
0.000000000000000
  0
LINE
  5
F105BC
330
F105BD
100
AcDbEntity
8
Geo
100
AcDbLine
10
-38.4510841283608
20
9.58628642558485
30
0.000000000000000
11
-38.5510841283608
21
9.63771900153065
31
0.000000000000000
  0
LINE
  5
F105BE
330
F105BF
100
AcDbEntity
8
Geo
100
AcDbLine
10
-38.5510841283608
20
9.63771900153065
30
0.000000000000000
11
-38.6510841283608
21
9.67888852997705
31
0.000000000000000
  0
LINE
  5
F105C0
330
F105C1
100
AcDbEntity
8
Geo
100
AcDbLine
10
-38.6510841283608
20
9.67888852997705
30
0.000000000000000
11
-38.7510841283608
21
9.71174454944243
31
0.000000000000000
  0
LINE
  5
F105C2
330
F105C3
100
AcDbEntity
8
Geo
100
AcDbLine
10
-38.7510841283608
20
9.71174454944243
30
0.000000000000000
11
-38.8510841283608
21
9.73787866434163
31
0.000000000000000
  0
LINE
  5
F105C4
330
F105C5
100
AcDbEntity
8
Geo
100
AcDbLine
10
-38.8510841283608
20
9.73787866434163
30
0.000000000000000
11
-38.9510841283608
21
9.75858478112578
31
0.000000000000000
  0
LINE
  5
F105C6
330
F105C7
100
AcDbEntity
8
Geo
100
AcDbLine
10
-38.9510841283608
20
9.75858478112578
30
0.000000000000000
11
-39.0510841283608
21
9.77491061395625
31
0.000000000000000
  0
LINE
  5
F105C8
330
F105C9
100
AcDbEntity
8
Geo
100
AcDbLine
10
-39.0510841283608
20
9.77491061395625
30
0.000000000000000
11
-39.1510841283608
21
9.78770128864651
31
0.000000000000000
  0
LINE
  5
F105CA
330
F105CB
100
AcDbEntity
8
Geo
100
AcDbLine
10
-39.1510841283608
20
9.78770128864651
30
0.000000000000000
11
-39.2510841283608
21
9.79763595032149
31
0.000000000000000
  0
LINE
  5
F105CC
330
F105CD
100
AcDbEntity
8
Geo
100
AcDbLine
10
-39.2510841283608
20
9.79763595032149
30
0.000000000000000
11
-39.3510841283608
21
9.80525828040965
31
0.000000000000000
  0
LINE
  5
F105CE
330
F105CF
100
AcDbEntity
8
Geo
100
AcDbLine
10
-39.3510841283608
20
9.80525828040965
30
0.000000000000000
11
-39.4510841283608
21
9.81100178265275
31
0.000000000000000
  0
LINE
  5
F105D0
330
F105D1
100
AcDbEntity
8
Geo
100
AcDbLine
10
-39.4510841283608
20
9.81100178265275
30
0.000000000000000
11
-39.5510841283608
21
9.81521062639233
31
0.000000000000000
  0
LINE
  5
F105D2
330
F105D3
100
AcDbEntity
8
Geo
100
AcDbLine
10
-39.5510841283608
20
9.81521062639233
30
0.000000000000000
11
-39.6510841283608
21
9.81815675209991
31
0.000000000000000
  0
LINE
  5
F105D4
330
F105D5
100
AcDbEntity
8
Geo
100
AcDbLine
10
-39.6510841283608
20
9.81815675209991
30
0.000000000000000
11
-39.7510841283608
21
9.82005385773751
31
0.000000000000000
  0
LINE
  5
F105D6
330
F105D7
100
AcDbEntity
8
Geo
100
AcDbLine
10
-39.7510841283608
20
9.82005385773751
30
0.000000000000000
11
-39.8510841283608
21
9.82106880050944
31
0.000000000000000
  0
LINE
  5
F105D8
330
F105D9
100
AcDbEntity
8
Geo
100
AcDbLine
10
-39.8510841283608
20
9.82106880050944
30
0.000000000000000
11
-39.9392842461118
21
9.82133564614053
31
0.000000000000000
  0
LINE
  5
F105DA
330
F105DB
100
AcDbEntity
8
Geo
100
AcDbLine
10
-42.2510841283609
20
-5.24385048864880
30
0.000000000000000
11
-42.1510841283608
21
-5.27074941725726
31
0.000000000000000
  0
LINE
  5
F105DC
330
F105DD
100
AcDbEntity
8
Geo
100
AcDbLine
10
-42.1510841283608
20
-5.27074941725726
30
0.000000000000000
11
-42.0510841283609
21
-5.29727896803854
31
0.000000000000000
  0
LINE
  5
F105DE
330
F105DF
100
AcDbEntity
8
Geo
100
AcDbLine
10
-42.0510841283609
20
-5.29727896803854
30
0.000000000000000
11
-41.9510841283609
21
-5.32343775925119
31
0.000000000000000
  0
LINE
  5
F105E0
330
F105E1
100
AcDbEntity
8
Geo
100
AcDbLine
10
-41.9510841283609
20
-5.32343775925119
30
0.000000000000000
11
-41.8510841283609
21
-5.34922442846399
31
0.000000000000000
  0
LINE
  5
F105E2
330
F105E3
100
AcDbEntity
8
Geo
100
AcDbLine
10
-41.8510841283609
20
-5.34922442846399
30
0.000000000000000
11
-41.7510841283609
21
-5.37463763262571
31
0.000000000000000
  0
LINE
  5
F105E4
330
F105E5
100
AcDbEntity
8
Geo
100
AcDbLine
10
-41.7510841283609
20
-5.37463763262571
30
0.000000000000000
11
-41.6510841283609
21
-5.39967604812744
31
0.000000000000000
  0
LINE
  5
F105E6
330
F105E7
100
AcDbEntity
8
Geo
100
AcDbLine
10
-41.6510841283609
20
-5.39967604812744
30
0.000000000000000
11
-41.5510841283609
21
-5.42433837083659
31
0.000000000000000
  0
LINE
  5
F105E8
330
F105E9
100
AcDbEntity
8
Geo
100
AcDbLine
10
-41.5510841283609
20
-5.42433837083659
30
0.000000000000000
11
-41.4510841283609
21
-5.44862331604144
31
0.000000000000000
  0
LINE
  5
F105EA
330
F105EB
100
AcDbEntity
8
Geo
100
AcDbLine
10
-41.4510841283609
20
-5.44862331604144
30
0.000000000000000
11
-41.3510841283609
21
-5.47252961815753
31
0.000000000000000
  0
LINE
  5
F105EC
330
F105ED
100
AcDbEntity
8
Geo
100
AcDbLine
10
-41.3510841283609
20
-5.47252961815753
30
0.000000000000000
11
-41.2510841283609
21
-5.49605602988119
31
0.000000000000000
  0
LINE
  5
F105EE
330
F105EF
100
AcDbEntity
8
Geo
100
AcDbLine
10
-41.2510841283609
20
-5.49605602988119
30
0.000000000000000
11
-41.1510841283609
21
-5.51920132018938
31
0.000000000000000
  0
LINE
  5
F105F0
330
F105F1
100
AcDbEntity
8
Geo
100
AcDbLine
10
-41.1510841283609
20
-5.51920132018938
30
0.000000000000000
11
-41.0510841283609
21
-5.54196427012972
31
0.000000000000000
  0
LINE
  5
F105F2
330
F105F3
100
AcDbEntity
8
Geo
100
AcDbLine
10
-41.0510841283609
20
-5.54196427012972
30
0.000000000000000
11
-40.9510841283609
21
-5.56434366466178
31
0.000000000000000
  0
LINE
  5
F105F4
330
F105F5
100
AcDbEntity
8
Geo
100
AcDbLine
10
-40.9510841283609
20
-5.56434366466178
30
0.000000000000000
11
-40.8510841283609
21
-5.58633827783725
31
0.000000000000000
  0
LINE
  5
F105F6
330
F105F7
100
AcDbEntity
8
Geo
100
AcDbLine
10
-40.8510841283609
20
-5.58633827783725
30
0.000000000000000
11
-40.7510841283609
21
-5.60794684727576
31
0.000000000000000
  0
LINE
  5
F105F8
330
F105F9
100
AcDbEntity
8
Geo
100
AcDbLine
10
-40.7510841283609
20
-5.60794684727576
30
0.000000000000000
11
-40.6510841283608
21
-5.62916803213806
31
0.000000000000000
  0
LINE
  5
F105FA
330
F105FB
100
AcDbEntity
8
Geo
100
AcDbLine
10
-40.6510841283608
20
-5.62916803213806
30
0.000000000000000
11
-40.5510841283608
21
-5.65000034655798
31
0.000000000000000
  0
LINE
  5
F105FC
330
F105FD
100
AcDbEntity
8
Geo
100
AcDbLine
10
-40.5510841283608
20
-5.65000034655798
30
0.000000000000000
11
-40.4510841283608
21
-5.67044205771425
31
0.000000000000000
  0
LINE
  5
F105FE
330
F105FF
100
AcDbEntity
8
Geo
100
AcDbLine
10
-40.4510841283608
20
-5.67044205771425
30
0.000000000000000
11
-40.3510841283608
21
-5.69049103436531
31
0.000000000000000
  0
LINE
  5
F10600
330
F10601
100
AcDbEntity
8
Geo
100
AcDbLine
10
-40.3510841283608
20
-5.69049103436531
30
0.000000000000000
11
-40.2510841283608
21
-5.71014452771315
31
0.000000000000000
  0
LINE
  5
F10602
330
F10603
100
AcDbEntity
8
Geo
100
AcDbLine
10
-40.2510841283608
20
-5.71014452771315
30
0.000000000000000
11
-40.1510841283608
21
-5.72939886190856
31
0.000000000000000
  0
LINE
  5
F10604
330
F10605
100
AcDbEntity
8
Geo
100
AcDbLine
10
-40.1510841283608
20
-5.72939886190856
30
0.000000000000000
11
-40.0510841283608
21
-5.74824900638574
31
0.000000000000000
  0
LINE
  5
F10606
330
F10607
100
AcDbEntity
8
Geo
100
AcDbLine
10
-40.0510841283608
20
-5.74824900638574
30
0.000000000000000
11
-39.9510841283608
21
-5.76668799656064
31
0.000000000000000
  0
LINE
  5
F10608
330
F10609
100
AcDbEntity
8
Geo
100
AcDbLine
10
-39.9510841283608
20
-5.76668799656064
30
0.000000000000000
11
-39.8510841283608
21
-5.78470616328635
31
0.000000000000000
  0
LINE
  5
F1060A
330
F1060B
100
AcDbEntity
8
Geo
100
AcDbLine
10
-39.8510841283608
20
-5.78470616328635
30
0.000000000000000
11
-39.7510841283608
21
-5.80229012482412
31
0.000000000000000
  0
LINE
  5
F1060C
330
F1060D
100
AcDbEntity
8
Geo
100
AcDbLine
10
-39.7510841283608
20
-5.80229012482412
30
0.000000000000000
11
-39.6510841283608
21
-5.81942148782217
31
0.000000000000000
  0
LINE
  5
F1060E
330
F1060F
100
AcDbEntity
8
Geo
100
AcDbLine
10
-39.6510841283608
20
-5.81942148782217
30
0.000000000000000
11
-39.5510841283608
21
-5.83607519546137
31
0.000000000000000
  0
LINE
  5
F10610
330
F10611
100
AcDbEntity
8
Geo
100
AcDbLine
10
-39.5510841283608
20
-5.83607519546137
30
0.000000000000000
11
-39.4510841283608
21
-5.85221745050573
31
0.000000000000000
  0
LINE
  5
F10612
330
F10613
100
AcDbEntity
8
Geo
100
AcDbLine
10
-39.4510841283608
20
-5.85221745050573
30
0.000000000000000
11
-39.3510841283608
21
-5.86780312638337
31
0.000000000000000
  0
LINE
  5
F10614
330
F10615
100
AcDbEntity
8
Geo
100
AcDbLine
10
-39.3510841283608
20
-5.86780312638337
30
0.000000000000000
11
-39.2510841283608
21
-5.88277255660438
31
0.000000000000000
  0
LINE
  5
F10616
330
F10617
100
AcDbEntity
8
Geo
100
AcDbLine
10
-39.2510841283608
20
-5.88277255660438
30
0.000000000000000
11
-39.1510841283608
21
-5.89704755452046
31
0.000000000000000
  0
LINE
  5
F10618
330
F10619
100
AcDbEntity
8
Geo
100
AcDbLine
10
-39.1510841283608
20
-5.89704755452046
30
0.000000000000000
11
-39.0510841283608
21
-5.91052644896158
31
0.000000000000000
  0
LINE
  5
F1061A
330
F1061B
100
AcDbEntity
8
Geo
100
AcDbLine
10
-39.0510841283608
20
-5.91052644896158
30
0.000000000000000
11
-38.9510841283608
21
-5.92307780519538
31
0.000000000000000
  0
LINE
  5
F1061C
330
F1061D
100
AcDbEntity
8
Geo
100
AcDbLine
10
-38.9510841283608
20
-5.92307780519538
30
0.000000000000000
11
-38.8510841283608
21
-5.93453229957699
31
0.000000000000000
  0
LINE
  5
F1061E
330
F1061F
100
AcDbEntity
8
Geo
100
AcDbLine
10
-38.8510841283608
20
-5.93453229957699
30
0.000000000000000
11
-38.7510841283608
21
-5.94467187314816
31
0.000000000000000
  0
LINE
  5
F10620
330
F10621
100
AcDbEntity
8
Geo
100
AcDbLine
10
-38.7510841283608
20
-5.94467187314816
30
0.000000000000000
11
-38.6510841283608
21
-5.95321471411398
31
0.000000000000000
  0
LINE
  5
F10622
330
F10623
100
AcDbEntity
8
Geo
100
AcDbLine
10
-38.6510841283608
20
-5.95321471411398
30
0.000000000000000
11
-38.5510841283608
21
-5.95979367156687
31
0.000000000000000
  0
LINE
  5
F10624
330
F10625
100
AcDbEntity
8
Geo
100
AcDbLine
10
-38.5510841283608
20
-5.95979367156687
30
0.000000000000000
11
-38.4510841283608
21
-5.96392416955937
31
0.000000000000000
  0
LINE
  5
F10626
330
F10627
100
AcDbEntity
8
Geo
100
AcDbLine
10
-38.4510841283608
20
-5.96392416955937
30
0.000000000000000
11
-38.3510841283608
21
-5.96495525199589
31
0.000000000000000
  0
LINE
  5
F10628
330
F10629
100
AcDbEntity
8
Geo
100
AcDbLine
10
-38.3510841283608
20
-5.96495525199589
30
0.000000000000000
11
-38.2510841283608
21
-5.96199357565100
31
0.000000000000000
  0
LINE
  5
F1062A
330
F1062B
100
AcDbEntity
8
Geo
100
AcDbLine
10
-38.2510841283608
20
-5.96199357565100
30
0.000000000000000
11
-38.1510841283608
21
-5.95378430866667
31
0.000000000000000
  0
LINE
  5
F1062C
330
F1062D
100
AcDbEntity
8
Geo
100
AcDbLine
10
-38.1510841283608
20
-5.95378430866667
30
0.000000000000000
11
-38.0510841283608
21
-5.93852405281453
31
0.000000000000000
  0
LINE
  5
F1062E
330
F1062F
100
AcDbEntity
8
Geo
100
AcDbLine
10
-38.0510841283608
20
-5.93852405281453
30
0.000000000000000
11
-37.9510841283608
21
-5.91356786080107
31
0.000000000000000
  0
LINE
  5
F10630
330
F10631
100
AcDbEntity
8
Geo
100
AcDbLine
10
-37.9510841283608
20
-5.91356786080107
30
0.000000000000000
11
-37.8510841283608
21
-5.87497368984106
31
0.000000000000000
  0
LINE
  5
F10632
330
F10633
100
AcDbEntity
8
Geo
100
AcDbLine
10
-37.8510841283608
20
-5.87497368984106
30
0.000000000000000
11
-37.7510841283608
21
-5.81680180159184
31
0.000000000000000
  0
LINE
  5
F10634
330
F10635
100
AcDbEntity
8
Geo
100
AcDbLine
10
-37.7510841283608
20
-5.81680180159184
30
0.000000000000000
11
-37.6510841283608
21
-5.73005327692575
31
0.000000000000000
  0
LINE
  5
F10636
330
F10637
100
AcDbEntity
8
Geo
100
AcDbLine
10
-37.6510841283608
20
-5.73005327692575
30
0.000000000000000
11
-37.5510841283608
21
-5.60109405900676
31
0.000000000000000
  0
LINE
  5
F10638
330
F10639
100
AcDbEntity
8
Geo
100
AcDbLine
10
-37.5510841283608
20
-5.60109405900676
30
0.000000000000000
11
-37.4510841283608
21
-5.40938137092155
31
0.000000000000000
  0
LINE
  5
F1063A
330
F1063B
100
AcDbEntity
8
Geo
100
AcDbLine
10
-37.4510841283608
20
-5.40938137092155
30
0.000000000000000
11
-37.3510841283608
21
-5.12432360206467
31
0.000000000000000
  0
LINE
  5
F1063C
330
F1063D
100
AcDbEntity
8
Geo
100
AcDbLine
10
-37.3510841283608
20
-5.12432360206467
30
0.000000000000000
11
-37.2510841283608
21
-4.70125016390173
31
0.000000000000000
  0
LINE
  5
F1063E
330
F1063F
100
AcDbEntity
8
Geo
100
AcDbLine
10
-37.2510841283608
20
-4.70125016390173
30
0.000000000000000
11
-37.2510841283608
21
-4.40751771386684
31
0.000000000000000
  0
LINE
  5
F10640
330
F10641
100
AcDbEntity
8
Geo
100
AcDbLine
10
-37.2510841283608
20
-4.40751771386684
30
0.000000000000000
11
-37.2510841283608
21
-4.39932372042286
31
0.000000000000000
  0
LINE
  5
F10642
330
F10643
100
AcDbEntity
8
Geo
100
AcDbLine
10
-37.2510841283608
20
-4.39932372042286
30
0.000000000000000
11
-37.2510841283608
21
-4.58278643766639
31
0.000000000000000
  0
LINE
  5
F10644
330
F10645
100
AcDbEntity
8
Geo
100
AcDbLine
10
-37.2510841283608
20
-4.58278643766639
30
0.000000000000000
11
-37.3510841283608
21
-4.11600808656556
31
0.000000000000000
  0
LINE
  5
F10646
330
F10647
100
AcDbEntity
8
Geo
100
AcDbLine
10
-37.3510841283608
20
-4.11600808656556
30
0.000000000000000
11
-37.4510841283608
21
-3.64728984208594
31
0.000000000000000
  0
LINE
  5
F10648
330
F10649
100
AcDbEntity
8
Geo
100
AcDbLine
10
-37.4510841283608
20
-3.64728984208594
30
0.000000000000000
11
-37.5510841283608
21
-3.18763228252703
31
0.000000000000000
  0
LINE
  5
F1064A
330
F1064B
100
AcDbEntity
8
Geo
100
AcDbLine
10
-37.5510841283608
20
-3.18763228252703
30
0.000000000000000
11
-37.6510841283608
21
-2.74475217299327
31
0.000000000000000
  0
LINE
  5
F1064C
330
F1064D
100
AcDbEntity
8
Geo
100
AcDbLine
10
-37.6510841283608
20
-2.74475217299327
30
0.000000000000000
11
-37.7510841283608
21
-2.32377190539112
31
0.000000000000000
  0
LINE
  5
F1064E
330
F1064F
100
AcDbEntity
8
Geo
100
AcDbLine
10
-37.7510841283608
20
-2.32377190539112
30
0.000000000000000
11
-37.8510841283608
21
-1.92780751018916
31
0.000000000000000
  0
LINE
  5
F10650
330
F10651
100
AcDbEntity
8
Geo
100
AcDbLine
10
-37.8510841283608
20
-1.92780751018916
30
0.000000000000000
11
-37.9510841283608
21
-1.55845553008822
31
0.000000000000000
  0
LINE
  5
F10652
330
F10653
100
AcDbEntity
8
Geo
100
AcDbLine
10
-37.9510841283608
20
-1.55845553008822
30
0.000000000000000
11
-38.0510841283608
21
-1.21618686673441
31
0.000000000000000
  0
LINE
  5
F10654
330
F10655
100
AcDbEntity
8
Geo
100
AcDbLine
10
-38.0510841283608
20
-1.21618686673441
30
0.000000000000000
11
-38.1510841283608
21
-0.900659302043735
31
0.000000000000000
  0
LINE
  5
F10656
330
F10657
100
AcDbEntity
8
Geo
100
AcDbLine
10
-38.1510841283608
20
-0.900659302043735
30
0.000000000000000
11
-38.2510841283608
21
-0.610961392753891
31
0.000000000000000
  0
LINE
  5
F10658
330
F10659
100
AcDbEntity
8
Geo
100
AcDbLine
10
-38.2510841283608
20
-0.610961392753891
30
0.000000000000000
11
-38.3510841283608
21
-0.345799954655281
31
0.000000000000000
  0
LINE
  5
F1065A
330
F1065B
100
AcDbEntity
8
Geo
100
AcDbLine
10
-38.3510841283608
20
-0.345799954655281
30
0.000000000000000
11
-38.4510841283608
21
-0.103642118096539
31
0.000000000000000
  0
LINE
  5
F1065C
330
F1065D
100
AcDbEntity
8
Geo
100
AcDbLine
10
-38.4510841283608
20
-0.103642118096539
30
0.000000000000000
11
-38.5510841283608
21
0.117178598923233
31
0.000000000000000
  0
LINE
  5
F1065E
330
F1065F
100
AcDbEntity
8
Geo
100
AcDbLine
10
-38.5510841283608
20
0.117178598923233
30
0.000000000000000
11
-38.6510841283608
21
0.318384323671151
31
0.000000000000000
  0
LINE
  5
F10660
330
F10661
100
AcDbEntity
8
Geo
100
AcDbLine
10
-38.6510841283608
20
0.318384323671151
30
0.000000000000000
11
-38.7510841283608
21
0.501696552034047
31
0.000000000000000
  0
LINE
  5
F10662
330
F10663
100
AcDbEntity
8
Geo
100
AcDbLine
10
-38.7510841283608
20
0.501696552034047
30
0.000000000000000
11
-38.8510841283608
21
0.668796431635708
31
0.000000000000000
  0
LINE
  5
F10664
330
F10665
100
AcDbEntity
8
Geo
100
AcDbLine
10
-38.8510841283608
20
0.668796431635708
30
0.000000000000000
11
-38.9510841283608
21
0.821297562277791
31
0.000000000000000
  0
LINE
  5
F10666
330
F10667
100
AcDbEntity
8
Geo
100
AcDbLine
10
-38.9510841283608
20
0.821297562277791
30
0.000000000000000
11
-39.0510841283608
21
0.960728168055977
31
0.000000000000000
  0
LINE
  5
F10668
330
F10669
100
AcDbEntity
8
Geo
100
AcDbLine
10
-39.0510841283608
20
0.960728168055977
30
0.000000000000000
11
-39.1510841283608
21
1.08852021924210
31
0.000000000000000
  0
LINE
  5
F1066A
330
F1066B
100
AcDbEntity
8
Geo
100
AcDbLine
10
-39.1510841283608
20
1.08852021924210
30
0.000000000000000
11
-39.2510841283608
21
1.20600365646122
31
0.000000000000000
  0
LINE
  5
F1066C
330
F1066D
100
AcDbEntity
8
Geo
100
AcDbLine
10
-39.2510841283608
20
1.20600365646122
30
0.000000000000000
11
-39.3510841283608
21
1.31440431942542
31
0.000000000000000
  0
LINE
  5
F1066E
330
F1066F
100
AcDbEntity
8
Geo
100
AcDbLine
10
-39.3510841283608
20
1.31440431942542
30
0.000000000000000
11
-39.4510841283608
21
1.41484453053049
31
0.000000000000000
  0
LINE
  5
F10670
330
F10671
100
AcDbEntity
8
Geo
100
AcDbLine
10
-39.4510841283608
20
1.41484453053049
30
0.000000000000000
11
-39.5510841283608
21
1.50834555028409
31
0.000000000000000
  0
LINE
  5
F10672
330
F10673
100
AcDbEntity
8
Geo
100
AcDbLine
10
-39.5510841283608
20
1.50834555028409
30
0.000000000000000
11
-39.6510841283608
21
1.59583132404767
31
0.000000000000000
  0
LINE
  5
F10674
330
F10675
100
AcDbEntity
8
Geo
100
AcDbLine
10
-39.6510841283608
20
1.59583132404767
30
0.000000000000000
11
-39.7510841283608
21
1.67813309215924
31
0.000000000000000
  0
LINE
  5
F10676
330
F10677
100
AcDbEntity
8
Geo
100
AcDbLine
10
-39.7510841283608
20
1.67813309215924
30
0.000000000000000
11
-39.8510841283608
21
1.75599454964883
31
0.000000000000000
  0
LINE
  5
F10678
330
F10679
100
AcDbEntity
8
Geo
100
AcDbLine
10
-39.8510841283608
20
1.75599454964883
30
0.000000000000000
11
-39.9510841283608
21
1.83007732658587
31
0.000000000000000
  0
LINE
  5
F1067A
330
F1067B
100
AcDbEntity
8
Geo
100
AcDbLine
10
-39.9510841283608
20
1.83007732658587
30
0.000000000000000
11
-40.0510841283608
21
1.90096662275406
31
0.000000000000000
  0
LINE
  5
F1067C
330
F1067D
100
AcDbEntity
8
Geo
100
AcDbLine
10
-40.0510841283608
20
1.90096662275406
30
0.000000000000000
11
-40.1510841283608
21
1.96917687636274
31
0.000000000000000
  0
LINE
  5
F1067E
330
F1067F
100
AcDbEntity
8
Geo
100
AcDbLine
10
-40.1510841283608
20
1.96917687636274
30
0.000000000000000
11
-40.2510841283608
21
2.03515738010961
31
0.000000000000000
  0
LINE
  5
F10680
330
F10681
100
AcDbEntity
8
Geo
100
AcDbLine
10
-40.2510841283608
20
2.03515738010961
30
0.000000000000000
11
-40.3510841283608
21
2.09929778232206
31
0.000000000000000
  0
LINE
  5
F10682
330
F10683
100
AcDbEntity
8
Geo
100
AcDbLine
10
-40.3510841283608
20
2.09929778232206
30
0.000000000000000
11
-40.4510841283608
21
2.16193342854394
31
0.000000000000000
  0
LINE
  5
F10684
330
F10685
100
AcDbEntity
8
Geo
100
AcDbLine
10
-40.4510841283608
20
2.16193342854394
30
0.000000000000000
11
-40.5510841283608
21
2.22335051161097
31
0.000000000000000
  0
LINE
  5
F10686
330
F10687
100
AcDbEntity
8
Geo
100
AcDbLine
10
-40.5510841283608
20
2.22335051161097
30
0.000000000000000
11
-40.6510841283608
21
2.28379100731866
31
0.000000000000000
  0
LINE
  5
F10688
330
F10689
100
AcDbEntity
8
Geo
100
AcDbLine
10
-40.6510841283608
20
2.28379100731866
30
0.000000000000000
11
-40.7510841283609
21
2.34345737922578
31
0.000000000000000
  0
LINE
  5
F1068A
330
F1068B
100
AcDbEntity
8
Geo
100
AcDbLine
10
-40.7510841283609
20
2.34345737922578
30
0.000000000000000
11
-40.8510841283609
21
2.40251704068997
31
0.000000000000000
  0
LINE
  5
F1068C
330
F1068D
100
AcDbEntity
8
Geo
100
AcDbLine
10
-40.8510841283609
20
2.40251704068997
30
0.000000000000000
11
-40.9510841283609
21
2.46110656543732
31
0.000000000000000
  0
LINE
  5
F1068E
330
F1068F
100
AcDbEntity
8
Geo
100
AcDbLine
10
-40.9510841283609
20
2.46110656543732
30
0.000000000000000
11
-41.0510841283609
21
2.51933564022095
31
0.000000000000000
  0
LINE
  5
F10690
330
F10691
100
AcDbEntity
8
Geo
100
AcDbLine
10
-41.0510841283609
20
2.51933564022095
30
0.000000000000000
11
-41.1510841283609
21
2.57729075471117
31
0.000000000000000
  0
LINE
  5
F10692
330
F10693
100
AcDbEntity
8
Geo
100
AcDbLine
10
-41.1510841283609
20
2.57729075471117
30
0.000000000000000
11
-41.2510841283609
21
2.63503862489230
31
0.000000000000000
  0
LINE
  5
F10694
330
F10695
100
AcDbEntity
8
Geo
100
AcDbLine
10
-41.2510841283609
20
2.63503862489230
30
0.000000000000000
11
-41.3510841283609
21
2.69262934706810
31
0.000000000000000
  0
LINE
  5
F10696
330
F10697
100
AcDbEntity
8
Geo
100
AcDbLine
10
-41.3510841283609
20
2.69262934706810
30
0.000000000000000
11
-41.4510841283609
21
2.75009928020801
31
0.000000000000000
  0
LINE
  5
F10698
330
F10699
100
AcDbEntity
8
Geo
100
AcDbLine
10
-41.4510841283609
20
2.75009928020801
30
0.000000000000000
11
-41.5510841283609
21
2.80747365487355
31
0.000000000000000
  0
LINE
  5
F1069A
330
F1069B
100
AcDbEntity
8
Geo
100
AcDbLine
10
-41.5510841283609
20
2.80747365487355
30
0.000000000000000
11
-41.6510841283609
21
2.86476890740248
31
0.000000000000000
  0
LINE
  5
F1069C
330
F1069D
100
AcDbEntity
8
Geo
100
AcDbLine
10
-41.6510841283609
20
2.86476890740248
30
0.000000000000000
11
-41.7510841283609
21
2.92199473842886
31
0.000000000000000
  0
LINE
  5
F1069E
330
F1069F
100
AcDbEntity
8
Geo
100
AcDbLine
10
-41.7510841283609
20
2.92199473842886
30
0.000000000000000
11
-41.8510841283609
21
2.97915589520334
31
0.000000000000000
  0
LINE
  5
F106A0
330
F106A1
100
AcDbEntity
8
Geo
100
AcDbLine
10
-41.8510841283609
20
2.97915589520334
30
0.000000000000000
11
-41.9510841283609
21
3.03625367756047
31
0.000000000000000
  0
LINE
  5
F106A2
330
F106A3
100
AcDbEntity
8
Geo
100
AcDbLine
10
-41.9510841283609
20
3.03625367756047
30
0.000000000000000
11
-42.0510841283609
21
3.09328716776456
31
0.000000000000000
  0
LINE
  5
F106A4
330
F106A5
100
AcDbEntity
8
Geo
100
AcDbLine
10
-42.0510841283609
20
3.09328716776456
30
0.000000000000000
11
-42.1510841283608
21
3.15025418485461
31
0.000000000000000
  0
LINE
  5
F106A6
330
F106A7
100
AcDbEntity
8
Geo
100
AcDbLine
10
-42.1510841283608
20
3.15025418485461
30
0.000000000000000
11
-42.2510841283609
21
3.20715196450082
31
0.000000000000000
  0
LINE
  5
F106A8
330
F106A9
100
AcDbEntity
8
Geo
100
AcDbLine
10
-39.9392842461118
20
-6.17866435385947
30
0.000000000000000
11
-39.9510841283608
21
-6.17865957779699
31
0.000000000000000
  0
LINE
  5
F106AA
330
F106AB
100
AcDbEntity
8
Geo
100
AcDbLine
10
-39.9510841283608
20
-6.17865957779699
30
0.000000000000000
11
-40.0510841283608
21
-6.17826802576495
31
0.000000000000000
  0
LINE
  5
F106AC
330
F106AD
100
AcDbEntity
8
Geo
100
AcDbLine
10
-40.0510841283608
20
-6.17826802576495
30
0.000000000000000
11
-40.1510841283608
21
-6.17729817287172
31
0.000000000000000
  0
LINE
  5
F106AE
330
F106AF
100
AcDbEntity
8
Geo
100
AcDbLine
10
-40.1510841283608
20
-6.17729817287172
30
0.000000000000000
11
-40.2510841283608
21
-6.17580635998156
31
0.000000000000000
  0
LINE
  5
F106B0
330
F106B1
100
AcDbEntity
8
Geo
100
AcDbLine
10
-40.2510841283608
20
-6.17580635998156
30
0.000000000000000
11
-40.3510841283608
21
-6.17383396124426
31
0.000000000000000
  0
LINE
  5
F106B2
330
F106B3
100
AcDbEntity
8
Geo
100
AcDbLine
10
-40.3510841283608
20
-6.17383396124426
30
0.000000000000000
11
-40.4510841283608
21
-6.17141063724805
31
0.000000000000000
  0
LINE
  5
F106B4
330
F106B5
100
AcDbEntity
8
Geo
100
AcDbLine
10
-40.4510841283608
20
-6.17141063724805
30
0.000000000000000
11
-40.5510841283608
21
-6.16855697190765
31
0.000000000000000
  0
LINE
  5
F106B6
330
F106B7
100
AcDbEntity
8
Geo
100
AcDbLine
10
-40.5510841283608
20
-6.16855697190765
30
0.000000000000000
11
-40.6510841283608
21
-6.16528660853745
31
0.000000000000000
  0
LINE
  5
F106B8
330
F106B9
100
AcDbEntity
8
Geo
100
AcDbLine
10
-40.6510841283608
20
-6.16528660853745
30
0.000000000000000
11
-40.7510841283609
21
-6.16160797735075
31
0.000000000000000
  0
LINE
  5
F106BA
330
F106BB
100
AcDbEntity
8
Geo
100
AcDbLine
10
-40.7510841283609
20
-6.16160797735075
30
0.000000000000000
11
-40.8510841283609
21
-6.15752568782371
31
0.000000000000000
  0
LINE
  5
F106BC
330
F106BD
100
AcDbEntity
8
Geo
100
AcDbLine
10
-40.8510841283609
20
-6.15752568782371
30
0.000000000000000
11
-40.9510841283609
21
-6.15304164433314
31
0.000000000000000
  0
LINE
  5
F106BE
330
F106BF
100
AcDbEntity
8
Geo
100
AcDbLine
10
-40.9510841283609
20
-6.15304164433314
30
0.000000000000000
11
-41.0510841283609
21
-6.14815593163680
31
0.000000000000000
  0
LINE
  5
F106C0
330
F106C1
100
AcDbEntity
8
Geo
100
AcDbLine
10
-41.0510841283609
20
-6.14815593163680
30
0.000000000000000
11
-41.1510841283609
21
-6.14286750758589
31
0.000000000000000
  0
LINE
  5
F106C2
330
F106C3
100
AcDbEntity
8
Geo
100
AcDbLine
10
-41.1510841283609
20
-6.14286750758589
30
0.000000000000000
11
-41.2510841283609
21
-6.13717473347012
31
0.000000000000000
  0
LINE
  5
F106C4
330
F106C5
100
AcDbEntity
8
Geo
100
AcDbLine
10
-41.2510841283609
20
-6.13717473347012
30
0.000000000000000
11
-41.3510841283609
21
-6.13107576718083
31
0.000000000000000
  0
LINE
  5
F106C6
330
F106C7
100
AcDbEntity
8
Geo
100
AcDbLine
10
-41.3510841283609
20
-6.13107576718083
30
0.000000000000000
11
-41.4510841283609
21
-6.12456884057675
31
0.000000000000000
  0
LINE
  5
F106C8
330
F106C9
100
AcDbEntity
8
Geo
100
AcDbLine
10
-41.4510841283609
20
-6.12456884057675
30
0.000000000000000
11
-41.5510841283609
21
-6.11765243973868
31
0.000000000000000
  0
LINE
  5
F106CA
330
F106CB
100
AcDbEntity
8
Geo
100
AcDbLine
10
-41.5510841283609
20
-6.11765243973868
30
0.000000000000000
11
-41.6510841283609
21
-6.11032540494405
31
0.000000000000000
  0
LINE
  5
F106CC
330
F106CD
100
AcDbEntity
8
Geo
100
AcDbLine
10
-41.6510841283609
20
-6.11032540494405
30
0.000000000000000
11
-41.7510841283609
21
-6.10258696596031
31
0.000000000000000
  0
LINE
  5
F106CE
330
F106CF
100
AcDbEntity
8
Geo
100
AcDbLine
10
-41.7510841283609
20
-6.10258696596031
30
0.000000000000000
11
-41.8510841283609
21
-6.09443672747280
31
0.000000000000000
  0
LINE
  5
F106D0
330
F106D1
100
AcDbEntity
8
Geo
100
AcDbLine
10
-41.8510841283609
20
-6.09443672747280
30
0.000000000000000
11
-41.9510841283609
21
-6.08587461898652
31
0.000000000000000
  0
LINE
  5
F106D2
330
F106D3
100
AcDbEntity
8
Geo
100
AcDbLine
10
-41.9510841283609
20
-6.08587461898652
30
0.000000000000000
11
-42.0510841283609
21
-6.07690082326441
31
0.000000000000000
  0
LINE
  5
F106D4
330
F106D5
100
AcDbEntity
8
Geo
100
AcDbLine
10
-42.0510841283609
20
-6.07690082326441
30
0.000000000000000
11
-42.1510841283608
21
-6.06751569720864
31
0.000000000000000
  0
LINE
  5
F106D6
330
F106D7
100
AcDbEntity
8
Geo
100
AcDbLine
10
-42.1510841283608
20
-6.06751569720864
30
0.000000000000000
11
-42.2510841283609
21
-6.05771969899865
31
0.000000000000000
  0
LINE
  5
F106D8
330
F106D9
100
AcDbEntity
8
Geo
100
AcDbLine
10
-57.2510841283608
20
0.985187853608593
30
0.000000000000000
11
-57.1510841283608
21
0.944101127561594
31
0.000000000000000
  0
LINE
  5
F106DA
330
F106DB
100
AcDbEntity
8
Geo
100
AcDbLine
10
-57.1510841283608
20
0.944101127561594
30
0.000000000000000
11
-57.0510841283608
21
0.901599474269510
31
0.000000000000000
  0
LINE
  5
F106DC
330
F106DD
100
AcDbEntity
8
Geo
100
AcDbLine
10
-57.0510841283608
20
0.901599474269510
30
0.000000000000000
11
-56.9510841283608
21
0.857684814405061
31
0.000000000000000
  0
LINE
  5
F106DE
330
F106DF
100
AcDbEntity
8
Geo
100
AcDbLine
10
-56.9510841283608
20
0.857684814405061
30
0.000000000000000
11
-56.8510841283608
21
0.806919332119794
31
0.000000000000000
  0
LINE
  5
F106E0
330
F106E1
100
AcDbEntity
8
Geo
100
AcDbLine
10
-56.8510841283608
20
0.806919332119794
30
0.000000000000000
11
-56.7510841283608
21
0.750401519954274
31
0.000000000000000
  0
LINE
  5
F106E2
330
F106E3
100
AcDbEntity
8
Geo
100
AcDbLine
10
-56.7510841283608
20
0.750401519954274
30
0.000000000000000
11
-56.6510841283608
21
0.693939485365736
31
0.000000000000000
  0
LINE
  5
F106E4
330
F106E5
100
AcDbEntity
8
Geo
100
AcDbLine
10
-56.6510841283608
20
0.693939485365736
30
0.000000000000000
11
-56.5510841283608
21
0.637536169072384
31
0.000000000000000
  0
LINE
  5
F106E6
330
F106E7
100
AcDbEntity
8
Geo
100
AcDbLine
10
-56.5510841283608
20
0.637536169072384
30
0.000000000000000
11
-56.4510841283608
21
0.581194508734191
31
0.000000000000000
  0
LINE
  5
F106E8
330
F106E9
100
AcDbEntity
8
Geo
100
AcDbLine
10
-56.4510841283608
20
0.581194508734191
30
0.000000000000000
11
-56.3510841283608
21
0.524917438799896
31
0.000000000000000
  0
LINE
  5
F106EA
330
F106EB
100
AcDbEntity
8
Geo
100
AcDbLine
10
-56.3510841283608
20
0.524917438799896
30
0.000000000000000
11
-56.2510841283608
21
0.468707890354171
31
0.000000000000000
  0
LINE
  5
F106EC
330
F106ED
100
AcDbEntity
8
Geo
100
AcDbLine
10
-56.2510841283608
20
0.468707890354171
30
0.000000000000000
11
-56.1510841283608
21
0.412568790964958
31
0.000000000000000
  0
LINE
  5
F106EE
330
F106EF
100
AcDbEntity
8
Geo
100
AcDbLine
10
-56.1510841283608
20
0.412568790964958
30
0.000000000000000
11
-56.0510841283608
21
0.356503064530992
31
0.000000000000000
  0
LINE
  5
F106F0
330
F106F1
100
AcDbEntity
8
Geo
100
AcDbLine
10
-56.0510841283608
20
0.356503064530992
30
0.000000000000000
11
-55.9510841283608
21
0.300513631129517
31
0.000000000000000
  0
LINE
  5
F106F2
330
F106F3
100
AcDbEntity
8
Geo
100
AcDbLine
10
-55.9510841283608
20
0.300513631129517
30
0.000000000000000
11
-55.8510841283608
21
0.244603406864200
31
0.000000000000000
  0
LINE
  5
F106F4
330
F106F5
100
AcDbEntity
8
Geo
100
AcDbLine
10
-55.8510841283608
20
0.244603406864200
30
0.000000000000000
11
-55.7510841283608
21
0.188775303713250
31
0.000000000000000
  0
LINE
  5
F106F6
330
F106F7
100
AcDbEntity
8
Geo
100
AcDbLine
10
-55.7510841283608
20
0.188775303713250
30
0.000000000000000
11
-55.6510841283608
21
0.133032229377752
31
0.000000000000000
  0
LINE
  5
F106F8
330
F106F9
100
AcDbEntity
8
Geo
100
AcDbLine
10
-55.6510841283608
20
0.133032229377752
30
0.000000000000000
11
-55.5510841283608
21
0.0773770871302246
31
0.000000000000000
  0
LINE
  5
F106FA
330
F106FB
100
AcDbEntity
8
Geo
100
AcDbLine
10
-55.5510841283608
20
0.0773770871302246
30
0.000000000000000
11
-55.4510841283608
21
0.0218127756634150
31
0.000000000000000
  0
LINE
  5
F106FC
330
F106FD
100
AcDbEntity
8
Geo
100
AcDbLine
10
-55.4510841283608
20
0.0218127756634150
30
0.000000000000000
11
-55.3510841283608
21
-0.0336578110606824
31
0.000000000000000
  0
LINE
  5
F106FE
330
F106FF
100
AcDbEntity
8
Geo
100
AcDbLine
10
-55.3510841283608
20
-0.0336578110606824
30
0.000000000000000
11
-55.2510841283608
21
-0.0890317839615493
31
0.000000000000000
  0
LINE
  5
F10700
330
F10701
100
AcDbEntity
8
Geo
100
AcDbLine
10
-55.2510841283608
20
-0.0890317839615493
30
0.000000000000000
11
-55.1510841283608
21
-0.144306258990615
31
0.000000000000000
  0
LINE
  5
F10702
330
F10703
100
AcDbEntity
8
Geo
100
AcDbLine
10
-55.1510841283608
20
-0.144306258990615
30
0.000000000000000
11
-55.0510841283608
21
-0.199478357281468
31
0.000000000000000
  0
LINE
  5
F10704
330
F10705
100
AcDbEntity
8
Geo
100
AcDbLine
10
-55.0510841283608
20
-0.199478357281468
30
0.000000000000000
11
-54.9510841283608
21
-0.254545205299791
31
0.000000000000000
  0
LINE
  5
F10706
330
F10707
100
AcDbEntity
8
Geo
100
AcDbLine
10
-54.9510841283608
20
-0.254545205299791
30
0.000000000000000
11
-54.8510841283608
21
-0.309503934993033
31
0.000000000000000
  0
LINE
  5
F10708
330
F10709
100
AcDbEntity
8
Geo
100
AcDbLine
10
-54.8510841283608
20
-0.309503934993033
30
0.000000000000000
11
-54.7510841283608
21
-0.364351683939780
31
0.000000000000000
  0
LINE
  5
F1070A
330
F1070B
100
AcDbEntity
8
Geo
100
AcDbLine
10
-54.7510841283608
20
-0.364351683939780
30
0.000000000000000
11
-54.6510841283608
21
-0.419085595498839
31
0.000000000000000
  0
LINE
  5
F1070C
330
F1070D
100
AcDbEntity
8
Geo
100
AcDbLine
10
-54.6510841283608
20
-0.419085595498839
30
0.000000000000000
11
-54.5510841283608
21
-0.473702818958022
31
0.000000000000000
  0
LINE
  5
F1070E
330
F1070F
100
AcDbEntity
8
Geo
100
AcDbLine
10
-54.5510841283608
20
-0.473702818958022
30
0.000000000000000
11
-54.4510841283608
21
-0.528200509682621
31
0.000000000000000
  0
LINE
  5
F10710
330
F10711
100
AcDbEntity
8
Geo
100
AcDbLine
10
-54.4510841283608
20
-0.528200509682621
30
0.000000000000000
11
-54.3510841283608
21
-0.582575829263564
31
0.000000000000000
  0
LINE
  5
F10712
330
F10713
100
AcDbEntity
8
Geo
100
AcDbLine
10
-54.3510841283608
20
-0.582575829263564
30
0.000000000000000
11
-54.2510841283608
21
-0.636825945665249
31
0.000000000000000
  0
LINE
  5
F10714
330
F10715
100
AcDbEntity
8
Geo
100
AcDbLine
10
-54.2510841283608
20
-0.636825945665249
30
0.000000000000000
11
-54.1510841283608
21
-0.690948033373042
31
0.000000000000000
  0
LINE
  5
F10716
330
F10717
100
AcDbEntity
8
Geo
100
AcDbLine
10
-54.1510841283608
20
-0.690948033373042
30
0.000000000000000
11
-54.0510841283608
21
-0.744939273540441
31
0.000000000000000
  0
LINE
  5
F10718
330
F10719
100
AcDbEntity
8
Geo
100
AcDbLine
10
-54.0510841283608
20
-0.744939273540441
30
0.000000000000000
11
-53.9510841283608
21
-0.798796854135897
31
0.000000000000000
  0
LINE
  5
F1071A
330
F1071B
100
AcDbEntity
8
Geo
100
AcDbLine
10
-53.9510841283608
20
-0.798796854135897
30
0.000000000000000
11
-53.8510841283608
21
-0.852517970089259
31
0.000000000000000
  0
LINE
  5
F1071C
330
F1071D
100
AcDbEntity
8
Geo
100
AcDbLine
10
-53.8510841283608
20
-0.852517970089259
30
0.000000000000000
11
-53.7510841283608
21
-0.906099823437881
31
0.000000000000000
  0
LINE
  5
F1071E
330
F1071F
100
AcDbEntity
8
Geo
100
AcDbLine
10
-53.7510841283608
20
-0.906099823437881
30
0.000000000000000
11
-53.6510841283608
21
-0.959539623472349
31
0.000000000000000
  0
LINE
  5
F10720
330
F10721
100
AcDbEntity
8
Geo
100
AcDbLine
10
-53.6510841283608
20
-0.959539623472349
30
0.000000000000000
11
-53.5510841283608
21
-1.01283458688183
31
0.000000000000000
  0
LINE
  5
F10722
330
F10723
100
AcDbEntity
8
Geo
100
AcDbLine
10
-53.5510841283608
20
-1.01283458688183
30
0.000000000000000
11
-53.4510841283608
21
-1.06598193789901
31
0.000000000000000
  0
LINE
  5
F10724
330
F10725
100
AcDbEntity
8
Geo
100
AcDbLine
10
-53.4510841283608
20
-1.06598193789901
30
0.000000000000000
11
-53.3510841283608
21
-1.11897890844472
31
0.000000000000000
  0
LINE
  5
F10726
330
F10727
100
AcDbEntity
8
Geo
100
AcDbLine
10
-53.3510841283608
20
-1.11897890844472
30
0.000000000000000
11
-53.2510841283608
21
-1.17182273827206
31
0.000000000000000
  0
LINE
  5
F10728
330
F10729
100
AcDbEntity
8
Geo
100
AcDbLine
10
-53.2510841283608
20
-1.17182273827206
30
0.000000000000000
11
-53.1510841283608
21
-1.22451067511016
31
0.000000000000000
  0
LINE
  5
F1072A
330
F1072B
100
AcDbEntity
8
Geo
100
AcDbLine
10
-53.1510841283608
20
-1.22451067511016
30
0.000000000000000
11
-53.0510841283608
21
-1.27703997480756
31
0.000000000000000
  0
LINE
  5
F1072C
330
F1072D
100
AcDbEntity
8
Geo
100
AcDbLine
10
-53.0510841283608
20
-1.27703997480756
30
0.000000000000000
11
-52.9510841283608
21
-1.32940790147511
31
0.000000000000000
  0
LINE
  5
F1072E
330
F1072F
100
AcDbEntity
8
Geo
100
AcDbLine
10
-52.9510841283608
20
-1.32940790147511
30
0.000000000000000
11
-52.8510841283608
21
-1.38161172762846
31
0.000000000000000
  0
LINE
  5
F10730
330
F10731
100
AcDbEntity
8
Geo
100
AcDbLine
10
-52.8510841283608
20
-1.38161172762846
30
0.000000000000000
11
-52.7510841283608
21
-1.43364873433014
31
0.000000000000000
  0
LINE
  5
F10732
330
F10733
100
AcDbEntity
8
Geo
100
AcDbLine
10
-52.7510841283608
20
-1.43364873433014
30
0.000000000000000
11
-52.6510841283608
21
-1.48551621133115
31
0.000000000000000
  0
LINE
  5
F10734
330
F10735
100
AcDbEntity
8
Geo
100
AcDbLine
10
-52.6510841283608
20
-1.48551621133115
30
0.000000000000000
11
-52.5510841283608
21
-1.53721145721211
31
0.000000000000000
  0
LINE
  5
F10736
330
F10737
100
AcDbEntity
8
Geo
100
AcDbLine
10
-52.5510841283608
20
-1.53721145721211
30
0.000000000000000
11
-52.4510841283608
21
-1.58873177952399
31
0.000000000000000
  0
LINE
  5
F10738
330
F10739
100
AcDbEntity
8
Geo
100
AcDbLine
10
-52.4510841283608
20
-1.58873177952399
30
0.000000000000000
11
-52.3510841283608
21
-1.64007449492832
31
0.000000000000000
  0
LINE
  5
F1073A
330
F1073B
100
AcDbEntity
8
Geo
100
AcDbLine
10
-52.3510841283608
20
-1.64007449492832
30
0.000000000000000
11
-52.2510841283608
21
-1.69123692933693
31
0.000000000000000
  0
LINE
  5
F1073C
330
F1073D
100
AcDbEntity
8
Geo
100
AcDbLine
10
-52.2510841283608
20
-1.69123692933693
30
0.000000000000000
11
-52.1510841283608
21
-1.74221641805128
31
0.000000000000000
  0
LINE
  5
F1073E
330
F1073F
100
AcDbEntity
8
Geo
100
AcDbLine
10
-52.1510841283608
20
-1.74221641805128
30
0.000000000000000
11
-52.0510841283608
21
-1.79301030590118
31
0.000000000000000
  0
LINE
  5
F10740
330
F10741
100
AcDbEntity
8
Geo
100
AcDbLine
10
-52.0510841283608
20
-1.79301030590118
30
0.000000000000000
11
-51.9510841283608
21
-1.84361594738313
31
0.000000000000000
  0
LINE
  5
F10742
330
F10743
100
AcDbEntity
8
Geo
100
AcDbLine
10
-51.9510841283608
20
-1.84361594738313
30
0.000000000000000
11
-51.8510841283608
21
-1.89403070679805
31
0.000000000000000
  0
LINE
  5
F10744
330
F10745
100
AcDbEntity
8
Geo
100
AcDbLine
10
-51.8510841283608
20
-1.89403070679805
30
0.000000000000000
11
-51.7510841283608
21
-1.94425195838865
31
0.000000000000000
  0
LINE
  5
F10746
330
F10747
100
AcDbEntity
8
Geo
100
AcDbLine
10
-51.7510841283608
20
-1.94425195838865
30
0.000000000000000
11
-51.6510841283608
21
-1.99427708647607
31
0.000000000000000
  0
LINE
  5
F10748
330
F10749
100
AcDbEntity
8
Geo
100
AcDbLine
10
-51.6510841283608
20
-1.99427708647607
30
0.000000000000000
11
-51.5510841283608
21
-2.04410348559621
31
0.000000000000000
  0
LINE
  5
F1074A
330
F1074B
100
AcDbEntity
8
Geo
100
AcDbLine
10
-51.5510841283608
20
-2.04410348559621
30
0.000000000000000
11
-51.4510841283608
21
-2.09372856063538
31
0.000000000000000
  0
LINE
  5
F1074C
330
F1074D
100
AcDbEntity
8
Geo
100
AcDbLine
10
-51.4510841283608
20
-2.09372856063538
30
0.000000000000000
11
-51.3510841283608
21
-2.14314972696547
31
0.000000000000000
  0
LINE
  5
F1074E
330
F1074F
100
AcDbEntity
8
Geo
100
AcDbLine
10
-51.3510841283608
20
-2.14314972696547
30
0.000000000000000
11
-51.2510841283608
21
-2.19236441057857
31
0.000000000000000
  0
LINE
  5
F10750
330
F10751
100
AcDbEntity
8
Geo
100
AcDbLine
10
-51.2510841283608
20
-2.19236441057857
30
0.000000000000000
11
-51.1510841283608
21
-2.24137004822103
31
0.000000000000000
  0
LINE
  5
F10752
330
F10753
100
AcDbEntity
8
Geo
100
AcDbLine
10
-51.1510841283608
20
-2.24137004822103
30
0.000000000000000
11
-51.0510841283608
21
-2.29016408752698
31
0.000000000000000
  0
LINE
  5
F10754
330
F10755
100
AcDbEntity
8
Geo
100
AcDbLine
10
-51.0510841283608
20
-2.29016408752698
30
0.000000000000000
11
-50.9510841283608
21
-2.33874398715123
31
0.000000000000000
  0
LINE
  5
F10756
330
F10757
100
AcDbEntity
8
Geo
100
AcDbLine
10
-50.9510841283608
20
-2.33874398715123
30
0.000000000000000
11
-50.8510841283608
21
-2.38710721690165
31
0.000000000000000
  0
LINE
  5
F10758
330
F10759
100
AcDbEntity
8
Geo
100
AcDbLine
10
-50.8510841283608
20
-2.38710721690165
30
0.000000000000000
11
-50.7510841283608
21
-2.43525125787097
31
0.000000000000000
  0
LINE
  5
F1075A
330
F1075B
100
AcDbEntity
8
Geo
100
AcDbLine
10
-50.7510841283608
20
-2.43525125787097
30
0.000000000000000
11
-50.6510841283608
21
-2.48317360256793
31
0.000000000000000
  0
LINE
  5
F1075C
330
F1075D
100
AcDbEntity
8
Geo
100
AcDbLine
10
-50.6510841283608
20
-2.48317360256793
30
0.000000000000000
11
-50.5510841283608
21
-2.53087175504791
31
0.000000000000000
  0
LINE
  5
F1075E
330
F1075F
100
AcDbEntity
8
Geo
100
AcDbLine
10
-50.5510841283608
20
-2.53087175504791
30
0.000000000000000
11
-50.4510841283608
21
-2.57834323104292
31
0.000000000000000
  0
LINE
  5
F10760
330
F10761
100
AcDbEntity
8
Geo
100
AcDbLine
10
-50.4510841283608
20
-2.57834323104292
30
0.000000000000000
11
-50.3510841283608
21
-2.62558555809098
31
0.000000000000000
  0
LINE
  5
F10762
330
F10763
100
AcDbEntity
8
Geo
100
AcDbLine
10
-50.3510841283608
20
-2.62558555809098
30
0.000000000000000
11
-50.2510841283608
21
-2.67259627566491
31
0.000000000000000
  0
LINE
  5
F10764
330
F10765
100
AcDbEntity
8
Geo
100
AcDbLine
10
-50.2510841283608
20
-2.67259627566491
30
0.000000000000000
11
-50.1510841283608
21
-2.71937293530046
31
0.000000000000000
  0
LINE
  5
F10766
330
F10767
100
AcDbEntity
8
Geo
100
AcDbLine
10
-50.1510841283608
20
-2.71937293530046
30
0.000000000000000
11
-50.0510841283608
21
-2.76591310072384
31
0.000000000000000
  0
LINE
  5
F10768
330
F10769
100
AcDbEntity
8
Geo
100
AcDbLine
10
-50.0510841283608
20
-2.76591310072384
30
0.000000000000000
11
-49.9510841283608
21
-2.81221434797863
31
0.000000000000000
  0
LINE
  5
F1076A
330
F1076B
100
AcDbEntity
8
Geo
100
AcDbLine
10
-49.9510841283608
20
-2.81221434797863
30
0.000000000000000
11
-49.8510841283608
21
-2.85827426555200
31
0.000000000000000
  0
LINE
  5
F1076C
330
F1076D
100
AcDbEntity
8
Geo
100
AcDbLine
10
-49.8510841283608
20
-2.85827426555200
30
0.000000000000000
11
-49.7510841283608
21
-2.90409045450032
31
0.000000000000000
  0
LINE
  5
F1076E
330
F1076F
100
AcDbEntity
8
Geo
100
AcDbLine
10
-49.7510841283608
20
-2.90409045450032
30
0.000000000000000
11
-49.6510841283608
21
-2.94966052857412
31
0.000000000000000
  0
LINE
  5
F10770
330
F10771
100
AcDbEntity
8
Geo
100
AcDbLine
10
-49.6510841283608
20
-2.94966052857412
30
0.000000000000000
11
-49.5510841283608
21
-2.99498211434232
31
0.000000000000000
  0
LINE
  5
F10772
330
F10773
100
AcDbEntity
8
Geo
100
AcDbLine
10
-49.5510841283608
20
-2.99498211434232
30
0.000000000000000
11
-49.4510841283608
21
-3.04005285131592
31
0.000000000000000
  0
LINE
  5
F10774
330
F10775
100
AcDbEntity
8
Geo
100
AcDbLine
10
-49.4510841283608
20
-3.04005285131592
30
0.000000000000000
11
-49.3510841283608
21
-3.08487039207089
31
0.000000000000000
  0
LINE
  5
F10776
330
F10777
100
AcDbEntity
8
Geo
100
AcDbLine
10
-49.3510841283608
20
-3.08487039207089
30
0.000000000000000
11
-49.2510841283608
21
-3.12943240237044
31
0.000000000000000
  0
LINE
  5
F10778
330
F10779
100
AcDbEntity
8
Geo
100
AcDbLine
10
-49.2510841283608
20
-3.12943240237044
30
0.000000000000000
11
-49.1510841283608
21
-3.17373656128662
31
0.000000000000000
  0
LINE
  5
F1077A
330
F1077B
100
AcDbEntity
8
Geo
100
AcDbLine
10
-49.1510841283608
20
-3.17373656128662
30
0.000000000000000
11
-49.0510841283608
21
-3.21778056132116
31
0.000000000000000
  0
LINE
  5
F1077C
330
F1077D
100
AcDbEntity
8
Geo
100
AcDbLine
10
-49.0510841283608
20
-3.21778056132116
30
0.000000000000000
11
-48.9510841283608
21
-3.26156210852568
31
0.000000000000000
  0
LINE
  5
F1077E
330
F1077F
100
AcDbEntity
8
Geo
100
AcDbLine
10
-48.9510841283608
20
-3.26156210852568
30
0.000000000000000
11
-48.8510841283608
21
-3.30507892262117
31
0.000000000000000
  0
LINE
  5
F10780
330
F10781
100
AcDbEntity
8
Geo
100
AcDbLine
10
-48.8510841283608
20
-3.30507892262117
30
0.000000000000000
11
-48.7510841283608
21
-3.34832873711672
31
0.000000000000000
  0
LINE
  5
F10782
330
F10783
100
AcDbEntity
8
Geo
100
AcDbLine
10
-48.7510841283608
20
-3.34832873711672
30
0.000000000000000
11
-48.6510841283608
21
-3.39130929942761
31
0.000000000000000
  0
LINE
  5
F10784
330
F10785
100
AcDbEntity
8
Geo
100
AcDbLine
10
-48.6510841283608
20
-3.39130929942761
30
0.000000000000000
11
-48.5510841283608
21
-3.43401837099260
31
0.000000000000000
  0
LINE
  5
F10786
330
F10787
100
AcDbEntity
8
Geo
100
AcDbLine
10
-48.5510841283608
20
-3.43401837099260
30
0.000000000000000
11
-48.4510841283608
21
-3.47645372739053
31
0.000000000000000
  0
LINE
  5
F10788
330
F10789
100
AcDbEntity
8
Geo
100
AcDbLine
10
-48.4510841283608
20
-3.47645372739053
30
0.000000000000000
11
-48.3510841283608
21
-3.51861315845619
31
0.000000000000000
  0
LINE
  5
F1078A
330
F1078B
100
AcDbEntity
8
Geo
100
AcDbLine
10
-48.3510841283608
20
-3.51861315845619
30
0.000000000000000
11
-48.2510841283608
21
-3.56049446839540
31
0.000000000000000
  0
LINE
  5
F1078C
330
F1078D
100
AcDbEntity
8
Geo
100
AcDbLine
10
-48.2510841283608
20
-3.56049446839540
30
0.000000000000000
11
-48.1510841283608
21
-3.60209547589940
31
0.000000000000000
  0
LINE
  5
F1078E
330
F1078F
100
AcDbEntity
8
Geo
100
AcDbLine
10
-48.1510841283608
20
-3.60209547589940
30
0.000000000000000
11
-48.0510841283608
21
-3.64341401425846
31
0.000000000000000
  0
LINE
  5
F10790
330
F10791
100
AcDbEntity
8
Geo
100
AcDbLine
10
-48.0510841283608
20
-3.64341401425846
30
0.000000000000000
11
-47.9510841283608
21
-3.68444793147472
31
0.000000000000000
  0
LINE
  5
F10792
330
F10793
100
AcDbEntity
8
Geo
100
AcDbLine
10
-47.9510841283608
20
-3.68444793147472
30
0.000000000000000
11
-47.8510841283608
21
-3.72519509037425
31
0.000000000000000
  0
LINE
  5
F10794
330
F10795
100
AcDbEntity
8
Geo
100
AcDbLine
10
-47.8510841283608
20
-3.72519509037425
30
0.000000000000000
11
-47.7510841283608
21
-3.76565336871842
31
0.000000000000000
  0
LINE
  5
F10796
330
F10797
100
AcDbEntity
8
Geo
100
AcDbLine
10
-47.7510841283608
20
-3.76565336871842
30
0.000000000000000
11
-47.6510841283608
21
-3.80582065931437
31
0.000000000000000
  0
LINE
  5
F10798
330
F10799
100
AcDbEntity
8
Geo
100
AcDbLine
10
-47.6510841283608
20
-3.80582065931437
30
0.000000000000000
11
-47.5510841283608
21
-3.84569487012479
31
0.000000000000000
  0
LINE
  5
F1079A
330
F1079B
100
AcDbEntity
8
Geo
100
AcDbLine
10
-47.5510841283608
20
-3.84569487012479
30
0.000000000000000
11
-47.4510841283608
21
-3.88527392437689
31
0.000000000000000
  0
LINE
  5
F1079C
330
F1079D
100
AcDbEntity
8
Geo
100
AcDbLine
10
-47.4510841283608
20
-3.88527392437689
30
0.000000000000000
11
-47.3510841283608
21
-3.92455576067054
31
0.000000000000000
  0
LINE
  5
F1079E
330
F1079F
100
AcDbEntity
8
Geo
100
AcDbLine
10
-47.3510841283608
20
-3.92455576067054
30
0.000000000000000
11
-47.2510841283608
21
-3.96353833308563
31
0.000000000000000
  0
LINE
  5
F107A0
330
F107A1
100
AcDbEntity
8
Geo
100
AcDbLine
10
-47.2510841283608
20
-3.96353833308563
30
0.000000000000000
11
-47.1510841283608
21
-4.00221961128868
31
0.000000000000000
  0
LINE
  5
F107A2
330
F107A3
100
AcDbEntity
8
Geo
100
AcDbLine
10
-47.1510841283608
20
-4.00221961128868
30
0.000000000000000
11
-47.0510841283608
21
-4.04059758063853
31
0.000000000000000
  0
LINE
  5
F107A4
330
F107A5
100
AcDbEntity
8
Geo
100
AcDbLine
10
-47.0510841283608
20
-4.04059758063853
30
0.000000000000000
11
-46.9510841283608
21
-4.07867024229127
31
0.000000000000000
  0
LINE
  5
F107A6
330
F107A7
100
AcDbEntity
8
Geo
100
AcDbLine
10
-46.9510841283608
20
-4.07867024229127
30
0.000000000000000
11
-46.8510841283608
21
-4.11643561330438
31
0.000000000000000
  0
LINE
  5
F107A8
330
F107A9
100
AcDbEntity
8
Geo
100
AcDbLine
10
-46.8510841283608
20
-4.11643561330438
30
0.000000000000000
11
-46.7510841283608
21
-4.15389172673999
31
0.000000000000000
  0
LINE
  5
F107AA
330
F107AB
100
AcDbEntity
8
Geo
100
AcDbLine
10
-46.7510841283608
20
-4.15389172673999
30
0.000000000000000
11
-46.6510841283608
21
-4.19103663176734
31
0.000000000000000
  0
LINE
  5
F107AC
330
F107AD
100
AcDbEntity
8
Geo
100
AcDbLine
10
-46.6510841283608
20
-4.19103663176734
30
0.000000000000000
11
-46.5510841283608
21
-4.22786839376434
31
0.000000000000000
  0
LINE
  5
F107AE
330
F107AF
100
AcDbEntity
8
Geo
100
AcDbLine
10
-46.5510841283608
20
-4.22786839376434
30
0.000000000000000
11
-46.4510841283608
21
-4.26438509441839
31
0.000000000000000
  0
LINE
  5
F107B0
330
F107B1
100
AcDbEntity
8
Geo
100
AcDbLine
10
-46.4510841283608
20
-4.26438509441839
30
0.000000000000000
11
-46.3510841283608
21
-4.30058483182625
31
0.000000000000000
  0
LINE
  5
F107B2
330
F107B3
100
AcDbEntity
8
Geo
100
AcDbLine
10
-46.3510841283608
20
-4.30058483182625
30
0.000000000000000
11
-46.2510841283608
21
-4.33646572059311
31
0.000000000000000
  0
LINE
  5
F107B4
330
F107B5
100
AcDbEntity
8
Geo
100
AcDbLine
10
-46.2510841283608
20
-4.33646572059311
30
0.000000000000000
11
-46.1510841283608
21
-4.37202589193079
31
0.000000000000000
  0
LINE
  5
F107B6
330
F107B7
100
AcDbEntity
8
Geo
100
AcDbLine
10
-46.1510841283608
20
-4.37202589193079
30
0.000000000000000
11
-46.0510841283608
21
-4.40726349375508
31
0.000000000000000
  0
LINE
  5
F107B8
330
F107B9
100
AcDbEntity
8
Geo
100
AcDbLine
10
-46.0510841283608
20
-4.40726349375508
30
0.000000000000000
11
-45.9510841283608
21
-4.44217669078217
31
0.000000000000000
  0
LINE
  5
F107BA
330
F107BB
100
AcDbEntity
8
Geo
100
AcDbLine
10
-45.9510841283608
20
-4.44217669078217
30
0.000000000000000
11
-45.8510841283608
21
-4.47676366462428
31
0.000000000000000
  0
LINE
  5
F107BC
330
F107BD
100
AcDbEntity
8
Geo
100
AcDbLine
10
-45.8510841283608
20
-4.47676366462428
30
0.000000000000000
11
-45.7510841283608
21
-4.51102261388435
31
0.000000000000000
  0
LINE
  5
F107BE
330
F107BF
100
AcDbEntity
8
Geo
100
AcDbLine
10
-45.7510841283608
20
-4.51102261388435
30
0.000000000000000
11
-45.6510841283608
21
-4.54495175424984
31
0.000000000000000
  0
LINE
  5
F107C0
330
F107C1
100
AcDbEntity
8
Geo
100
AcDbLine
10
-45.6510841283608
20
-4.54495175424984
30
0.000000000000000
11
-45.5510841283608
21
-4.57854931858570
31
0.000000000000000
  0
LINE
  5
F107C2
330
F107C3
100
AcDbEntity
8
Geo
100
AcDbLine
10
-45.5510841283608
20
-4.57854931858570
30
0.000000000000000
11
-45.4510841283608
21
-4.61181355702637
31
0.000000000000000
  0
LINE
  5
F107C4
330
F107C5
100
AcDbEntity
8
Geo
100
AcDbLine
10
-45.4510841283608
20
-4.61181355702637
30
0.000000000000000
11
-45.3510841283608
21
-4.64474273706696
31
0.000000000000000
  0
LINE
  5
F107C6
330
F107C7
100
AcDbEntity
8
Geo
100
AcDbLine
10
-45.3510841283608
20
-4.64474273706696
30
0.000000000000000
11
-45.2510841283608
21
-4.67733514365345
31
0.000000000000000
  0
LINE
  5
F107C8
330
F107C9
100
AcDbEntity
8
Geo
100
AcDbLine
10
-45.2510841283608
20
-4.67733514365345
30
0.000000000000000
11
-45.1510841283608
21
-4.70958907927204
31
0.000000000000000
  0
LINE
  5
F107CA
330
F107CB
100
AcDbEntity
8
Geo
100
AcDbLine
10
-45.1510841283608
20
-4.70958907927204
30
0.000000000000000
11
-45.0510841283608
21
-4.74150286403753
31
0.000000000000000
  0
LINE
  5
F107CC
330
F107CD
100
AcDbEntity
8
Geo
100
AcDbLine
10
-45.0510841283608
20
-4.74150286403753
30
0.000000000000000
11
-44.9510841283608
21
-4.77307483578085
31
0.000000000000000
  0
LINE
  5
F107CE
330
F107CF
100
AcDbEntity
8
Geo
100
AcDbLine
10
-44.9510841283608
20
-4.77307483578085
30
0.000000000000000
11
-44.8510841283608
21
-4.80430335013561
31
0.000000000000000
  0
LINE
  5
F107D0
330
F107D1
100
AcDbEntity
8
Geo
100
AcDbLine
10
-44.8510841283608
20
-4.80430335013561
30
0.000000000000000
11
-44.7510841283608
21
-4.83518678062374
31
0.000000000000000
  0
LINE
  5
F107D2
330
F107D3
100
AcDbEntity
8
Geo
100
AcDbLine
10
-44.7510841283608
20
-4.83518678062374
30
0.000000000000000
11
-44.6510841283608
21
-4.86572351874023
31
0.000000000000000
  0
LINE
  5
F107D4
330
F107D5
100
AcDbEntity
8
Geo
100
AcDbLine
10
-44.6510841283608
20
-4.86572351874023
30
0.000000000000000
11
-44.5510841283608
21
-4.89591197403685
31
0.000000000000000
  0
LINE
  5
F107D6
330
F107D7
100
AcDbEntity
8
Geo
100
AcDbLine
10
-44.5510841283608
20
-4.89591197403685
30
0.000000000000000
11
-44.4510841283608
21
-4.92575057420507
31
0.000000000000000
  0
LINE
  5
F107D8
330
F107D9
100
AcDbEntity
8
Geo
100
AcDbLine
10
-44.4510841283608
20
-4.92575057420507
30
0.000000000000000
11
-44.3510841283608
21
-4.95523776515786
31
0.000000000000000
  0
LINE
  5
F107DA
330
F107DB
100
AcDbEntity
8
Geo
100
AcDbLine
10
-44.3510841283608
20
-4.95523776515786
30
0.000000000000000
11
-44.2510841283608
21
-4.98437201111070
31
0.000000000000000
  0
LINE
  5
F107DC
330
F107DD
100
AcDbEntity
8
Geo
100
AcDbLine
10
-44.2510841283608
20
-4.98437201111070
30
0.000000000000000
11
-44.1510841283608
21
-5.01315179466152
31
0.000000000000000
  0
LINE
  5
F107DE
330
F107DF
100
AcDbEntity
8
Geo
100
AcDbLine
10
-44.1510841283608
20
-5.01315179466152
30
0.000000000000000
11
-44.0510841283608
21
-5.04157561686977
31
0.000000000000000
  0
LINE
  5
F107E0
330
F107E1
100
AcDbEntity
8
Geo
100
AcDbLine
10
-44.0510841283608
20
-5.04157561686977
30
0.000000000000000
11
-43.9510841283608
21
-5.06964199733448
31
0.000000000000000
  0
LINE
  5
F107E2
330
F107E3
100
AcDbEntity
8
Geo
100
AcDbLine
10
-43.9510841283608
20
-5.06964199733448
30
0.000000000000000
11
-43.8510841283608
21
-5.09734947427134
31
0.000000000000000
  0
LINE
  5
F107E4
330
F107E5
100
AcDbEntity
8
Geo
100
AcDbLine
10
-43.8510841283608
20
-5.09734947427134
30
0.000000000000000
11
-43.7510841283608
21
-5.12469660458885
31
0.000000000000000
  0
LINE
  5
F107E6
330
F107E7
100
AcDbEntity
8
Geo
100
AcDbLine
10
-43.7510841283608
20
-5.12469660458885
30
0.000000000000000
11
-43.6510841283608
21
-5.15168196396349
31
0.000000000000000
  0
LINE
  5
F107E8
330
F107E9
100
AcDbEntity
8
Geo
100
AcDbLine
10
-43.6510841283608
20
-5.15168196396349
30
0.000000000000000
11
-43.5510841283608
21
-5.17830414691389
31
0.000000000000000
  0
LINE
  5
F107EA
330
F107EB
100
AcDbEntity
8
Geo
100
AcDbLine
10
-43.5510841283608
20
-5.17830414691389
30
0.000000000000000
11
-43.4510841283608
21
-5.20456176687405
31
0.000000000000000
  0
LINE
  5
F107EC
330
F107ED
100
AcDbEntity
8
Geo
100
AcDbLine
10
-43.4510841283608
20
-5.20456176687405
30
0.000000000000000
11
-43.3510841283609
21
-5.23045345626553
31
0.000000000000000
  0
LINE
  5
F107EE
330
F107EF
100
AcDbEntity
8
Geo
100
AcDbLine
10
-43.3510841283609
20
-5.23045345626553
30
0.000000000000000
11
-43.2510841283609
21
-5.25597786656868
31
0.000000000000000
  0
LINE
  5
F107F0
330
F107F1
100
AcDbEntity
8
Geo
100
AcDbLine
10
-43.2510841283609
20
-5.25597786656868
30
0.000000000000000
11
-43.1510841283608
21
-5.28113366839292
31
0.000000000000000
  0
LINE
  5
F107F2
330
F107F3
100
AcDbEntity
8
Geo
100
AcDbLine
10
-43.1510841283608
20
-5.28113366839292
30
0.000000000000000
11
-43.0510841283608
21
-5.30591955154591
31
0.000000000000000
  0
LINE
  5
F107F4
330
F107F5
100
AcDbEntity
8
Geo
100
AcDbLine
10
-43.0510841283608
20
-5.30591955154591
30
0.000000000000000
11
-42.9510841283608
21
-5.33033422510185
31
0.000000000000000
  0
LINE
  5
F107F6
330
F107F7
100
AcDbEntity
8
Geo
100
AcDbLine
10
-42.9510841283608
20
-5.33033422510185
30
0.000000000000000
11
-42.8510841283609
21
-5.35437641746866
31
0.000000000000000
  0
LINE
  5
F107F8
330
F107F9
100
AcDbEntity
8
Geo
100
AcDbLine
10
-42.8510841283609
20
-5.35437641746866
30
0.000000000000000
11
-42.7510841283609
21
-5.37804487645428
31
0.000000000000000
  0
LINE
  5
F107FA
330
F107FB
100
AcDbEntity
8
Geo
100
AcDbLine
10
-42.7510841283609
20
-5.37804487645428
30
0.000000000000000
11
-42.6510841283608
21
-5.40133836933181
31
0.000000000000000
  0
LINE
  5
F107FC
330
F107FD
100
AcDbEntity
8
Geo
100
AcDbLine
10
-42.6510841283608
20
-5.40133836933181
30
0.000000000000000
11
-42.5510841283609
21
-5.42425568290375
31
0.000000000000000
  0
LINE
  5
F107FE
330
F107FF
100
AcDbEntity
8
Geo
100
AcDbLine
10
-42.5510841283609
20
-5.42425568290375
30
0.000000000000000
11
-42.4510841283609
21
-5.44679562356522
31
0.000000000000000
  0
LINE
  5
F10800
330
F10801
100
AcDbEntity
8
Geo
100
AcDbLine
10
-42.4510841283609
20
-5.44679562356522
30
0.000000000000000
11
-42.3510841283609
21
-5.46895701736606
31
0.000000000000000
  0
LINE
  5
F10802
330
F10803
100
AcDbEntity
8
Geo
100
AcDbLine
10
-42.3510841283609
20
-5.46895701736606
30
0.000000000000000
11
-42.2510841283609
21
-5.49073871007202
31
0.000000000000000
  0
LINE
  5
F10804
330
F10805
100
AcDbEntity
8
Geo
100
AcDbLine
10
-57.2510841283608
20
9.32719357008239
30
0.000000000000000
11
-57.1510841283608
21
9.42263304831758
31
0.000000000000000
  0
LINE
  5
F10806
330
F10807
100
AcDbEntity
8
Geo
100
AcDbLine
10
-57.1510841283608
20
9.42263304831758
30
0.000000000000000
11
-57.0510841283608
21
9.51780004628267
31
0.000000000000000
  0
LINE
  5
F10808
330
F10809
100
AcDbEntity
8
Geo
100
AcDbLine
10
-57.0510841283608
20
9.51780004628267
30
0.000000000000000
11
-56.9510841283608
21
9.61268163092212
31
0.000000000000000
  0
LINE
  5
F1080A
330
F1080B
100
AcDbEntity
8
Geo
100
AcDbLine
10
-56.9510841283608
20
9.61268163092212
30
0.000000000000000
11
-56.8510841283608
21
9.65640187864373
31
0.000000000000000
  0
LINE
  5
F1080C
330
F1080D
100
AcDbEntity
8
Geo
100
AcDbLine
10
-56.8510841283608
20
9.65640187864373
30
0.000000000000000
11
-56.7510841283608
21
9.64887698574602
31
0.000000000000000
  0
LINE
  5
F1080E
330
F1080F
100
AcDbEntity
8
Geo
100
AcDbLine
10
-56.7510841283608
20
9.64887698574602
30
0.000000000000000
11
-56.6510841283608
21
9.64094441017301
31
0.000000000000000
  0
LINE
  5
F10810
330
F10811
100
AcDbEntity
8
Geo
100
AcDbLine
10
-56.6510841283608
20
9.64094441017301
30
0.000000000000000
11
-56.5510841283608
21
9.63260456507787
31
0.000000000000000
  0
LINE
  5
F10812
330
F10813
100
AcDbEntity
8
Geo
100
AcDbLine
10
-56.5510841283608
20
9.63260456507787
30
0.000000000000000
11
-56.4510841283608
21
9.62385788482565
31
0.000000000000000
  0
LINE
  5
F10814
330
F10815
100
AcDbEntity
8
Geo
100
AcDbLine
10
-56.4510841283608
20
9.62385788482565
30
0.000000000000000
11
-56.3510841283608
21
9.61470482497063
31
0.000000000000000
  0
LINE
  5
F10816
330
F10817
100
AcDbEntity
8
Geo
100
AcDbLine
10
-56.3510841283608
20
9.61470482497063
30
0.000000000000000
11
-56.2510841283608
21
9.60514586223263
31
0.000000000000000
  0
LINE
  5
F10818
330
F10819
100
AcDbEntity
8
Geo
100
AcDbLine
10
-56.2510841283608
20
9.60514586223263
30
0.000000000000000
11
-56.1510841283608
21
9.59518149447210
31
0.000000000000000
  0
LINE
  5
F1081A
330
F1081B
100
AcDbEntity
8
Geo
100
AcDbLine
10
-56.1510841283608
20
9.59518149447210
30
0.000000000000000
11
-56.0510841283608
21
9.58481224066430
31
0.000000000000000
  0
LINE
  5
F1081C
330
F1081D
100
AcDbEntity
8
Geo
100
AcDbLine
10
-56.0510841283608
20
9.58481224066430
30
0.000000000000000
11
-55.9510841283608
21
9.57403864087218
31
0.000000000000000
  0
LINE
  5
F1081E
330
F1081F
100
AcDbEntity
8
Geo
100
AcDbLine
10
-55.9510841283608
20
9.57403864087218
30
0.000000000000000
11
-55.8510841283608
21
9.56286125621830
31
0.000000000000000
  0
LINE
  5
F10820
330
F10821
100
AcDbEntity
8
Geo
100
AcDbLine
10
-55.8510841283608
20
9.56286125621830
30
0.000000000000000
11
-55.7510841283608
21
9.55128066885557
31
0.000000000000000
  0
LINE
  5
F10822
330
F10823
100
AcDbEntity
8
Geo
100
AcDbLine
10
-55.7510841283608
20
9.55128066885557
30
0.000000000000000
11
-55.6510841283608
21
9.53929748193698
31
0.000000000000000
  0
LINE
  5
F10824
330
F10825
100
AcDbEntity
8
Geo
100
AcDbLine
10
-55.6510841283608
20
9.53929748193698
30
0.000000000000000
11
-55.5510841283608
21
9.52691231958412
31
0.000000000000000
  0
LINE
  5
F10826
330
F10827
100
AcDbEntity
8
Geo
100
AcDbLine
10
-55.5510841283608
20
9.52691231958412
30
0.000000000000000
11
-55.4510841283608
21
9.51412582685475
31
0.000000000000000
  0
LINE
  5
F10828
330
F10829
100
AcDbEntity
8
Geo
100
AcDbLine
10
-55.4510841283608
20
9.51412582685475
30
0.000000000000000
11
-55.3510841283608
21
9.50093866970913
31
0.000000000000000
  0
LINE
  5
F1082A
330
F1082B
100
AcDbEntity
8
Geo
100
AcDbLine
10
-55.3510841283608
20
9.50093866970913
30
0.000000000000000
11
-55.2510841283608
21
9.48735153497539
31
0.000000000000000
  0
LINE
  5
F1082C
330
F1082D
100
AcDbEntity
8
Geo
100
AcDbLine
10
-55.2510841283608
20
9.48735153497539
30
0.000000000000000
11
-55.1510841283608
21
9.47336513031372
31
0.000000000000000
  0
LINE
  5
F1082E
330
F1082F
100
AcDbEntity
8
Geo
100
AcDbLine
10
-55.1510841283608
20
9.47336513031372
30
0.000000000000000
11
-55.0510841283608
21
9.45898018417953
31
0.000000000000000
  0
LINE
  5
F10830
330
F10831
100
AcDbEntity
8
Geo
100
AcDbLine
10
-55.0510841283608
20
9.45898018417953
30
0.000000000000000
11
-54.9510841283608
21
9.44419744578551
31
0.000000000000000
  0
LINE
  5
F10832
330
F10833
100
AcDbEntity
8
Geo
100
AcDbLine
10
-54.9510841283608
20
9.44419744578551
30
0.000000000000000
11
-54.8510841283608
21
9.42901768506263
31
0.000000000000000
  0
LINE
  5
F10834
330
F10835
100
AcDbEntity
8
Geo
100
AcDbLine
10
-54.8510841283608
20
9.42901768506263
30
0.000000000000000
11
-54.7510841283608
21
9.41344169261998
31
0.000000000000000
  0
LINE
  5
F10836
330
F10837
100
AcDbEntity
8
Geo
100
AcDbLine
10
-54.7510841283608
20
9.41344169261998
30
0.000000000000000
11
-54.6510841283608
21
9.39747027970364
31
0.000000000000000
  0
LINE
  5
F10838
330
F10839
100
AcDbEntity
8
Geo
100
AcDbLine
10
-54.6510841283608
20
9.39747027970364
30
0.000000000000000
11
-54.5510841283608
21
9.38110427815444
31
0.000000000000000
  0
LINE
  5
F1083A
330
F1083B
100
AcDbEntity
8
Geo
100
AcDbLine
10
-54.5510841283608
20
9.38110427815444
30
0.000000000000000
11
-54.4510841283608
21
9.36434454036458
31
0.000000000000000
  0
LINE
  5
F1083C
330
F1083D
100
AcDbEntity
8
Geo
100
AcDbLine
10
-54.4510841283608
20
9.36434454036458
30
0.000000000000000
11
-54.3510841283608
21
9.34719193923329
31
0.000000000000000
  0
LINE
  5
F1083E
330
F1083F
100
AcDbEntity
8
Geo
100
AcDbLine
10
-54.3510841283608
20
9.34719193923329
30
0.000000000000000
11
-54.2510841283608
21
9.32964736812133
31
0.000000000000000
  0
LINE
  5
F10840
330
F10841
100
AcDbEntity
8
Geo
100
AcDbLine
10
-54.2510841283608
20
9.32964736812133
30
0.000000000000000
11
-54.1510841283608
21
9.31171174080448
31
0.000000000000000
  0
LINE
  5
F10842
330
F10843
100
AcDbEntity
8
Geo
100
AcDbLine
10
-54.1510841283608
20
9.31171174080448
30
0.000000000000000
11
-54.0510841283608
21
9.29338599142594
31
0.000000000000000
  0
LINE
  5
F10844
330
F10845
100
AcDbEntity
8
Geo
100
AcDbLine
10
-54.0510841283608
20
9.29338599142594
30
0.000000000000000
11
-53.9510841283608
21
9.27467107444768
31
0.000000000000000
  0
LINE
  5
F10846
330
F10847
100
AcDbEntity
8
Geo
100
AcDbLine
10
-53.9510841283608
20
9.27467107444768
30
0.000000000000000
11
-53.8510841283608
21
9.25556796460074
31
0.000000000000000
  0
LINE
  5
F10848
330
F10849
100
AcDbEntity
8
Geo
100
AcDbLine
10
-53.8510841283608
20
9.25556796460074
30
0.000000000000000
11
-53.7510841283608
21
9.23607765683443
31
0.000000000000000
  0
LINE
  5
F1084A
330
F1084B
100
AcDbEntity
8
Geo
100
AcDbLine
10
-53.7510841283608
20
9.23607765683443
30
0.000000000000000
11
-53.6510841283608
21
9.21620116626454
31
0.000000000000000
  0
LINE
  5
F1084C
330
F1084D
100
AcDbEntity
8
Geo
100
AcDbLine
10
-53.6510841283608
20
9.21620116626454
30
0.000000000000000
11
-53.5510841283608
21
9.19593952812046
31
0.000000000000000
  0
LINE
  5
F1084E
330
F1084F
100
AcDbEntity
8
Geo
100
AcDbLine
10
-53.5510841283608
20
9.19593952812046
30
0.000000000000000
11
-53.4510841283608
21
9.17529379769126
31
0.000000000000000
  0
LINE
  5
F10850
330
F10851
100
AcDbEntity
8
Geo
100
AcDbLine
10
-53.4510841283608
20
9.17529379769126
30
0.000000000000000
11
-53.3510841283608
21
9.15426505027074
31
0.000000000000000
  0
LINE
  5
F10852
330
F10853
100
AcDbEntity
8
Geo
100
AcDbLine
10
-53.3510841283608
20
9.15426505027074
30
0.000000000000000
11
-53.2510841283608
21
9.13285438110142
31
0.000000000000000
  0
LINE
  5
F10854
330
F10855
100
AcDbEntity
8
Geo
100
AcDbLine
10
-53.2510841283608
20
9.13285438110142
30
0.000000000000000
11
-53.1510841283608
21
9.11106290531745
31
0.000000000000000
  0
LINE
  5
F10856
330
F10857
100
AcDbEntity
8
Geo
100
AcDbLine
10
-53.1510841283608
20
9.11106290531745
30
0.000000000000000
11
-53.0510841283608
21
9.08889175788662
31
0.000000000000000
  0
LINE
  5
F10858
330
F10859
100
AcDbEntity
8
Geo
100
AcDbLine
10
-53.0510841283608
20
9.08889175788662
30
0.000000000000000
11
-52.9510841283608
21
9.06634209355118
31
0.000000000000000
  0
LINE
  5
F1085A
330
F1085B
100
AcDbEntity
8
Geo
100
AcDbLine
10
-52.9510841283608
20
9.06634209355118
30
0.000000000000000
11
-52.8510841283608
21
9.04341508676771
31
0.000000000000000
  0
LINE
  5
F1085C
330
F1085D
100
AcDbEntity
8
Geo
100
AcDbLine
10
-52.8510841283608
20
9.04341508676771
30
0.000000000000000
11
-52.7510841283608
21
9.02011193164596
31
0.000000000000000
  0
LINE
  5
F1085E
330
F1085F
100
AcDbEntity
8
Geo
100
AcDbLine
10
-52.7510841283608
20
9.02011193164596
30
0.000000000000000
11
-52.6510841283608
21
8.99643384188667
31
0.000000000000000
  0
LINE
  5
F10860
330
F10861
100
AcDbEntity
8
Geo
100
AcDbLine
10
-52.6510841283608
20
8.99643384188667
30
0.000000000000000
11
-52.5510841283608
21
8.97238205071833
31
0.000000000000000
  0
LINE
  5
F10862
330
F10863
100
AcDbEntity
8
Geo
100
AcDbLine
10
-52.5510841283608
20
8.97238205071833
30
0.000000000000000
11
-52.4510841283608
21
8.94795781083294
31
0.000000000000000
  0
LINE
  5
F10864
330
F10865
100
AcDbEntity
8
Geo
100
AcDbLine
10
-52.4510841283608
20
8.94795781083294
30
0.000000000000000
11
-52.3510841283608
21
8.92316239432083
31
0.000000000000000
  0
LINE
  5
F10866
330
F10867
100
AcDbEntity
8
Geo
100
AcDbLine
10
-52.3510841283608
20
8.92316239432083
30
0.000000000000000
11
-52.2510841283608
21
8.89799709260432
31
0.000000000000000
  0
LINE
  5
F10868
330
F10869
100
AcDbEntity
8
Geo
100
AcDbLine
10
-52.2510841283608
20
8.89799709260432
30
0.000000000000000
11
-52.1510841283608
21
8.87246321637054
31
0.000000000000000
  0
LINE
  5
F1086A
330
F1086B
100
AcDbEntity
8
Geo
100
AcDbLine
10
-52.1510841283608
20
8.87246321637054
30
0.000000000000000
11
-52.0510841283608
21
8.84656209550308
31
0.000000000000000
  0
LINE
  5
F1086C
330
F1086D
100
AcDbEntity
8
Geo
100
AcDbLine
10
-52.0510841283608
20
8.84656209550308
30
0.000000000000000
11
-51.9510841283608
21
8.82029507901281
31
0.000000000000000
  0
LINE
  5
F1086E
330
F1086F
100
AcDbEntity
8
Geo
100
AcDbLine
10
-51.9510841283608
20
8.82029507901281
30
0.000000000000000
11
-51.8510841283608
21
8.79366353496757
31
0.000000000000000
  0
LINE
  5
F10870
330
F10871
100
AcDbEntity
8
Geo
100
AcDbLine
10
-51.8510841283608
20
8.79366353496757
30
0.000000000000000
11
-51.7510841283608
21
8.76666885042092
31
0.000000000000000
  0
LINE
  5
F10872
330
F10873
100
AcDbEntity
8
Geo
100
AcDbLine
10
-51.7510841283608
20
8.76666885042092
30
0.000000000000000
11
-51.6510841283608
21
8.73931243133991
31
0.000000000000000
  0
LINE
  5
F10874
330
F10875
100
AcDbEntity
8
Geo
100
AcDbLine
10
-51.6510841283608
20
8.73931243133991
30
0.000000000000000
11
-51.5510841283608
21
8.71159570253185
31
0.000000000000000
  0
LINE
  5
F10876
330
F10877
100
AcDbEntity
8
Geo
100
AcDbLine
10
-51.5510841283608
20
8.71159570253185
30
0.000000000000000
11
-51.4510841283608
21
8.68352010757011
31
0.000000000000000
  0
LINE
  5
F10878
330
F10879
100
AcDbEntity
8
Geo
100
AcDbLine
10
-51.4510841283608
20
8.68352010757011
30
0.000000000000000
11
-51.3510841283608
21
8.65508710871890
31
0.000000000000000
  0
LINE
  5
F1087A
330
F1087B
100
AcDbEntity
8
Geo
100
AcDbLine
10
-51.3510841283608
20
8.65508710871890
30
0.000000000000000
11
-51.2510841283608
21
8.62629818685716
31
0.000000000000000
  0
LINE
  5
F1087C
330
F1087D
100
AcDbEntity
8
Geo
100
AcDbLine
10
-51.2510841283608
20
8.62629818685716
30
0.000000000000000
11
-51.1510841283608
21
8.59715484140139
31
0.000000000000000
  0
LINE
  5
F1087E
330
F1087F
100
AcDbEntity
8
Geo
100
AcDbLine
10
-51.1510841283608
20
8.59715484140139
30
0.000000000000000
11
-51.0510841283608
21
8.56765859022759
31
0.000000000000000
  0
LINE
  5
F10880
330
F10881
100
AcDbEntity
8
Geo
100
AcDbLine
10
-51.0510841283608
20
8.56765859022759
30
0.000000000000000
11
-50.9510841283608
21
8.53781096959215
31
0.000000000000000
  0
LINE
  5
F10882
330
F10883
100
AcDbEntity
8
Geo
100
AcDbLine
10
-50.9510841283608
20
8.53781096959215
30
0.000000000000000
11
-50.8510841283608
21
8.50761353405192
31
0.000000000000000
  0
LINE
  5
F10884
330
F10885
100
AcDbEntity
8
Geo
100
AcDbLine
10
-50.8510841283608
20
8.50761353405192
30
0.000000000000000
11
-50.7510841283608
21
8.47706785638316
31
0.000000000000000
  0
LINE
  5
F10886
330
F10887
100
AcDbEntity
8
Geo
100
AcDbLine
10
-50.7510841283608
20
8.47706785638316
30
0.000000000000000
11
-50.6510841283608
21
8.44617552749969
31
0.000000000000000
  0
LINE
  5
F10888
330
F10889
100
AcDbEntity
8
Geo
100
AcDbLine
10
-50.6510841283608
20
8.44617552749969
30
0.000000000000000
11
-50.5510841283608
21
8.41493815636998
31
0.000000000000000
  0
LINE
  5
F1088A
330
F1088B
100
AcDbEntity
8
Geo
100
AcDbLine
10
-50.5510841283608
20
8.41493815636998
30
0.000000000000000
11
-50.4510841283608
21
8.38335736993338
31
0.000000000000000
  0
LINE
  5
F1088C
330
F1088D
100
AcDbEntity
8
Geo
100
AcDbLine
10
-50.4510841283608
20
8.38335736993338
30
0.000000000000000
11
-50.3510841283608
21
8.35143481301538
31
0.000000000000000
  0
LINE
  5
F1088E
330
F1088F
100
AcDbEntity
8
Geo
100
AcDbLine
10
-50.3510841283608
20
8.35143481301538
30
0.000000000000000
11
-50.2510841283608
21
8.31917214824194
31
0.000000000000000
  0
LINE
  5
F10890
330
F10891
100
AcDbEntity
8
Geo
100
AcDbLine
10
-50.2510841283608
20
8.31917214824194
30
0.000000000000000
11
-50.1510841283608
21
8.28657105595289
31
0.000000000000000
  0
LINE
  5
F10892
330
F10893
100
AcDbEntity
8
Geo
100
AcDbLine
10
-50.1510841283608
20
8.28657105595289
30
0.000000000000000
11
-50.0510841283608
21
8.25363323411442
31
0.000000000000000
  0
LINE
  5
F10894
330
F10895
100
AcDbEntity
8
Geo
100
AcDbLine
10
-50.0510841283608
20
8.25363323411442
30
0.000000000000000
11
-49.9510841283608
21
8.22036039823063
31
0.000000000000000
  0
LINE
  5
F10896
330
F10897
100
AcDbEntity
8
Geo
100
AcDbLine
10
-49.9510841283608
20
8.22036039823063
30
0.000000000000000
11
-49.8510841283608
21
8.18675428125421
31
0.000000000000000
  0
LINE
  5
F10898
330
F10899
100
AcDbEntity
8
Geo
100
AcDbLine
10
-49.8510841283608
20
8.18675428125421
30
0.000000000000000
11
-49.7510841283608
21
8.15281663349614
31
0.000000000000000
  0
LINE
  5
F1089A
330
F1089B
100
AcDbEntity
8
Geo
100
AcDbLine
10
-49.7510841283608
20
8.15281663349614
30
0.000000000000000
11
-49.6510841283608
21
8.11854922253459
31
0.000000000000000
  0
LINE
  5
F1089C
330
F1089D
100
AcDbEntity
8
Geo
100
AcDbLine
10
-49.6510841283608
20
8.11854922253459
30
0.000000000000000
11
-49.5510841283608
21
8.08395383312279
31
0.000000000000000
  0
LINE
  5
F1089E
330
F1089F
100
AcDbEntity
8
Geo
100
AcDbLine
10
-49.5510841283608
20
8.08395383312279
30
0.000000000000000
11
-49.4510841283608
21
8.04903226709611
31
0.000000000000000
  0
LINE
  5
F108A0
330
F108A1
100
AcDbEntity
8
Geo
100
AcDbLine
10
-49.4510841283608
20
8.04903226709611
30
0.000000000000000
11
-49.3510841283608
21
8.01378634327824
31
0.000000000000000
  0
LINE
  5
F108A2
330
F108A3
100
AcDbEntity
8
Geo
100
AcDbLine
10
-49.3510841283608
20
8.01378634327824
30
0.000000000000000
11
-49.2510841283608
21
7.97821789738639
31
0.000000000000000
  0
LINE
  5
F108A4
330
F108A5
100
AcDbEntity
8
Geo
100
AcDbLine
10
-49.2510841283608
20
7.97821789738639
30
0.000000000000000
11
-49.1510841283608
21
7.94232878193576
31
0.000000000000000
  0
LINE
  5
F108A6
330
F108A7
100
AcDbEntity
8
Geo
100
AcDbLine
10
-49.1510841283608
20
7.94232878193576
30
0.000000000000000
11
-49.0510841283608
21
7.90612086614299
31
0.000000000000000
  0
LINE
  5
F108A8
330
F108A9
100
AcDbEntity
8
Geo
100
AcDbLine
10
-49.0510841283608
20
7.90612086614299
30
0.000000000000000
11
-48.9510841283608
21
7.86959603582884
31
0.000000000000000
  0
LINE
  5
F108AA
330
F108AB
100
AcDbEntity
8
Geo
100
AcDbLine
10
-48.9510841283608
20
7.86959603582884
30
0.000000000000000
11
-48.8510841283608
21
7.83275619331998
31
0.000000000000000
  0
LINE
  5
F108AC
330
F108AD
100
AcDbEntity
8
Geo
100
AcDbLine
10
-48.8510841283608
20
7.83275619331998
30
0.000000000000000
11
-48.7510841283608
21
7.79560325734987
31
0.000000000000000
  0
LINE
  5
F108AE
330
F108AF
100
AcDbEntity
8
Geo
100
AcDbLine
10
-48.7510841283608
20
7.79560325734987
30
0.000000000000000
11
-48.6510841283608
21
7.75813916295885
31
0.000000000000000
  0
LINE
  5
F108B0
330
F108B1
100
AcDbEntity
8
Geo
100
AcDbLine
10
-48.6510841283608
20
7.75813916295885
30
0.000000000000000
11
-48.5510841283608
21
7.72036586139339
31
0.000000000000000
  0
LINE
  5
F108B2
330
F108B3
100
AcDbEntity
8
Geo
100
AcDbLine
10
-48.5510841283608
20
7.72036586139339
30
0.000000000000000
11
-48.4510841283608
21
7.68228532000439
31
0.000000000000000
  0
LINE
  5
F108B4
330
F108B5
100
AcDbEntity
8
Geo
100
AcDbLine
10
-48.4510841283608
20
7.68228532000439
30
0.000000000000000
11
-48.3510841283608
21
7.64389952214478
31
0.000000000000000
  0
LINE
  5
F108B6
330
F108B7
100
AcDbEntity
8
Geo
100
AcDbLine
10
-48.3510841283608
20
7.64389952214478
30
0.000000000000000
11
-48.2510841283608
21
7.60521046706618
31
0.000000000000000
  0
LINE
  5
F108B8
330
F108B9
100
AcDbEntity
8
Geo
100
AcDbLine
10
-48.2510841283608
20
7.60521046706618
30
0.000000000000000
11
-48.1510841283608
21
7.56622016981480
31
0.000000000000000
  0
LINE
  5
F108BA
330
F108BB
100
AcDbEntity
8
Geo
100
AcDbLine
10
-48.1510841283608
20
7.56622016981480
30
0.000000000000000
11
-48.0510841283608
21
7.52693066112648
31
0.000000000000000
  0
LINE
  5
F108BC
330
F108BD
100
AcDbEntity
8
Geo
100
AcDbLine
10
-48.0510841283608
20
7.52693066112648
30
0.000000000000000
11
-47.9510841283608
21
7.48734398732092
31
0.000000000000000
  0
LINE
  5
F108BE
330
F108BF
100
AcDbEntity
8
Geo
100
AcDbLine
10
-47.9510841283608
20
7.48734398732092
30
0.000000000000000
11
-47.8510841283608
21
7.44746221019508
31
0.000000000000000
  0
LINE
  5
F108C0
330
F108C1
100
AcDbEntity
8
Geo
100
AcDbLine
10
-47.8510841283608
20
7.44746221019508
30
0.000000000000000
11
-47.7510841283608
21
7.40728740691585
31
0.000000000000000
  0
LINE
  5
F108C2
330
F108C3
100
AcDbEntity
8
Geo
100
AcDbLine
10
-47.7510841283608
20
7.40728740691585
30
0.000000000000000
11
-47.6510841283608
21
7.36682166991182
31
0.000000000000000
  0
LINE
  5
F108C4
330
F108C5
100
AcDbEntity
8
Geo
100
AcDbLine
10
-47.6510841283608
20
7.36682166991182
30
0.000000000000000
11
-47.5510841283608
21
7.32606710676430
31
0.000000000000000
  0
LINE
  5
F108C6
330
F108C7
100
AcDbEntity
8
Geo
100
AcDbLine
10
-47.5510841283608
20
7.32606710676430
30
0.000000000000000
11
-47.4510841283608
21
7.28502584009759
31
0.000000000000000
  0
LINE
  5
F108C8
330
F108C9
100
AcDbEntity
8
Geo
100
AcDbLine
10
-47.4510841283608
20
7.28502584009759
30
0.000000000000000
11
-47.3510841283608
21
7.24370000746837
31
0.000000000000000
  0
LINE
  5
F108CA
330
F108CB
100
AcDbEntity
8
Geo
100
AcDbLine
10
-47.3510841283608
20
7.24370000746837
30
0.000000000000000
11
-47.2510841283608
21
7.20209176125442
31
0.000000000000000
  0
LINE
  5
F108CC
330
F108CD
100
AcDbEntity
8
Geo
100
AcDbLine
10
-47.2510841283608
20
7.20209176125442
30
0.000000000000000
11
-47.1510841283608
21
7.16020326854250
31
0.000000000000000
  0
LINE
  5
F108CE
330
F108CF
100
AcDbEntity
8
Geo
100
AcDbLine
10
-47.1510841283608
20
7.16020326854250
30
0.000000000000000
11
-47.0510841283608
21
7.11803671101546
31
0.000000000000000
  0
LINE
  5
F108D0
330
F108D1
100
AcDbEntity
8
Geo
100
AcDbLine
10
-47.0510841283608
20
7.11803671101546
30
0.000000000000000
11
-46.9510841283608
21
7.07559428483863
31
0.000000000000000
  0
LINE
  5
F108D2
330
F108D3
100
AcDbEntity
8
Geo
100
AcDbLine
10
-46.9510841283608
20
7.07559428483863
30
0.000000000000000
11
-46.8510841283608
21
7.03287820054547
31
0.000000000000000
  0
LINE
  5
F108D4
330
F108D5
100
AcDbEntity
8
Geo
100
AcDbLine
10
-46.8510841283608
20
7.03287820054547
30
0.000000000000000
11
-46.7510841283608
21
6.98989068292236
31
0.000000000000000
  0
LINE
  5
F108D6
330
F108D7
100
AcDbEntity
8
Geo
100
AcDbLine
10
-46.7510841283608
20
6.98989068292236
30
0.000000000000000
11
-46.6510841283608
21
6.94663397089280
31
0.000000000000000
  0
LINE
  5
F108D8
330
F108D9
100
AcDbEntity
8
Geo
100
AcDbLine
10
-46.6510841283608
20
6.94663397089280
30
0.000000000000000
11
-46.5510841283608
21
6.90311031740076
31
0.000000000000000
  0
LINE
  5
F108DA
330
F108DB
100
AcDbEntity
8
Geo
100
AcDbLine
10
-46.5510841283608
20
6.90311031740076
30
0.000000000000000
11
-46.4510841283608
21
6.85932198929336
31
0.000000000000000
  0
LINE
  5
F108DC
330
F108DD
100
AcDbEntity
8
Geo
100
AcDbLine
10
-46.4510841283608
20
6.85932198929336
30
0.000000000000000
11
-46.3510841283608
21
6.81527126720279
31
0.000000000000000
  0
LINE
  5
F108DE
330
F108DF
100
AcDbEntity
8
Geo
100
AcDbLine
10
-46.3510841283608
20
6.81527126720279
30
0.000000000000000
11
-46.2510841283608
21
6.77096044542752
31
0.000000000000000
  0
LINE
  5
F108E0
330
F108E1
100
AcDbEntity
8
Geo
100
AcDbLine
10
-46.2510841283608
20
6.77096044542752
30
0.000000000000000
11
-46.1510841283608
21
6.72639183181285
31
0.000000000000000
  0
LINE
  5
F108E2
330
F108E3
100
AcDbEntity
8
Geo
100
AcDbLine
10
-46.1510841283608
20
6.72639183181285
30
0.000000000000000
11
-46.0510841283608
21
6.68156774763067
31
0.000000000000000
  0
LINE
  5
F108E4
330
F108E5
100
AcDbEntity
8
Geo
100
AcDbLine
10
-46.0510841283608
20
6.68156774763067
30
0.000000000000000
11
-45.9510841283608
21
6.63649052745854
31
0.000000000000000
  0
LINE
  5
F108E6
330
F108E7
100
AcDbEntity
8
Geo
100
AcDbLine
10
-45.9510841283608
20
6.63649052745854
30
0.000000000000000
11
-45.8510841283608
21
6.59116251905817
31
0.000000000000000
  0
LINE
  5
F108E8
330
F108E9
100
AcDbEntity
8
Geo
100
AcDbLine
10
-45.8510841283608
20
6.59116251905817
30
0.000000000000000
11
-45.7510841283608
21
6.54558608325309
31
0.000000000000000
  0
LINE
  5
F108EA
330
F108EB
100
AcDbEntity
8
Geo
100
AcDbLine
10
-45.7510841283608
20
6.54558608325309
30
0.000000000000000
11
-45.6510841283608
21
6.49976359380568
31
0.000000000000000
  0
LINE
  5
F108EC
330
F108ED
100
AcDbEntity
8
Geo
100
AcDbLine
10
-45.6510841283608
20
6.49976359380568
30
0.000000000000000
11
-45.5510841283608
21
6.45369743729358
31
0.000000000000000
  0
LINE
  5
F108EE
330
F108EF
100
AcDbEntity
8
Geo
100
AcDbLine
10
-45.5510841283608
20
6.45369743729358
30
0.000000000000000
11
-45.4510841283608
21
6.40739001298537
31
0.000000000000000
  0
LINE
  5
F108F0
330
F108F1
100
AcDbEntity
8
Geo
100
AcDbLine
10
-45.4510841283608
20
6.40739001298537
30
0.000000000000000
11
-45.3510841283608
21
6.36084373271559
31
0.000000000000000
  0
LINE
  5
F108F2
330
F108F3
100
AcDbEntity
8
Geo
100
AcDbLine
10
-45.3510841283608
20
6.36084373271559
30
0.000000000000000
11
-45.2510841283608
21
6.31406102075914
31
0.000000000000000
  0
LINE
  5
F108F4
330
F108F5
100
AcDbEntity
8
Geo
100
AcDbLine
10
-45.2510841283608
20
6.31406102075914
30
0.000000000000000
11
-45.1510841283608
21
6.26704431370505
31
0.000000000000000
  0
LINE
  5
F108F6
330
F108F7
100
AcDbEntity
8
Geo
100
AcDbLine
10
-45.1510841283608
20
6.26704431370505
30
0.000000000000000
11
-45.0510841283608
21
6.21979606032949
31
0.000000000000000
  0
LINE
  5
F108F8
330
F108F9
100
AcDbEntity
8
Geo
100
AcDbLine
10
-45.0510841283608
20
6.21979606032949
30
0.000000000000000
11
-44.9510841283608
21
6.17231872146832
31
0.000000000000000
  0
LINE
  5
F108FA
330
F108FB
100
AcDbEntity
8
Geo
100
AcDbLine
10
-44.9510841283608
20
6.17231872146832
30
0.000000000000000
11
-44.8510841283608
21
6.12461476988889
31
0.000000000000000
  0
LINE
  5
F108FC
330
F108FD
100
AcDbEntity
8
Geo
100
AcDbLine
10
-44.8510841283608
20
6.12461476988889
30
0.000000000000000
11
-44.7510841283608
21
6.07668669016120
31
0.000000000000000
  0
LINE
  5
F108FE
330
F108FF
100
AcDbEntity
8
Geo
100
AcDbLine
10
-44.7510841283608
20
6.07668669016120
30
0.000000000000000
11
-44.6510841283608
21
6.02853697852858
31
0.000000000000000
  0
LINE
  5
F10900
330
F10901
100
AcDbEntity
8
Geo
100
AcDbLine
10
-44.6510841283608
20
6.02853697852858
30
0.000000000000000
11
-44.5510841283608
21
5.98016814277763
31
0.000000000000000
  0
LINE
  5
F10902
330
F10903
100
AcDbEntity
8
Geo
100
AcDbLine
10
-44.5510841283608
20
5.98016814277763
30
0.000000000000000
11
-44.4510841283608
21
5.93158270210761
31
0.000000000000000
  0
LINE
  5
F10904
330
F10905
100
AcDbEntity
8
Geo
100
AcDbLine
10
-44.4510841283608
20
5.93158270210761
30
0.000000000000000
11
-44.3510841283608
21
5.88278318699923
31
0.000000000000000
  0
LINE
  5
F10906
330
F10907
100
AcDbEntity
8
Geo
100
AcDbLine
10
-44.3510841283608
20
5.88278318699923
30
0.000000000000000
11
-44.2510841283608
21
5.83377213908289
31
0.000000000000000
  0
LINE
  5
F10908
330
F10909
100
AcDbEntity
8
Geo
100
AcDbLine
10
-44.2510841283608
20
5.83377213908289
30
0.000000000000000
11
-44.1510841283608
21
5.78455211100623
31
0.000000000000000
  0
LINE
  5
F1090A
330
F1090B
100
AcDbEntity
8
Geo
100
AcDbLine
10
-44.1510841283608
20
5.78455211100623
30
0.000000000000000
11
-44.0510841283608
21
5.73512566630127
31
0.000000000000000
  0
LINE
  5
F1090C
330
F1090D
100
AcDbEntity
8
Geo
100
AcDbLine
10
-44.0510841283608
20
5.73512566630127
30
0.000000000000000
11
-43.9510841283608
21
5.68549537925083
31
0.000000000000000
  0
LINE
  5
F1090E
330
F1090F
100
AcDbEntity
8
Geo
100
AcDbLine
10
-43.9510841283608
20
5.68549537925083
30
0.000000000000000
11
-43.8510841283608
21
5.63566383475447
31
0.000000000000000
  0
LINE
  5
F10910
330
F10911
100
AcDbEntity
8
Geo
100
AcDbLine
10
-43.8510841283608
20
5.63566383475447
30
0.000000000000000
11
-43.7510841283608
21
5.58563362819388
31
0.000000000000000
  0
LINE
  5
F10912
330
F10913
100
AcDbEntity
8
Geo
100
AcDbLine
10
-43.7510841283608
20
5.58563362819388
30
0.000000000000000
11
-43.6510841283608
21
5.53540736529766
31
0.000000000000000
  0
LINE
  5
F10914
330
F10915
100
AcDbEntity
8
Geo
100
AcDbLine
10
-43.6510841283608
20
5.53540736529766
30
0.000000000000000
11
-43.5510841283608
21
5.48498766200565
31
0.000000000000000
  0
LINE
  5
F10916
330
F10917
100
AcDbEntity
8
Geo
100
AcDbLine
10
-43.5510841283608
20
5.48498766200565
30
0.000000000000000
11
-43.4510841283608
21
5.43437714433267
31
0.000000000000000
  0
LINE
  5
F10918
330
F10919
100
AcDbEntity
8
Geo
100
AcDbLine
10
-43.4510841283608
20
5.43437714433267
30
0.000000000000000
11
-43.3510841283609
21
5.38357844823175
31
0.000000000000000
  0
LINE
  5
F1091A
330
F1091B
100
AcDbEntity
8
Geo
100
AcDbLine
10
-43.3510841283609
20
5.38357844823175
30
0.000000000000000
11
-43.2510841283609
21
5.33259421945681
31
0.000000000000000
  0
LINE
  5
F1091C
330
F1091D
100
AcDbEntity
8
Geo
100
AcDbLine
10
-43.2510841283609
20
5.33259421945681
30
0.000000000000000
11
-43.1510841283608
21
5.28142711342492
31
0.000000000000000
  0
LINE
  5
F1091E
330
F1091F
100
AcDbEntity
8
Geo
100
AcDbLine
10
-43.1510841283608
20
5.28142711342492
30
0.000000000000000
11
-43.0510841283608
21
5.23007979507795
31
0.000000000000000
  0
LINE
  5
F10920
330
F10921
100
AcDbEntity
8
Geo
100
AcDbLine
10
-43.0510841283608
20
5.23007979507795
30
0.000000000000000
11
-42.9510841283608
21
5.17855493874379
31
0.000000000000000
  0
LINE
  5
F10922
330
F10923
100
AcDbEntity
8
Geo
100
AcDbLine
10
-42.9510841283608
20
5.17855493874379
30
0.000000000000000
11
-42.8510841283609
21
5.12685522799706
31
0.000000000000000
  0
LINE
  5
F10924
330
F10925
100
AcDbEntity
8
Geo
100
AcDbLine
10
-42.8510841283609
20
5.12685522799706
30
0.000000000000000
11
-42.7510841283609
21
5.07498335551934
31
0.000000000000000
  0
LINE
  5
F10926
330
F10927
100
AcDbEntity
8
Geo
100
AcDbLine
10
-42.7510841283609
20
5.07498335551934
30
0.000000000000000
11
-42.6510841283608
21
5.02294202295892
31
0.000000000000000
  0
LINE
  5
F10928
330
F10929
100
AcDbEntity
8
Geo
100
AcDbLine
10
-42.6510841283608
20
5.02294202295892
30
0.000000000000000
11
-42.5510841283609
21
4.97073394079012
31
0.000000000000000
  0
LINE
  5
F1092A
330
F1092B
100
AcDbEntity
8
Geo
100
AcDbLine
10
-42.5510841283609
20
4.97073394079012
30
0.000000000000000
11
-42.4510841283609
21
4.91836182817209
31
0.000000000000000
  0
LINE
  5
F1092C
330
F1092D
100
AcDbEntity
8
Geo
100
AcDbLine
10
-42.4510841283609
20
4.91836182817209
30
0.000000000000000
11
-42.3510841283609
21
4.86582841280717
31
0.000000000000000
  0
LINE
  5
F1092E
330
F1092F
100
AcDbEntity
8
Geo
100
AcDbLine
10
-42.3510841283609
20
4.86582841280717
30
0.000000000000000
11
-42.2510841283609
21
4.81313643079888
31
0.000000000000000
  0
LINE
  5
F10930
330
F10931
100
AcDbEntity
8
Geo
100
AcDbLine
10
92.7489158716392
20
9.32133564614053
30
0.000000000000000
11
92.7489158716392
21
1.82133564614053
31
0.000000000000000
  0
LINE
  5
F10932
330
F10933
100
AcDbEntity
8
Geo
100
AcDbLine
10
-57.2510841283608
20
1.82133564614053
30
0.000000000000000
11
-57.2510841283608
21
-5.82866435385947
31
0.000000000000000
  0
LINE
  5
F10934
330
F10935
100
AcDbEntity
8
Geo
100
AcDbLine
10
-57.2510841283608
20
-5.82866435385947
30
0.000000000000000
11
-56.9010841283608
21
-6.17866435385947
31
0.000000000000000
  0
LINE
  5
F10936
330
F10937
100
AcDbEntity
8
Geo
100
AcDbLine
10
-56.9010841283608
20
-6.17866435385947
30
0.000000000000000
11
-37.2510841283608
21
-6.17866435385947
31
0.000000000000000
  0
LINE
  5
F10938
330
F10939
100
AcDbEntity
8
Geo
100
AcDbLine
10
-37.2510841283608
20
-6.17866435385947
30
0.000000000000000
11
-37.2510841283608
21
-5.77866435385947
31
0.000000000000000
  0
LINE
  5
F1093A
330
F1093B
100
AcDbEntity
8
Geo
100
AcDbLine
10
-37.2510841283608
20
-5.77866435385947
30
0.000000000000000
11
12.7489158716392
21
-5.77866435385947
31
0.000000000000000
  0
LINE
  5
F1093C
330
F1093D
100
AcDbEntity
8
Geo
100
AcDbLine
10
12.7489158716392
20
-5.77866435385947
30
0.000000000000000
11
13.2489158716392
21
-6.17866435385947
31
0.000000000000000
  0
LINE
  5
F1093E
330
F1093F
100
AcDbEntity
8
Geo
100
AcDbLine
10
13.2489158716392
20
-6.17866435385947
30
0.000000000000000
11
91.7489158716392
21
-6.17866435385947
31
0.000000000000000
  0
LINE
  5
F10940
330
F10941
100
AcDbEntity
8
Geo
100
AcDbLine
10
91.7489158716392
20
-6.17866435385947
30
0.000000000000000
11
92.7489158716392
21
-5.67866435385947
31
0.000000000000000
  0
LINE
  5
F10942
330
F10943
100
AcDbEntity
8
Geo
100
AcDbLine
10
-57.2510841283608
20
9.47133564614053
30
0.000000000000000
11
-57.2510841283608
21
-5.82866435385947
31
0.000000000000000
  0
LINE
  5
F10944
330
F10945
100
AcDbEntity
8
Geo
100
AcDbLine
10
-56.9010841283608
20
9.82133564614053
30
0.000000000000000
11
-56.9010841283608
21
-6.17866435385947
31
0.000000000000000
  0
LINE
  5
F10946
330
F10947
100
AcDbEntity
8
Geo
100
AcDbLine
10
-56.9010841283608
20
9.82133564614053
30
0.000000000000000
11
-56.9010841283608
21
-6.17866435385947
31
0.000000000000000
  0
LINE
  5
F10948
330
F10949
100
AcDbEntity
8
Geo
100
AcDbLine
10
-37.2510841283608
20
9.82133564614053
30
0.000000000000000
11
-37.2510841283608
21
-6.17866435385947
31
0.000000000000000
  0
LINE
  5
F1094A
330
F1094B
100
AcDbEntity
8
Geo
100
AcDbLine
10
-37.2510841283608
20
9.42133564614053
30
0.000000000000000
11
-37.2510841283608
21
-5.77866435385947
31
0.000000000000000
  0
LINE
  5
F1094C
330
F1094D
100
AcDbEntity
8
Geo
100
AcDbLine
10
12.7489158716392
20
9.42133564614053
30
0.000000000000000
11
12.7489158716392
21
-5.77866435385947
31
0.000000000000000
  0
LINE
  5
F1094E
330
F1094F
100
AcDbEntity
8
Geo
100
AcDbLine
10
13.2489158716392
20
9.82133564614053
30
0.000000000000000
11
13.2489158716392
21
-6.17866435385947
31
0.000000000000000
  0
LINE
  5
F10950
330
F10951
100
AcDbEntity
8
Geo
100
AcDbLine
10
13.2489158716392
20
9.82133564614053
30
0.000000000000000
11
13.2489158716392
21
-6.17866435385947
31
0.000000000000000
  0
LINE
  5
F10952
330
F10953
100
AcDbEntity
8
Geo
100
AcDbLine
10
91.7489158716392
20
9.82133564614053
30
0.000000000000000
11
91.7489158716392
21
-6.17866435385947
31
0.000000000000000
  0
LINE
  5
F10954
330
F10955
100
AcDbEntity
8
Geo
100
AcDbLine
10
92.7489158716392
20
9.32133564614053
30
0.000000000000000
11
92.7489158716392
21
-5.67866435385947
31
0.000000000000000
  0
LINE
  5
F10956
330
F10957
100
AcDbEntity
8
Geo
 6
Dashdot
100
AcDbLine
10
-57.2510841283608
20
1.82133564614053
30
0.000000000000000
11
92.7489158716392
21
1.82133564614053
31
0.000000000000000
  0
LWPOLYLINE
  5
F10958
330
F10959
100
AcDbEntity
8
Rahmen
100
AcDbPolyline
90
   4
70
   1
43
   0.0
 10
-134.596704249783
 20
99.9002601908066
 10
143.339115351258
 20
99.9002601908066
 10
143.339115351258
 20
-100.082393755421
 10
-134.596704249783
 20
-100.082393755421
  0
TEXT
  5
F1095A
330
F1095B
 100
AcDbEntity
8
Text
100
AcDbText
10
-133.503902862099
20
-99.5823937554206
30
0.000000000000000
40
1.00000000000000
1
ISBESketcher - ©ISBE GmbH      lizensiert für: Schmid Werkzeuge
100
AcDbText
  0
LWPOLYLINE
  5
F1095C
330
F1095D
100
AcDbEntity
8
Rahmen
100
AcDbPolyline
90
   4
70
   1
43
   0.0
 10
103.451864700781
 20
-97.1682567215958
 10
143.339115351258
 20
-97.1682567215958
 10
143.339115351258
 20
-100.082393755421
 10
103.451864700781
 20
-100.082393755421
  0
TEXT
  5
F1095E
330
F1095F
 100
AcDbEntity
8
Text
100
AcDbText
10
104.500000000000
20
-99.4570685169124
30
0.000000000000000
40
1.50000000000000
1
Ers. durch:
100
AcDbText
  0
TEXT
  5
F10960
330
F10961
 100
AcDbEntity
8
Text
100
AcDbText
10
0.000000000000000
20
0.500000000000000
30
0.000000000000000
40
1.50000000000000
1

100
AcDbText
  0
LWPOLYLINE
  5
F10962
330
F10963
100
AcDbEntity
8
Rahmen
100
AcDbPolyline
90
   4
70
   1
43
   0.0
 10
63.3824804856895
 20
-97.1682567215958
 10
103.451864700781
 20
-97.1682567215958
 10
103.451864700781
 20
-100.082393755421
 10
63.3824804856895
 20
-100.082393755421
  0
TEXT
  5
F10964
330
F10965
 100
AcDbEntity
8
Text
100
AcDbText
10
64.5000000000000
20
-99.4570685169124
30
0.000000000000000
40
1.50000000000000
1
Ers. für:
100
AcDbText
  0
TEXT
  5
F10966
330
F10967
 100
AcDbEntity
8
Text
100
AcDbText
10
0.000000000000000
20
0.500000000000000
30
0.000000000000000
40
1.50000000000000
1

100
AcDbText
  0
LWPOLYLINE
  5
F10968
330
F10969
100
AcDbEntity
8
Rahmen
100
AcDbPolyline
90
   4
70
   1
43
   0.0
 10
130.043365134432
 20
-94.0719861231570
 10
143.339115351258
 20
-94.0719861231570
 10
143.339115351258
 20
-97.1682567215958
 10
130.043365134432
 20
-97.1682567215958
  0
TEXT
  5
F1096A
330
F1096B
 100
AcDbEntity
8
Text
100
AcDbText
10
131.166666666667
20
-96.4570685169124
30
0.000000000000000
40
1.50000000000000
1
Blätter
100
AcDbText
  0
TEXT
  5
F1096C
330
F1096D
 100
AcDbEntity
8
Text
100
AcDbText
10
0.000000000000000
20
0.500000000000000
30
0.000000000000000
40
1.50000000000000
1

100
AcDbText
  0
LWPOLYLINE
  5
F1096E
330
F1096F
100
AcDbEntity
8
Rahmen
100
AcDbPolyline
90
   4
70
   1
43
   0.0
 10
130.043365134432
 20
-91.1578490893322
 10
143.339115351258
 20
-91.1578490893322
 10
143.339115351258
 20
-94.0719861231570
 10
130.043365134432
 20
-94.0719861231570
  0
TEXT
  5
F10970
330
F10971
 100
AcDbEntity
8
Text
100
AcDbText
10
131.166666666667
20
-93.4570685169124
30
0.000000000000000
40
1.50000000000000
1
Blatt
100
AcDbText
  0
TEXT
  5
F10972
330
F10973
 100
AcDbEntity
8
Text
100
AcDbText
10
0.000000000000000
20
0.500000000000000
30
0.000000000000000
40
1.50000000000000
1

100
AcDbText
  0
LWPOLYLINE
  5
F10974
330
F10975
100
AcDbEntity
8
Rahmen
100
AcDbPolyline
90
   4
70
   1
43
   0.0
 10
63.3824804856895
 20
-91.1578490893322
 10
130.043365134432
 20
-91.1578490893322
 10
130.043365134432
 20
-97.1682567215958
 10
63.3824804856895
 20
-97.1682567215958
  0
TEXT
  5
F10976
330
F10977
 100
AcDbEntity
8
Text
100
AcDbText
10
64.5000000000000
20
-93.4570685169124
30
0.000000000000000
40
1.50000000000000
1
Datum:
100
AcDbText
  0
TEXT
  5
F10978
330
F10979
 100
AcDbEntity
8
Text
100
AcDbText
10
90.9139924833767
20
-96.4570685169124
30
0.000000000000000
40
1.50000000000000
1
23.03.2021
100
AcDbText
  0
LWPOLYLINE
  5
F1097A
330
F1097B
100
AcDbEntity
8
Rahmen
100
AcDbPolyline
90
   4
70
   1
43
   0.0
 10
63.3824804856895
 20
-85.1474414570685
 10
143.339115351258
 20
-85.1474414570685
 10
143.339115351258
 20
-91.1578490893322
 10
63.3824804856895
 20
-91.1578490893322
  0
TEXT
  5
F1097C
330
F1097D
 100
AcDbEntity
8
Text
100
AcDbText
10
0.000000000000000
20
0.500000000000000
30
0.000000000000000
40
1.50000000000000
1

100
AcDbText
  0
TEXT
  5
F1097E
330
F1097F
 100
AcDbEntity
8
Text
100
AcDbText
10
71.2623590633131
20
-89.6254697889564
30
0.000000000000000
40
2.50000000000000
1
VHM-Scharuppfräser 0242-160-b
100
AcDbText
  0
LWPOLYLINE
  5
F10980
330
F10981
100
AcDbEntity
8
Rahmen
100
AcDbPolyline
90
   4
70
   1
43
   0.0
 10
103.451864700781
 20
-79.1370338248049
 10
143.339115351258
 20
-79.1370338248049
 10
143.339115351258
 20
-85.1474414570685
 10
103.451864700781
 20
-85.1474414570685
  0
TEXT
  5
F10982
330
F10983
 100
AcDbEntity
8
Text
100
AcDbText
10
104.500000000000
20
-81.4570685169124
30
0.000000000000000
40
1.50000000000000
1
Zu bearb. Material:
100
AcDbText
  0
TEXT
  5
F10984
330
F10985
 100
AcDbEntity
8
Text
100
AcDbText
10
0.000000000000000
20
0.500000000000000
30
0.000000000000000
40
1.50000000000000
1

100
AcDbText
  0
LWPOLYLINE
  5
F10986
330
F10987
100
AcDbEntity
8
Rahmen
100
AcDbPolyline
90
   4
70
   1
43
   0.0
 10
63.3824804856895
 20
-79.1370338248049
 10
103.451864700781
 20
-79.1370338248049
 10
103.451864700781
 20
-85.1474414570685
 10
63.3824804856895
 20
-85.1474414570685
  0
TEXT
  5
F10988
330
F10989
 100
AcDbEntity
8
Text
100
AcDbText
10
64.5000000000000
20
-81.4570685169124
30
0.000000000000000
40
1.50000000000000
1
Werkstoff:
100
AcDbText
  0
TEXT
  5
F1098A
330
F1098B
 100
AcDbEntity
8
Text
100
AcDbText
10
80.7679965307892
20
-84.4570685169124
30
0.000000000000000
40
1.50000000000000
1
VHM
100
AcDbText
  0
LWPOLYLINE
  5
F1098C
330
F1098D
100
AcDbEntity
8
Rahmen
100
AcDbPolyline
90
   4
70
   1
43
   0.0
 10
103.451864700781
 20
-76.0407632263660
 10
143.339115351258
 20
-76.0407632263660
 10
143.339115351258
 20
-79.1370338248049
 10
103.451864700781
 20
-79.1370338248049
  0
TEXT
  5
F1098E
330
F1098F
 100
AcDbEntity
8
Text
100
AcDbText
10
0.000000000000000
20
0.500000000000000
30
0.000000000000000
40
1.50000000000000
1

100
AcDbText
  0
TEXT
  5
F10990
330
F10991
 100
AcDbEntity
8
Text
100
AcDbText
10
0.000000000000000
20
0.500000000000000
30
0.000000000000000
40
1.50000000000000
1

100
AcDbText
  0
LWPOLYLINE
  5
F10992
330
F10993
100
AcDbEntity
8
Rahmen
100
AcDbPolyline
90
   4
70
   1
43
   0.0
 10
63.3824804856895
 20
-76.0407632263660
 10
103.451864700781
 20
-76.0407632263660
 10
103.451864700781
 20
-79.1370338248049
 10
63.3824804856895
 20
-79.1370338248049
  0
TEXT
  5
F10994
330
F10995
 100
AcDbEntity
8
Text
100
AcDbText
10
64.5000000000000
20
-78.4570685169124
30
0.000000000000000
40
1.50000000000000
1
Maßstab:
100
AcDbText
  0
TEXT
  5
F10996
330
F10997
 100
AcDbEntity
8
Text
100
AcDbText
10
89.0411968777103
20
-78.4570685169124
30
0.000000000000000
40
1.50000000000000
1
1 : 1
100
AcDbText
0
VIEWPORT
5
294
102
{ACAD_XDICTIONARY
360
58A
102
}
330
25D
100
AcDbEntity
67
1
8
0
60
1
100
AcDbViewport
10
0.0
20
0.0
30
0.0
40
10.0
41
10.0
68
-1
69
1
12
0.0
22
0.0
13
0.0
23
0.0
14
1.0
24
1.0
15
0.0
25
0.0
16
0.0
26
0.0
36
1.0
17
0.0
27
0.0
37
0.0
42
0.0
43
0.0
44
0.0
45
10.0
50
0.0
51
0.0000000000007958
72
100
90
32800
1

281
0
71
0
74
0
110
0.0
120
0.0
130
0.0
111
1.0
121
0.0
131
0.0
112
0.0
122
1.0
132
0.0
79
0
146
0.0
1001
VD_INVISIBLE_NOT_FOR_READ
1000
VD_INVISIBLE_NOT_FOR_READ
0
VIEWPORT
5
295
102
{ACAD_XDICTIONARY
360
58C
102
}
330
25D
100
AcDbEntity
67
1
8
0
60
1
100
AcDbViewport
10
0.0
20
0.0
30
0.0
40
10.0
41
10.0
68
0
69
2
12
0.0
22
0.0
13
0.0
23
0.0
14
1.0
24
1.0
15
0.0
25
0.0
16
0.0
26
0.0
36
1.0
17
0.0
27
0.0
37
0.0
42
0.0
43
0.0
44
0.0
45
10.0
50
0.0
51
0.0000000000007958
72
100
90
163872
1

281
0
71
0
74
0
110
0.0
120
0.0
130
0.0
111
1.0
121
0.0
131
0.0
112
0.0
122
1.0
132
0.0
79
0
146
0.0
1001
VD_INVISIBLE_NOT_FOR_READ
1000
VD_INVISIBLE_NOT_FOR_READ
0
ENDSEC
0
SECTION
2
OBJECTS
0
DICTIONARY
5
13
330
0
100
AcDbDictionary
281
1
3
ACAD_COLOR
350
FA7
3
ACAD_GROUP
350
14
3
ACAD_LAYOUT
350
FCF
3
ACAD_MATERIAL
350
F7A
3
ACAD_MLEADERSTYLE
350
FCD
3
ACAD_MLINESTYLE
350
16
3
ACAD_PLOTSETTINGS
350
17
3
ACAD_PLOTSTYLENAME
350
18
3
ACAD_SCALELIST
350
FAB
3
ACAD_TABLESTYLE
350
FA8
3
ACAD_VISUALSTYLE
350
F93
3
ACDB_RECOMPOSE_DATA
350
107E
3
AcDbVariableDictionary
350
FF0
3
DWGPROPS
350
107F
0
DICTIONARY
5
F10005
330
F10004
100
AcDbDictionary
280
1
281
1
3
ACAD_MTEXT_2008_RT
360
F10006
0
DICTIONARY
5
F10014
330
F10013
100
AcDbDictionary
280
1
281
1
3
ACAD_MTEXT_2008_RT
360
F10015
0
DICTIONARY
5
F10019
330
F10018
100
AcDbDictionary
280
1
281
1
3
ACAD_MTEXT_2008_RT
360
F1001A
0
DICTIONARY
5
F1001E
330
F1001D
100
AcDbDictionary
280
1
281
1
3
ACAD_MTEXT_2008_RT
360
F1001F
0
DICTIONARY
5
F10023
330
F10022
100
AcDbDictionary
280
1
281
1
3
ACAD_MTEXT_2008_RT
360
F10024
0
DICTIONARY
5
F1000A
330
F10009
100
AcDbDictionary
280
1
281
1
3
ACAD_MTEXT_2008_RT
360
F1000B
0
DICTIONARY
5
F1000F
330
F1000E
100
AcDbDictionary
280
1
281
1
3
ACAD_MTEXT_2008_RT
360
F10010
0
DICTIONARY
5
F10028
330
F10027
100
AcDbDictionary
280
1
281
1
3
ACAD_MTEXT_2008_RT
360
F10029
0
DICTIONARY
5
FA7
102
{ACAD_REACTORS
330
13
102
}
330
13
100
AcDbDictionary
281
1
0
DICTIONARY
5
14
330
13
100
AcDbDictionary
281
1
0
DICTIONARY
5
FCF
102
{ACAD_REACTORS
330
13
102
}
330
13
100
AcDbDictionary
281
1
3
Layout1
350
FD1
3
Model
350
FD0
0
DICTIONARY
5
F7A
102
{ACAD_REACTORS
330
13
102
}
330
13
100
AcDbDictionary
281
1
3
ByBlock
350
F83
3
ByLayer
350
F7B
3
Global
350
F8B
0
DICTIONARY
5
FCD
102
{ACAD_REACTORS
330
13
102
}
330
13
100
AcDbDictionary
281
1
3
Standard
350
FCE
0
DICTIONARY
5
16
330
13
100
AcDbDictionary
281
1
3
Standard
350
FAA
0
DICTIONARY
5
17
102
{ACAD_REACTORS
330
13
102
}
330
13
100
AcDbDictionary
281
1
0
ACDBDICTIONARYWDFLT
5
18
102
{ACAD_REACTORS
330
13
102
}
330
13
100
AcDbDictionary
281
1
3
Normal
350
19
100
AcDbDictionaryWithDefault
340
19
0
DICTIONARY
5
FAB
102
{ACAD_REACTORS
330
13
102
}
330
13
100
AcDbDictionary
281
1
3
A0
350
FAC
3
A1
350
FAD
3
A2
350
FAE
3
A3
350
FAF
3
A4
350
FB0
3
A5
350
FB1
3
A6
350
FB2
3
A7
350
FB3
3
A8
350
FB4
3
A9
350
FB5
3
B0
350
FB6
3
B1
350
FB7
3
B2
350
FB8
3
B3
350
FB9
3
B4
350
FBA
3
B5
350
FBB
3
B6
350
FBC
3
B7
350
FBD
3
B8
350
FBE
3
B9
350
FBF
3
C0
350
FC0
3
C1
350
FC1
3
C2
350
FC2
3
C3
350
FC3
3
C4
350
FC4
3
C5
350
FC5
3
C6
350
FC6
3
C7
350
FC7
3
C8
350
FC8
3
C9
350
FC9
3
D0
350
FCA
3
D1
350
FCB
3
D2
350
FCC
0
DICTIONARY
5
FA8
102
{ACAD_REACTORS
330
13
102
}
330
13
100
AcDbDictionary
281
1
3
Standard
350
FA9
0
DICTIONARY
5
F93
102
{ACAD_REACTORS
330
13
102
}
330
13
100
AcDbDictionary
281
1
3
2dWireframe
350
F99
3
3D Hidden
350
F9B
3
3dWireframe
350
F9A
3
Basic
350
F98
3
Brighten
350
F9F
3
ColorChange
350
FA3
3
Conceptual
350
F9C
3
Dim
350
F9E
3
EdgeColorOff
350
FA6
3
Facepattern
350
FA2
3
Flat
350
F94
3
FlatWithEdges
350
F95
3
Gouraud
350
F96
3
GouraudWithEdges
350
F97
3
JitterOff
350
FA4
3
Linepattern
350
FA1
3
OverhangOff
350
FA5
3
Realistic
350
F9D
3
Thicken
350
FA0
0
XRECORD
5
107E
102
{ACAD_REACTORS
330
13
102
}
330
13
100
AcDbXrecord
280
1
90
1
330
FA9
330
F10004
330
F10013
330
F10018
330
F1001D
330
F10022
330
F10009
330
F1000E
330
F10027
0
DICTIONARY
5
FF0
102
{ACAD_REACTORS
330
13
102
}
330
13
100
AcDbDictionary
281
1
3
CANNOSCALE
350
FF3
3
CMLEADERSTYLE
350
FF2
3
CTABLESTYLE
350
FF1
3
DIMASSOC
350
FF6
3
INDEXCTL
350
FF5
3
SORTENTS
350
FF4
3
XCLIPFRAME
350
1078
0
XRECORD
5
107F
102
{ACAD_REACTORS
330
13
102
}
330
13
100
AcDbXrecord
280
1
1
DWGPROPS COOKIE
2

3

4

6

7

8

9

300
=
301
=
302
=
303
=
304
=
305
=
306
=
307
=
308
=
309
=
40
0.0
41
0.0
42
0.0
1

90
0
0
XRECORD
5
F10006
102
{ACAD_REACTORS
330
F10005
102
}
330
F10005
100
AcDbXrecord
280
1
40
48458.0
1
0.35 x 45°
0
XRECORD
5
F10015
102
{ACAD_REACTORS
330
F10014
102
}
330
F10014
100
AcDbXrecord
280
1
40
48458.0
1
70
0
XRECORD
5
F1001A
102
{ACAD_REACTORS
330
F10019
102
}
330
F10019
100
AcDbXrecord
280
1
40
48458.0
1
70.5
0
XRECORD
5
F1001F
102
{ACAD_REACTORS
330
F1001E
102
}
330
F1001E
100
AcDbXrecord
280
1
40
48458.0
1
20
0
XRECORD
5
F10024
102
{ACAD_REACTORS
330
F10023
102
}
330
F10023
100
AcDbXrecord
280
1
40
48458.0
1
150
0
XRECORD
5
F1000B
102
{ACAD_REACTORS
330
F1000A
102
}
330
F1000A
100
AcDbXrecord
280
1
40
48458.0
1
Ø16
0
XRECORD
5
F10010
102
{ACAD_REACTORS
330
F1000F
102
}
330
F1000F
100
AcDbXrecord
280
1
40
48458.0
1
Ø15.2
0
XRECORD
5
F10029
102
{ACAD_REACTORS
330
F10028
102
}
330
F10028
100
AcDbXrecord
280
1
40
48458.0
1
Ø16
0
LAYOUT
5
FD1
102
{ACAD_XDICTIONARY
360
10A9
102
}
102
{ACAD_REACTORS
330
FCF
102
}
330
FCF
100
AcDbPlotSettings
1

2
Microsoft XPS Document Writer
4

6

40
0.0
41
0.0
42
0.0
43
0.0
44
0.0
45
0.0
46
0.0
47
0.0
48
0.0
49
0.0
140
0.0
141
0.0
142
1.0
143
1.0
70
688
72
0
73
0
74
5
7

75
16
147
1.0
148
0.0
149
0.0
100
AcDbLayout
1
Layout1
70
1
71
1
10
0.0
20
0.0
11
12.0
21
9.0
12
0.0
22
0.0
32
0.0
14
1.000000000000000E+20
24
1.000000000000000E+20
34
1.000000000000000E+20
15
-1.000000000000000E+20
25
-1.000000000000000E+20
35
-1.000000000000000E+20
146
0.0
13
0.0
23
0.0
33
0.0
16
1.0
26
0.0
36
0.0
17
0.0
27
1.0
37
0.0
76
0
330
25D
0
LAYOUT
5
FD0
102
{ACAD_XDICTIONARY
360
10A7
102
}
102
{ACAD_REACTORS
330
FCF
102
}
330
FCF
100
AcDbPlotSettings
1

2
Microsoft XPS Document Writer
4

6

40
0.0
41
0.0
42
0.0
43
0.0
44
0.0
45
0.0
46
0.0
47
0.0
48
0.0
49
0.0
140
0.0
141
0.0
142
1.0
143
1.0
70
1712
72
0
73
0
74
0
7

75
0
147
1.0
148
0.0
149
0.0
100
AcDbLayout
1
Model
70
1
71
0
10
0.0
20
0.0
11
12.0
21
9.0
12
0.0
22
0.0
32
0.0
14
0.0
24
0.0
34
0.0
15
0.0
25
0.0
35
0.0
146
0.0
13
0.0
23
0.0
33
0.0
16
1.0
26
0.0
36
0.0
17
0.0
27
1.0
37
0.0
76
0
330
261
331
26B
0
MATERIAL
5
F83
102
{ACAD_XDICTIONARY
360
F84
102
}
102
{ACAD_REACTORS
330
F7A
102
}
330
F7A
100
AcDbMaterial
1
ByBlock
72
0
43
0.0208333333333333
43
0.0
43
0.0
43
0.0
43
0.0
43
0.0208333333333333
43
0.0
43
0.0
43
0.0
43
0.0
43
1.0
43
0.0
43
0.0
43
0.0
43
0.0
43
1.0
77
0
47
0.0208333333333333
47
0.0
47
0.0
47
0.0
47
0.0
47
0.0208333333333333
47
0.0
47
0.0
47
0.0
47
0.0
47
1.0
47
0.0
47
0.0
47
0.0
47
0.0
47
1.0
171
0
49
0.0208333333333333
49
0.0
49
0.0
49
0.0
49
0.0
49
0.0208333333333333
49
0.0
49
0.0
49
0.0
49
0.0
49
1.0
49
0.0
49
0.0
49
0.0
49
0.0
49
1.0
175
0
142
0.0208333333333333
142
0.0
142
0.0
142
0.0
142
0.0
142
0.0208333333333333
142
0.0
142
0.0
142
0.0
142
0.0
142
1.0
142
0.0
142
0.0
142
0.0
142
0.0
142
1.0
179
0
144
0.0208333333333333
144
0.0
144
0.0
144
0.0
144
0.0
144
0.0208333333333333
144
0.0
144
0.0
144
0.0
144
0.0
144
1.0
144
0.0
144
0.0
144
0.0
144
0.0
144
1.0
147
0.0208333333333333
147
0.0
147
0.0
147
0.0
147
0.0
147
0.0208333333333333
147
0.0
147
0.0
147
0.0
147
0.0
147
1.0
147
0.0
147
0.0
147
0.0
147
0.0
147
1.0
0
MATERIAL
5
F7B
102
{ACAD_XDICTIONARY
360
F7C
102
}
102
{ACAD_REACTORS
330
F7A
102
}
330
F7A
100
AcDbMaterial
1
ByLayer
72
0
43
0.0208333333333333
43
0.0
43
0.0
43
0.0
43
0.0
43
0.0208333333333333
43
0.0
43
0.0
43
0.0
43
0.0
43
1.0
43
0.0
43
0.0
43
0.0
43
0.0
43
1.0
77
0
47
0.0208333333333333
47
0.0
47
0.0
47
0.0
47
0.0
47
0.0208333333333333
47
0.0
47
0.0
47
0.0
47
0.0
47
1.0
47
0.0
47
0.0
47
0.0
47
0.0
47
1.0
171
0
49
0.0208333333333333
49
0.0
49
0.0
49
0.0
49
0.0
49
0.0208333333333333
49
0.0
49
0.0
49
0.0
49
0.0
49
1.0
49
0.0
49
0.0
49
0.0
49
0.0
49
1.0
175
0
142
0.0208333333333333
142
0.0
142
0.0
142
0.0
142
0.0
142
0.0208333333333333
142
0.0
142
0.0
142
0.0
142
0.0
142
1.0
142
0.0
142
0.0
142
0.0
142
0.0
142
1.0
179
0
144
0.0208333333333333
144
0.0
144
0.0
144
0.0
144
0.0
144
0.0208333333333333
144
0.0
144
0.0
144
0.0
144
0.0
144
1.0
144
0.0
144
0.0
144
0.0
144
0.0
144
1.0
147
0.0208333333333333
147
0.0
147
0.0
147
0.0
147
0.0
147
0.0208333333333333
147
0.0
147
0.0
147
0.0
147
0.0
147
1.0
147
0.0
147
0.0
147
0.0
147
0.0
147
1.0
0
MATERIAL
5
F8B
102
{ACAD_XDICTIONARY
360
F8C
102
}
102
{ACAD_REACTORS
330
F7A
102
}
330
F7A
100
AcDbMaterial
1
Global
72
0
43
0.0208333333333333
43
0.0
43
0.0
43
0.0
43
0.0
43
0.0208333333333333
43
0.0
43
0.0
43
0.0
43
0.0
43
1.0
43
0.0
43
0.0
43
0.0
43
0.0
43
1.0
77
0
47
0.0208333333333333
47
0.0
47
0.0
47
0.0
47
0.0
47
0.0208333333333333
47
0.0
47
0.0
47
0.0
47
0.0
47
1.0
47
0.0
47
0.0
47
0.0
47
0.0
47
1.0
171
0
49
0.0208333333333333
49
0.0
49
0.0
49
0.0
49
0.0
49
0.0208333333333333
49
0.0
49
0.0
49
0.0
49
0.0
49
1.0
49
0.0
49
0.0
49
0.0
49
0.0
49
1.0
175
0
142
0.0208333333333333
142
0.0
142
0.0
142
0.0
142
0.0
142
0.0208333333333333
142
0.0
142
0.0
142
0.0
142
0.0
142
1.0
142
0.0
142
0.0
142
0.0
142
0.0
142
1.0
179
0
144
0.0208333333333333
144
0.0
144
0.0
144
0.0
144
0.0
144
0.0208333333333333
144
0.0
144
0.0
144
0.0
144
0.0
144
1.0
144
0.0
144
0.0
144
0.0
144
0.0
144
1.0
147
0.0208333333333333
147
0.0
147
0.0
147
0.0
147
0.0
147
0.0208333333333333
147
0.0
147
0.0
147
0.0
147
0.0
147
1.0
147
0.0
147
0.0
147
0.0
147
0.0
147
1.0
0
MLEADERSTYLE
5
FCE
102
{ACAD_REACTORS
330
FCD
102
}
330
FCD
100
AcDbMLeaderStyle
170
2
171
1
172
0
90
2
40
0.0
41
0.0
173
1
91
-1056964608
340
256
92
-2
290
1
42
0.09
291
1
43
0.36
3
Standard
44
0.18
300

342
253
174
1
178
6
175
1
176
0
93
-1056964608
45
0.18
292
0
297
0
46
0.18
94
-1056964608
47
1.0
49
1.0
140
1.0
293
1
141
0.0
294
1
177
0
142
1.0
295
0
296
0
143
0.125
1001
ACAD_MLEADERVER
1070
2
0
MLINESTYLE
5
FAA
102
{ACAD_REACTORS
330
16
102
}
330
16
100
AcDbMlineStyle
2
STANDARD
70
0
3

62
256
51
90.0
52
90.0
71
2
49
0.5
62
256
6
BYLAYER
49
-0.5
62
256
6
BYLAYER
0
ACDBPLACEHOLDER
5
19
102
{ACAD_REACTORS
330
18
102
}
330
18
0
SCALE
5
FAC
102
{ACAD_REACTORS
330
FAB
102
}
330
FAB
100
AcDbScale
70
0
300
1:1
140
1.0
141
1.0
290
1
0
SCALE
5
FAD
102
{ACAD_REACTORS
330
FAB
102
}
330
FAB
100
AcDbScale
70
0
300
1:2
140
1.0
141
2.0
290
0
0
SCALE
5
FAE
102
{ACAD_REACTORS
330
FAB
102
}
330
FAB
100
AcDbScale
70
0
300
1:4
140
1.0
141
4.0
290
0
0
SCALE
5
FAF
102
{ACAD_REACTORS
330
FAB
102
}
330
FAB
100
AcDbScale
70
0
300
1:5
140
1.0
141
5.0
290
0
0
SCALE
5
FB0
102
{ACAD_REACTORS
330
FAB
102
}
330
FAB
100
AcDbScale
70
0
300
1:8
140
1.0
141
8.0
290
0
0
SCALE
5
FB1
102
{ACAD_REACTORS
330
FAB
102
}
330
FAB
100
AcDbScale
70
0
300
1:10
140
1.0
141
10.0
290
0
0
SCALE
5
FB2
102
{ACAD_REACTORS
330
FAB
102
}
330
FAB
100
AcDbScale
70
0
300
1:16
140
1.0
141
16.0
290
0
0
SCALE
5
FB3
102
{ACAD_REACTORS
330
FAB
102
}
330
FAB
100
AcDbScale
70
0
300
1:20
140
1.0
141
20.0
290
0
0
SCALE
5
FB4
102
{ACAD_REACTORS
330
FAB
102
}
330
FAB
100
AcDbScale
70
0
300
1:30
140
1.0
141
30.0
290
0
0
SCALE
5
FB5
102
{ACAD_REACTORS
330
FAB
102
}
330
FAB
100
AcDbScale
70
0
300
1:40
140
1.0
141
40.0
290
0
0
SCALE
5
FB6
102
{ACAD_REACTORS
330
FAB
102
}
330
FAB
100
AcDbScale
70
0
300
1:50
140
1.0
141
50.0
290
0
0
SCALE
5
FB7
102
{ACAD_REACTORS
330
FAB
102
}
330
FAB
100
AcDbScale
70
0
300
1:100
140
1.0
141
100.0
290
0
0
SCALE
5
FB8
102
{ACAD_REACTORS
330
FAB
102
}
330
FAB
100
AcDbScale
70
0
300
2:1
140
2.0
141
1.0
290
0
0
SCALE
5
FB9
102
{ACAD_REACTORS
330
FAB
102
}
330
FAB
100
AcDbScale
70
0
300
4:1
140
4.0
141
1.0
290
0
0
SCALE
5
FBA
102
{ACAD_REACTORS
330
FAB
102
}
330
FAB
100
AcDbScale
70
0
300
8:1
140
8.0
141
1.0
290
0
0
SCALE
5
FBB
102
{ACAD_REACTORS
330
FAB
102
}
330
FAB
100
AcDbScale
70
0
300
10:1
140
10.0
141
1.0
290
0
0
SCALE
5
FBC
102
{ACAD_REACTORS
330
FAB
102
}
330
FAB
100
AcDbScale
70
0
300
100:1
140
100.0
141
1.0
290
0
0
SCALE
5
FBD
102
{ACAD_REACTORS
330
FAB
102
}
330
FAB
100
AcDbScale
70
0
300
1/128" = 1'-0"
140
0.0078125
141
12.0
290
0
0
SCALE
5
FBE
102
{ACAD_REACTORS
330
FAB
102
}
330
FAB
100
AcDbScale
70
0
300
1/64" = 1'-0"
140
0.015625
141
12.0
290
0
0
SCALE
5
FBF
102
{ACAD_REACTORS
330
FAB
102
}
330
FAB
100
AcDbScale
70
0
300
1/32" = 1'-0"
140
0.03125
141
12.0
290
0
0
SCALE
5
FC0
102
{ACAD_REACTORS
330
FAB
102
}
330
FAB
100
AcDbScale
70
0
300
1/16" = 1'-0"
140
0.0625
141
12.0
290
0
0
SCALE
5
FC1
102
{ACAD_REACTORS
330
FAB
102
}
330
FAB
100
AcDbScale
70
0
300
3/32" = 1'-0"
140
0.09375
141
12.0
290
0
0
SCALE
5
FC2
102
{ACAD_REACTORS
330
FAB
102
}
330
FAB
100
AcDbScale
70
0
300
1/8" = 1'-0"
140
0.125
141
12.0
290
0
0
SCALE
5
FC3
102
{ACAD_REACTORS
330
FAB
102
}
330
FAB
100
AcDbScale
70
0
300
3/16" = 1'-0"
140
0.1875
141
12.0
290
0
0
SCALE
5
FC4
102
{ACAD_REACTORS
330
FAB
102
}
330
FAB
100
AcDbScale
70
0
300
1/4" = 1'-0"
140
0.25
141
12.0
290
0
0
SCALE
5
FC5
102
{ACAD_REACTORS
330
FAB
102
}
330
FAB
100
AcDbScale
70
0
300
3/8" = 1'-0"
140
0.375
141
12.0
290
0
0
SCALE
5
FC6
102
{ACAD_REACTORS
330
FAB
102
}
330
FAB
100
AcDbScale
70
0
300
1/2" = 1'-0"
140
0.5
141
12.0
290
0
0
SCALE
5
FC7
102
{ACAD_REACTORS
330
FAB
102
}
330
FAB
100
AcDbScale
70
0
300
3/4" = 1'-0"
140
0.75
141
12.0
290
0
0
SCALE
5
FC8
102
{ACAD_REACTORS
330
FAB
102
}
330
FAB
100
AcDbScale
70
0
300
1" = 1'-0"
140
1.0
141
12.0
290
0
0
SCALE
5
FC9
102
{ACAD_REACTORS
330
FAB
102
}
330
FAB
100
AcDbScale
70
0
300
1-1/2" = 1'-0"
140
1.5
141
12.0
290
0
0
SCALE
5
FCA
102
{ACAD_REACTORS
330
FAB
102
}
330
FAB
100
AcDbScale
70
0
300
3" = 1'-0"
140
3.0
141
12.0
290
0
0
SCALE
5
FCB
102
{ACAD_REACTORS
330
FAB
102
}
330
FAB
100
AcDbScale
70
0
300
6" = 1'-0"
140
6.0
141
12.0
290
0
0
SCALE
5
FCC
102
{ACAD_REACTORS
330
FAB
102
}
330
FAB
100
AcDbScale
70
0
300
1'-0" = 1'-0"
140
12.0
141
12.0
290
0
0
TABLESTYLE
5
FA9
102
{ACAD_XDICTIONARY
360
FF8
102
}
102
{ACAD_REACTORS
330
FA8
102
}
330
FA8
100
AcDbTableStyle
3
Standard
70
0
71
0
40
0.06
41
0.06
280
0
281
0
7
Standard
140
0.18
170
2
62
0
63
7
283
0
274
-2
284
1
64
0
275
-2
285
1
65
0
276
-2
286
1
66
0
277
-2
287
1
67
0
278
-2
288
1
68
0
279
-2
289
1
69
0
7
Standard
140
0.25
170
5
62
0
63
7
283
0
274
-2
284
1
64
0
275
-2
285
1
65
0
276
-2
286
1
66
0
277
-2
287
1
67
0
278
-2
288
1
68
0
279
-2
289
1
69
0
7
Standard
140
0.18
170
5
62
0
63
7
283
0
274
-2
284
1
64
0
275
-2
285
1
65
0
276
-2
286
1
66
0
277
-2
287
1
67
0
278
-2
288
1
68
0
279
-2
289
1
69
0
0
VISUALSTYLE
5
F99
102
{ACAD_XDICTIONARY
360
108A
102
}
102
{ACAD_REACTORS
330
F93
102
}
330
F93
100
AcDbVisualStyle
2

70
4
71
0
72
2
73
0
90
0
40
-0.6
41
-30.0
62
5
63
7
74
1
91
4
64
7
65
257
75
1
175
1
42
1.0
92
0
66
257
43
1.0
76
1
77
6
78
2
67
7
79
5
170
0
171
0
290
0
174
0
93
1
44
0.0
173
0
291
0
45
0.0
1001
ACAD
1000
AcDbSavedByObjectVersion
1070
0
0
VISUALSTYLE
5
F9B
102
{ACAD_XDICTIONARY
360
108E
102
}
102
{ACAD_REACTORS
330
F93
102
}
330
F93
100
AcDbVisualStyle
2

70
6
71
1
72
2
73
2
90
0
40
-0.6
41
-30.0
62
5
63
7
74
2
91
2
64
7
65
257
75
2
175
1
42
179.0
92
0
66
257
43
1.0
76
1
77
6
78
2
67
7
79
3
170
0
171
0
290
0
174
0
93
1
44
0.0
173
0
291
0
45
0.0
1001
ACAD
1000
AcDbSavedByObjectVersion
1070
0
0
VISUALSTYLE
5
F9A
102
{ACAD_XDICTIONARY
360
108C
102
}
102
{ACAD_REACTORS
330
F93
102
}
330
F93
100
AcDbVisualStyle
2

70
5
71
0
72
2
73
0
90
0
40
-0.6
41
-30.0
62
5
63
7
74
1
91
4
64
7
65
257
75
1
175
1
42
1.0
92
0
66
257
43
1.0
76
1
77
6
78
2
67
7
79
5
170
0
171
0
290
0
174
0
93
1
44
0.0
173
0
291
0
45
0.0
1001
ACAD
1000
AcDbSavedByObjectVersion
1070
0
0
VISUALSTYLE
5
F98
102
{ACAD_XDICTIONARY
360
1088
102
}
102
{ACAD_REACTORS
330
F93
102
}
330
F93
100
AcDbVisualStyle
2

70
7
71
1
72
0
73
1
90
0
40
-0.6
41
-30.0
62
5
63
7
74
0
91
4
64
7
65
257
75
1
175
1
42
1.0
92
8
66
7
43
1.0
76
1
77
6
78
2
67
7
79
5
170
0
171
0
290
0
174
0
93
1
44
0.0
173
0
291
1
45
0.0
1001
ACAD
1000
AcDbSavedByObjectVersion
1070
0
0
VISUALSTYLE
5
F9F
102
{ACAD_XDICTIONARY
360
1096
102
}
102
{ACAD_REACTORS
330
F93
102
}
330
F93
100
AcDbVisualStyle
2

70
12
71
2
72
2
73
0
90
0
40
-0.6
41
-30.0
62
5
63
7
74
1
91
4
64
7
65
257
75
1
175
1
42
1.0
92
8
66
7
43
1.0
76
1
77
6
78
2
67
7
79
5
170
0
171
0
290
0
174
0
93
1
44
50.0
173
0
291
1
45
0.0
1001
ACAD
1000
AcDbSavedByObjectVersion
1070
0
0
VISUALSTYLE
5
FA3
102
{ACAD_XDICTIONARY
360
109E
102
}
102
{ACAD_REACTORS
330
F93
102
}
330
F93
100
AcDbVisualStyle
2

70
16
71
2
72
2
73
3
90
0
40
-0.6
41
-30.0
62
5
63
8
74
1
91
4
64
7
65
257
75
1
175
1
42
1.0
92
8
66
8
43
1.0
76
1
77
6
78
2
67
7
79
5
170
0
171
0
290
0
174
0
93
1
44
0.0
173
0
291
1
45
0.0
1001
ACAD
1000
AcDbSavedByObjectVersion
1070
0
0
VISUALSTYLE
5
F9C
102
{ACAD_XDICTIONARY
360
1090
102
}
102
{ACAD_REACTORS
330
F93
102
}
330
F93
100
AcDbVisualStyle
2

70
9
71
3
72
2
73
0
90
0
40
-0.6
41
-30.0
62
5
63
7
74
2
91
2
64
7
65
257
75
1
175
1
42
179.0
92
8
66
7
43
1.0
76
1
77
6
78
2
67
7
79
3
170
0
171
0
290
0
174
0
93
1
44
0.0
173
0
291
0
45
0.0
1001
ACAD
1000
AcDbSavedByObjectVersion
1070
0
0
VISUALSTYLE
5
F9E
102
{ACAD_XDICTIONARY
360
1094
102
}
102
{ACAD_REACTORS
330
F93
102
}
330
F93
100
AcDbVisualStyle
2

70
11
71
2
72
2
73
0
90
0
40
-0.6
41
-30.0
62
5
63
7
74
1
91
4
64
7
65
257
75
1
175
1
42
1.0
92
8
66
7
43
1.0
76
1
77
6
78
2
67
7
79
5
170
0
171
0
290
0
174
0
93
1
44
-50.0
173
0
291
1
45
0.0
1001
ACAD
1000
AcDbSavedByObjectVersion
1070
0
0
VISUALSTYLE
5
FA6
102
{ACAD_XDICTIONARY
360
10A4
102
}
102
{ACAD_REACTORS
330
F93
102
}
330
F93
100
AcDbVisualStyle
2

70
22
71
2
72
2
73
0
90
0
40
-0.6
41
-30.0
62
5
63
7
74
1
91
4
64
7
65
257
75
1
175
1
42
1.0
92
8
66
7
43
1.0
76
1
77
6
78
2
67
7
79
5
170
0
171
0
290
0
174
0
93
1
44
0.0
173
0
291
1
45
0.0
1001
ACAD
1000
AcDbSavedByObjectVersion
1070
0
0
VISUALSTYLE
5
FA2
102
{ACAD_XDICTIONARY
360
109C
102
}
102
{ACAD_REACTORS
330
F93
102
}
330
F93
100
AcDbVisualStyle
2

70
15
71
2
72
2
73
0
90
0
40
-0.6
41
-30.0
62
5
63
7
74
1
91
4
64
7
65
257
75
1
175
1
42
1.0
92
8
66
7
43
1.0
76
1
77
6
78
2
67
7
79
5
170
0
171
0
290
0
174
0
93
1
44
0.0
173
0
291
1
45
0.0
1001
ACAD
1000
AcDbSavedByObjectVersion
1070
0
0
VISUALSTYLE
5
F94
102
{ACAD_XDICTIONARY
360
1080
102
}
102
{ACAD_REACTORS
330
F93
102
}
330
F93
100
AcDbVisualStyle
2

70
0
71
2
72
1
73
1
90
2
40
-0.6
41
30.0
62
5
63
7
74
0
91
4
64
7
65
257
75
1
175
1
42
1.0
92
8
66
7
43
1.0
76
1
77
6
78
2
67
7
79
5
170
0
171
0
290
0
174
0
93
13
44
0.0
173
0
291
1
45
0.0
1001
ACAD
1000
AcDbSavedByObjectVersion
1070
0
0
VISUALSTYLE
5
F95
102
{ACAD_XDICTIONARY
360
1082
102
}
102
{ACAD_REACTORS
330
F93
102
}
330
F93
100
AcDbVisualStyle
2

70
1
71
2
72
1
73
1
90
2
40
-0.6
41
30.0
62
5
63
7
74
1
91
4
64
7
65
257
75
1
175
1
42
1.0
92
0
66
257
43
1.0
76
1
77
6
78
2
67
7
79
5
170
0
171
0
290
0
174
0
93
13
44
0.0
173
0
291
1
45
0.0
1001
ACAD
1000
AcDbSavedByObjectVersion
1070
0
0
VISUALSTYLE
5
F96
102
{ACAD_XDICTIONARY
360
1084
102
}
102
{ACAD_REACTORS
330
F93
102
}
330
F93
100
AcDbVisualStyle
2

70
2
71
2
72
2
73
1
90
2
40
-0.6
41
30.0
62
5
63
7
74
0
91
4
64
7
65
257
75
1
175
1
42
1.0
92
0
66
7
43
1.0
76
1
77
6
78
2
67
7
79
5
170
0
171
0
290
0
174
0
93
13
44
0.0
173
0
291
1
45
0.0
1001
ACAD
1000
AcDbSavedByObjectVersion
1070
0
0
VISUALSTYLE
5
F97
102
{ACAD_XDICTIONARY
360
1086
102
}
102
{ACAD_REACTORS
330
F93
102
}
330
F93
100
AcDbVisualStyle
2

70
3
71
2
72
2
73
1
90
2
40
-0.6
41
30.0
62
5
63
7
74
1
91
4
64
7
65
257
75
1
175
1
42
1.0
92
0
66
257
43
1.0
76
1
77
6
78
2
67
7
79
5
170
0
171
0
290
0
174
0
93
13
44
0.0
173
0
291
1
45
0.0
1001
ACAD
1000
AcDbSavedByObjectVersion
1070
0
0
VISUALSTYLE
5
FA4
102
{ACAD_XDICTIONARY
360
10A0
102
}
102
{ACAD_REACTORS
330
F93
102
}
330
F93
100
AcDbVisualStyle
2

70
20
71
2
72
2
73
0
90
0
40
-0.6
41
-30.0
62
5
63
7
74
1
91
4
64
7
65
257
75
1
175
1
42
1.0
92
10
66
7
43
1.0
76
1
77
6
78
2
67
7
79
5
170
0
171
0
290
0
174
0
93
1
44
0.0
173
0
291
1
45
0.0
1001
ACAD
1000
AcDbSavedByObjectVersion
1070
0
0
VISUALSTYLE
5
FA1
102
{ACAD_XDICTIONARY
360
109A
102
}
102
{ACAD_REACTORS
330
F93
102
}
330
F93
100
AcDbVisualStyle
2

70
14
71
2
72
2
73
0
90
0
40
-0.6
41
-30.0
62
5
63
7
74
1
91
4
64
7
65
257
75
7
175
7
42
1.0
92
8
66
7
43
1.0
76
1
77
6
78
2
67
7
79
5
170
0
171
0
290
0
174
0
93
1
44
0.0
173
0
291
1
45
0.0
1001
ACAD
1000
AcDbSavedByObjectVersion
1070
0
0
VISUALSTYLE
5
FA5
102
{ACAD_XDICTIONARY
360
10A2
102
}
102
{ACAD_REACTORS
330
F93
102
}
330
F93
100
AcDbVisualStyle
2

70
21
71
2
72
2
73
0
90
0
40
-0.6
41
-30.0
62
5
63
7
74
1
91
4
64
7
65
257
75
1
175
1
42
1.0
92
9
66
7
43
1.0
76
1
77
6
78
2
67
7
79
5
170
0
171
0
290
0
174
0
93
1
44
0.0
173
0
291
1
45
0.0
1001
ACAD
1000
AcDbSavedByObjectVersion
1070
0
0
VISUALSTYLE
5
F9D
102
{ACAD_XDICTIONARY
360
1092
102
}
102
{ACAD_REACTORS
330
F93
102
}
330
F93
100
AcDbVisualStyle
2

70
8
71
2
72
2
73
0
90
0
40
-0.6
41
-30.0
62
5
63
7
74
1
91
0
64
7
65
257
75
1
175
1
42
1.0
92
8
66
8
43
1.0
76
1
77
6
78
2
67
7
79
5
170
0
171
0
290
0
174
0
93
13
44
0.0
173
0
291
0
45
0.0
1001
ACAD
1000
AcDbSavedByObjectVersion
1070
0
0
VISUALSTYLE
5
FA0
102
{ACAD_XDICTIONARY
360
1098
102
}
102
{ACAD_REACTORS
330
F93
102
}
330
F93
100
AcDbVisualStyle
2

70
13
71
2
72
2
73
0
90
0
40
-0.6
41
-30.0
62
5
63
7
74
1
91
4
64
7
65
257
75
1
175
1
42
1.0
92
12
66
7
43
1.0
76
1
77
6
78
2
67
7
79
5
170
0
171
0
290
0
174
0
93
1
44
0.0
173
0
291
1
45
0.0
1001
ACAD
1000
AcDbSavedByObjectVersion
1070
0
0
DICTIONARYVAR
5
FF3
102
{ACAD_REACTORS
330
FF0
102
}
330
FF0
100
DictionaryVariables
280
0
1
1:1
0
DICTIONARYVAR
5
FF2
102
{ACAD_REACTORS
330
FF0
102
}
330
FF0
100
DictionaryVariables
280
0
1
STANDARD
0
DICTIONARYVAR
5
FF1
102
{ACAD_REACTORS
330
FF0
102
}
330
FF0
100
DictionaryVariables
280
0
1
STANDARD
0
DICTIONARYVAR
5
FF6
102
{ACAD_REACTORS
330
FF0
102
}
330
FF0
100
DictionaryVariables
280
0
1
1
0
DICTIONARYVAR
5
FF5
102
{ACAD_REACTORS
330
FF0
102
}
330
FF0
100
DictionaryVariables
280
0
1
0
0
DICTIONARYVAR
5
FF4
102
{ACAD_REACTORS
330
FF0
102
}
330
FF0
100
DictionaryVariables
280
0
1
127
0
DICTIONARYVAR
5
1078
102
{ACAD_REACTORS
330
FF0
102
}
330
FF0
100
DictionaryVariables
280
0
1
2
0
DICTIONARY
5
10A9
330
FD1
100
AcDbDictionary
280
1
281
1
3
ACAD_XREC_ROUNDTRIP
360
10AA
0
DICTIONARY
5
10A7
330
FD0
100
AcDbDictionary
280
1
281
1
3
ACAD_XREC_ROUNDTRIP
360
10A8
0
DICTIONARY
5
F84
330
F83
100
AcDbDictionary
280
1
281
1
3
ACAD_XREC_ROUNDTRIP
360
FFF
3
BUMPTILE
360
F86
3
DIFFUSETILE
360
F85
3
OPACITYTILE
360
F89
3
REFLECTIONTILE
360
F88
3
REFRACTIONTILE
360
F8A
3
SPECULARTILE
360
F87
0
DICTIONARY
5
F7C
330
F7B
100
AcDbDictionary
280
1
281
1
3
ACAD_XREC_ROUNDTRIP
360
FFE
3
BUMPTILE
360
F7E
3
DIFFUSETILE
360
F7D
3
OPACITYTILE
360
F81
3
REFLECTIONTILE
360
F80
3
REFRACTIONTILE
360
F82
3
SPECULARTILE
360
F7F
0
DICTIONARY
5
F8C
330
F8B
100
AcDbDictionary
280
1
281
1
3
ACAD_XREC_ROUNDTRIP
360
1000
3
BUMPTILE
360
F8E
3
DIFFUSETILE
360
F8D
3
OPACITYTILE
360
F91
3
REFLECTIONTILE
360
F90
3
REFRACTIONTILE
360
F92
3
SPECULARTILE
360
F8F
0
DICTIONARY
5
FF8
330
FA9
100
AcDbDictionary
280
1
281
1
3
ACAD_ROUNDTRIP_2008_TABLESTYLE_CELLSTYLEMAP
360
1079
3
ACAD_XREC_ROUNDTRIP
360
10A6
0
DICTIONARY
5
108A
330
F99
100
AcDbDictionary
280
1
281
1
3
ACAD_XREC_ROUNDTRIP
360
108B
0
DICTIONARY
5
108E
330
F9B
100
AcDbDictionary
280
1
281
1
3
ACAD_XREC_ROUNDTRIP
360
108F
0
DICTIONARY
5
108C
330
F9A
100
AcDbDictionary
280
1
281
1
3
ACAD_XREC_ROUNDTRIP
360
108D
0
DICTIONARY
5
1088
330
F98
100
AcDbDictionary
280
1
281
1
3
ACAD_XREC_ROUNDTRIP
360
1089
0
DICTIONARY
5
1096
330
F9F
100
AcDbDictionary
280
1
281
1
3
ACAD_XREC_ROUNDTRIP
360
1097
0
DICTIONARY
5
109E
330
FA3
100
AcDbDictionary
280
1
281
1
3
ACAD_XREC_ROUNDTRIP
360
109F
0
DICTIONARY
5
1090
330
F9C
100
AcDbDictionary
280
1
281
1
3
ACAD_XREC_ROUNDTRIP
360
1091
0
DICTIONARY
5
1094
330
F9E
100
AcDbDictionary
280
1
281
1
3
ACAD_XREC_ROUNDTRIP
360
1095
0
DICTIONARY
5
10A4
330
FA6
100
AcDbDictionary
280
1
281
1
3
ACAD_XREC_ROUNDTRIP
360
10A5
0
DICTIONARY
5
109C
330
FA2
100
AcDbDictionary
280
1
281
1
3
ACAD_XREC_ROUNDTRIP
360
109D
0
DICTIONARY
5
1080
330
F94
100
AcDbDictionary
280
1
281
1
3
ACAD_XREC_ROUNDTRIP
360
1081
0
DICTIONARY
5
1082
330
F95
100
AcDbDictionary
280
1
281
1
3
ACAD_XREC_ROUNDTRIP
360
1083
0
DICTIONARY
5
1084
330
F96
100
AcDbDictionary
280
1
281
1
3
ACAD_XREC_ROUNDTRIP
360
1085
0
DICTIONARY
5
1086
330
F97
100
AcDbDictionary
280
1
281
1
3
ACAD_XREC_ROUNDTRIP
360
1087
0
DICTIONARY
5
10A0
330
FA4
100
AcDbDictionary
280
1
281
1
3
ACAD_XREC_ROUNDTRIP
360
10A1
0
DICTIONARY
5
109A
330
FA1
100
AcDbDictionary
280
1
281
1
3
ACAD_XREC_ROUNDTRIP
360
109B
0
DICTIONARY
5
10A2
330
FA5
100
AcDbDictionary
280
1
281
1
3
ACAD_XREC_ROUNDTRIP
360
10A3
0
DICTIONARY
5
1092
330
F9D
100
AcDbDictionary
280
1
281
1
3
ACAD_XREC_ROUNDTRIP
360
1093
0
DICTIONARY
5
1098
330
FA0
100
AcDbDictionary
280
1
281
1
3
ACAD_XREC_ROUNDTRIP
360
1099
0
XRECORD
5
10AA
102
{ACAD_REACTORS
330
10A9
102
}
330
10A9
100
AcDbXrecord
280
1
102
SHADEPLOT
70
0
102
SHADEPLOTRESLEVEL
70
2
102
SHADEPLOTCUSTOMDPI
70
300
0
XRECORD
5
10A8
102
{ACAD_REACTORS
330
10A7
102
}
330
10A7
100
AcDbXrecord
280
1
102
SHADEPLOT
70
0
102
SHADEPLOTRESLEVEL
70
2
102
SHADEPLOTCUSTOMDPI
70
300
0
XRECORD
5
FFF
102
{ACAD_REACTORS
330
F84
102
}
330
F84
100
AcDbXrecord
280
1
102
MATERIAL
148
0.0
149
0.0
149
0.0
93
0
94
127
282
0
72
0
77
0
171
0
175
0
179
0
273
0
0
XRECORD
5
F86
102
{ACAD_REACTORS
330
F84
102
}
330
F84
100
AcDbXrecord
280
1
270
1
271
1
0
XRECORD
5
F85
102
{ACAD_REACTORS
330
F84
102
}
330
F84
100
AcDbXrecord
280
1
270
1
271
1
0
XRECORD
5
F89
102
{ACAD_REACTORS
330
F84
102
}
330
F84
100
AcDbXrecord
280
1
270
1
271
1
0
XRECORD
5
F88
102
{ACAD_REACTORS
330
F84
102
}
330
F84
100
AcDbXrecord
280
1
270
1
271
1
0
XRECORD
5
F8A
102
{ACAD_REACTORS
330
F84
102
}
330
F84
100
AcDbXrecord
280
1
270
1
271
1
0
XRECORD
5
F87
102
{ACAD_REACTORS
330
F84
102
}
330
F84
100
AcDbXrecord
280
1
270
1
271
1
0
XRECORD
5
FFE
102
{ACAD_REACTORS
330
F7C
102
}
330
F7C
100
AcDbXrecord
280
1
102
MATERIAL
148
0.0
149
0.0
149
0.0
93
0
94
127
282
0
72
0
77
0
171
0
175
0
179
0
273
0
0
XRECORD
5
F7E
102
{ACAD_REACTORS
330
F7C
102
}
330
F7C
100
AcDbXrecord
280
1
270
1
271
1
0
XRECORD
5
F7D
102
{ACAD_REACTORS
330
F7C
102
}
330
F7C
100
AcDbXrecord
280
1
270
1
271
1
0
XRECORD
5
F81
102
{ACAD_REACTORS
330
F7C
102
}
330
F7C
100
AcDbXrecord
280
1
270
1
271
1
0
XRECORD
5
F80
102
{ACAD_REACTORS
330
F7C
102
}
330
F7C
100
AcDbXrecord
280
1
270
1
271
1
0
XRECORD
5
F82
102
{ACAD_REACTORS
330
F7C
102
}
330
F7C
100
AcDbXrecord
280
1
270
1
271
1
0
XRECORD
5
F7F
102
{ACAD_REACTORS
330
F7C
102
}
330
F7C
100
AcDbXrecord
280
1
270
1
271
1
0
XRECORD
5
1000
102
{ACAD_REACTORS
330
F8C
102
}
330
F8C
100
AcDbXrecord
280
1
102
MATERIAL
148
0.0
149
0.0
149
0.0
93
0
94
127
282
0
72
0
77
0
171
0
175
0
179
0
273
0
0
XRECORD
5
F8E
102
{ACAD_REACTORS
330
F8C
102
}
330
F8C
100
AcDbXrecord
280
1
270
1
271
1
0
XRECORD
5
F8D
102
{ACAD_REACTORS
330
F8C
102
}
330
F8C
100
AcDbXrecord
280
1
270
1
271
1
0
XRECORD
5
F91
102
{ACAD_REACTORS
330
F8C
102
}
330
F8C
100
AcDbXrecord
280
1
270
1
271
1
0
XRECORD
5
F90
102
{ACAD_REACTORS
330
F8C
102
}
330
F8C
100
AcDbXrecord
280
1
270
1
271
1
0
XRECORD
5
F92
102
{ACAD_REACTORS
330
F8C
102
}
330
F8C
100
AcDbXrecord
280
1
270
1
271
1
0
XRECORD
5
F8F
102
{ACAD_REACTORS
330
F8C
102
}
330
F8C
100
AcDbXrecord
280
1
270
1
271
1
0
CELLSTYLEMAP
5
1079
102
{ACAD_REACTORS
330
FF8
102
}
330
FF8
100
AcDbCellStyleMap
90
3
300
CELLSTYLE
1
TABLEFORMAT_BEGIN
90
5
170
1
91
0
92
32768
62
257
93
1
300
CONTENTFORMAT
1
CONTENTFORMAT_BEGIN
90
0
91
0
92
512
93
0
300

40
0.0
140
1.0
94
5
62
0
340
253
144
0.25
309
CONTENTFORMAT_END
171
1
301
MARGIN
1
CELLMARGIN_BEGIN
40
0.06
40
0.06
40
0.06
40
0.06
40
0.18
40
0.18
309
CELLMARGIN_END
94
6
95
1
302
GRIDFORMAT
1
GRIDFORMAT_BEGIN
90
0
91
1
62
0
92
-2
340
0
93
0
40
0.045
309
GRIDFORMAT_END
95
2
302
GRIDFORMAT
1
GRIDFORMAT_BEGIN
90
0
91
1
62
0
92
-2
340
0
93
0
40
0.045
309
GRIDFORMAT_END
95
4
302
GRIDFORMAT
1
GRIDFORMAT_BEGIN
90
0
91
1
62
0
92
-2
340
0
93
0
40
0.045
309
GRIDFORMAT_END
95
8
302
GRIDFORMAT
1
GRIDFORMAT_BEGIN
90
0
91
1
62
0
92
-2
340
0
93
0
40
0.045
309
GRIDFORMAT_END
95
16
302
GRIDFORMAT
1
GRIDFORMAT_BEGIN
90
0
91
1
62
0
92
-2
340
0
93
0
40
0.045
309
GRIDFORMAT_END
95
32
302
GRIDFORMAT
1
GRIDFORMAT_BEGIN
90
0
91
1
62
0
92
-2
340
0
93
0
40
0.045
309
GRIDFORMAT_END
309
TABLEFORMAT_END
1
CELLSTYLE_BEGIN
90
1
91
1
300
_TITLE
309
CELLSTYLE_END
300
CELLSTYLE
1
TABLEFORMAT_BEGIN
90
5
170
1
91
0
92
0
62
257
93
1
300
CONTENTFORMAT
1
CONTENTFORMAT_BEGIN
90
0
91
0
92
512
93
0
300

40
0.0
140
1.0
94
5
62
0
340
253
144
0.18
309
CONTENTFORMAT_END
171
1
301
MARGIN
1
CELLMARGIN_BEGIN
40
0.06
40
0.06
40
0.06
40
0.06
40
0.18
40
0.18
309
CELLMARGIN_END
94
6
95
1
302
GRIDFORMAT
1
GRIDFORMAT_BEGIN
90
0
91
1
62
0
92
-2
340
0
93
0
40
0.045
309
GRIDFORMAT_END
95
2
302
GRIDFORMAT
1
GRIDFORMAT_BEGIN
90
0
91
1
62
0
92
-2
340
0
93
0
40
0.045
309
GRIDFORMAT_END
95
4
302
GRIDFORMAT
1
GRIDFORMAT_BEGIN
90
0
91
1
62
0
92
-2
340
0
93
0
40
0.045
309
GRIDFORMAT_END
95
8
302
GRIDFORMAT
1
GRIDFORMAT_BEGIN
90
0
91
1
62
0
92
-2
340
0
93
0
40
0.045
309
GRIDFORMAT_END
95
16
302
GRIDFORMAT
1
GRIDFORMAT_BEGIN
90
0
91
1
62
0
92
-2
340
0
93
0
40
0.045
309
GRIDFORMAT_END
95
32
302
GRIDFORMAT
1
GRIDFORMAT_BEGIN
90
0
91
1
62
0
92
-2
340
0
93
0
40
0.045
309
GRIDFORMAT_END
309
TABLEFORMAT_END
1
CELLSTYLE_BEGIN
90
2
91
1
300
_HEADER
309
CELLSTYLE_END
300
CELLSTYLE
1
TABLEFORMAT_BEGIN
90
5
170
1
91
0
92
0
62
257
93
1
300
CONTENTFORMAT
1
CONTENTFORMAT_BEGIN
90
0
91
0
92
512
93
0
300

40
0.0
140
1.0
94
2
62
0
340
253
144
0.18
309
CONTENTFORMAT_END
171
1
301
MARGIN
1
CELLMARGIN_BEGIN
40
0.06
40
0.06
40
0.06
40
0.06
40
0.18
40
0.18
309
CELLMARGIN_END
94
6
95
1
302
GRIDFORMAT
1
GRIDFORMAT_BEGIN
90
0
91
1
62
0
92
-2
340
0
93
0
40
0.045
309
GRIDFORMAT_END
95
2
302
GRIDFORMAT
1
GRIDFORMAT_BEGIN
90
0
91
1
62
0
92
-2
340
0
93
0
40
0.045
309
GRIDFORMAT_END
95
4
302
GRIDFORMAT
1
GRIDFORMAT_BEGIN
90
0
91
1
62
0
92
-2
340
0
93
0
40
0.045
309
GRIDFORMAT_END
95
8
302
GRIDFORMAT
1
GRIDFORMAT_BEGIN
90
0
91
1
62
0
92
-2
340
0
93
0
40
0.045
309
GRIDFORMAT_END
95
16
302
GRIDFORMAT
1
GRIDFORMAT_BEGIN
90
0
91
1
62
0
92
-2
340
0
93
0
40
0.045
309
GRIDFORMAT_END
95
32
302
GRIDFORMAT
1
GRIDFORMAT_BEGIN
90
0
91
1
62
0
92
-2
340
0
93
0
40
0.045
309
GRIDFORMAT_END
309
TABLEFORMAT_END
1
CELLSTYLE_BEGIN
90
3
91
2
300
_DATA
309
CELLSTYLE_END
0
XRECORD
5
10A6
102
{ACAD_REACTORS
330
FF8
102
}
330
FF8
100
AcDbXrecord
280
1
102
ACAD_ROUNDTRIP_PRE2007_TABLESTYLE
90
512
91
0
1

92
512
93
0
2

94
512
95
0
3

0
XRECORD
5
108B
102
{ACAD_REACTORS
330
108A
102
}
330
108A
100
AcDbXrecord
280
1
102
RTVSPropertyOp0
70
1
102
RTVSPropertyOp1
70
1
102
RTVSPropertyOp2
70
1
102
RTVSPropertyOp3
70
1
102
RTVSPropertyOp4
70
1
102
RTVSPropertyOp5
70
1
102
RTVSPropertyOp6
70
1
102
RTVSPropertyOp7
70
1
102
RTVSPropertyOp8
70
1
102
RTVSPropertyOp9
70
1
102
RTVSPropertyOp10
70
1
102
RTVSPropertyOp11
70
1
102
RTVSPropertyOp12
70
1
102
RTVSPropertyOp13
70
1
102
RTVSPropertyOp14
70
1
102
RTVSPropertyOp15
70
1
102
RTVSPropertyOp16
70
1
102
RTVSPropertyOp17
70
1
102
RTVSPropertyOp18
70
1
102
RTVSPropertyOp19
70
1
102
RTVSPropertyOp20
70
1
102
RTVSPropertyOp21
70
1
102
RTVSPropertyOp22
70
1
102
RTVSPropertyOp23
70
1
102
RTVSPropertyOp24
70
1
102
RTVSPropertyOp25
70
1
102
RTVSPropertyOp26
70
1
102
RTVSPropertyOp27
70
1
0
XRECORD
5
108F
102
{ACAD_REACTORS
330
108E
102
}
330
108E
100
AcDbXrecord
280
1
102
RTVSPropertyOp0
70
1
102
RTVSPropertyOp1
70
1
102
RTVSPropertyOp2
70
1
102
RTVSPropertyOp3
70
1
102
RTVSPropertyOp4
70
1
102
RTVSPropertyOp5
70
1
102
RTVSPropertyOp6
70
1
102
RTVSPropertyOp7
70
1
102
RTVSPropertyOp8
70
1
102
RTVSPropertyOp9
70
1
102
RTVSPropertyOp10
70
1
102
RTVSPropertyOp11
70
1
102
RTVSPropertyOp12
70
1
102
RTVSPropertyOp13
70
1
102
RTVSPropertyOp14
70
1
102
RTVSPropertyOp15
70
1
102
RTVSPropertyOp16
70
1
102
RTVSPropertyOp17
70
1
102
RTVSPropertyOp18
70
1
102
RTVSPropertyOp19
70
1
102
RTVSPropertyOp20
70
1
102
RTVSPropertyOp21
70
1
102
RTVSPropertyOp22
70
1
102
RTVSPropertyOp23
70
1
102
RTVSPropertyOp24
70
1
102
RTVSPropertyOp25
70
1
102
RTVSPropertyOp26
70
1
102
RTVSPropertyOp27
70
1
0
XRECORD
5
108D
102
{ACAD_REACTORS
330
108C
102
}
330
108C
100
AcDbXrecord
280
1
102
RTVSPropertyOp0
70
1
102
RTVSPropertyOp1
70
1
102
RTVSPropertyOp2
70
1
102
RTVSPropertyOp3
70
1
102
RTVSPropertyOp4
70
1
102
RTVSPropertyOp5
70
1
102
RTVSPropertyOp6
70
1
102
RTVSPropertyOp7
70
1
102
RTVSPropertyOp8
70
1
102
RTVSPropertyOp9
70
1
102
RTVSPropertyOp10
70
1
102
RTVSPropertyOp11
70
1
102
RTVSPropertyOp12
70
1
102
RTVSPropertyOp13
70
1
102
RTVSPropertyOp14
70
1
102
RTVSPropertyOp15
70
1
102
RTVSPropertyOp16
70
1
102
RTVSPropertyOp17
70
1
102
RTVSPropertyOp18
70
1
102
RTVSPropertyOp19
70
1
102
RTVSPropertyOp20
70
1
102
RTVSPropertyOp21
70
1
102
RTVSPropertyOp22
70
1
102
RTVSPropertyOp23
70
1
102
RTVSPropertyOp24
70
1
102
RTVSPropertyOp25
70
1
102
RTVSPropertyOp26
70
1
102
RTVSPropertyOp27
70
1
0
XRECORD
5
1089
102
{ACAD_REACTORS
330
1088
102
}
330
1088
100
AcDbXrecord
280
1
102
RTVSPropertyOp0
70
1
102
RTVSPropertyOp1
70
1
102
RTVSPropertyOp2
70
1
102
RTVSPropertyOp3
70
1
102
RTVSPropertyOp4
70
1
102
RTVSPropertyOp5
70
1
102
RTVSPropertyOp6
70
1
102
RTVSPropertyOp7
70
1
102
RTVSPropertyOp8
70
1
102
RTVSPropertyOp9
70
1
102
RTVSPropertyOp10
70
1
102
RTVSPropertyOp11
70
1
102
RTVSPropertyOp12
70
1
102
RTVSPropertyOp13
70
1
102
RTVSPropertyOp14
70
1
102
RTVSPropertyOp15
70
1
102
RTVSPropertyOp16
70
1
102
RTVSPropertyOp17
70
1
102
RTVSPropertyOp18
70
1
102
RTVSPropertyOp19
70
1
102
RTVSPropertyOp20
70
1
102
RTVSPropertyOp21
70
1
102
RTVSPropertyOp22
70
1
102
RTVSPropertyOp23
70
1
102
RTVSPropertyOp24
70
1
102
RTVSPropertyOp25
70
1
102
RTVSPropertyOp26
70
1
102
RTVSPropertyOp27
70
1
0
XRECORD
5
1097
102
{ACAD_REACTORS
330
1096
102
}
330
1096
100
AcDbXrecord
280
1
102
RTVSPropertyOp0
70
1
102
RTVSPropertyOp1
70
1
102
RTVSPropertyOp2
70
1
102
RTVSPropertyOp3
70
1
102
RTVSPropertyOp4
70
1
102
RTVSPropertyOp5
70
1
102
RTVSPropertyOp6
70
1
102
RTVSPropertyOp7
70
1
102
RTVSPropertyOp8
70
1
102
RTVSPropertyOp9
70
1
102
RTVSPropertyOp10
70
1
102
RTVSPropertyOp11
70
1
102
RTVSPropertyOp12
70
1
102
RTVSPropertyOp13
70
1
102
RTVSPropertyOp14
70
1
102
RTVSPropertyOp15
70
1
102
RTVSPropertyOp16
70
1
102
RTVSPropertyOp17
70
1
102
RTVSPropertyOp18
70
1
102
RTVSPropertyOp19
70
1
102
RTVSPropertyOp20
70
1
102
RTVSPropertyOp21
70
1
102
RTVSPropertyOp22
70
1
102
RTVSPropertyOp23
70
1
102
RTVSPropertyOp24
70
1
102
RTVSPropertyOp25
70
1
102
RTVSPropertyOp26
70
1
102
RTVSPropertyOp27
70
1
0
XRECORD
5
109F
102
{ACAD_REACTORS
330
109E
102
}
330
109E
100
AcDbXrecord
280
1
102
RTVSPropertyOp0
70
1
102
RTVSPropertyOp1
70
1
102
RTVSPropertyOp2
70
1
102
RTVSPropertyOp3
70
1
102
RTVSPropertyOp4
70
1
102
RTVSPropertyOp5
70
1
102
RTVSPropertyOp6
70
1
102
RTVSPropertyOp7
70
1
102
RTVSPropertyOp8
70
1
102
RTVSPropertyOp9
70
1
102
RTVSPropertyOp10
70
1
102
RTVSPropertyOp11
70
1
102
RTVSPropertyOp12
70
1
102
RTVSPropertyOp13
70
1
102
RTVSPropertyOp14
70
1
102
RTVSPropertyOp15
70
1
102
RTVSPropertyOp16
70
1
102
RTVSPropertyOp17
70
1
102
RTVSPropertyOp18
70
1
102
RTVSPropertyOp19
70
1
102
RTVSPropertyOp20
70
1
102
RTVSPropertyOp21
70
1
102
RTVSPropertyOp22
70
1
102
RTVSPropertyOp23
70
1
102
RTVSPropertyOp24
70
1
102
RTVSPropertyOp25
70
1
102
RTVSPropertyOp26
70
1
102
RTVSPropertyOp27
70
1
0
XRECORD
5
1091
102
{ACAD_REACTORS
330
1090
102
}
330
1090
100
AcDbXrecord
280
1
102
RTVSPropertyOp0
70
1
102
RTVSPropertyOp1
70
1
102
RTVSPropertyOp2
70
1
102
RTVSPropertyOp3
70
1
102
RTVSPropertyOp4
70
1
102
RTVSPropertyOp5
70
1
102
RTVSPropertyOp6
70
1
102
RTVSPropertyOp7
70
1
102
RTVSPropertyOp8
70
1
102
RTVSPropertyOp9
70
1
102
RTVSPropertyOp10
70
1
102
RTVSPropertyOp11
70
1
102
RTVSPropertyOp12
70
1
102
RTVSPropertyOp13
70
1
102
RTVSPropertyOp14
70
1
102
RTVSPropertyOp15
70
1
102
RTVSPropertyOp16
70
1
102
RTVSPropertyOp17
70
1
102
RTVSPropertyOp18
70
1
102
RTVSPropertyOp19
70
1
102
RTVSPropertyOp20
70
1
102
RTVSPropertyOp21
70
1
102
RTVSPropertyOp22
70
1
102
RTVSPropertyOp23
70
1
102
RTVSPropertyOp24
70
1
102
RTVSPropertyOp25
70
1
102
RTVSPropertyOp26
70
1
102
RTVSPropertyOp27
70
1
0
XRECORD
5
1095
102
{ACAD_REACTORS
330
1094
102
}
330
1094
100
AcDbXrecord
280
1
102
RTVSPropertyOp0
70
1
102
RTVSPropertyOp1
70
1
102
RTVSPropertyOp2
70
1
102
RTVSPropertyOp3
70
1
102
RTVSPropertyOp4
70
1
102
RTVSPropertyOp5
70
1
102
RTVSPropertyOp6
70
1
102
RTVSPropertyOp7
70
1
102
RTVSPropertyOp8
70
1
102
RTVSPropertyOp9
70
1
102
RTVSPropertyOp10
70
1
102
RTVSPropertyOp11
70
1
102
RTVSPropertyOp12
70
1
102
RTVSPropertyOp13
70
1
102
RTVSPropertyOp14
70
1
102
RTVSPropertyOp15
70
1
102
RTVSPropertyOp16
70
1
102
RTVSPropertyOp17
70
1
102
RTVSPropertyOp18
70
1
102
RTVSPropertyOp19
70
1
102
RTVSPropertyOp20
70
1
102
RTVSPropertyOp21
70
1
102
RTVSPropertyOp22
70
1
102
RTVSPropertyOp23
70
1
102
RTVSPropertyOp24
70
1
102
RTVSPropertyOp25
70
1
102
RTVSPropertyOp26
70
1
102
RTVSPropertyOp27
70
1
0
XRECORD
5
10A5
102
{ACAD_REACTORS
330
10A4
102
}
330
10A4
100
AcDbXrecord
280
1
102
RTVSPropertyOp0
70
0
102
RTVSPropertyOp1
70
0
102
RTVSPropertyOp2
70
0
102
RTVSPropertyOp3
70
0
102
RTVSPropertyOp4
70
0
102
RTVSPropertyOp5
70
0
102
RTVSPropertyOp6
70
0
102
RTVSPropertyOp7
70
0
102
RTVSPropertyOp8
70
0
102
RTVSPropertyOp9
70
0
102
RTVSPropertyOp10
70
0
102
RTVSPropertyOp11
70
0
102
RTVSPropertyOp12
70
0
102
RTVSPropertyOp13
70
0
102
RTVSPropertyOp14
70
2
102
RTVSPropertyOp15
70
0
102
RTVSPropertyOp16
70
0
102
RTVSPropertyOp17
70
0
102
RTVSPropertyOp18
70
0
102
RTVSPropertyOp19
70
0
102
RTVSPropertyOp20
70
0
102
RTVSPropertyOp21
70
0
102
RTVSPropertyOp22
70
0
102
RTVSPropertyOp23
70
0
102
RTVSPropertyOp24
70
0
102
RTVSPropertyOp25
70
0
102
RTVSPropertyOp26
70
0
102
RTVSPropertyOp27
70
0
0
XRECORD
5
109D
102
{ACAD_REACTORS
330
109C
102
}
330
109C
100
AcDbXrecord
280
1
102
RTVSPropertyOp0
70
1
102
RTVSPropertyOp1
70
1
102
RTVSPropertyOp2
70
1
102
RTVSPropertyOp3
70
1
102
RTVSPropertyOp4
70
1
102
RTVSPropertyOp5
70
1
102
RTVSPropertyOp6
70
1
102
RTVSPropertyOp7
70
1
102
RTVSPropertyOp8
70
1
102
RTVSPropertyOp9
70
1
102
RTVSPropertyOp10
70
1
102
RTVSPropertyOp11
70
1
102
RTVSPropertyOp12
70
1
102
RTVSPropertyOp13
70
1
102
RTVSPropertyOp14
70
1
102
RTVSPropertyOp15
70
1
102
RTVSPropertyOp16
70
1
102
RTVSPropertyOp17
70
1
102
RTVSPropertyOp18
70
1
102
RTVSPropertyOp19
70
1
102
RTVSPropertyOp20
70
1
102
RTVSPropertyOp21
70
1
102
RTVSPropertyOp22
70
1
102
RTVSPropertyOp23
70
1
102
RTVSPropertyOp24
70
1
102
RTVSPropertyOp25
70
1
102
RTVSPropertyOp26
70
1
102
RTVSPropertyOp27
70
1
0
XRECORD
5
1081
102
{ACAD_REACTORS
330
1080
102
}
330
1080
100
AcDbXrecord
280
1
102
RTVSPropertyOp0
70
1
102
RTVSPropertyOp1
70
1
102
RTVSPropertyOp2
70
1
102
RTVSPropertyOp3
70
1
102
RTVSPropertyOp4
70
1
102
RTVSPropertyOp5
70
1
102
RTVSPropertyOp6
70
1
102
RTVSPropertyOp7
70
1
102
RTVSPropertyOp8
70
1
102
RTVSPropertyOp9
70
1
102
RTVSPropertyOp10
70
1
102
RTVSPropertyOp11
70
1
102
RTVSPropertyOp12
70
1
102
RTVSPropertyOp13
70
1
102
RTVSPropertyOp14
70
1
102
RTVSPropertyOp15
70
1
102
RTVSPropertyOp16
70
1
102
RTVSPropertyOp17
70
1
102
RTVSPropertyOp18
70
1
102
RTVSPropertyOp19
70
1
102
RTVSPropertyOp20
70
1
102
RTVSPropertyOp21
70
1
102
RTVSPropertyOp22
70
1
102
RTVSPropertyOp23
70
1
102
RTVSPropertyOp24
70
1
102
RTVSPropertyOp25
70
1
102
RTVSPropertyOp26
70
1
102
RTVSPropertyOp27
70
1
0
XRECORD
5
1083
102
{ACAD_REACTORS
330
1082
102
}
330
1082
100
AcDbXrecord
280
1
102
RTVSPropertyOp0
70
1
102
RTVSPropertyOp1
70
1
102
RTVSPropertyOp2
70
1
102
RTVSPropertyOp3
70
1
102
RTVSPropertyOp4
70
1
102
RTVSPropertyOp5
70
1
102
RTVSPropertyOp6
70
1
102
RTVSPropertyOp7
70
1
102
RTVSPropertyOp8
70
1
102
RTVSPropertyOp9
70
1
102
RTVSPropertyOp10
70
1
102
RTVSPropertyOp11
70
1
102
RTVSPropertyOp12
70
1
102
RTVSPropertyOp13
70
1
102
RTVSPropertyOp14
70
1
102
RTVSPropertyOp15
70
1
102
RTVSPropertyOp16
70
1
102
RTVSPropertyOp17
70
1
102
RTVSPropertyOp18
70
1
102
RTVSPropertyOp19
70
1
102
RTVSPropertyOp20
70
1
102
RTVSPropertyOp21
70
1
102
RTVSPropertyOp22
70
1
102
RTVSPropertyOp23
70
1
102
RTVSPropertyOp24
70
1
102
RTVSPropertyOp25
70
1
102
RTVSPropertyOp26
70
1
102
RTVSPropertyOp27
70
1
0
XRECORD
5
1085
102
{ACAD_REACTORS
330
1084
102
}
330
1084
100
AcDbXrecord
280
1
102
RTVSPropertyOp0
70
1
102
RTVSPropertyOp1
70
1
102
RTVSPropertyOp2
70
1
102
RTVSPropertyOp3
70
1
102
RTVSPropertyOp4
70
1
102
RTVSPropertyOp5
70
1
102
RTVSPropertyOp6
70
1
102
RTVSPropertyOp7
70
1
102
RTVSPropertyOp8
70
1
102
RTVSPropertyOp9
70
1
102
RTVSPropertyOp10
70
1
102
RTVSPropertyOp11
70
1
102
RTVSPropertyOp12
70
1
102
RTVSPropertyOp13
70
1
102
RTVSPropertyOp14
70
1
102
RTVSPropertyOp15
70
1
102
RTVSPropertyOp16
70
1
102
RTVSPropertyOp17
70
1
102
RTVSPropertyOp18
70
1
102
RTVSPropertyOp19
70
1
102
RTVSPropertyOp20
70
1
102
RTVSPropertyOp21
70
1
102
RTVSPropertyOp22
70
1
102
RTVSPropertyOp23
70
1
102
RTVSPropertyOp24
70
1
102
RTVSPropertyOp25
70
1
102
RTVSPropertyOp26
70
1
102
RTVSPropertyOp27
70
1
0
XRECORD
5
1087
102
{ACAD_REACTORS
330
1086
102
}
330
1086
100
AcDbXrecord
280
1
102
RTVSPropertyOp0
70
1
102
RTVSPropertyOp1
70
1
102
RTVSPropertyOp2
70
1
102
RTVSPropertyOp3
70
1
102
RTVSPropertyOp4
70
1
102
RTVSPropertyOp5
70
1
102
RTVSPropertyOp6
70
1
102
RTVSPropertyOp7
70
1
102
RTVSPropertyOp8
70
1
102
RTVSPropertyOp9
70
1
102
RTVSPropertyOp10
70
1
102
RTVSPropertyOp11
70
1
102
RTVSPropertyOp12
70
1
102
RTVSPropertyOp13
70
1
102
RTVSPropertyOp14
70
1
102
RTVSPropertyOp15
70
1
102
RTVSPropertyOp16
70
1
102
RTVSPropertyOp17
70
1
102
RTVSPropertyOp18
70
1
102
RTVSPropertyOp19
70
1
102
RTVSPropertyOp20
70
1
102
RTVSPropertyOp21
70
1
102
RTVSPropertyOp22
70
1
102
RTVSPropertyOp23
70
1
102
RTVSPropertyOp24
70
1
102
RTVSPropertyOp25
70
1
102
RTVSPropertyOp26
70
1
102
RTVSPropertyOp27
70
1
0
XRECORD
5
10A1
102
{ACAD_REACTORS
330
10A0
102
}
330
10A0
100
AcDbXrecord
280
1
102
RTVSPropertyOp0
70
0
102
RTVSPropertyOp1
70
0
102
RTVSPropertyOp2
70
0
102
RTVSPropertyOp3
70
0
102
RTVSPropertyOp4
70
0
102
RTVSPropertyOp5
70
0
102
RTVSPropertyOp6
70
0
102
RTVSPropertyOp7
70
0
102
RTVSPropertyOp8
70
0
102
RTVSPropertyOp9
70
0
102
RTVSPropertyOp10
70
0
102
RTVSPropertyOp11
70
0
102
RTVSPropertyOp12
70
0
102
RTVSPropertyOp13
70
0
102
RTVSPropertyOp14
70
2
102
RTVSPropertyOp15
70
0
102
RTVSPropertyOp16
70
0
102
RTVSPropertyOp17
70
0
102
RTVSPropertyOp18
70
0
102
RTVSPropertyOp19
70
0
102
RTVSPropertyOp20
70
0
102
RTVSPropertyOp21
70
0
102
RTVSPropertyOp22
70
0
102
RTVSPropertyOp23
70
0
102
RTVSPropertyOp24
70
0
102
RTVSPropertyOp25
70
0
102
RTVSPropertyOp26
70
0
102
RTVSPropertyOp27
70
0
0
XRECORD
5
109B
102
{ACAD_REACTORS
330
109A
102
}
330
109A
100
AcDbXrecord
280
1
102
RTVSPropertyOp0
70
1
102
RTVSPropertyOp1
70
1
102
RTVSPropertyOp2
70
1
102
RTVSPropertyOp3
70
1
102
RTVSPropertyOp4
70
1
102
RTVSPropertyOp5
70
1
102
RTVSPropertyOp6
70
1
102
RTVSPropertyOp7
70
1
102
RTVSPropertyOp8
70
1
102
RTVSPropertyOp9
70
1
102
RTVSPropertyOp10
70
1
102
RTVSPropertyOp11
70
1
102
RTVSPropertyOp12
70
1
102
RTVSPropertyOp13
70
1
102
RTVSPropertyOp14
70
1
102
RTVSPropertyOp15
70
1
102
RTVSPropertyOp16
70
1
102
RTVSPropertyOp17
70
1
102
RTVSPropertyOp18
70
1
102
RTVSPropertyOp19
70
1
102
RTVSPropertyOp20
70
1
102
RTVSPropertyOp21
70
1
102
RTVSPropertyOp22
70
1
102
RTVSPropertyOp23
70
1
102
RTVSPropertyOp24
70
1
102
RTVSPropertyOp25
70
1
102
RTVSPropertyOp26
70
1
102
RTVSPropertyOp27
70
1
0
XRECORD
5
10A3
102
{ACAD_REACTORS
330
10A2
102
}
330
10A2
100
AcDbXrecord
280
1
102
RTVSPropertyOp0
70
0
102
RTVSPropertyOp1
70
0
102
RTVSPropertyOp2
70
0
102
RTVSPropertyOp3
70
0
102
RTVSPropertyOp4
70
0
102
RTVSPropertyOp5
70
0
102
RTVSPropertyOp6
70
0
102
RTVSPropertyOp7
70
0
102
RTVSPropertyOp8
70
0
102
RTVSPropertyOp9
70
0
102
RTVSPropertyOp10
70
0
102
RTVSPropertyOp11
70
0
102
RTVSPropertyOp12
70
0
102
RTVSPropertyOp13
70
0
102
RTVSPropertyOp14
70
2
102
RTVSPropertyOp15
70
0
102
RTVSPropertyOp16
70
0
102
RTVSPropertyOp17
70
0
102
RTVSPropertyOp18
70
0
102
RTVSPropertyOp19
70
0
102
RTVSPropertyOp20
70
0
102
RTVSPropertyOp21
70
0
102
RTVSPropertyOp22
70
0
102
RTVSPropertyOp23
70
0
102
RTVSPropertyOp24
70
0
102
RTVSPropertyOp25
70
0
102
RTVSPropertyOp26
70
0
102
RTVSPropertyOp27
70
0
0
XRECORD
5
1093
102
{ACAD_REACTORS
330
1092
102
}
330
1092
100
AcDbXrecord
280
1
102
RTVSPropertyOp0
70
1
102
RTVSPropertyOp1
70
1
102
RTVSPropertyOp2
70
1
102
RTVSPropertyOp3
70
1
102
RTVSPropertyOp4
70
1
102
RTVSPropertyOp5
70
1
102
RTVSPropertyOp6
70
1
102
RTVSPropertyOp7
70
1
102
RTVSPropertyOp8
70
1
102
RTVSPropertyOp9
70
1
102
RTVSPropertyOp10
70
1
102
RTVSPropertyOp11
70
1
102
RTVSPropertyOp12
70
1
102
RTVSPropertyOp13
70
1
102
RTVSPropertyOp14
70
1
102
RTVSPropertyOp15
70
1
102
RTVSPropertyOp16
70
1
102
RTVSPropertyOp17
70
1
102
RTVSPropertyOp18
70
1
102
RTVSPropertyOp19
70
1
102
RTVSPropertyOp20
70
1
102
RTVSPropertyOp21
70
1
102
RTVSPropertyOp22
70
1
102
RTVSPropertyOp23
70
1
102
RTVSPropertyOp24
70
1
102
RTVSPropertyOp25
70
1
102
RTVSPropertyOp26
70
1
102
RTVSPropertyOp27
70
1
0
XRECORD
5
1099
102
{ACAD_REACTORS
330
1098
102
}
330
1098
100
AcDbXrecord
280
1
102
RTVSPropertyOp0
70
1
102
RTVSPropertyOp1
70
1
102
RTVSPropertyOp2
70
1
102
RTVSPropertyOp3
70
1
102
RTVSPropertyOp4
70
1
102
RTVSPropertyOp5
70
1
102
RTVSPropertyOp6
70
1
102
RTVSPropertyOp7
70
1
102
RTVSPropertyOp8
70
1
102
RTVSPropertyOp9
70
1
102
RTVSPropertyOp10
70
1
102
RTVSPropertyOp11
70
1
102
RTVSPropertyOp12
70
1
102
RTVSPropertyOp13
70
1
102
RTVSPropertyOp14
70
1
102
RTVSPropertyOp15
70
1
102
RTVSPropertyOp16
70
1
102
RTVSPropertyOp17
70
1
102
RTVSPropertyOp18
70
1
102
RTVSPropertyOp19
70
1
102
RTVSPropertyOp20
70
1
102
RTVSPropertyOp21
70
1
102
RTVSPropertyOp22
70
1
102
RTVSPropertyOp23
70
1
102
RTVSPropertyOp24
70
1
102
RTVSPropertyOp25
70
1
102
RTVSPropertyOp26
70
1
102
RTVSPropertyOp27
70
1
0
ENDSEC
0
EOF
