0
SECTION
2
HEADER
9
$ACADVER
1
AC1015
9
$ACADMAINTVER
70
20
9
$DWGCODEPAGE
3
ANSI_1252
9
$INSBASE
10
0.0
20
0.0
30
0.0
9
$EXTMIN
10
-150.000000000000
20
-105.000000000000
30
0.0
9
$EXTMAX
10
150.000000000000
20
105.000000000000
30
0.0
9
$LIMMIN
10
0.0
20
0.0
9
$LIMMAX
10
12.0
20
9.0
9
$ORTHOMODE
70
0
9
$REGENMODE
70
1
9
$FILLMODE
70
1
9
$QTEXTMODE
70
0
9
$MIRRTEXT
70
1
9
$LTSCALE
40
1.0
9
$ATTMODE
70
1
9
$TEXTSIZE
40
0.2
9
$TRACEWID
40
0.05
9
$TEXTSTYLE
7
Standard
9
$CLAYER
8
0
9
$CELTYPE
6
ByLayer
9
$CECOLOR
62
256
9
$CELTSCALE
40
1.0
9
$DISPSILH
70
0
9
$DIMSCALE
40
1.0
9
$DIMASZ
40
2.5
9
$DIMEXO
40
0.625
9
$DIMDLI
40
0.38
9
$DIMRND
40
0.0
9
$DIMDLE
40
0.0
9
$DIMEXE
40
1.25
9
$DIMTP
40
0.0
9
$DIMTM
40
0.000000001
9
$DIMTXT
40
2.5
9
$DIMCEN
40
0.09
9
$DIMTSZ
40
0.0
9
$DIMTOL
70
1
9
$DIMLIM
70
0
9
$DIMTIH
70
0
9
$DIMTOH
70
0
9
$DIMSE1
70
0
9
$DIMSE2
70
0
9
$DIMTAD
70
1
9
$DIMZIN
70
0
9
$DIMBLK
1
VDDIM_DEFAULT
9
$DIMASO
70
1
9
$DIMSHO
70
1
9
$DIMPOST
1

9
$DIMAPOST
1

9
$DIMALT
70
0
9
$DIMALTD
70
2
9
$DIMALTF
40
25.4
9
$DIMLFAC
40
1.00000000000000
9
$DIMTOFL
70
0
9
$DIMTVP
40
0.0
9
$DIMTIX
70
0
9
$DIMSOXD
70
0
9
$DIMSAH
70
0
9
$DIMBLK1
1

9
$DIMBLK2
1

9
$DIMSTYLE
2
BEM-ISBE
9
$DIMCLRD
70
0
9
$DIMCLRE
70
0
9
$DIMCLRT
70
0
9
$DIMTFAC
40
0.5
9
$DIMGAP
40
0.625
9
$DIMJUST
70
0
9
$DIMSD1
70
0
9
$DIMSD2
70
0
9
$DIMTOLJ
70
1
9
$DIMTZIN
70
0
9
$DIMALTZ
70
0
9
$DIMALTTZ
70
0
9
$DIMUPT
70
0
9
$DIMDEC
70
3
9
$DIMTDEC
70
3
9
$DIMALTU
70
2
9
$DIMALTTD
70
2
9
$DIMTXSTY
7
Standard
9
$DIMAUNIT
70
0
9
$DIMADEC
70
3
9
$DIMALTRND
40
0.0
9
$DIMAZIN
70
0
9
$DIMDSEP
70
46
9
$DIMATFIT
70
3
9
$DIMFRAC
70
0
9
$DIMLDRBLK
1

9
$DIMLUNIT
70
2
9
$DIMLWD
70
-2
9
$DIMLWE
70
-2
9
$DIMTMOVE
70
0
9
$LUNITS
70
2
9
$LUPREC
70
4
9
$SKETCHINC
40
0.1
9
$FILLETRAD
40
0.5
9
$AUNITS
70
0
9
$AUPREC
70
0
9
$MENU
1
.
9
$ELEVATION
40
0.0
9
$PELEVATION
40
0.0
9
$THICKNESS
40
0.0
9
$LIMCHECK
70
0
9
$CHAMFERA
40
0.5
9
$CHAMFERB
40
0.5
9
$CHAMFERC
40
1.0
9
$CHAMFERD
40
0.0
9
$SKPOLY
70
0
9
$TDCREATE
40
0.0
9
$TDUCREATE
40
0.0
9
$TDUPDATE
40
0.0
9
$TDUUPDATE
40
0.0
9
$TDINDWG
40
0.0
9
$TDUSRTIMER
40
0.0
9
$USRTIMER
70
1
9
$ANGBASE
50
0.0
9
$ANGDIR
70
0
9
$PDMODE
70
0
9
$PDSIZE
40
0.0
9
$PLINEWID
40
0.0
9
$SPLFRAME
70
0
9
$SPLINETYPE
70
6
9
$SPLINESEGS
70
8
9
$HANDSEED
5
10AB
9
$SURFTAB1
70
6
9
$SURFTAB2
70
6
9
$SURFTYPE
70
6
9
$SURFU
70
6
9
$SURFV
70
6
9
$UCSBASE
2

9
$UCSNAME
2

9
$UCSORG
10
0.0
20
0.0
30
0.0
9
$UCSXDIR
10
1.0
20
0.0
30
0.0
9
$UCSYDIR
10
0.0
20
1.0
30
0.0
9
$UCSORTHOREF
2

9
$UCSORTHOVIEW
70
0
9
$UCSORGTOP
10
0.0
20
0.0
30
0.0
9
$UCSORGBOTTOM
10
0.0
20
0.0
30
0.0
9
$UCSORGLEFT
10
0.0
20
0.0
30
0.0
9
$UCSORGRIGHT
10
0.0
20
0.0
30
0.0
9
$UCSORGFRONT
10
0.0
20
0.0
30
0.0
9
$UCSORGBACK
10
0.0
20
0.0
30
0.0
9
$PUCSBASE
2

9
$PUCSNAME
2

9
$PUCSORG
10
0.0
20
0.0
30
0.0
9
$PUCSXDIR
10
1.0
20
0.0
30
0.0
9
$PUCSYDIR
10
0.0
20
1.0
30
0.0
9
$PUCSORTHOREF
2

9
$PUCSORTHOVIEW
70
0
9
$PUCSORGTOP
10
0.0
20
0.0
30
0.0
9
$PUCSORGBOTTOM
10
0.0
20
0.0
30
0.0
9
$PUCSORGLEFT
10
0.0
20
0.0
30
0.0
9
$PUCSORGRIGHT
10
0.0
20
0.0
30
0.0
9
$PUCSORGFRONT
10
0.0
20
0.0
30
0.0
9
$PUCSORGBACK
10
0.0
20
0.0
30
0.0
9
$USERI1
70
0
9
$USERI2
70
0
9
$USERI3
70
0
9
$USERI4
70
0
9
$USERI5
70
0
9
$USERR1
40
0.0
9
$USERR2
40
0.0
9
$USERR3
40
0.0
9
$USERR4
40
0.0
9
$USERR5
40
0.0
9
$WORLDVIEW
70
1
9
$SHADEDGE
70
3
9
$SHADEDIF
70
70
9
$TILEMODE
70
1
9
$MAXACTVP
70
64
9
$PINSBASE
10
0.0
20
0.0
30
0.0
9
$PLIMCHECK
70
0
9
$PEXTMIN
10
1.000000000000000E+20
20
1.000000000000000E+20
30
1.000000000000000E+20
9
$PEXTMAX
10
-1.000000000000000E+20
20
-1.000000000000000E+20
30
-1.000000000000000E+20
9
$PLIMMIN
10
0.0
20
0.0
9
$PLIMMAX
10
12.0
20
9.0
9
$UNITMODE
70
0
9
$VISRETAIN
70
1
9
$PLINEGEN
70
0
9
$PSLTSCALE
70
1
9
$TREEDEPTH
70
3020
9
$CMLSTYLE
2
Standard
9
$CMLJUST
70
0
9
$CMLSCALE
40
1.0
9
$PROXYGRAPHICS
70
1
9
$MEASUREMENT
70
0
9
$CELWEIGHT
370
-1
9
$ENDCAPS
280
0
9
$JOINSTYLE
280
0
9
$LWDISPLAY
290
0
9
$INSUNITS
70
4
9
$HYPERLINKBASE
1

9
$STYLESHEET
1

9
$XEDIT
290
1
9
$CEPSNTYPE
380
0
9
$PSTYLEMODE
290
0
9
$FINGERPRINTGUID
2
{FAEB1C30-E019-11D5-929B-00C0DF256EC4}
9
$VERSIONGUID
2
{04C5C4E4-4947-4D90-8812-D401569E61F7}
9
$EXTNAMES
290
1
9
$PSVPSCALE
40
0.0
9
$OLESTARTUP
290
0
0
ENDSEC
0
SECTION
2
CLASSES
0
CLASS
1
ACDBDICTIONARYWDFLT
2
AcDbDictionaryWithDefault
3
ObjectDBX Classes
90
0
280
0
281
0
0
CLASS
1
ACDBPLACEHOLDER
2
AcDbPlaceHolder
3
ObjectDBX Classes
90
0
280
0
281
0
0
CLASS
1
LAYOUT
2
AcDbLayout
3
ObjectDBX Classes
90
0
280
0
281
0
0
CLASS
1
MATERIAL
2
AcDbMaterial
3
ObjectDBX Classes
90
1153
280
0
281
0
0
CLASS
1
VISUALSTYLE
2
AcDbVisualStyle
3
ObjectDBX Classes
90
4095
280
0
281
0
0
CLASS
1
TABLESTYLE
2
AcDbTableStyle
3
ObjectDBX Classes
90
4095
280
0
281
0
0
CLASS
1
SCALE
2
AcDbScale
3
ObjectDBX Classes
90
1153
280
0
281
0
0
CLASS
1
MLEADERSTYLE
2
AcDbMLeaderStyle
3
ACDB_MLEADERSTYLE_CLASS
90
4095
280
0
281
0
0
CLASS
1
DICTIONARYVAR
2
AcDbDictionaryVar
3
ObjectDBX Classes
90
0
280
0
281
0
0
CLASS
1
CELLSTYLEMAP
2
AcDbCellStyleMap
3
ObjectDBX Classes
90
1152
280
0
281
0
0
ENDSEC
0
SECTION
2
TABLES
0
TABLE
2
VPORT
5
24A
330
0
100
AcDbSymbolTable
70
1
0
VPORT
5
26B
330
24A
100
AcDbSymbolTableRecord
100
AcDbViewportTableRecord
2
*Active
70
0
10
0.0
20
0.0
11
1.0
21
1.0
12
0.000000000000000
22
0.000000000000000
13
0.0
23
0.0
14
10.0
24
10.0
15
10.0
25
10.0
16
0.0
26
0.0
36
1.0
17
0.0
27
0.0
37
0.0
40
210.000000000000
41
1.42857142857143
42
1.0
43
0.0
44
0.0
50
0.0
51
0.0000000000007958
71
0
72
100
73
1
74
3
75
0
76
0
77
0
78
1
281
0
65
1
110
0.0
120
0.0
130
0.0
111
1.0
121
0.0
131
0.0
112
0.0
122
1.0
132
0.0
79
0
146
0.0
0
ENDTAB
0
TABLE
2
LTYPE
5
247
330
0
100
AcDbSymbolTable
70
25
0
LTYPE
5
256
330
247
100
AcDbSymbolTableRecord
100
AcDbLinetypeTableRecord
2
ByBlock
70
0
3

72
65
73
0
40
0.0
0
LTYPE
5
257
330
247
100
AcDbSymbolTableRecord
100
AcDbLinetypeTableRecord
2
ByLayer
70
0
3

72
65
73
0
40
0.0
0
LTYPE
5
258
330
247
100
AcDbSymbolTableRecord
100
AcDbLinetypeTableRecord
2
Continuous
70
0
3
Solid line
72
65
73
0
40
0.0
0
LTYPE
5
273
330
247
100
AcDbSymbolTableRecord
100
AcDbLinetypeTableRecord
2
CENTER
70
0
3
Center ____ _ ____ _ ____ _ ____ _ ____ _ ____
72
65
73
4
40
2.0
49
1.25
74
0
49
-0.25
74
0
49
0.25
74
0
49
-0.25
74
0
0
LTYPE
5
274
330
247
100
AcDbSymbolTableRecord
100
AcDbLinetypeTableRecord
2
DASHDOT
70
0
3
Dashdot __ . __ . __ . __ . __ . __ . __ . __
72
65
73
4
40
1.0
49
0.5
74
0
49
-0.25
74
0
49
0.0
74
0
49
-0.25
74
0
0
LTYPE
5
275
330
247
100
AcDbSymbolTableRecord
100
AcDbLinetypeTableRecord
2
DASHED
70
0
3
Dashed __ __ __ __ __ __ __ __ __ __ __ __ __ _
72
65
73
2
40
0.75
49
0.5
74
0
49
-0.25
74
0
0
LTYPE
5
276
330
247
100
AcDbSymbolTableRecord
100
AcDbLinetypeTableRecord
2
HIDDEN
70
0
3
Hidden __ __ __ __ __ __ __ __ __ __ __ __ __ __
72
65
73
2
40
0.375
49
0.25
74
0
49
-0.125
74
0
0
LTYPE
5
277
330
247
100
AcDbSymbolTableRecord
100
AcDbLinetypeTableRecord
2
HIDDEN2
70
0
3
Hidden2 _ _ _ _ _ _ _ _ _ _ _ _ _ _ _ _ _
72
65
73
2
40
0.1875
49
0.125
74
0
49
-0.0625
74
0
0
LTYPE
5
278
330
247
100
AcDbSymbolTableRecord
100
AcDbLinetypeTableRecord
2
BORDER
70
0
3
Border __ __ . __ __ . __ __ . __ __ . __ __ .
72
65
73
6
40
1.75
49
0.5
74
0
49
-0.25
74
0
49
0.5
74
0
49
-0.25
74
0
49
0.0
74
0
49
-0.25
74
0
0
LTYPE
5
279
330
247
100
AcDbSymbolTableRecord
100
AcDbLinetypeTableRecord
2
BORDER2
70
0
3
Border2 __.__.__.__.__.__.__.__.__.__.__.
72
65
73
6
40
0.875
49
0.25
74
0
49
-0.125
74
0
49
0.25
74
0
49
-0.125
74
0
49
0.0
74
0
49
-0.125
74
0
0
LTYPE
5
27A
330
247
100
AcDbSymbolTableRecord
100
AcDbLinetypeTableRecord
2
BORDERX2
70
0
3
Borderx2  ____  ____  .  ____  ____  .  ___
72
65
73
6
40
3.5
49
1.0
74
0
49
-0.5
74
0
49
1.0
74
0
49
-0.5
74
0
49
0.0
74
0
49
-0.5
74
0
0
LTYPE
5
27B
330
247
100
AcDbSymbolTableRecord
100
AcDbLinetypeTableRecord
2
CENTER2
70
0
3
Center2  ___ _ ___ _ ___ _ ___ _ ___ _ ___
72
65
73
4
40
1.125
49
0.75
74
0
49
-0.125
74
0
49
0.125
74
0
49
-0.125
74
0
0
LTYPE
5
27C
330
247
100
AcDbSymbolTableRecord
100
AcDbLinetypeTableRecord
2
CENTERX2
70
0
3
Centerx2  ________  __  ________  __  _____
72
65
73
4
40
4.0
49
2.5
74
0
49
-0.5
74
0
49
0.5
74
0
49
-0.5
74
0
0
LTYPE
5
27D
330
247
100
AcDbSymbolTableRecord
100
AcDbLinetypeTableRecord
2
DASHDOT2
70
0
3
Dashdot2  _._._._._._._._._._._._._._._.
72
65
73
4
40
0.5
49
0.25
74
0
49
-0.125
74
0
49
0.0
74
0
49
-0.125
74
0
0
LTYPE
5
27E
330
247
100
AcDbSymbolTableRecord
100
AcDbLinetypeTableRecord
2
DASHDOTX2
70
0
3
Dashdotx2 ____  .  ____  .  ____  .  ___
72
65
73
4
40
2.0
49
1.0
74
0
49
-0.5
74
0
49
0.0
74
0
49
-0.5
74
0
0
LTYPE
5
27F
330
247
100
AcDbSymbolTableRecord
100
AcDbLinetypeTableRecord
2
DASHED2
70
0
3
Dashed2 _ _ _ _ _ _ _ _ _ _ _ _ _ _ _ _ _
72
65
73
2
40
0.375
49
0.25
74
0
49
-0.125
74
0
0
LTYPE
5
280
330
247
100
AcDbSymbolTableRecord
100
AcDbLinetypeTableRecord
2
DASHEDX2
70
0
3
Dashedx2 ____  ____  ____  ____  ____  ___
72
65
73
2
40
1.5
49
1.0
74
0
49
-0.5
74
0
0
LTYPE
5
281
330
247
100
AcDbSymbolTableRecord
100
AcDbLinetypeTableRecord
2
DIVIDE
70
0
3
Divide ____ . . ____ . . ____ . . ____ . . ____
72
65
73
6
40
1.25
49
0.5
74
0
49
-0.25
74
0
49
0.0
74
0
49
-0.25
74
0
49
0.0
74
0
49
-0.25
74
0
0
LTYPE
5
282
330
247
100
AcDbSymbolTableRecord
100
AcDbLinetypeTableRecord
2
DIVIDE2
70
0
3
Divide2 __..__..__..__..__..__..__..__.._
72
65
73
6
40
0.625
49
0.25
74
0
49
-0.125
74
0
49
0.0
74
0
49
-0.125
74
0
49
0.0
74
0
49
-0.125
74
0
0
LTYPE
5
283
330
247
100
AcDbSymbolTableRecord
100
AcDbLinetypeTableRecord
2
DIVIDEX2
70
0
3
Dividex2 ________  .  .  ________  .  .  _
72
65
73
6
40
2.5
49
1.0
74
0
49
-0.5
74
0
49
0.0
74
0
49
-0.5
74
0
49
0.0
74
0
49
-0.5
74
0
0
LTYPE
5
284
330
247
100
AcDbSymbolTableRecord
100
AcDbLinetypeTableRecord
2
DOT
70
0
3
Dot . . . . . . . . . . . . . . . . . . . . . . . .
72
65
73
2
40
0.25
49
0.0
74
0
49
-0.25
74
0
0
LTYPE
5
285
330
247
100
AcDbSymbolTableRecord
100
AcDbLinetypeTableRecord
2
DOT2
70
0
3
Dot2 ........................................
72
65
73
2
40
0.125
49
0.0
74
0
49
-0.125
74
0
0
LTYPE
5
286
330
247
100
AcDbSymbolTableRecord
100
AcDbLinetypeTableRecord
2
DOTX2
70
0
3
Dotx2 .  .  .  .  .  .  .  .  .  .  .  .  .  .
72
65
73
2
40
0.5
49
0.0
74
0
49
-0.5
74
0
0
LTYPE
5
287
330
247
100
AcDbSymbolTableRecord
100
AcDbLinetypeTableRecord
2
HIDDENX2
70
0
3
Hiddenx2 ____ ____ ____ ____ ____ ____ ____
72
65
73
2
40
0.75
49
0.5
74
0
49
-0.25
74
0
0
LTYPE
5
288
330
247
100
AcDbSymbolTableRecord
100
AcDbLinetypeTableRecord
2
PHANTOM
70
0
3
Phantom ______  __  __  ______  __  __  ______
72
65
73
6
40
2.5
49
1.25
74
0
49
-0.25
74
0
49
0.25
74
0
49
-0.25
74
0
49
0.25
74
0
49
-0.25
74
0
0
LTYPE
5
289
330
247
100
AcDbSymbolTableRecord
100
AcDbLinetypeTableRecord
2
PHANTOM2
70
0
3
Phantom2 ___ _ _ ___ _ _ ___ _ _ ___ _ _
72
65
73
6
40
1.25
49
0.625
74
0
49
-0.125
74
0
49
0.125
74
0
49
-0.125
74
0
49
0.125
74
0
49
-0.125
74
0
0
LTYPE
5
28A
330
247
100
AcDbSymbolTableRecord
100
AcDbLinetypeTableRecord
2
PHANTOMX2
70
0
3
Phantomx2 ____________    ____    ____   _
72
65
73
6
40
5.0
49
2.5
74
0
49
-0.5
74
0
49
0.5
74
0
49
-0.5
74
0
49
0.5
74
0
49
-0.5
74
0
0
ENDTAB
0
TABLE
2
LAYER
5
244
330
0
100
AcDbSymbolTable
70
6
0
LAYER
5
252
330
244
100
AcDbSymbolTableRecord
100
AcDbLayerTableRecord
2
0
70
0
62
7
6
Continuous
370
0
390
251
0
LAYER
5
23F
330
244
100
AcDbSymbolTableRecord
100
AcDbLayerTableRecord
2
Bemassung
70
0
 62
   7
6
Continuous
370
0
390
251
0
LAYER
5
240
330
244
100
AcDbSymbolTableRecord
100
AcDbLayerTableRecord
2
Rahmen
70
0
 62
   7
6
Continuous
370
0
390
251
0
LAYER
5
241
330
244
100
AcDbSymbolTableRecord
100
AcDbLayerTableRecord
2
Geo
70
0
 62
   7
6
Continuous
370
0
390
251
0
LAYER
5
33A
330
244
100
AcDbSymbolTableRecord
100
AcDbLayerTableRecord
2
Defpoints
70
0
62
7
6
Continuous
290
0
370
-3
390
251
0
LAYER
5
57E
330
244
100
AcDbSymbolTableRecord
100
AcDbLayerTableRecord
2
Text
70
0
 62
   7
6
Continuous
370
0
390
251
1001
AcAecLayerStandard
1000

1000

0
ENDTAB
0
TABLE
2
STYLE
5
245
330
0
100
AcDbSymbolTable
70
2
0
STYLE
5
253
330
245
100
AcDbSymbolTableRecord
100
AcDbTextStyleTableRecord
2
Standard
70
0
40
0.0
41
1.0
50
0.0
71
0
42
0.2
3
Arial
4

1001
ACAD
1000
Arial
1071
0
0
STYLE
5
132
330
245
100
AcDbSymbolTableRecord
100
AcDbTextStyleTableRecord
2
Beschriftung
70
0
40
0.0
41
1.0
50
0.0
71
0
42
0.2
3
Arial
4

1001
ACAD
1000
Arial
1071
0
1001
AcadAnnotative
1000
AnnotativeData
1070
1
1070
1
0
ENDTAB
0
TABLE
2
VIEW
5
248
330
0
100
AcDbSymbolTable
70
0
0
ENDTAB
0
TABLE
2
UCS
5
249
330
0
100
AcDbSymbolTable
70
0
0
ENDTAB
0
TABLE
2
APPID
5
24B
330
0
100
AcDbSymbolTable
70
13
0
APPID
5
254
330
24B
100
AcDbSymbolTableRecord
100
AcDbRegAppTableRecord
2
ACAD
70
0
0
APPID
5
26C
330
24B
100
AcDbSymbolTableRecord
100
AcDbRegAppTableRecord
2
VD_INVISIBLE_NOT_FOR_READ
70
0
0
APPID
5
26D
330
24B
100
AcDbSymbolTableRecord
100
AcDbRegAppTableRecord
2
VD_TEMPHATCH
70
0
0
APPID
5
26E
330
24B
100
AcDbSymbolTableRecord
100
AcDbRegAppTableRecord
2
VDEXTRAPARAM
70
0
0
APPID
5
26F
330
24B
100
AcDbSymbolTableRecord
100
AcDbRegAppTableRecord
2
PE_URL
70
0
0
APPID
5
270
330
24B
100
AcDbSymbolTableRecord
100
AcDbRegAppTableRecord
2
VD_UNKNOWN
70
0
0
APPID
5
28F
330
24B
100
AcDbSymbolTableRecord
100
AcDbRegAppTableRecord
2
AcadAnnotative
70
0
0
APPID
5
290
330
24B
100
AcDbSymbolTableRecord
100
AcDbRegAppTableRecord
2
ACAD_DSTYLE_DIMJAG
70
0
0
APPID
5
291
330
24B
100
AcDbSymbolTableRecord
100
AcDbRegAppTableRecord
2
ACAD_DSTYLE_DIMTALN
70
0
0
APPID
5
293
330
24B
100
AcDbSymbolTableRecord
100
AcDbRegAppTableRecord
2
ACAD_PSEXT
70
0
0
APPID
5
42A
330
24B
100
AcDbSymbolTableRecord
100
AcDbRegAppTableRecord
2
ACAD_MLEADERVER
70
0
0
APPID
5
532
330
24B
100
AcDbSymbolTableRecord
100
AcDbRegAppTableRecord
2
ACAD_EXEMPT_FROM_CAD_STANDARDS
70
0
0
APPID
5
57F
330
24B
100
AcDbSymbolTableRecord
100
AcDbRegAppTableRecord
2
AcAecLayerStandard
70
0
0
ENDTAB
0
TABLE
2
DIMSTYLE
5
24C
330
0
100
AcDbSymbolTable
70
3
100
AcDbDimStyleTable
71
2
340
27
340
269
0
DIMSTYLE
105
269
330
24C
100
AcDbSymbolTableRecord
100
AcDbDimStyleTableRecord
2
Standard
70
0
172
1
174
1
288
1
340
253
342
23C
0
DIMSTYLE
105
137
330
24C
100
AcDbSymbolTableRecord
100
AcDbDimStyleTableRecord
2
Beschriftung
70
0
41
2.5
42
0.625
44
1.25
73
0
74
0
77
1
140
2.5
147
0.625
172
1
174
1
271
2
288
1
340
253
342
23C
1001
AcadAnnotative
1000
AnnotativeData
1070
1
1070
1
1001
ACAD_DSTYLE_DIMJAG
1070
388
1040
1.5
1001
ACAD_DSTYLE_DIMTALN
1070
392
1070
0
0
DIMSTYLE
105
27
102
{ACAD_REACTORS
330
F10012
330
F10017
330
F10008
330
F10003
330
F1000D
102
}
330
24C
100
AcDbSymbolTableRecord
100
AcDbDimStyleTableRecord
2
BEM-ISBE
70
0
41
2.5
42
0.625
44
1.25
48
0.000000001
71
1
73
0
74
0
77
1
140
2.5
144
1.00000000000000
146
0.5
147
0.625
171
 3
172
 1
179
 3
271
 3
272
 3
274
 3
340
253
342
23C
1001
ACAD_DSTYLE_DIMJAG
1070
388
1040
1.5
1001
ACAD_DSTYLE_DIMTALN
1070
392
1070
1
0
ENDTAB
0
TABLE
2
BLOCK_RECORD
5
243
330
0
100
AcDbSymbolTable
70
5
0
BLOCK_RECORD
5
261
330
243
100
AcDbSymbolTableRecord
100
AcDbBlockTableRecord
2
*Model_Space
340
FD0
0
BLOCK_RECORD
5
25D
330
243
100
AcDbSymbolTableRecord
100
AcDbBlockTableRecord
2
*Paper_Space
340
FD1
0
BLOCK_RECORD
5
265
330
243
100
AcDbSymbolTableRecord
100
AcDbBlockTableRecord
2
*Paper_Space0
340
0
0
BLOCK_RECORD
5
23C
330
243
100
AcDbSymbolTableRecord
100
AcDbBlockTableRecord
2
VDDIM_DEFAULT
340
0
102
{BLKREFS
102
}
0
BLOCK_RECORD
5
23E
330
243
100
AcDbSymbolTableRecord
100
AcDbBlockTableRecord
2
VDDIM_NONE
340
0
0
BLOCK_RECORD
5
F10011
330
243
100
AcDbSymbolTableRecord
100
AcDbBlockTableRecord
2
*D6
340
0
0
BLOCK_RECORD
5
F10016
330
243
100
AcDbSymbolTableRecord
100
AcDbBlockTableRecord
2
*D7
340
0
0
BLOCK_RECORD
5
F10007
330
243
100
AcDbSymbolTableRecord
100
AcDbBlockTableRecord
2
*D4
340
0
0
BLOCK_RECORD
5
F10002
330
243
100
AcDbSymbolTableRecord
100
AcDbBlockTableRecord
2
*D3
340
0
0
BLOCK_RECORD
5
F1000C
330
243
100
AcDbSymbolTableRecord
100
AcDbBlockTableRecord
2
*D5
340
0
0
ENDTAB
0
ENDSEC
0
SECTION
2
BLOCKS
0
BLOCK
5
262
330
261
100
AcDbEntity
8
0
100
AcDbBlockBegin
2
*Model_Space
70
0
10
0.0
20
0.0
30
0.0
3
*Model_Space
1

0
ENDBLK
5
263
330
261
100
AcDbEntity
8
0
100
AcDbBlockEnd
0
BLOCK
5
25E
330
25D
100
AcDbEntity
67
1
8
0
100
AcDbBlockBegin
2
*Paper_Space
70
0
10
0.0
20
0.0
30
0.0
3
*Paper_Space
1

0
ENDBLK
5
25F
330
25D
100
AcDbEntity
67
1
8
0
100
AcDbBlockEnd
0
BLOCK
5
266
330
265
100
AcDbEntity
8
0
100
AcDbBlockBegin
2
*Paper_Space0
70
0
10
0.0
20
0.0
30
0.0
3
*Paper_Space0
1

0
VIEWPORT
5
296
102
{ACAD_XDICTIONARY
360
58E
102
}
330
265
100
AcDbEntity
8
0
60
1
100
AcDbViewport
10
0.0
20
0.0
30
0.0
40
10.0
41
10.0
69
0
12
0.0
22
0.0
13
0.0
23
0.0
14
1.0
24
1.0
15
0.0
25
0.0
16
0.0
26
0.0
36
1.0
17
0.0
27
0.0
37
0.0
42
0.0
43
0.0
44
0.0
45
10.0
50
0.0
51
0.0000000000007958
72
100
90
163872
1

281
0
71
0
74
0
110
0.0
120
0.0
130
0.0
111
1.0
121
0.0
131
0.0
112
0.0
122
1.0
132
0.0
79
0
146
0.0
1001
VD_INVISIBLE_NOT_FOR_READ
1000
VD_INVISIBLE_NOT_FOR_READ
0
VIEWPORT
5
297
102
{ACAD_XDICTIONARY
360
590
102
}
330
265
100
AcDbEntity
8
0
60
1
100
AcDbViewport
10
0.0
20
0.0
30
0.0
40
10.0
41
10.0
69
0
12
0.0
22
0.0
13
0.0
23
0.0
14
1.0
24
1.0
15
0.0
25
0.0
16
0.0
26
0.0
36
1.0
17
0.0
27
0.0
37
0.0
42
0.0
43
0.0
44
0.0
45
10.0
50
0.0
51
0.0000000000007958
72
100
90
163872
1

281
0
71
0
74
0
110
0.0
120
0.0
130
0.0
111
1.0
121
0.0
131
0.0
112
0.0
122
1.0
132
0.0
79
0
146
0.0
1001
VD_INVISIBLE_NOT_FOR_READ
1000
VD_INVISIBLE_NOT_FOR_READ
0
ENDBLK
5
267
330
265
100
AcDbEntity
8
0
100
AcDbBlockEnd
0
BLOCK
5
28B
330
23C
100
AcDbEntity
8
0
100
AcDbBlockBegin
2
VDDIM_DEFAULT
70
0
10
0.0
20
0.0
30
0.0
3
VDDIM_DEFAULT
1

0
LWPOLYLINE
5
23D
330
23C
100
AcDbEntity
8
0
6
Continuous
62
0
100
AcDbPolyline
90
4
70
0
43
0.0
10
0.0
20
0.0
10
-1.0
20
-0.1665
10
-1.0
20
0.1665
10
0.0
20
0.0
1001
VDEXTRAPARAM
1071
1
1071
0
1071
0
1040
1.0
1000

1000

1040
0.0
1040
0.0
0
HATCH
5
292
330
23C
100
AcDbEntity
8
0
6
Continuous
62
0
100
AcDbHatch
10
0.0
20
0.0
30
0.0
210
0.0
220
0.0
230
1.0
2
SOLID
70
1
71
0
91
1
92
2
72
0
73
1
93
3
10
0.0
20
0.0
10
-1.0
20
-0.1665
10
-1.0
20
0.1665
97
0
75
0
76
1
98
1
10
0.0
20
0.0
1001
VDEXTRAPARAM
1071
1
1071
0
1071
0
1040
1.0
1000

1000

1040
0.0
1040
0.0
1001
VD_TEMPHATCH
1000
VD_TEMPHATCH
0
ENDBLK
5
28C
330
23C
100
AcDbEntity
8
0
100
AcDbBlockEnd
0
BLOCK
5
28D
330
23E
100
AcDbEntity
8
0
100
AcDbBlockBegin
2
VDDIM_NONE
70
0
10
0.0
20
0.0
30
0.0
3
VDDIM_NONE
1

0
ENDBLK
5
28E
330
23E
100
AcDbEntity
8
0
100
AcDbBlockEnd
  0
BLOCK
  5
F1001B
330
F10011
100
AcDbEntity
  8
0
100
AcDbBlockBegin
  2
*D6
 70
     1
 10
0.0
 20
0.0
 30
0.0
  3
*D6
  1

  0
LINE
  5
F1001C
330
F10011
100
AcDbEntity
  8
Bemassung
 62
     0
370
    -2
100
AcDbLine
10
-28.6942758022550
20
5.28881179531658
30
0.000000000000000
11
-28.6942758022550
21
-4.71118820468342
31
0.000000000000000
  0
LINE
  5
F1001D
330
F10011
100
AcDbEntity
  8
Bemassung
 62
     0
370
    -2
100
AcDbLine
10
-50.6942758022550
20
-4.71118820468342
30
0.000000000000000
11
-50.6942758022550
21
25.2888117953166
31
0.000000000000000
  0
LINE
  5
F1001E
330
F10011
100
AcDbEntity
  8
Bemassung
 62
     0
370
    -2
100
AcDbLine
10
-28.6942758022550
20
-2.71118820468342
30
0.000000000000000
11
-50.6942758022550
21
-2.71118820468342
31
0.000000000000000
  0
INSERT
  5
F1001F
330
F10011
100
AcDbEntity
  8
Bemassung
 62
     0
370
    -2
100
AcDbBlockReference
  2
VDDIM_DEFAULT
10
-28.6942758022550
20
-2.71118820468342
30
0.000000000000000
 41
2.50000000000000
 42
2.50000000000000
 43
2.50000000000000
  0
INSERT
  5
F10020
330
F10011
100
AcDbEntity
  8
Bemassung
 62
     0
370
    -2
100
AcDbBlockReference
  2
VDDIM_DEFAULT
10
-50.6942758022550
20
-2.71118820468342
30
0.000000000000000
 41
2.50000000000000
 42
2.50000000000000
 43
2.50000000000000
 50
180.000000000000
  0
MTEXT
  5
F10021
330
F10011
100
AcDbEntity
  8
Bemassung
 62
     0
100
AcDbMText
10
-39.0676496097139
20
-2.04452153801676
30
0.000000000000000
 40
2.50000000000000
 41
0.0
 71
     8
 72
     1
  1
22
 11
1.00000000000000
 21
0.000000000000000
 31
0.0
 73
     1
 44
1.0
1001
ACAD
1000
MTEXTBEGIN
1070
73
1070
1
1070
44
1040
1.0
1070
74
1070
0
1000
MTEXTEND
  0
POINT
  5
F10022
330
F10011
100
AcDbEntity
  8
Bemassung
 62
     0
100
AcDbPoint
10
-28.6942758022550
20
5.28881179531658
30
0.000000000000000
  0
POINT
  5
F10023
330
F10011
100
AcDbEntity
  8
Bemassung
 62
     0
100
AcDbPoint
10
-50.6942758022550
20
-4.71118820468342
30
0.000000000000000
  0
ENDBLK
  5
F10024
330
F10011
100
AcDbEntity
  8
0
100
AcDbBlockEnd
  0
BLOCK
  5
F10025
330
F10016
100
AcDbEntity
  8
0
100
AcDbBlockBegin
  2
*D7
 70
     1
 10
0.0
 20
0.0
 30
0.0
  3
*D7
  1

  0
LINE
  5
F10026
330
F10016
100
AcDbEntity
  8
Bemassung
 62
     0
370
    -2
100
AcDbLine
10
49.3057241977450
20
12.7888117953166
30
0.000000000000000
11
49.3057241977450
21
25.2888117953166
31
0.000000000000000
  0
LINE
  5
F10027
330
F10016
100
AcDbEntity
  8
Bemassung
 62
     0
370
    -2
100
AcDbLine
10
-50.6942758022550
20
-4.71118820468342
30
0.000000000000000
11
-50.6942758022550
21
25.2888117953166
31
0.000000000000000
  0
LINE
  5
F10028
330
F10016
100
AcDbEntity
  8
Bemassung
 62
     0
370
    -2
100
AcDbLine
10
49.3057241977450
20
23.2888117953166
30
0.000000000000000
11
-50.6942758022550
21
23.2888117953166
31
0.000000000000000
  0
INSERT
  5
F10029
330
F10016
100
AcDbEntity
  8
Bemassung
 62
     0
370
    -2
100
AcDbBlockReference
  2
VDDIM_DEFAULT
10
49.3057241977450
20
23.2888117953166
30
0.000000000000000
 41
2.50000000000000
 42
2.50000000000000
 43
2.50000000000000
  0
INSERT
  5
F1002A
330
F10016
100
AcDbEntity
  8
Bemassung
 62
     0
370
    -2
100
AcDbBlockReference
  2
VDDIM_DEFAULT
10
-50.6942758022550
20
23.2888117953166
30
0.000000000000000
 41
2.50000000000000
 42
2.50000000000000
 43
2.50000000000000
 50
180.000000000000
  0
MTEXT
  5
F1002B
330
F10016
100
AcDbEntity
  8
Bemassung
 62
     0
100
AcDbMText
10
-0.694275802254978
20
23.9554784619832
30
0.000000000000000
 40
2.50000000000000
 41
0.0
 71
     8
 72
     1
  1
100
 11
1.00000000000000
 21
0.000000000000000
 31
0.0
 73
     1
 44
1.0
1001
ACAD
1000
MTEXTBEGIN
1070
73
1070
1
1070
44
1040
1.0
1070
74
1070
0
1000
MTEXTEND
  0
POINT
  5
F1002C
330
F10016
100
AcDbEntity
  8
Bemassung
 62
     0
100
AcDbPoint
10
49.3057241977450
20
12.7888117953166
30
0.000000000000000
  0
POINT
  5
F1002D
330
F10016
100
AcDbEntity
  8
Bemassung
 62
     0
100
AcDbPoint
10
-50.6942758022550
20
-4.71118820468342
30
0.000000000000000
  0
ENDBLK
  5
F1002E
330
F10016
100
AcDbEntity
  8
0
100
AcDbBlockEnd
  0
BLOCK
  5
F1002F
330
F10007
100
AcDbEntity
  8
0
100
AcDbBlockBegin
  2
*D4
 70
     1
 10
0.0
 20
0.0
 30
0.0
  3
*D4
  1

  0
LINE
  5
F10030
330
F10007
100
AcDbEntity
  8
Bemassung
 62
     0
370
    -2
100
AcDbLine
10
-49.5227029270012
20
12.1172389200628
30
0.000000000000000
11
-58.1801821335646
21
20.7747181266262
31
0.000000000000000
  0
INSERT
  5
F10031
330
F10007
100
AcDbEntity
  8
Bemassung
 62
     0
370
    -2
100
AcDbBlockReference
  2
VDDIM_DEFAULT
10
-49.5227029270012
20
12.1172389200628
30
0.000000000000000
 41
2.50000000000000
 42
2.50000000000000
 43
2.50000000000000
 50
315.000000000000
  0
MTEXT
  5
F10032
330
F10007
100
AcDbEntity
  8
Bemassung
 62
     0
100
AcDbMText
10
-56.5937707388666
20
19.1883067319282
30
0.000000000000000
 40
2.50000000000000
 41
0.0
 71
     8
 72
     1
  1
R4
 11
0.707106781186547
 21
-0.707106781186548
 31
0.0
 73
     1
 44
1.0
1001
ACAD
1000
MTEXTBEGIN
1070
73
1070
1
1070
44
1040
1.0
1070
74
1070
0
1000
MTEXTEND
  0
POINT
  5
F10033
330
F10007
100
AcDbEntity
  8
Bemassung
 62
     0
100
AcDbPoint
10
-49.5227029270012
20
12.1172389200628
30
0.000000000000000
  0
POINT
  5
F10034
330
F10007
100
AcDbEntity
  8
Bemassung
 62
     0
100
AcDbPoint
10
-46.6942758022550
20
9.28881179531658
30
0.000000000000000
  0
ENDBLK
  5
F10035
330
F10007
100
AcDbEntity
  8
0
100
AcDbBlockEnd
  0
BLOCK
  5
F10036
330
F10002
100
AcDbEntity
  8
0
100
AcDbBlockBegin
  2
*D3
 70
     1
 10
0.0
 20
0.0
 30
0.0
  3
*D3
  1

  0
LINE
  5
F10037
330
F10002
100
AcDbEntity
  8
Bemassung
 62
     0
370
    -2
100
AcDbLine
10
-46.6942758022550
20
5.28881179531658
30
0.000000000000000
11
-62.6942758022550
21
5.28881179531658
31
0.000000000000000
  0
LINE
  5
F10038
330
F10002
100
AcDbEntity
  8
Bemassung
 62
     0
370
    -2
100
AcDbLine
10
-46.6942758022550
20
13.2888117953166
30
0.000000000000000
11
-62.6942758022550
21
13.2888117953166
31
0.000000000000000
  0
LINE
  5
F10039
330
F10002
100
AcDbEntity
  8
Bemassung
 62
     0
370
    -2
100
AcDbLine
10
-60.6942758022550
20
5.28881179531658
30
0.000000000000000
11
-60.6942758022550
21
13.2888117953166
31
0.000000000000000
  0
INSERT
  5
F1003A
330
F10002
100
AcDbEntity
  8
Bemassung
 62
     0
370
    -2
100
AcDbBlockReference
  2
VDDIM_DEFAULT
10
-60.6942758022550
20
5.28881179531658
30
0.000000000000000
 41
2.50000000000000
 42
2.50000000000000
 43
2.50000000000000
 50
90.0000000000000
  0
INSERT
  5
F1003B
330
F10002
100
AcDbEntity
  8
Bemassung
 62
     0
370
    -2
100
AcDbBlockReference
  2
VDDIM_DEFAULT
10
-60.6942758022550
20
13.2888117953166
30
0.000000000000000
 41
2.50000000000000
 42
2.50000000000000
 43
2.50000000000000
 50
270.000000000000
  0
MTEXT
  5
F1003C
330
F10002
100
AcDbEntity
  8
Bemassung
 62
     0
100
AcDbMText
10
-61.3609424689216
20
9.28881179531658
30
0.000000000000000
 40
2.50000000000000
 41
0.0
 71
     8
 72
     1
  1
Ø8
 11
6.12323399573677e-17
 21
1.00000000000000
 31
0.0
 73
     1
 44
1.0
1001
ACAD
1000
MTEXTBEGIN
1070
73
1070
1
1070
44
1040
1.0
1070
74
1070
0
1000
MTEXTEND
  0
POINT
  5
F1003D
330
F10002
100
AcDbEntity
  8
Bemassung
 62
     0
100
AcDbPoint
10
-46.6942758022550
20
5.28881179531658
30
0.000000000000000
  0
POINT
  5
F1003E
330
F10002
100
AcDbEntity
  8
Bemassung
 62
     0
100
AcDbPoint
10
-46.6942758022550
20
13.2888117953166
30
0.000000000000000
  0
ENDBLK
  5
F1003F
330
F10002
100
AcDbEntity
  8
0
100
AcDbBlockEnd
  0
BLOCK
  5
F10040
330
F1000C
100
AcDbEntity
  8
0
100
AcDbBlockBegin
  2
*D5
 70
     1
 10
0.0
 20
0.0
 30
0.0
  3
*D5
  1

  0
LINE
  5
F10041
330
F1000C
100
AcDbEntity
  8
Bemassung
 62
     0
370
    -2
100
AcDbLine
10
48.8057241977450
20
5.28881179531658
30
0.000000000000000
11
63.8057241977450
21
5.28881179531658
31
0.000000000000000
  0
LINE
  5
F10042
330
F1000C
100
AcDbEntity
  8
Bemassung
 62
     0
370
    -2
100
AcDbLine
10
48.8057241977450
20
13.2888117953166
30
0.000000000000000
11
63.8057241977450
21
13.2888117953166
31
0.000000000000000
  0
LINE
  5
F10043
330
F1000C
100
AcDbEntity
  8
Bemassung
 62
     0
370
    -2
100
AcDbLine
10
61.8057241977450
20
5.28881179531658
30
0.000000000000000
11
61.8057241977450
21
13.2888117953166
31
0.000000000000000
  0
INSERT
  5
F10044
330
F1000C
100
AcDbEntity
  8
Bemassung
 62
     0
370
    -2
100
AcDbBlockReference
  2
VDDIM_DEFAULT
10
61.8057241977450
20
5.28881179531658
30
0.000000000000000
 41
2.50000000000000
 42
2.50000000000000
 43
2.50000000000000
 50
90.0000000000000
  0
INSERT
  5
F10045
330
F1000C
100
AcDbEntity
  8
Bemassung
 62
     0
370
    -2
100
AcDbBlockReference
  2
VDDIM_DEFAULT
10
61.8057241977450
20
13.2888117953166
30
0.000000000000000
 41
2.50000000000000
 42
2.50000000000000
 43
2.50000000000000
 50
270.000000000000
  0
MTEXT
  5
F10046
330
F1000C
100
AcDbEntity
  8
Bemassung
 62
     0
100
AcDbMText
10
61.1390575310784
20
8.56027753686038
30
0.000000000000000
 40
2.50000000000000
 41
0.0
 71
     8
 72
     1
  1
Ø8h6
 11
6.12323399573677e-17
 21
1.00000000000000
 31
0.0
 73
     1
 44
1.0
  0
POINT
  5
F10047
330
F1000C
100
AcDbEntity
  8
Bemassung
 62
     0
100
AcDbPoint
10
48.8057241977450
20
5.28881179531658
30
0.000000000000000
  0
POINT
  5
F10048
330
F1000C
100
AcDbEntity
  8
Bemassung
 62
     0
100
AcDbPoint
10
48.8057241977450
20
13.2888117953166
30
0.000000000000000
  0
ENDBLK
  5
F10049
330
F1000C
100
AcDbEntity
  8
0
100
AcDbBlockEnd
0
ENDSEC
0
SECTION
2
ENTITIES
  0
DIMENSION
  5
F10012
330
261
100
AcDbEntity
  8
Bemassung
100
AcDbDimension
  2
*D6
10
-50.6942758022550
20
-2.71118820468342
30
0.000000000000000
11
-39.0676496097139
21
-2.04452153801676
31
0.000000000000000
 70
32
 1
22
 71
     8
  3
BEM-ISBE
100
AcDbAlignedDimension
13
-28.6942758022550
23
5.28881179531658
33
0.000000000000000
14
-50.6942758022550
24
-4.71118820468342
34
0.000000000000000
100
AcDbRotatedDimension
1001
ACAD
1000
DSTYLE
1002
{
1070
284
1070
8
1070
78
1070
8
1070
144
1040
1.00000000000000
1070
147
1040
0.625
1070
 72
1070
 0
1070
 71
1070
 0
1002
}
  0
DIMENSION
  5
F10017
330
261
100
AcDbEntity
  8
Bemassung
100
AcDbDimension
  2
*D7
10
-50.6942758022550
20
23.2888117953166
30
0.000000000000000
11
-0.694275802254978
21
23.9554784619832
31
0.000000000000000
 70
32
 1
100
 71
     8
  3
BEM-ISBE
100
AcDbAlignedDimension
13
49.3057241977450
23
12.7888117953166
33
0.000000000000000
14
-50.6942758022550
24
-4.71118820468342
34
0.000000000000000
100
AcDbRotatedDimension
1001
ACAD
1000
DSTYLE
1002
{
1070
284
1070
8
1070
78
1070
8
1070
144
1040
1.00000000000000
1070
147
1040
0.625
1070
 72
1070
 0
1070
 71
1070
 0
1002
}
  0
DIMENSION
  5
F10008
330
261
100
AcDbEntity
  8
Bemassung
100
AcDbDimension
  2
*D4
10
-46.6942758022550
20
9.28881179531658
30
0.000000000000000
11
-56.5937707388666
21
19.1883067319282
31
0.000000000000000
 70
164
 1
R4
 71
     8
  3
BEM-ISBE
100
AcDbRadialDimension
15
-49.5227029270012
25
12.1172389200628
35
0.000000000000000
40
0.0
1001
ACAD
1000
DSTYLE
1002
{
1070
284
1070
8
1070
78
1070
8
1070
144
1040
1.00000000000000
1070
147
1040
0.625
1070
 72
1070
 0
1070
 71
1070
 0
1002
}
  0
DIMENSION
  5
F10003
330
261
100
AcDbEntity
  8
Bemassung
100
AcDbDimension
  2
*D3
10
-60.6942758022550
20
13.2888117953166
30
0.000000000000000
11
-61.3609424689216
21
9.28881179531658
31
0.000000000000000
 70
32
 1
Ø8
 71
     8
  3
BEM-ISBE
100
AcDbAlignedDimension
13
-46.6942758022550
23
5.28881179531658
33
0.000000000000000
14
-46.6942758022550
24
13.2888117953166
34
0.000000000000000
50
90.0000000000000
100
AcDbRotatedDimension
1001
ACAD
1000
DSTYLE
1002
{
1070
284
1070
8
1070
78
1070
8
1070
144
1040
1.00000000000000
1070
147
1040
0.625
1070
 72
1070
 0
1070
 71
1070
 0
1002
}
  0
DIMENSION
  5
F1000D
330
261
100
AcDbEntity
  8
Bemassung
100
AcDbDimension
  2
*D5
10
61.8057241977450
20
13.2888117953166
30
0.000000000000000
11
61.1390575310784
21
8.56027753686038
31
0.000000000000000
 70
32
 1
Ø8h6
 71
     8
  3
BEM-ISBE
100
AcDbAlignedDimension
13
48.8057241977450
23
5.28881179531658
33
0.000000000000000
14
48.8057241977450
24
13.2888117953166
34
0.000000000000000
50
90.0000000000000
100
AcDbRotatedDimension
1001
ACAD
1000
DSTYLE
1002
{
1070
284
1070
8
1070
78
1070
8
1070
144
1040
1.00000000000000
1070
147
1040
0.625
1070
 72
1070
 0
1070
 71
1070
 0
1002
}
  0
ARC
  5
F1004A
330
F1004B
100
AcDbEntity
8
Geo
100
AcDbCircle
10
-46.6942758022550
20
9.28881179531658
30
0.000000000000000
 40
4.00000000000000
100
AcDbArc
 50
90.0000000000000
 51
180.000000000000
  0
LINE
  5
F1004C
330
F1004D
100
AcDbEntity
8
Geo
100
AcDbLine
10
-46.6942758022550
20
13.2888117953166
30
0.000000000000000
11
-28.6942758022550
21
13.2888117953166
31
0.000000000000000
  0
LINE
  5
F1004E
330
F1004F
100
AcDbEntity
8
Geo
100
AcDbLine
10
-28.6942758022550
20
13.2888117953166
30
0.000000000000000
11
48.8057241977450
21
13.2888117953166
31
0.000000000000000
  0
LINE
  5
F10050
330
F10051
100
AcDbEntity
8
Geo
100
AcDbLine
10
48.8057241977450
20
13.2888117953166
30
0.000000000000000
11
49.3057241977450
21
12.7888117953166
31
0.000000000000000
  0
LINE
  5
F10052
330
F10053
100
AcDbEntity
8
Geo
100
AcDbLine
10
-50.0942758022550
20
11.3959425458871
30
0.000000000000000
11
-50.0942758022550
21
11.3952955444824
31
0.000000000000000
  0
LINE
  5
F10054
330
F10055
100
AcDbEntity
8
Geo
100
AcDbLine
10
-50.0942758022550
20
11.3952955444824
30
0.000000000000000
11
-49.9942758022550
21
11.5357494196611
31
0.000000000000000
  0
LINE
  5
F10056
330
F10057
100
AcDbEntity
8
Geo
100
AcDbLine
10
-49.9942758022550
20
11.5357494196611
30
0.000000000000000
11
-49.8942758022550
21
11.6593497080330
31
0.000000000000000
  0
LINE
  5
F10058
330
F10059
100
AcDbEntity
8
Geo
100
AcDbLine
10
-49.8942758022550
20
11.6593497080330
30
0.000000000000000
11
-49.7942758022550
21
11.7726147729555
31
0.000000000000000
  0
LINE
  5
F1005A
330
F1005B
100
AcDbEntity
8
Geo
100
AcDbLine
10
-49.7942758022550
20
11.7726147729555
30
0.000000000000000
11
-49.6942758022550
21
11.8780311530185
31
0.000000000000000
  0
LINE
  5
F1005C
330
F1005D
100
AcDbEntity
8
Geo
100
AcDbLine
10
-49.6942758022550
20
11.8780311530185
30
0.000000000000000
11
-49.5942758022550
21
11.9769906537245
31
0.000000000000000
  0
LINE
  5
F1005E
330
F1005F
100
AcDbEntity
8
Geo
100
AcDbLine
10
-49.5942758022550
20
11.9769906537245
30
0.000000000000000
11
-49.4942758022550
21
12.0703447091863
31
0.000000000000000
  0
LINE
  5
F10060
330
F10061
100
AcDbEntity
8
Geo
100
AcDbLine
10
-49.4942758022550
20
12.0703447091863
30
0.000000000000000
11
-49.3942758022550
21
12.1570454327213
31
0.000000000000000
  0
LINE
  5
F10062
330
F10063
100
AcDbEntity
8
Geo
100
AcDbLine
10
-49.3942758022550
20
12.1570454327213
30
0.000000000000000
11
-49.2942758022550
21
12.2365725965062
31
0.000000000000000
  0
LINE
  5
F10064
330
F10065
100
AcDbEntity
8
Geo
100
AcDbLine
10
-49.2942758022550
20
12.2365725965062
30
0.000000000000000
11
-49.1942758022550
21
12.3094534397694
31
0.000000000000000
  0
LINE
  5
F10066
330
F10067
100
AcDbEntity
8
Geo
100
AcDbLine
10
-49.1942758022550
20
12.3094534397694
30
0.000000000000000
11
-49.0942758022550
21
12.3761252568903
31
0.000000000000000
  0
LINE
  5
F10068
330
F10069
100
AcDbEntity
8
Geo
100
AcDbLine
10
-49.0942758022550
20
12.3761252568903
30
0.000000000000000
11
-48.9942758022550
21
12.4369556275419
31
0.000000000000000
  0
LINE
  5
F1006A
330
F1006B
100
AcDbEntity
8
Geo
100
AcDbLine
10
-48.9942758022550
20
12.4369556275419
30
0.000000000000000
11
-48.8942758022550
21
12.4922572321361
31
0.000000000000000
  0
LINE
  5
F1006C
330
F1006D
100
AcDbEntity
8
Geo
100
AcDbLine
10
-48.8942758022550
20
12.4922572321361
30
0.000000000000000
11
-48.7942758022550
21
12.5422989231928
31
0.000000000000000
  0
LINE
  5
F1006E
330
F1006F
100
AcDbEntity
8
Geo
100
AcDbLine
10
-48.7942758022550
20
12.5422989231928
30
0.000000000000000
11
-48.6942758022550
21
12.5873141461852
31
0.000000000000000
  0
LINE
  5
F10070
330
F10071
100
AcDbEntity
8
Geo
100
AcDbLine
10
-48.6942758022550
20
12.5873141461852
30
0.000000000000000
11
-48.5942758022550
21
12.6275074448108
31
0.000000000000000
  0
LINE
  5
F10072
330
F10073
100
AcDbEntity
8
Geo
100
AcDbLine
10
-48.5942758022550
20
12.6275074448108
30
0.000000000000000
11
-48.4942758022550
21
12.6630595562360
31
0.000000000000000
  0
LINE
  5
F10074
330
F10075
100
AcDbEntity
8
Geo
100
AcDbLine
10
-48.4942758022550
20
12.6630595562360
30
0.000000000000000
11
-48.3942758022550
21
12.6941314513061
31
0.000000000000000
  0
LINE
  5
F10076
330
F10077
100
AcDbEntity
8
Geo
100
AcDbLine
10
-48.3942758022550
20
12.6941314513061
30
0.000000000000000
11
-48.2942758022550
21
12.7208675736228
31
0.000000000000000
  0
LINE
  5
F10078
330
F10079
100
AcDbEntity
8
Geo
100
AcDbLine
10
-48.2942758022550
20
12.7208675736228
30
0.000000000000000
11
-48.1942758022550
21
12.7433984621144
31
0.000000000000000
  0
LINE
  5
F1007A
330
F1007B
100
AcDbEntity
8
Geo
100
AcDbLine
10
-48.1942758022550
20
12.7433984621144
30
0.000000000000000
11
-48.0942758022550
21
12.7618428933728
31
0.000000000000000
  0
LINE
  5
F1007C
330
F1007D
100
AcDbEntity
8
Geo
100
AcDbLine
10
-48.0942758022550
20
12.7618428933728
30
0.000000000000000
11
-47.9942758022550
21
12.7763096457044
31
0.000000000000000
  0
LINE
  5
F1007E
330
F1007F
100
AcDbEntity
8
Geo
100
AcDbLine
10
-47.9942758022550
20
12.7763096457044
30
0.000000000000000
11
-47.8942758022550
21
12.7868989621102
31
0.000000000000000
  0
LINE
  5
F10080
330
F10081
100
AcDbEntity
8
Geo
100
AcDbLine
10
-47.8942758022550
20
12.7868989621102
30
0.000000000000000
11
-47.7942758022550
21
12.7937037713311
31
0.000000000000000
  0
LINE
  5
F10082
330
F10083
100
AcDbEntity
8
Geo
100
AcDbLine
10
-47.7942758022550
20
12.7937037713311
30
0.000000000000000
11
-47.6942758022550
21
12.7968107127134
31
0.000000000000000
  0
LINE
  5
F10084
330
F10085
100
AcDbEntity
8
Geo
100
AcDbLine
10
-47.6942758022550
20
12.7968107127134
30
0.000000000000000
11
-47.5942758022550
21
12.7963010006198
31
0.000000000000000
  0
LINE
  5
F10086
330
F10087
100
AcDbEntity
8
Geo
100
AcDbLine
10
-47.5942758022550
20
12.7963010006198
30
0.000000000000000
11
-47.4942758022550
21
12.7922511565149
31
0.000000000000000
  0
LINE
  5
F10088
330
F10089
100
AcDbEntity
8
Geo
100
AcDbLine
10
-47.4942758022550
20
12.7922511565149
30
0.000000000000000
11
-47.3942758022550
21
12.7847336310351
31
0.000000000000000
  0
LINE
  5
F1008A
330
F1008B
100
AcDbEntity
8
Geo
100
AcDbLine
10
-47.3942758022550
20
12.7847336310351
30
0.000000000000000
11
-47.2942758022550
21
12.7738173338497
31
0.000000000000000
  0
LINE
  5
F1008C
330
F1008D
100
AcDbEntity
8
Geo
100
AcDbLine
10
-47.2942758022550
20
12.7738173338497
30
0.000000000000000
11
-47.1942758022550
21
12.7595680856028
31
0.000000000000000
  0
LINE
  5
F1008E
330
F1008F
100
AcDbEntity
8
Geo
100
AcDbLine
10
-47.1942758022550
20
12.7595680856028
30
0.000000000000000
11
-47.0942758022550
21
12.7420490034459
31
0.000000000000000
  0
LINE
  5
F10090
330
F10091
100
AcDbEntity
8
Geo
100
AcDbLine
10
-47.0942758022550
20
12.7420490034459
30
0.000000000000000
11
-46.9942758022550
21
12.7213208294564
31
0.000000000000000
  0
LINE
  5
F10092
330
F10093
100
AcDbEntity
8
Geo
100
AcDbLine
10
-46.9942758022550
20
12.7213208294564
30
0.000000000000000
11
-46.8942758022550
21
12.6974422094490
31
0.000000000000000
  0
LINE
  5
F10094
330
F10095
100
AcDbEntity
8
Geo
100
AcDbLine
10
-46.8942758022550
20
12.6974422094490
30
0.000000000000000
11
-46.7942758022550
21
12.6704699282253
31
0.000000000000000
  0
LINE
  5
F10096
330
F10097
100
AcDbEntity
8
Geo
100
AcDbLine
10
-46.7942758022550
20
12.6704699282253
30
0.000000000000000
11
-46.6942758022550
21
12.6404591060965
31
0.000000000000000
  0
LINE
  5
F10098
330
F10099
100
AcDbEntity
8
Geo
100
AcDbLine
10
-46.6942758022550
20
12.6404591060965
30
0.000000000000000
11
-46.5942758022550
21
12.6085989745327
31
0.000000000000000
  0
LINE
  5
F1009A
330
F1009B
100
AcDbEntity
8
Geo
100
AcDbLine
10
-46.5942758022550
20
12.6085989745327
30
0.000000000000000
11
-46.4942758022550
21
12.5760472326471
31
0.000000000000000
  0
LINE
  5
F1009C
330
F1009D
100
AcDbEntity
8
Geo
100
AcDbLine
10
-46.4942758022550
20
12.5760472326471
30
0.000000000000000
11
-46.3942758022550
21
12.5428106619349
31
0.000000000000000
  0
LINE
  5
F1009E
330
F1009F
100
AcDbEntity
8
Geo
100
AcDbLine
10
-46.3942758022550
20
12.5428106619349
30
0.000000000000000
11
-46.2942758022550
21
12.5088961865615
31
0.000000000000000
  0
LINE
  5
F100A0
330
F100A1
100
AcDbEntity
8
Geo
100
AcDbLine
10
-46.2942758022550
20
12.5088961865615
30
0.000000000000000
11
-46.1942758022550
21
12.4743108719198
31
0.000000000000000
  0
LINE
  5
F100A2
330
F100A3
100
AcDbEntity
8
Geo
100
AcDbLine
10
-46.1942758022550
20
12.4743108719198
30
0.000000000000000
11
-46.0942758022550
21
12.4390619231588
31
0.000000000000000
  0
LINE
  5
F100A4
330
F100A5
100
AcDbEntity
8
Geo
100
AcDbLine
10
-46.0942758022550
20
12.4390619231588
30
0.000000000000000
11
-45.9942758022550
21
12.4031566836818
31
0.000000000000000
  0
LINE
  5
F100A6
330
F100A7
100
AcDbEntity
8
Geo
100
AcDbLine
10
-45.9942758022550
20
12.4031566836818
30
0.000000000000000
11
-45.8942758022550
21
12.3666026336173
31
0.000000000000000
  0
LINE
  5
F100A8
330
F100A9
100
AcDbEntity
8
Geo
100
AcDbLine
10
-45.8942758022550
20
12.3666026336173
30
0.000000000000000
11
-45.7942758022550
21
12.3294073882601
31
0.000000000000000
  0
LINE
  5
F100AA
330
F100AB
100
AcDbEntity
8
Geo
100
AcDbLine
10
-45.7942758022550
20
12.3294073882601
30
0.000000000000000
11
-45.6942758022550
21
12.2915786964852
31
0.000000000000000
  0
LINE
  5
F100AC
330
F100AD
100
AcDbEntity
8
Geo
100
AcDbLine
10
-45.6942758022550
20
12.2915786964852
30
0.000000000000000
11
-45.5942758022550
21
12.2531244391331
31
0.000000000000000
  0
LINE
  5
F100AE
330
F100AF
100
AcDbEntity
8
Geo
100
AcDbLine
10
-45.5942758022550
20
12.2531244391331
30
0.000000000000000
11
-45.4942758022550
21
12.2140526273685
31
0.000000000000000
  0
LINE
  5
F100B0
330
F100B1
100
AcDbEntity
8
Geo
100
AcDbLine
10
-45.4942758022550
20
12.2140526273685
30
0.000000000000000
11
-45.3942758022550
21
12.1743714010107
31
0.000000000000000
  0
LINE
  5
F100B2
330
F100B3
100
AcDbEntity
8
Geo
100
AcDbLine
10
-45.3942758022550
20
12.1743714010107
30
0.000000000000000
11
-45.2942758022550
21
12.1340890268385
31
0.000000000000000
  0
LINE
  5
F100B4
330
F100B5
100
AcDbEntity
8
Geo
100
AcDbLine
10
-45.2942758022550
20
12.1340890268385
30
0.000000000000000
11
-45.1942758022550
21
12.0932138968673
31
0.000000000000000
  0
LINE
  5
F100B6
330
F100B7
100
AcDbEntity
8
Geo
100
AcDbLine
10
-45.1942758022550
20
12.0932138968673
30
0.000000000000000
11
-45.0942758022550
21
12.0517545266015
31
0.000000000000000
  0
LINE
  5
F100B8
330
F100B9
100
AcDbEntity
8
Geo
100
AcDbLine
10
-45.0942758022550
20
12.0517545266015
30
0.000000000000000
11
-44.9942758022550
21
12.0097195532600
31
0.000000000000000
  0
LINE
  5
F100BA
330
F100BB
100
AcDbEntity
8
Geo
100
AcDbLine
10
-44.9942758022550
20
12.0097195532600
30
0.000000000000000
11
-44.8942758022550
21
11.9671177339766
31
0.000000000000000
  0
LINE
  5
F100BC
330
F100BD
100
AcDbEntity
8
Geo
100
AcDbLine
10
-44.8942758022550
20
11.9671177339766
30
0.000000000000000
11
-44.7942758022550
21
11.9239579439765
31
0.000000000000000
  0
LINE
  5
F100BE
330
F100BF
100
AcDbEntity
8
Geo
100
AcDbLine
10
-44.7942758022550
20
11.9239579439765
30
0.000000000000000
11
-44.6942758022550
21
11.8802491747264
31
0.000000000000000
  0
LINE
  5
F100C0
330
F100C1
100
AcDbEntity
8
Geo
100
AcDbLine
10
-44.6942758022550
20
11.8802491747264
30
0.000000000000000
11
-44.5942758022550
21
11.8360005320618
31
0.000000000000000
  0
LINE
  5
F100C2
330
F100C3
100
AcDbEntity
8
Geo
100
AcDbLine
10
-44.5942758022550
20
11.8360005320618
30
0.000000000000000
11
-44.4942758022550
21
11.7912212342900
31
0.000000000000000
  0
LINE
  5
F100C4
330
F100C5
100
AcDbEntity
8
Geo
100
AcDbLine
10
-44.4942758022550
20
11.7912212342900
30
0.000000000000000
11
-44.3942758022550
21
11.7459206102692
31
0.000000000000000
  0
LINE
  5
F100C6
330
F100C7
100
AcDbEntity
8
Geo
100
AcDbLine
10
-44.3942758022550
20
11.7459206102692
30
0.000000000000000
11
-44.2942758022550
21
11.7001080974657
31
0.000000000000000
  0
LINE
  5
F100C8
330
F100C9
100
AcDbEntity
8
Geo
100
AcDbLine
10
-44.2942758022550
20
11.7001080974657
30
0.000000000000000
11
-44.1942758022550
21
11.6537932399873
31
0.000000000000000
  0
LINE
  5
F100CA
330
F100CB
100
AcDbEntity
8
Geo
100
AcDbLine
10
-44.1942758022550
20
11.6537932399873
30
0.000000000000000
11
-44.0942758022550
21
11.6069856865950
31
0.000000000000000
  0
LINE
  5
F100CC
330
F100CD
100
AcDbEntity
8
Geo
100
AcDbLine
10
-44.0942758022550
20
11.6069856865950
30
0.000000000000000
11
-43.9942758022550
21
11.5596951886933
31
0.000000000000000
  0
LINE
  5
F100CE
330
F100CF
100
AcDbEntity
8
Geo
100
AcDbLine
10
-43.9942758022550
20
11.5596951886933
30
0.000000000000000
11
-43.8942758022550
21
11.5119315982982
31
0.000000000000000
  0
LINE
  5
F100D0
330
F100D1
100
AcDbEntity
8
Geo
100
AcDbLine
10
-43.8942758022550
20
11.5119315982982
30
0.000000000000000
11
-43.7942758022550
21
11.4637048659848
31
0.000000000000000
  0
LINE
  5
F100D2
330
F100D3
100
AcDbEntity
8
Geo
100
AcDbLine
10
-43.7942758022550
20
11.4637048659848
30
0.000000000000000
11
-43.6942758022550
21
11.4150250388147
31
0.000000000000000
  0
LINE
  5
F100D4
330
F100D5
100
AcDbEntity
8
Geo
100
AcDbLine
10
-43.6942758022550
20
11.4150250388147
30
0.000000000000000
11
-43.5942758022550
21
11.3659022582424
31
0.000000000000000
  0
LINE
  5
F100D6
330
F100D7
100
AcDbEntity
8
Geo
100
AcDbLine
10
-43.5942758022550
20
11.3659022582424
30
0.000000000000000
11
-43.4942758022550
21
11.3163467580030
31
0.000000000000000
  0
LINE
  5
F100D8
330
F100D9
100
AcDbEntity
8
Geo
100
AcDbLine
10
-43.4942758022550
20
11.3163467580030
30
0.000000000000000
11
-43.3942758022550
21
11.2663688619796
31
0.000000000000000
  0
LINE
  5
F100DA
330
F100DB
100
AcDbEntity
8
Geo
100
AcDbLine
10
-43.3942758022550
20
11.2663688619796
30
0.000000000000000
11
-43.2942758022550
21
11.2159789820533
31
0.000000000000000
  0
LINE
  5
F100DC
330
F100DD
100
AcDbEntity
8
Geo
100
AcDbLine
10
-43.2942758022550
20
11.2159789820533
30
0.000000000000000
11
-43.1942758022550
21
11.1651876159333
31
0.000000000000000
  0
LINE
  5
F100DE
330
F100DF
100
AcDbEntity
8
Geo
100
AcDbLine
10
-43.1942758022550
20
11.1651876159333
30
0.000000000000000
11
-43.0942758022550
21
11.1140053449707
31
0.000000000000000
  0
LINE
  5
F100E0
330
F100E1
100
AcDbEntity
8
Geo
100
AcDbLine
10
-43.0942758022550
20
11.1140053449707
30
0.000000000000000
11
-42.9942758022550
21
11.0624428319534
31
0.000000000000000
  0
LINE
  5
F100E2
330
F100E3
100
AcDbEntity
8
Geo
100
AcDbLine
10
-42.9942758022550
20
11.0624428319534
30
0.000000000000000
11
-42.8942758022550
21
11.0105108188852
31
0.000000000000000
  0
LINE
  5
F100E4
330
F100E5
100
AcDbEntity
8
Geo
100
AcDbLine
10
-42.8942758022550
20
11.0105108188852
30
0.000000000000000
11
-42.7942758022550
21
10.9582201247475
31
0.000000000000000
  0
LINE
  5
F100E6
330
F100E7
100
AcDbEntity
8
Geo
100
AcDbLine
10
-42.7942758022550
20
10.9582201247475
30
0.000000000000000
11
-42.6942758022550
21
10.9055816432459
31
0.000000000000000
  0
LINE
  5
F100E8
330
F100E9
100
AcDbEntity
8
Geo
100
AcDbLine
10
-42.6942758022550
20
10.9055816432459
30
0.000000000000000
11
-42.5942758022550
21
10.8526063405403
31
0.000000000000000
  0
LINE
  5
F100EA
330
F100EB
100
AcDbEntity
8
Geo
100
AcDbLine
10
-42.5942758022550
20
10.8526063405403
30
0.000000000000000
11
-42.4942758022550
21
10.7993052529605
31
0.000000000000000
  0
LINE
  5
F100EC
330
F100ED
100
AcDbEntity
8
Geo
100
AcDbLine
10
-42.4942758022550
20
10.7993052529605
30
0.000000000000000
11
-42.3942758022550
21
10.7456894847069
31
0.000000000000000
  0
LINE
  5
F100EE
330
F100EF
100
AcDbEntity
8
Geo
100
AcDbLine
10
-42.3942758022550
20
10.7456894847069
30
0.000000000000000
11
-42.2942758022550
21
10.6917702055374
31
0.000000000000000
  0
LINE
  5
F100F0
330
F100F1
100
AcDbEntity
8
Geo
100
AcDbLine
10
-42.2942758022550
20
10.6917702055374
30
0.000000000000000
11
-42.1942758022550
21
10.6375586484401
31
0.000000000000000
  0
LINE
  5
F100F2
330
F100F3
100
AcDbEntity
8
Geo
100
AcDbLine
10
-42.1942758022550
20
10.6375586484401
30
0.000000000000000
11
-42.0942758022550
21
10.5830661072933
31
0.000000000000000
  0
LINE
  5
F100F4
330
F100F5
100
AcDbEntity
8
Geo
100
AcDbLine
10
-42.0942758022550
20
10.5830661072933
30
0.000000000000000
11
-41.9942758022550
21
10.5283039345127
31
0.000000000000000
  0
LINE
  5
F100F6
330
F100F7
100
AcDbEntity
8
Geo
100
AcDbLine
10
-41.9942758022550
20
10.5283039345127
30
0.000000000000000
11
-41.8942758022550
21
10.4732835386861
31
0.000000000000000
  0
LINE
  5
F100F8
330
F100F9
100
AcDbEntity
8
Geo
100
AcDbLine
10
-41.8942758022550
20
10.4732835386861
30
0.000000000000000
11
-41.7942758022550
21
10.4180163821971
31
0.000000000000000
  0
LINE
  5
F100FA
330
F100FB
100
AcDbEntity
8
Geo
100
AcDbLine
10
-41.7942758022550
20
10.4180163821971
30
0.000000000000000
11
-41.6942758022550
21
10.3625139788367
31
0.000000000000000
  0
LINE
  5
F100FC
330
F100FD
100
AcDbEntity
8
Geo
100
AcDbLine
10
-41.6942758022550
20
10.3625139788367
30
0.000000000000000
11
-41.5942758022550
21
10.3067878914049
31
0.000000000000000
  0
LINE
  5
F100FE
330
F100FF
100
AcDbEntity
8
Geo
100
AcDbLine
10
-41.5942758022550
20
10.3067878914049
30
0.000000000000000
11
-41.4942758022550
21
10.2508497293015
31
0.000000000000000
  0
LINE
  5
F10100
330
F10101
100
AcDbEntity
8
Geo
100
AcDbLine
10
-41.4942758022550
20
10.2508497293015
30
0.000000000000000
11
-41.3942758022550
21
10.1947111461082
31
0.000000000000000
  0
LINE
  5
F10102
330
F10103
100
AcDbEntity
8
Geo
100
AcDbLine
10
-41.3942758022550
20
10.1947111461082
30
0.000000000000000
11
-41.2942758022550
21
10.1383838371599
31
0.000000000000000
  0
LINE
  5
F10104
330
F10105
100
AcDbEntity
8
Geo
100
AcDbLine
10
-41.2942758022550
20
10.1383838371599
30
0.000000000000000
11
-41.1942758022550
21
10.0818795371091
31
0.000000000000000
  0
LINE
  5
F10106
330
F10107
100
AcDbEntity
8
Geo
100
AcDbLine
10
-41.1942758022550
20
10.0818795371091
30
0.000000000000000
11
-41.0942758022550
21
10.0252100174805
31
0.000000000000000
  0
LINE
  5
F10108
330
F10109
100
AcDbEntity
8
Geo
100
AcDbLine
10
-41.0942758022550
20
10.0252100174805
30
0.000000000000000
11
-40.9942758022550
21
9.96838708421909
31
0.000000000000000
  0
LINE
  5
F1010A
330
F1010B
100
AcDbEntity
8
Geo
100
AcDbLine
10
-40.9942758022550
20
9.96838708421909
30
0.000000000000000
11
-40.8942758022550
21
9.91142257523041
31
0.000000000000000
  0
LINE
  5
F1010C
330
F1010D
100
AcDbEntity
8
Geo
100
AcDbLine
10
-40.8942758022550
20
9.91142257523041
30
0.000000000000000
11
-40.7942758022550
21
9.85432835791449
31
0.000000000000000
  0
LINE
  5
F1010E
330
F1010F
100
AcDbEntity
8
Geo
100
AcDbLine
10
-40.7942758022550
20
9.85432835791449
30
0.000000000000000
11
-40.6942758022550
21
9.79711632669342
31
0.000000000000000
  0
LINE
  5
F10110
330
F10111
100
AcDbEntity
8
Geo
100
AcDbLine
10
-40.6942758022550
20
9.79711632669342
30
0.000000000000000
11
-40.5942758022550
21
9.73979840053346
31
0.000000000000000
  0
LINE
  5
F10112
330
F10113
100
AcDbEntity
8
Geo
100
AcDbLine
10
-40.5942758022550
20
9.73979840053346
30
0.000000000000000
11
-40.4942758022550
21
9.68238652046191
31
0.000000000000000
  0
LINE
  5
F10114
330
F10115
100
AcDbEntity
8
Geo
100
AcDbLine
10
-40.4942758022550
20
9.68238652046191
30
0.000000000000000
11
-40.3942758022550
21
9.62489264707946
31
0.000000000000000
  0
LINE
  5
F10116
330
F10117
100
AcDbEntity
8
Geo
100
AcDbLine
10
-40.3942758022550
20
9.62489264707946
30
0.000000000000000
11
-40.2942758022550
21
9.56732875806845
31
0.000000000000000
  0
LINE
  5
F10118
330
F10119
100
AcDbEntity
8
Geo
100
AcDbLine
10
-40.2942758022550
20
9.56732875806845
30
0.000000000000000
11
-40.1942758022550
21
9.50970684569756
31
0.000000000000000
  0
LINE
  5
F1011A
330
F1011B
100
AcDbEntity
8
Geo
100
AcDbLine
10
-40.1942758022550
20
9.50970684569756
30
0.000000000000000
11
-40.0942758022550
21
9.45203891432347
31
0.000000000000000
  0
LINE
  5
F1011C
330
F1011D
100
AcDbEntity
8
Geo
100
AcDbLine
10
-40.0942758022550
20
9.45203891432347
30
0.000000000000000
11
-39.9942758022550
21
9.39433697788995
31
0.000000000000000
  0
LINE
  5
F1011E
330
F1011F
100
AcDbEntity
8
Geo
100
AcDbLine
10
-39.9942758022550
20
9.39433697788995
30
0.000000000000000
11
-39.8942758022550
21
9.33661305742506
31
0.000000000000000
  0
LINE
  5
F10120
330
F10121
100
AcDbEntity
8
Geo
100
AcDbLine
10
-39.8942758022550
20
9.33661305742506
30
0.000000000000000
11
-39.7942758022550
21
9.27887917853680
31
0.000000000000000
  0
LINE
  5
F10122
330
F10123
100
AcDbEntity
8
Geo
100
AcDbLine
10
-39.7942758022550
20
9.27887917853680
30
0.000000000000000
11
-39.6942758022550
21
9.22114736890777
31
0.000000000000000
  0
LINE
  5
F10124
330
F10125
100
AcDbEntity
8
Geo
100
AcDbLine
10
-39.6942758022550
20
9.22114736890777
30
0.000000000000000
11
-39.5942758022550
21
9.16342965578951
31
0.000000000000000
  0
LINE
  5
F10126
330
F10127
100
AcDbEntity
8
Geo
100
AcDbLine
10
-39.5942758022550
20
9.16342965578951
30
0.000000000000000
11
-39.4942758022550
21
9.10573806349683
31
0.000000000000000
  0
LINE
  5
F10128
330
F10129
100
AcDbEntity
8
Geo
100
AcDbLine
10
-39.4942758022550
20
9.10573806349683
30
0.000000000000000
11
-39.3942758022550
21
9.04808461090278
31
0.000000000000000
  0
LINE
  5
F1012A
330
F1012B
100
AcDbEntity
8
Geo
100
AcDbLine
10
-39.3942758022550
20
9.04808461090278
30
0.000000000000000
11
-39.2942758022550
21
8.99048130893482
31
0.000000000000000
  0
LINE
  5
F1012C
330
F1012D
100
AcDbEntity
8
Geo
100
AcDbLine
10
-39.2942758022550
20
8.99048130893482
30
0.000000000000000
11
-39.1942758022550
21
8.93294015807249
31
0.000000000000000
  0
LINE
  5
F1012E
330
F1012F
100
AcDbEntity
8
Geo
100
AcDbLine
10
-39.1942758022550
20
8.93294015807249
30
0.000000000000000
11
-39.0942758022550
21
8.87547314584744
31
0.000000000000000
  0
LINE
  5
F10130
330
F10131
100
AcDbEntity
8
Geo
100
AcDbLine
10
-39.0942758022550
20
8.87547314584744
30
0.000000000000000
11
-38.9942758022550
21
8.81809224434604
31
0.000000000000000
  0
LINE
  5
F10132
330
F10133
100
AcDbEntity
8
Geo
100
AcDbLine
10
-38.9942758022550
20
8.81809224434604
30
0.000000000000000
11
-38.8942758022550
21
8.76080940771523
31
0.000000000000000
  0
LINE
  5
F10134
330
F10135
100
AcDbEntity
8
Geo
100
AcDbLine
10
-38.8942758022550
20
8.76080940771523
30
0.000000000000000
11
-38.7942758022550
21
8.70363656967211
31
0.000000000000000
  0
LINE
  5
F10136
330
F10137
100
AcDbEntity
8
Geo
100
AcDbLine
10
-38.7942758022550
20
8.70363656967211
30
0.000000000000000
11
-38.6942758022550
21
8.64658564101783
31
0.000000000000000
  0
LINE
  5
F10138
330
F10139
100
AcDbEntity
8
Geo
100
AcDbLine
10
-38.6942758022550
20
8.64658564101783
30
0.000000000000000
11
-38.5942758022550
21
8.58966850715619
31
0.000000000000000
  0
LINE
  5
F1013A
330
F1013B
100
AcDbEntity
8
Geo
100
AcDbLine
10
-38.5942758022550
20
8.58966850715619
30
0.000000000000000
11
-38.4942758022550
21
8.53289702561753
31
0.000000000000000
  0
LINE
  5
F1013C
330
F1013D
100
AcDbEntity
8
Geo
100
AcDbLine
10
-38.4942758022550
20
8.53289702561753
30
0.000000000000000
11
-38.3942758022550
21
8.47628302358851
31
0.000000000000000
  0
LINE
  5
F1013E
330
F1013F
100
AcDbEntity
8
Geo
100
AcDbLine
10
-38.3942758022550
20
8.47628302358851
30
0.000000000000000
11
-38.2942758022550
21
8.41983829544811
31
0.000000000000000
  0
LINE
  5
F10140
330
F10141
100
AcDbEntity
8
Geo
100
AcDbLine
10
-38.2942758022550
20
8.41983829544811
30
0.000000000000000
11
-38.1942758022550
21
8.36357460031056
31
0.000000000000000
  0
LINE
  5
F10142
330
F10143
100
AcDbEntity
8
Geo
100
AcDbLine
10
-38.1942758022550
20
8.36357460031056
30
0.000000000000000
11
-38.0942758022550
21
8.30750365957550
31
0.000000000000000
  0
LINE
  5
F10144
330
F10145
100
AcDbEntity
8
Geo
100
AcDbLine
10
-38.0942758022550
20
8.30750365957550
30
0.000000000000000
11
-37.9942758022550
21
8.25163715448613
31
0.000000000000000
  0
LINE
  5
F10146
330
F10147
100
AcDbEntity
8
Geo
100
AcDbLine
10
-37.9942758022550
20
8.25163715448613
30
0.000000000000000
11
-37.8942758022550
21
8.19598672369559
31
0.000000000000000
  0
LINE
  5
F10148
330
F10149
100
AcDbEntity
8
Geo
100
AcDbLine
10
-37.8942758022550
20
8.19598672369559
30
0.000000000000000
11
-37.7942758022550
21
8.14056396084237
31
0.000000000000000
  0
LINE
  5
F1014A
330
F1014B
100
AcDbEntity
8
Geo
100
AcDbLine
10
-37.7942758022550
20
8.14056396084237
30
0.000000000000000
11
-37.6942758022550
21
8.08538041213493
31
0.000000000000000
  0
LINE
  5
F1014C
330
F1014D
100
AcDbEntity
8
Geo
100
AcDbLine
10
-37.6942758022550
20
8.08538041213493
30
0.000000000000000
11
-37.5942758022550
21
8.03044757394632
31
0.000000000000000
  0
LINE
  5
F1014E
330
F1014F
100
AcDbEntity
8
Geo
100
AcDbLine
10
-37.5942758022550
20
8.03044757394632
30
0.000000000000000
11
-37.4942758022550
21
7.97577689041916
31
0.000000000000000
  0
LINE
  5
F10150
330
F10151
100
AcDbEntity
8
Geo
100
AcDbLine
10
-37.4942758022550
20
7.97577689041916
30
0.000000000000000
11
-37.3942758022550
21
7.92137975108144
31
0.000000000000000
  0
LINE
  5
F10152
330
F10153
100
AcDbEntity
8
Geo
100
AcDbLine
10
-37.3942758022550
20
7.92137975108144
30
0.000000000000000
11
-37.2942758022550
21
7.86726748847377
31
0.000000000000000
  0
LINE
  5
F10154
330
F10155
100
AcDbEntity
8
Geo
100
AcDbLine
10
-37.2942758022550
20
7.86726748847377
30
0.000000000000000
11
-37.1942758022550
21
7.81345137578849
31
0.000000000000000
  0
LINE
  5
F10156
330
F10157
100
AcDbEntity
8
Geo
100
AcDbLine
10
-37.1942758022550
20
7.81345137578849
30
0.000000000000000
11
-37.0942758022550
21
7.75994262452108
31
0.000000000000000
  0
LINE
  5
F10158
330
F10159
100
AcDbEntity
8
Geo
100
AcDbLine
10
-37.0942758022550
20
7.75994262452108
30
0.000000000000000
11
-36.9942758022550
21
7.70675238213452
31
0.000000000000000
  0
LINE
  5
F1015A
330
F1015B
100
AcDbEntity
8
Geo
100
AcDbLine
10
-36.9942758022550
20
7.70675238213452
30
0.000000000000000
11
-36.8942758022550
21
7.65389172973694
31
0.000000000000000
  0
LINE
  5
F1015C
330
F1015D
100
AcDbEntity
8
Geo
100
AcDbLine
10
-36.8942758022550
20
7.65389172973694
30
0.000000000000000
11
-36.7942758022550
21
7.60137167977306
31
0.000000000000000
  0
LINE
  5
F1015E
330
F1015F
100
AcDbEntity
8
Geo
100
AcDbLine
10
-36.7942758022550
20
7.60137167977306
30
0.000000000000000
11
-36.6942758022550
21
7.54920317372999
31
0.000000000000000
  0
LINE
  5
F10160
330
F10161
100
AcDbEntity
8
Geo
100
AcDbLine
10
-36.6942758022550
20
7.54920317372999
30
0.000000000000000
11
-36.5942758022550
21
7.49739707985780
31
0.000000000000000
  0
LINE
  5
F10162
330
F10163
100
AcDbEntity
8
Geo
100
AcDbLine
10
-36.5942758022550
20
7.49739707985780
30
0.000000000000000
11
-36.4942758022550
21
7.44596419090536
31
0.000000000000000
  0
LINE
  5
F10164
330
F10165
100
AcDbEntity
8
Geo
100
AcDbLine
10
-36.4942758022550
20
7.44596419090536
30
0.000000000000000
11
-36.3942758022550
21
7.39491522187181
31
0.000000000000000
  0
LINE
  5
F10166
330
F10167
100
AcDbEntity
8
Geo
100
AcDbLine
10
-36.3942758022550
20
7.39491522187181
30
0.000000000000000
11
-36.2942758022550
21
7.34426080777442
31
0.000000000000000
  0
LINE
  5
F10168
330
F10169
100
AcDbEntity
8
Geo
100
AcDbLine
10
-36.2942758022550
20
7.34426080777442
30
0.000000000000000
11
-36.1942758022550
21
7.29401150143291
31
0.000000000000000
  0
LINE
  5
F1016A
330
F1016B
100
AcDbEntity
8
Geo
100
AcDbLine
10
-36.1942758022550
20
7.29401150143291
30
0.000000000000000
11
-36.0942758022550
21
7.24417777127102
31
0.000000000000000
  0
LINE
  5
F1016C
330
F1016D
100
AcDbEntity
8
Geo
100
AcDbLine
10
-36.0942758022550
20
7.24417777127102
30
0.000000000000000
11
-35.9942758022550
21
7.19476999913562
31
0.000000000000000
  0
LINE
  5
F1016E
330
F1016F
100
AcDbEntity
8
Geo
100
AcDbLine
10
-35.9942758022550
20
7.19476999913562
30
0.000000000000000
11
-35.8942758022550
21
7.14579847813387
31
0.000000000000000
  0
LINE
  5
F10170
330
F10171
100
AcDbEntity
8
Geo
100
AcDbLine
10
-35.8942758022550
20
7.14579847813387
30
0.000000000000000
11
-35.7942758022550
21
7.09727341048887
31
0.000000000000000
  0
LINE
  5
F10172
330
F10173
100
AcDbEntity
8
Geo
100
AcDbLine
10
-35.7942758022550
20
7.09727341048887
30
0.000000000000000
11
-35.6942758022550
21
7.04920490541418
31
0.000000000000000
  0
LINE
  5
F10174
330
F10175
100
AcDbEntity
8
Geo
100
AcDbLine
10
-35.6942758022550
20
7.04920490541418
30
0.000000000000000
11
-35.5942758022550
21
7.00160297700786
31
0.000000000000000
  0
LINE
  5
F10176
330
F10177
100
AcDbEntity
8
Geo
100
AcDbLine
10
-35.5942758022550
20
7.00160297700786
30
0.000000000000000
11
-35.4942758022550
21
6.95447754216613
31
0.000000000000000
  0
LINE
  5
F10178
330
F10179
100
AcDbEntity
8
Geo
100
AcDbLine
10
-35.4942758022550
20
6.95447754216613
30
0.000000000000000
11
-35.3942758022550
21
6.90783841851749
31
0.000000000000000
  0
LINE
  5
F1017A
330
F1017B
100
AcDbEntity
8
Geo
100
AcDbLine
10
-35.3942758022550
20
6.90783841851749
30
0.000000000000000
11
-35.2942758022550
21
6.86169532237734
31
0.000000000000000
  0
LINE
  5
F1017C
330
F1017D
100
AcDbEntity
8
Geo
100
AcDbLine
10
-35.2942758022550
20
6.86169532237734
30
0.000000000000000
11
-35.1942758022550
21
6.81605786672381
31
0.000000000000000
  0
LINE
  5
F1017E
330
F1017F
100
AcDbEntity
8
Geo
100
AcDbLine
10
-35.1942758022550
20
6.81605786672381
30
0.000000000000000
11
-35.0942758022550
21
6.77093555919510
31
0.000000000000000
  0
LINE
  5
F10180
330
F10181
100
AcDbEntity
8
Geo
100
AcDbLine
10
-35.0942758022550
20
6.77093555919510
30
0.000000000000000
11
-34.9942758022550
21
6.72633780010875
31
0.000000000000000
  0
LINE
  5
F10182
330
F10183
100
AcDbEntity
8
Geo
100
AcDbLine
10
-34.9942758022550
20
6.72633780010875
30
0.000000000000000
11
-34.8942758022550
21
6.68227388050325
31
0.000000000000000
  0
LINE
  5
F10184
330
F10185
100
AcDbEntity
8
Geo
100
AcDbLine
10
-34.8942758022550
20
6.68227388050325
30
0.000000000000000
11
-34.7942758022550
21
6.63875298020249
31
0.000000000000000
  0
LINE
  5
F10186
330
F10187
100
AcDbEntity
8
Geo
100
AcDbLine
10
-34.7942758022550
20
6.63875298020249
30
0.000000000000000
11
-34.6942758022550
21
6.59578416590328
31
0.000000000000000
  0
LINE
  5
F10188
330
F10189
100
AcDbEntity
8
Geo
100
AcDbLine
10
-34.6942758022550
20
6.59578416590328
30
0.000000000000000
11
-34.5942758022550
21
6.55337638928654
31
0.000000000000000
  0
LINE
  5
F1018A
330
F1018B
100
AcDbEntity
8
Geo
100
AcDbLine
10
-34.5942758022550
20
6.55337638928654
30
0.000000000000000
11
-34.4942758022550
21
6.51153848515232
31
0.000000000000000
  0
LINE
  5
F1018C
330
F1018D
100
AcDbEntity
8
Geo
100
AcDbLine
10
-34.4942758022550
20
6.51153848515232
30
0.000000000000000
11
-34.3942758022550
21
6.47027916957934
31
0.000000000000000
  0
LINE
  5
F1018E
330
F1018F
100
AcDbEntity
8
Geo
100
AcDbLine
10
-34.3942758022550
20
6.47027916957934
30
0.000000000000000
11
-34.2942758022550
21
6.42960703810912
31
0.000000000000000
  0
LINE
  5
F10190
330
F10191
100
AcDbEntity
8
Geo
100
AcDbLine
10
-34.2942758022550
20
6.42960703810912
30
0.000000000000000
11
-34.1942758022550
21
6.38953056395526
31
0.000000000000000
  0
LINE
  5
F10192
330
F10193
100
AcDbEntity
8
Geo
100
AcDbLine
10
-34.1942758022550
20
6.38953056395526
30
0.000000000000000
11
-34.0942758022550
21
6.35005809623828
31
0.000000000000000
  0
LINE
  5
F10194
330
F10195
100
AcDbEntity
8
Geo
100
AcDbLine
10
-34.0942758022550
20
6.35005809623828
30
0.000000000000000
11
-33.9942758022550
21
6.31119785824617
31
0.000000000000000
  0
LINE
  5
F10196
330
F10197
100
AcDbEntity
8
Geo
100
AcDbLine
10
-33.9942758022550
20
6.31119785824617
30
0.000000000000000
11
-33.8942758022550
21
6.27295794572130
31
0.000000000000000
  0
LINE
  5
F10198
330
F10199
100
AcDbEntity
8
Geo
100
AcDbLine
10
-33.8942758022550
20
6.27295794572130
30
0.000000000000000
11
-33.7942758022550
21
6.23534632517380
31
0.000000000000000
  0
LINE
  5
F1019A
330
F1019B
100
AcDbEntity
8
Geo
100
AcDbLine
10
-33.7942758022550
20
6.23534632517380
30
0.000000000000000
11
-33.6942758022550
21
6.19837083222192
31
0.000000000000000
  0
LINE
  5
F1019C
330
F1019D
100
AcDbEntity
8
Geo
100
AcDbLine
10
-50.0942758022550
20
10.1931676362905
30
0.000000000000000
11
-50.0942758022550
21
9.23659863126290
31
0.000000000000000
  0
LINE
  5
F1019E
330
F1019F
100
AcDbEntity
8
Geo
100
AcDbLine
10
-50.0942758022550
20
9.23659863126290
30
0.000000000000000
11
-49.9942758022550
21
9.04128136828758
31
0.000000000000000
  0
LINE
  5
F101A0
330
F101A1
100
AcDbEntity
8
Geo
100
AcDbLine
10
-49.9942758022550
20
9.04128136828758
30
0.000000000000000
11
-49.8942758022550
21
8.91391180281988
31
0.000000000000000
  0
LINE
  5
F101A2
330
F101A3
100
AcDbEntity
8
Geo
100
AcDbLine
10
-49.8942758022550
20
8.91391180281988
30
0.000000000000000
11
-49.7942758022550
21
8.81900037754132
31
0.000000000000000
  0
LINE
  5
F101A4
330
F101A5
100
AcDbEntity
8
Geo
100
AcDbLine
10
-49.7942758022550
20
8.81900037754132
30
0.000000000000000
11
-49.6942758022550
21
8.74480525335085
31
0.000000000000000
  0
LINE
  5
F101A6
330
F101A7
100
AcDbEntity
8
Geo
100
AcDbLine
10
-49.6942758022550
20
8.74480525335085
30
0.000000000000000
11
-49.5942758022550
21
8.68574096596997
31
0.000000000000000
  0
LINE
  5
F101A8
330
F101A9
100
AcDbEntity
8
Geo
100
AcDbLine
10
-49.5942758022550
20
8.68574096596997
30
0.000000000000000
11
-49.4942758022550
21
8.63836990778220
31
0.000000000000000
  0
LINE
  5
F101AA
330
F101AB
100
AcDbEntity
8
Geo
100
AcDbLine
10
-49.4942758022550
20
8.63836990778220
30
0.000000000000000
11
-49.3942758022550
21
8.59366015627647
31
0.000000000000000
  0
LINE
  5
F101AC
330
F101AD
100
AcDbEntity
8
Geo
100
AcDbLine
10
-49.3942758022550
20
8.59366015627647
30
0.000000000000000
11
-49.2942758022550
21
8.54671593966875
31
0.000000000000000
  0
LINE
  5
F101AE
330
F101AF
100
AcDbEntity
8
Geo
100
AcDbLine
10
-49.2942758022550
20
8.54671593966875
30
0.000000000000000
11
-49.1942758022550
21
8.49778457973070
31
0.000000000000000
  0
LINE
  5
F101B0
330
F101B1
100
AcDbEntity
8
Geo
100
AcDbLine
10
-49.1942758022550
20
8.49778457973070
30
0.000000000000000
11
-49.0942758022550
21
8.44708999449072
31
0.000000000000000
  0
LINE
  5
F101B2
330
F101B3
100
AcDbEntity
8
Geo
100
AcDbLine
10
-49.0942758022550
20
8.44708999449072
30
0.000000000000000
11
-48.9942758022550
21
8.39483729253621
31
0.000000000000000
  0
LINE
  5
F101B4
330
F101B5
100
AcDbEntity
8
Geo
100
AcDbLine
10
-48.9942758022550
20
8.39483729253621
30
0.000000000000000
11
-48.8942758022550
21
8.34121624165438
31
0.000000000000000
  0
LINE
  5
F101B6
330
F101B7
100
AcDbEntity
8
Geo
100
AcDbLine
10
-48.8942758022550
20
8.34121624165438
30
0.000000000000000
11
-48.7942758022550
21
8.28640393982857
31
0.000000000000000
  0
LINE
  5
F101B8
330
F101B9
100
AcDbEntity
8
Geo
100
AcDbLine
10
-48.7942758022550
20
8.28640393982857
30
0.000000000000000
11
-48.6942758022550
21
8.23056690810280
31
0.000000000000000
  0
LINE
  5
F101BA
330
F101BB
100
AcDbEntity
8
Geo
100
AcDbLine
10
-48.6942758022550
20
8.23056690810280
30
0.000000000000000
11
-48.5942758022550
21
8.17386275610077
31
0.000000000000000
  0
LINE
  5
F101BC
330
F101BD
100
AcDbEntity
8
Geo
100
AcDbLine
10
-48.5942758022550
20
8.17386275610077
30
0.000000000000000
11
-48.4942758022550
21
8.11644152619062
31
0.000000000000000
  0
LINE
  5
F101BE
330
F101BF
100
AcDbEntity
8
Geo
100
AcDbLine
10
-48.4942758022550
20
8.11644152619062
30
0.000000000000000
11
-48.3942758022550
21
8.05844679234744
31
0.000000000000000
  0
LINE
  5
F101C0
330
F101C1
100
AcDbEntity
8
Geo
100
AcDbLine
10
-48.3942758022550
20
8.05844679234744
30
0.000000000000000
11
-48.2942758022550
21
8.00001656930307
31
0.000000000000000
  0
LINE
  5
F101C2
330
F101C3
100
AcDbEntity
8
Geo
100
AcDbLine
10
-48.2942758022550
20
8.00001656930307
30
0.000000000000000
11
-48.1942758022550
21
7.94128407330747
31
0.000000000000000
  0
LINE
  5
F101C4
330
F101C5
100
AcDbEntity
8
Geo
100
AcDbLine
10
-48.1942758022550
20
7.94128407330747
30
0.000000000000000
11
-48.0942758022550
21
7.88237836570304
31
0.000000000000000
  0
LINE
  5
F101C6
330
F101C7
100
AcDbEntity
8
Geo
100
AcDbLine
10
-48.0942758022550
20
7.88237836570304
30
0.000000000000000
11
-47.9942758022550
21
7.82342490321606
31
0.000000000000000
  0
LINE
  5
F101C8
330
F101C9
100
AcDbEntity
8
Geo
100
AcDbLine
10
-47.9942758022550
20
7.82342490321606
30
0.000000000000000
11
-47.8942758022550
21
7.76454601353383
31
0.000000000000000
  0
LINE
  5
F101CA
330
F101CB
100
AcDbEntity
8
Geo
100
AcDbLine
10
-47.8942758022550
20
7.76454601353383
30
0.000000000000000
11
-47.7942758022550
21
7.70586131078803
31
0.000000000000000
  0
LINE
  5
F101CC
330
F101CD
100
AcDbEntity
8
Geo
100
AcDbLine
10
-47.7942758022550
20
7.70586131078803
30
0.000000000000000
11
-47.6942758022550
21
7.64748806261091
31
0.000000000000000
  0
LINE
  5
F101CE
330
F101CF
100
AcDbEntity
8
Geo
100
AcDbLine
10
-47.6942758022550
20
7.64748806261091
30
0.000000000000000
11
-47.5942758022550
21
7.58954151820302
31
0.000000000000000
  0
LINE
  5
F101D0
330
F101D1
100
AcDbEntity
8
Geo
100
AcDbLine
10
-47.5942758022550
20
7.58954151820302
30
0.000000000000000
11
-47.4942758022550
21
7.53213520515935
31
0.000000000000000
  0
LINE
  5
F101D2
330
F101D3
100
AcDbEntity
8
Geo
100
AcDbLine
10
-47.4942758022550
20
7.53213520515935
30
0.000000000000000
11
-47.3942758022550
21
7.47538120151192
31
0.000000000000000
  0
LINE
  5
F101D4
330
F101D5
100
AcDbEntity
8
Geo
100
AcDbLine
10
-47.3942758022550
20
7.47538120151192
30
0.000000000000000
11
-47.2942758022550
21
7.41939038846538
31
0.000000000000000
  0
LINE
  5
F101D6
330
F101D7
100
AcDbEntity
8
Geo
100
AcDbLine
10
-47.2942758022550
20
7.41939038846538
30
0.000000000000000
11
-47.1942758022550
21
7.36427268855921
31
0.000000000000000
  0
LINE
  5
F101D8
330
F101D9
100
AcDbEntity
8
Geo
100
AcDbLine
10
-47.1942758022550
20
7.36427268855921
30
0.000000000000000
11
-47.0942758022550
21
7.31013729343631
31
0.000000000000000
  0
LINE
  5
F101DA
330
F101DB
100
AcDbEntity
8
Geo
100
AcDbLine
10
-47.0942758022550
20
7.31013729343631
30
0.000000000000000
11
-46.9942758022550
21
7.25709288499742
31
0.000000000000000
  0
LINE
  5
F101DC
330
F101DD
100
AcDbEntity
8
Geo
100
AcDbLine
10
-46.9942758022550
20
7.25709288499742
30
0.000000000000000
11
-46.8942758022550
21
7.20524785344883
31
0.000000000000000
  0
LINE
  5
F101DE
330
F101DF
100
AcDbEntity
8
Geo
100
AcDbLine
10
-46.8942758022550
20
7.20524785344883
30
0.000000000000000
11
-46.7942758022550
21
7.15471051558953
31
0.000000000000000
  0
LINE
  5
F101E0
330
F101E1
100
AcDbEntity
8
Geo
100
AcDbLine
10
-46.7942758022550
20
7.15471051558953
30
0.000000000000000
11
-46.6942758022550
21
7.10558933662359
31
0.000000000000000
  0
LINE
  5
F101E2
330
F101E3
100
AcDbEntity
8
Geo
100
AcDbLine
10
-46.6942758022550
20
7.10558933662359
30
0.000000000000000
11
-46.5942758022550
21
7.05744156948845
31
0.000000000000000
  0
LINE
  5
F101E4
330
F101E5
100
AcDbEntity
8
Geo
100
AcDbLine
10
-46.5942758022550
20
7.05744156948845
30
0.000000000000000
11
-46.4942758022550
21
7.00975866307978
31
0.000000000000000
  0
LINE
  5
F101E6
330
F101E7
100
AcDbEntity
8
Geo
100
AcDbLine
10
-46.4942758022550
20
7.00975866307978
30
0.000000000000000
11
-46.3942758022550
21
6.96255055116394
31
0.000000000000000
  0
LINE
  5
F101E8
330
F101E9
100
AcDbEntity
8
Geo
100
AcDbLine
10
-46.3942758022550
20
6.96255055116394
30
0.000000000000000
11
-46.2942758022550
21
6.91582706859351
31
0.000000000000000
  0
LINE
  5
F101EA
330
F101EB
100
AcDbEntity
8
Geo
100
AcDbLine
10
-46.2942758022550
20
6.91582706859351
30
0.000000000000000
11
-46.1942758022550
21
6.86959794925836
31
0.000000000000000
  0
LINE
  5
F101EC
330
F101ED
100
AcDbEntity
8
Geo
100
AcDbLine
10
-46.1942758022550
20
6.86959794925836
30
0.000000000000000
11
-46.0942758022550
21
6.82387282405782
31
0.000000000000000
  0
LINE
  5
F101EE
330
F101EF
100
AcDbEntity
8
Geo
100
AcDbLine
10
-46.0942758022550
20
6.82387282405782
30
0.000000000000000
11
-45.9942758022550
21
6.77866121889425
31
0.000000000000000
  0
LINE
  5
F101F0
330
F101F1
100
AcDbEntity
8
Geo
100
AcDbLine
10
-45.9942758022550
20
6.77866121889425
30
0.000000000000000
11
-45.8942758022550
21
6.73397255268854
31
0.000000000000000
  0
LINE
  5
F101F2
330
F101F3
100
AcDbEntity
8
Geo
100
AcDbLine
10
-45.8942758022550
20
6.73397255268854
30
0.000000000000000
11
-45.7942758022550
21
6.68981613541785
31
0.000000000000000
  0
LINE
  5
F101F4
330
F101F5
100
AcDbEntity
8
Geo
100
AcDbLine
10
-45.7942758022550
20
6.68981613541785
30
0.000000000000000
11
-45.6942758022550
21
6.64620116617607
31
0.000000000000000
  0
LINE
  5
F101F6
330
F101F7
100
AcDbEntity
8
Geo
100
AcDbLine
10
-45.6942758022550
20
6.64620116617607
30
0.000000000000000
11
-45.5942758022550
21
6.60313673125737
31
0.000000000000000
  0
LINE
  5
F101F8
330
F101F9
100
AcDbEntity
8
Geo
100
AcDbLine
10
-45.5942758022550
20
6.60313673125737
30
0.000000000000000
11
-45.4942758022550
21
6.56063180226327
31
0.000000000000000
  0
LINE
  5
F101FA
330
F101FB
100
AcDbEntity
8
Geo
100
AcDbLine
10
-45.4942758022550
20
6.56063180226327
30
0.000000000000000
11
-45.3942758022550
21
6.51869523423358
31
0.000000000000000
  0
LINE
  5
F101FC
330
F101FD
100
AcDbEntity
8
Geo
100
AcDbLine
10
-45.3942758022550
20
6.51869523423358
30
0.000000000000000
11
-45.2942758022550
21
6.47733576380162
31
0.000000000000000
  0
LINE
  5
F101FE
330
F101FF
100
AcDbEntity
8
Geo
100
AcDbLine
10
-45.2942758022550
20
6.47733576380162
30
0.000000000000000
11
-45.1942758022550
21
6.43656200737414
31
0.000000000000000
  0
LINE
  5
F10200
330
F10201
100
AcDbEntity
8
Geo
100
AcDbLine
10
-45.1942758022550
20
6.43656200737414
30
0.000000000000000
11
-45.0942758022550
21
6.39638245933625
31
0.000000000000000
  0
LINE
  5
F10202
330
F10203
100
AcDbEntity
8
Geo
100
AcDbLine
10
-45.0942758022550
20
6.39638245933625
30
0.000000000000000
11
-44.9942758022550
21
6.35680549028181
31
0.000000000000000
  0
LINE
  5
F10204
330
F10205
100
AcDbEntity
8
Geo
100
AcDbLine
10
-44.9942758022550
20
6.35680549028181
30
0.000000000000000
11
-44.8942758022550
21
6.31783934526956
31
0.000000000000000
  0
LINE
  5
F10206
330
F10207
100
AcDbEntity
8
Geo
100
AcDbLine
10
-44.8942758022550
20
6.31783934526956
30
0.000000000000000
11
-44.7942758022550
21
6.27949214210544
31
0.000000000000000
  0
LINE
  5
F10208
330
F10209
100
AcDbEntity
8
Geo
100
AcDbLine
10
-44.7942758022550
20
6.27949214210544
30
0.000000000000000
11
-44.6942758022550
21
6.24177186965141
31
0.000000000000000
  0
LINE
  5
F1020A
330
F1020B
100
AcDbEntity
8
Geo
100
AcDbLine
10
-44.6942758022550
20
6.24177186965141
30
0.000000000000000
11
-44.5942758022550
21
6.20468638616114
31
0.000000000000000
  0
LINE
  5
F1020C
330
F1020D
100
AcDbEntity
8
Geo
100
AcDbLine
10
-44.5942758022550
20
6.20468638616114
30
0.000000000000000
11
-44.4942758022550
21
6.16824341764289
31
0.000000000000000
  0
LINE
  5
F1020E
330
F1020F
100
AcDbEntity
8
Geo
100
AcDbLine
10
-44.4942758022550
20
6.16824341764289
30
0.000000000000000
11
-44.3942758022550
21
6.13245055624995
31
0.000000000000000
  0
LINE
  5
F10210
330
F10211
100
AcDbEntity
8
Geo
100
AcDbLine
10
-44.3942758022550
20
6.13245055624995
30
0.000000000000000
11
-44.2942758022550
21
6.09731525869899
31
0.000000000000000
  0
LINE
  5
F10212
330
F10213
100
AcDbEntity
8
Geo
100
AcDbLine
10
-44.2942758022550
20
6.09731525869899
30
0.000000000000000
11
-44.1942758022550
21
6.06284484471659
31
0.000000000000000
  0
LINE
  5
F10214
330
F10215
100
AcDbEntity
8
Geo
100
AcDbLine
10
-44.1942758022550
20
6.06284484471659
30
0.000000000000000
11
-44.0942758022550
21
6.02904649551432
31
0.000000000000000
  0
LINE
  5
F10216
330
F10217
100
AcDbEntity
8
Geo
100
AcDbLine
10
-44.0942758022550
20
6.02904649551432
30
0.000000000000000
11
-43.9942758022550
21
5.99592725229268
31
0.000000000000000
  0
LINE
  5
F10218
330
F10219
100
AcDbEntity
8
Geo
100
AcDbLine
10
-43.9942758022550
20
5.99592725229268
30
0.000000000000000
11
-43.8942758022550
21
5.96349401477423
31
0.000000000000000
  0
LINE
  5
F1021A
330
F1021B
100
AcDbEntity
8
Geo
100
AcDbLine
10
-43.8942758022550
20
5.96349401477423
30
0.000000000000000
11
-43.7942758022550
21
5.93175353976614
31
0.000000000000000
  0
LINE
  5
F1021C
330
F1021D
100
AcDbEntity
8
Geo
100
AcDbLine
10
-43.7942758022550
20
5.93175353976614
30
0.000000000000000
11
-43.6942758022550
21
5.90071243975257
31
0.000000000000000
  0
LINE
  5
F1021E
330
F1021F
100
AcDbEntity
8
Geo
100
AcDbLine
10
-43.6942758022550
20
5.90071243975257
30
0.000000000000000
11
-43.5942758022550
21
5.87037718151708
31
0.000000000000000
  0
LINE
  5
F10220
330
F10221
100
AcDbEntity
8
Geo
100
AcDbLine
10
-43.5942758022550
20
5.87037718151708
30
0.000000000000000
11
-43.4942758022550
21
5.84075408479542
31
0.000000000000000
  0
LINE
  5
F10222
330
F10223
100
AcDbEntity
8
Geo
100
AcDbLine
10
-43.4942758022550
20
5.84075408479542
30
0.000000000000000
11
-43.3942758022550
21
5.81184932095894
31
0.000000000000000
  0
LINE
  5
F10224
330
F10225
100
AcDbEntity
8
Geo
100
AcDbLine
10
-43.3942758022550
20
5.81184932095894
30
0.000000000000000
11
-43.2942758022550
21
5.78366891172888
31
0.000000000000000
  0
LINE
  5
F10226
330
F10227
100
AcDbEntity
8
Geo
100
AcDbLine
10
-43.2942758022550
20
5.78366891172888
30
0.000000000000000
11
-43.1942758022550
21
5.75621872792191
31
0.000000000000000
  0
LINE
  5
F10228
330
F10229
100
AcDbEntity
8
Geo
100
AcDbLine
10
-43.1942758022550
20
5.75621872792191
30
0.000000000000000
11
-43.0942758022550
21
5.72950448822704
31
0.000000000000000
  0
LINE
  5
F1022A
330
F1022B
100
AcDbEntity
8
Geo
100
AcDbLine
10
-43.0942758022550
20
5.72950448822704
30
0.000000000000000
11
-42.9942758022550
21
5.70353175801425
31
0.000000000000000
  0
LINE
  5
F1022C
330
F1022D
100
AcDbEntity
8
Geo
100
AcDbLine
10
-42.9942758022550
20
5.70353175801425
30
0.000000000000000
11
-42.8942758022550
21
5.67830594817507
31
0.000000000000000
  0
LINE
  5
F1022E
330
F1022F
100
AcDbEntity
8
Geo
100
AcDbLine
10
-42.8942758022550
20
5.67830594817507
30
0.000000000000000
11
-42.7942758022550
21
5.65383231399530
31
0.000000000000000
  0
LINE
  5
F10230
330
F10231
100
AcDbEntity
8
Geo
100
AcDbLine
10
-42.7942758022550
20
5.65383231399530
30
0.000000000000000
11
-42.6942758022550
21
5.63011595406021
31
0.000000000000000
  0
LINE
  5
F10232
330
F10233
100
AcDbEntity
8
Geo
100
AcDbLine
10
-42.6942758022550
20
5.63011595406021
30
0.000000000000000
11
-42.5942758022550
21
5.60716180919234
31
0.000000000000000
  0
LINE
  5
F10234
330
F10235
100
AcDbEntity
8
Geo
100
AcDbLine
10
-42.5942758022550
20
5.60716180919234
30
0.000000000000000
11
-42.4942758022550
21
5.58497466142219
31
0.000000000000000
  0
LINE
  5
F10236
330
F10237
100
AcDbEntity
8
Geo
100
AcDbLine
10
-42.4942758022550
20
5.58497466142219
30
0.000000000000000
11
-42.3942758022550
21
5.56355913299196
31
0.000000000000000
  0
LINE
  5
F10238
330
F10239
100
AcDbEntity
8
Geo
100
AcDbLine
10
-42.3942758022550
20
5.56355913299196
30
0.000000000000000
11
-42.2942758022550
21
5.54291968539261
31
0.000000000000000
  0
LINE
  5
F1023A
330
F1023B
100
AcDbEntity
8
Geo
100
AcDbLine
10
-42.2942758022550
20
5.54291968539261
30
0.000000000000000
11
-42.1942758022550
21
5.52306061843442
31
0.000000000000000
  0
LINE
  5
F1023C
330
F1023D
100
AcDbEntity
8
Geo
100
AcDbLine
10
-42.1942758022550
20
5.52306061843442
30
0.000000000000000
11
-42.0942758022550
21
5.50398606935116
31
0.000000000000000
  0
LINE
  5
F1023E
330
F1023F
100
AcDbEntity
8
Geo
100
AcDbLine
10
-42.0942758022550
20
5.50398606935116
30
0.000000000000000
11
-41.9942758022550
21
5.48570001193825
31
0.000000000000000
  0
LINE
  5
F10240
330
F10241
100
AcDbEntity
8
Geo
100
AcDbLine
10
-41.9942758022550
20
5.48570001193825
30
0.000000000000000
11
-41.8942758022550
21
5.46820625572484
31
0.000000000000000
  0
LINE
  5
F10242
330
F10243
100
AcDbEntity
8
Geo
100
AcDbLine
10
-41.8942758022550
20
5.46820625572484
30
0.000000000000000
11
-41.7942758022550
21
5.45150844518019
31
0.000000000000000
  0
LINE
  5
F10244
330
F10245
100
AcDbEntity
8
Geo
100
AcDbLine
10
-41.7942758022550
20
5.45150844518019
30
0.000000000000000
11
-41.6942758022550
21
5.43561005895445
31
0.000000000000000
  0
LINE
  5
F10246
330
F10247
100
AcDbEntity
8
Geo
100
AcDbLine
10
-41.6942758022550
20
5.43561005895445
30
0.000000000000000
11
-41.5942758022550
21
5.42051440915391
31
0.000000000000000
  0
LINE
  5
F10248
330
F10249
100
AcDbEntity
8
Geo
100
AcDbLine
10
-41.5942758022550
20
5.42051440915391
30
0.000000000000000
11
-41.4942758022550
21
5.40622464065102
31
0.000000000000000
  0
LINE
  5
F1024A
330
F1024B
100
AcDbEntity
8
Geo
100
AcDbLine
10
-41.4942758022550
20
5.40622464065102
30
0.000000000000000
11
-41.3942758022550
21
5.39274373042919
31
0.000000000000000
  0
LINE
  5
F1024C
330
F1024D
100
AcDbEntity
8
Geo
100
AcDbLine
10
-41.3942758022550
20
5.39274373042919
30
0.000000000000000
11
-41.2942758022550
21
5.38007448696262
31
0.000000000000000
  0
LINE
  5
F1024E
330
F1024F
100
AcDbEntity
8
Geo
100
AcDbLine
10
-41.2942758022550
20
5.38007448696262
30
0.000000000000000
11
-41.1942758022550
21
5.36821954963123
31
0.000000000000000
  0
LINE
  5
F10250
330
F10251
100
AcDbEntity
8
Geo
100
AcDbLine
10
-41.1942758022550
20
5.36821954963123
30
0.000000000000000
11
-41.0942758022550
21
5.35718138817073
31
0.000000000000000
  0
LINE
  5
F10252
330
F10253
100
AcDbEntity
8
Geo
100
AcDbLine
10
-41.0942758022550
20
5.35718138817073
30
0.000000000000000
11
-40.9942758022550
21
5.34696230215818
31
0.000000000000000
  0
LINE
  5
F10254
330
F10255
100
AcDbEntity
8
Geo
100
AcDbLine
10
-40.9942758022550
20
5.34696230215818
30
0.000000000000000
11
-40.8942758022550
21
5.33756442053287
31
0.000000000000000
  0
LINE
  5
F10256
330
F10257
100
AcDbEntity
8
Geo
100
AcDbLine
10
-40.8942758022550
20
5.33756442053287
30
0.000000000000000
11
-40.7942758022550
21
5.32898970115282
31
0.000000000000000
  0
LINE
  5
F10258
330
F10259
100
AcDbEntity
8
Geo
100
AcDbLine
10
-40.7942758022550
20
5.32898970115282
30
0.000000000000000
11
-40.6942758022550
21
5.32123993038687
31
0.000000000000000
  0
LINE
  5
F1025A
330
F1025B
100
AcDbEntity
8
Geo
100
AcDbLine
10
-40.6942758022550
20
5.32123993038687
30
0.000000000000000
11
-40.5942758022550
21
5.31431672274258
31
0.000000000000000
  0
LINE
  5
F1025C
330
F1025D
100
AcDbEntity
8
Geo
100
AcDbLine
10
-40.5942758022550
20
5.31431672274258
30
0.000000000000000
11
-40.4942758022550
21
5.30822152052983
31
0.000000000000000
  0
LINE
  5
F1025E
330
F1025F
100
AcDbEntity
8
Geo
100
AcDbLine
10
-40.4942758022550
20
5.30822152052983
30
0.000000000000000
11
-40.3942758022550
21
5.30295559356038
31
0.000000000000000
  0
LINE
  5
F10260
330
F10261
100
AcDbEntity
8
Geo
100
AcDbLine
10
-40.3942758022550
20
5.30295559356038
30
0.000000000000000
11
-40.2942758022550
21
5.29852003888328
31
0.000000000000000
  0
LINE
  5
F10262
330
F10263
100
AcDbEntity
8
Geo
100
AcDbLine
10
-40.2942758022550
20
5.29852003888328
30
0.000000000000000
11
-40.1942758022550
21
5.29491578055640
31
0.000000000000000
  0
LINE
  5
F10264
330
F10265
100
AcDbEntity
8
Geo
100
AcDbLine
10
-40.1942758022550
20
5.29491578055640
30
0.000000000000000
11
-40.0942758022550
21
5.29214356945385
31
0.000000000000000
  0
LINE
  5
F10266
330
F10267
100
AcDbEntity
8
Geo
100
AcDbLine
10
-40.0942758022550
20
5.29214356945385
30
0.000000000000000
11
-39.9942758022550
21
5.29020398310958
31
0.000000000000000
  0
LINE
  5
F10268
330
F10269
100
AcDbEntity
8
Geo
100
AcDbLine
10
-39.9942758022550
20
5.29020398310958
30
0.000000000000000
11
-39.8942758022550
21
5.28909742559705
31
0.000000000000000
  0
LINE
  5
F1026A
330
F1026B
100
AcDbEntity
8
Geo
100
AcDbLine
10
-39.8942758022550
20
5.28909742559705
30
0.000000000000000
11
-39.8114799412650
21
5.28881179531658
31
0.000000000000000
  0
LINE
  5
F1026C
330
F1026D
100
AcDbEntity
8
Geo
100
AcDbLine
10
-50.0942758022550
20
7.38561960510130
30
0.000000000000000
11
-50.0942758022550
21
7.18168104474603
31
0.000000000000000
  0
LINE
  5
F1026E
330
F1026F
100
AcDbEntity
8
Geo
100
AcDbLine
10
-39.8114799412650
20
13.2888117953166
30
0.000000000000000
11
-39.7942758022550
21
13.2887994631881
31
0.000000000000000
  0
LINE
  5
F10270
330
F10271
100
AcDbEntity
8
Geo
100
AcDbLine
10
-39.7942758022550
20
13.2887994631881
30
0.000000000000000
11
-39.6942758022550
21
13.2882394450433
31
0.000000000000000
  0
LINE
  5
F10272
330
F10273
100
AcDbEntity
8
Geo
100
AcDbLine
10
-39.6942758022550
20
13.2882394450433
30
0.000000000000000
11
-39.5942758022550
21
13.2868462272703
31
0.000000000000000
  0
LINE
  5
F10274
330
F10275
100
AcDbEntity
8
Geo
100
AcDbLine
10
-39.5942758022550
20
13.2868462272703
30
0.000000000000000
11
-39.4942758022550
21
13.2846201001177
31
0.000000000000000
  0
LINE
  5
F10276
330
F10277
100
AcDbEntity
8
Geo
100
AcDbLine
10
-39.4942758022550
20
13.2846201001177
30
0.000000000000000
11
-39.3942758022550
21
13.2815615273539
31
0.000000000000000
  0
LINE
  5
F10278
330
F10279
100
AcDbEntity
8
Geo
100
AcDbLine
10
-39.3942758022550
20
13.2815615273539
30
0.000000000000000
11
-39.2942758022550
21
13.2776711461706
31
0.000000000000000
  0
LINE
  5
F1027A
330
F1027B
100
AcDbEntity
8
Geo
100
AcDbLine
10
-39.2942758022550
20
13.2776711461706
30
0.000000000000000
11
-39.1942758022550
21
13.2729497670496
31
0.000000000000000
  0
LINE
  5
F1027C
330
F1027D
100
AcDbEntity
8
Geo
100
AcDbLine
10
-39.1942758022550
20
13.2729497670496
30
0.000000000000000
11
-39.0942758022550
21
13.2673983735947
31
0.000000000000000
  0
LINE
  5
F1027E
330
F1027F
100
AcDbEntity
8
Geo
100
AcDbLine
10
-39.0942758022550
20
13.2673983735947
30
0.000000000000000
11
-38.9942758022550
21
13.2610181223260
31
0.000000000000000
  0
LINE
  5
F10280
330
F10281
100
AcDbEntity
8
Geo
100
AcDbLine
10
-38.9942758022550
20
13.2610181223260
30
0.000000000000000
11
-38.8942758022550
21
13.2538103424395
31
0.000000000000000
  0
LINE
  5
F10282
330
F10283
100
AcDbEntity
8
Geo
100
AcDbLine
10
-38.8942758022550
20
13.2538103424395
30
0.000000000000000
11
-38.7942758022550
21
13.2457765355300
31
0.000000000000000
  0
LINE
  5
F10284
330
F10285
100
AcDbEntity
8
Geo
100
AcDbLine
10
-38.7942758022550
20
13.2457765355300
30
0.000000000000000
11
-38.6942758022550
21
13.2369183752780
31
0.000000000000000
  0
LINE
  5
F10286
330
F10287
100
AcDbEntity
8
Geo
100
AcDbLine
10
-38.6942758022550
20
13.2369183752780
30
0.000000000000000
11
-38.5942758022550
21
13.2272377071017
31
0.000000000000000
  0
LINE
  5
F10288
330
F10289
100
AcDbEntity
8
Geo
100
AcDbLine
10
-38.5942758022550
20
13.2272377071017
30
0.000000000000000
11
-38.4942758022550
21
13.2167365477719
31
0.000000000000000
  0
LINE
  5
F1028A
330
F1028B
100
AcDbEntity
8
Geo
100
AcDbLine
10
-38.4942758022550
20
13.2167365477719
30
0.000000000000000
11
-38.3942758022550
21
13.2054170849921
31
0.000000000000000
  0
LINE
  5
F1028C
330
F1028D
100
AcDbEntity
8
Geo
100
AcDbLine
10
-38.3942758022550
20
13.2054170849921
30
0.000000000000000
11
-38.2942758022550
21
13.1932816769428
31
0.000000000000000
  0
LINE
  5
F1028E
330
F1028F
100
AcDbEntity
8
Geo
100
AcDbLine
10
-38.2942758022550
20
13.1932816769428
30
0.000000000000000
11
-38.1942758022550
21
13.1803328517902
31
0.000000000000000
  0
LINE
  5
F10290
330
F10291
100
AcDbEntity
8
Geo
100
AcDbLine
10
-38.1942758022550
20
13.1803328517902
30
0.000000000000000
11
-38.0942758022550
21
13.1665733071593
31
0.000000000000000
  0
LINE
  5
F10292
330
F10293
100
AcDbEntity
8
Geo
100
AcDbLine
10
-38.0942758022550
20
13.1665733071593
30
0.000000000000000
11
-37.9942758022550
21
13.1520059095721
31
0.000000000000000
  0
LINE
  5
F10294
330
F10295
100
AcDbEntity
8
Geo
100
AcDbLine
10
-37.9942758022550
20
13.1520059095721
30
0.000000000000000
11
-37.8942758022550
21
13.1366336938504
31
0.000000000000000
  0
LINE
  5
F10296
330
F10297
100
AcDbEntity
8
Geo
100
AcDbLine
10
-37.8942758022550
20
13.1366336938504
30
0.000000000000000
11
-37.7942758022550
21
13.1204598624837
31
0.000000000000000
  0
LINE
  5
F10298
330
F10299
100
AcDbEntity
8
Geo
100
AcDbLine
10
-37.7942758022550
20
13.1204598624837
30
0.000000000000000
11
-37.6942758022550
21
13.1034877849615
31
0.000000000000000
  0
LINE
  5
F1029A
330
F1029B
100
AcDbEntity
8
Geo
100
AcDbLine
10
-37.6942758022550
20
13.1034877849615
30
0.000000000000000
11
-37.5942758022550
21
13.0857209970720
31
0.000000000000000
  0
LINE
  5
F1029C
330
F1029D
100
AcDbEntity
8
Geo
100
AcDbLine
10
-37.5942758022550
20
13.0857209970720
30
0.000000000000000
11
-37.4942758022550
21
13.0671632001651
31
0.000000000000000
  0
LINE
  5
F1029E
330
F1029F
100
AcDbEntity
8
Geo
100
AcDbLine
10
-37.4942758022550
20
13.0671632001651
30
0.000000000000000
11
-37.3942758022550
21
13.0478182603814
31
0.000000000000000
  0
LINE
  5
F102A0
330
F102A1
100
AcDbEntity
8
Geo
100
AcDbLine
10
-37.3942758022550
20
13.0478182603814
30
0.000000000000000
11
-37.2942758022550
21
13.0276902078466
31
0.000000000000000
  0
LINE
  5
F102A2
330
F102A3
100
AcDbEntity
8
Geo
100
AcDbLine
10
-37.2942758022550
20
13.0276902078466
30
0.000000000000000
11
-37.1942758022550
21
13.0067832358322
31
0.000000000000000
  0
LINE
  5
F102A4
330
F102A5
100
AcDbEntity
8
Geo
100
AcDbLine
10
-37.1942758022550
20
13.0067832358322
30
0.000000000000000
11
-37.0942758022550
21
12.9851016998818
31
0.000000000000000
  0
LINE
  5
F102A6
330
F102A7
100
AcDbEntity
8
Geo
100
AcDbLine
10
-37.0942758022550
20
12.9851016998818
30
0.000000000000000
11
-36.9942758022550
21
12.9626501169037
31
0.000000000000000
  0
LINE
  5
F102A8
330
F102A9
100
AcDbEntity
8
Geo
100
AcDbLine
10
-36.9942758022550
20
12.9626501169037
30
0.000000000000000
11
-36.8942758022550
21
12.9394331642297
31
0.000000000000000
  0
LINE
  5
F102AA
330
F102AB
100
AcDbEntity
8
Geo
100
AcDbLine
10
-36.8942758022550
20
12.9394331642297
30
0.000000000000000
11
-36.7942758022550
21
12.9154556786410
31
0.000000000000000
  0
LINE
  5
F102AC
330
F102AD
100
AcDbEntity
8
Geo
100
AcDbLine
10
-36.7942758022550
20
12.9154556786410
30
0.000000000000000
11
-36.6942758022550
21
12.8907226553604
31
0.000000000000000
  0
LINE
  5
F102AE
330
F102AF
100
AcDbEntity
8
Geo
100
AcDbLine
10
-36.6942758022550
20
12.8907226553604
30
0.000000000000000
11
-36.5942758022550
21
12.8652392470116
31
0.000000000000000
  0
LINE
  5
F102B0
330
F102B1
100
AcDbEntity
8
Geo
100
AcDbLine
10
-36.5942758022550
20
12.8652392470116
30
0.000000000000000
11
-36.4942758022550
21
12.8390107625459
31
0.000000000000000
  0
LINE
  5
F102B2
330
F102B3
100
AcDbEntity
8
Geo
100
AcDbLine
10
-36.4942758022550
20
12.8390107625459
30
0.000000000000000
11
-36.3942758022550
21
12.8120426661359
31
0.000000000000000
  0
LINE
  5
F102B4
330
F102B5
100
AcDbEntity
8
Geo
100
AcDbLine
10
-36.3942758022550
20
12.8120426661359
30
0.000000000000000
11
-36.2942758022550
21
12.7843405760376
31
0.000000000000000
  0
LINE
  5
F102B6
330
F102B7
100
AcDbEntity
8
Geo
100
AcDbLine
10
-36.2942758022550
20
12.7843405760376
30
0.000000000000000
11
-36.1942758022550
21
12.7559102634195
31
0.000000000000000
  0
LINE
  5
F102B8
330
F102B9
100
AcDbEntity
8
Geo
100
AcDbLine
10
-36.1942758022550
20
12.7559102634195
30
0.000000000000000
11
-36.0942758022550
21
12.7267576511606
31
0.000000000000000
  0
LINE
  5
F102BA
330
F102BB
100
AcDbEntity
8
Geo
100
AcDbLine
10
-36.0942758022550
20
12.7267576511606
30
0.000000000000000
11
-35.9942758022550
21
12.6968888126164
31
0.000000000000000
  0
LINE
  5
F102BC
330
F102BD
100
AcDbEntity
8
Geo
100
AcDbLine
10
-35.9942758022550
20
12.6968888126164
30
0.000000000000000
11
-35.8942758022550
21
12.6663099703535
31
0.000000000000000
  0
LINE
  5
F102BE
330
F102BF
100
AcDbEntity
8
Geo
100
AcDbLine
10
-35.8942758022550
20
12.6663099703535
30
0.000000000000000
11
-35.7942758022550
21
12.6350274948534
31
0.000000000000000
  0
LINE
  5
F102C0
330
F102C1
100
AcDbEntity
8
Geo
100
AcDbLine
10
-35.7942758022550
20
12.6350274948534
30
0.000000000000000
11
-35.6942758022550
21
12.6030479031854
31
0.000000000000000
  0
LINE
  5
F102C2
330
F102C3
100
AcDbEntity
8
Geo
100
AcDbLine
10
-35.6942758022550
20
12.6030479031854
30
0.000000000000000
11
-35.5942758022550
21
12.5703778576488
31
0.000000000000000
  0
LINE
  5
F102C4
330
F102C5
100
AcDbEntity
8
Geo
100
AcDbLine
10
-35.5942758022550
20
12.5703778576488
30
0.000000000000000
11
-35.4942758022550
21
12.5370241643849
31
0.000000000000000
  0
LINE
  5
F102C6
330
F102C7
100
AcDbEntity
8
Geo
100
AcDbLine
10
-35.4942758022550
20
12.5370241643849
30
0.000000000000000
11
-35.3942758022550
21
12.5029937719592
31
0.000000000000000
  0
LINE
  5
F102C8
330
F102C9
100
AcDbEntity
8
Geo
100
AcDbLine
10
-35.3942758022550
20
12.5029937719592
30
0.000000000000000
11
-35.2942758022550
21
12.4682937699135
31
0.000000000000000
  0
LINE
  5
F102CA
330
F102CB
100
AcDbEntity
8
Geo
100
AcDbLine
10
-35.2942758022550
20
12.4682937699135
30
0.000000000000000
11
-35.1942758022550
21
12.4329313872897
31
0.000000000000000
  0
LINE
  5
F102CC
330
F102CD
100
AcDbEntity
8
Geo
100
AcDbLine
10
-35.1942758022550
20
12.4329313872897
30
0.000000000000000
11
-35.0942758022550
21
12.3969139911227
31
0.000000000000000
  0
LINE
  5
F102CE
330
F102CF
100
AcDbEntity
8
Geo
100
AcDbLine
10
-35.0942758022550
20
12.3969139911227
30
0.000000000000000
11
-34.9942758022550
21
12.3602490849065
31
0.000000000000000
  0
LINE
  5
F102D0
330
F102D1
100
AcDbEntity
8
Geo
100
AcDbLine
10
-34.9942758022550
20
12.3602490849065
30
0.000000000000000
11
-34.8942758022550
21
12.3229443070307
31
0.000000000000000
  0
LINE
  5
F102D2
330
F102D3
100
AcDbEntity
8
Geo
100
AcDbLine
10
-34.8942758022550
20
12.3229443070307
30
0.000000000000000
11
-34.7942758022550
21
12.2850074291890
31
0.000000000000000
  0
LINE
  5
F102D4
330
F102D5
100
AcDbEntity
8
Geo
100
AcDbLine
10
-34.7942758022550
20
12.2850074291890
30
0.000000000000000
11
-34.6942758022550
21
12.2464463547604
31
0.000000000000000
  0
LINE
  5
F102D6
330
F102D7
100
AcDbEntity
8
Geo
100
AcDbLine
10
-34.6942758022550
20
12.2464463547604
30
0.000000000000000
11
-34.5942758022550
21
12.2072691171627
31
0.000000000000000
  0
LINE
  5
F102D8
330
F102D9
100
AcDbEntity
8
Geo
100
AcDbLine
10
-34.5942758022550
20
12.2072691171627
30
0.000000000000000
11
-34.4942758022550
21
12.1674838781786
31
0.000000000000000
  0
LINE
  5
F102DA
330
F102DB
100
AcDbEntity
8
Geo
100
AcDbLine
10
-34.4942758022550
20
12.1674838781786
30
0.000000000000000
11
-34.3942758022550
21
12.1270989262557
31
0.000000000000000
  0
LINE
  5
F102DC
330
F102DD
100
AcDbEntity
8
Geo
100
AcDbLine
10
-34.3942758022550
20
12.1270989262557
30
0.000000000000000
11
-34.2942758022550
21
12.0861226747796
31
0.000000000000000
  0
LINE
  5
F102DE
330
F102DF
100
AcDbEntity
8
Geo
100
AcDbLine
10
-34.2942758022550
20
12.0861226747796
30
0.000000000000000
11
-34.1942758022550
21
12.0445636603211
31
0.000000000000000
  0
LINE
  5
F102E0
330
F102E1
100
AcDbEntity
8
Geo
100
AcDbLine
10
-34.1942758022550
20
12.0445636603211
30
0.000000000000000
11
-34.0942758022550
21
12.0024305408580
31
0.000000000000000
  0
LINE
  5
F102E2
330
F102E3
100
AcDbEntity
8
Geo
100
AcDbLine
10
-34.0942758022550
20
12.0024305408580
30
0.000000000000000
11
-33.9942758022550
21
11.9597320939710
31
0.000000000000000
  0
LINE
  5
F102E4
330
F102E5
100
AcDbEntity
8
Geo
100
AcDbLine
10
-33.9942758022550
20
11.9597320939710
30
0.000000000000000
11
-33.8942758022550
21
11.9164772150155
31
0.000000000000000
  0
LINE
  5
F102E6
330
F102E7
100
AcDbEntity
8
Geo
100
AcDbLine
10
-33.8942758022550
20
11.9164772150155
30
0.000000000000000
11
-33.7942758022550
21
11.8726749152681
31
0.000000000000000
  0
LINE
  5
F102E8
330
F102E9
100
AcDbEntity
8
Geo
100
AcDbLine
10
-33.7942758022550
20
11.8726749152681
30
0.000000000000000
11
-33.6942758022550
21
11.8283343200496
31
0.000000000000000
  0
LINE
  5
F102EA
330
F102EB
100
AcDbEntity
8
Geo
100
AcDbLine
10
-50.0942758022550
20
11.3952955444824
30
0.000000000000000
11
-50.0942758022550
21
11.3959425458871
31
0.000000000000000
  0
LINE
  5
F102EC
330
F102ED
100
AcDbEntity
8
Geo
100
AcDbLine
10
-41.9880386762021
20
13.2888117953166
30
0.000000000000000
11
-41.8942758022550
21
13.2884454879968
31
0.000000000000000
  0
LINE
  5
F102EE
330
F102EF
100
AcDbEntity
8
Geo
100
AcDbLine
10
-41.8942758022550
20
13.2884454879968
30
0.000000000000000
11
-41.7942758022550
21
13.2872475589372
31
0.000000000000000
  0
LINE
  5
F102F0
330
F102F1
100
AcDbEntity
8
Geo
100
AcDbLine
10
-41.7942758022550
20
13.2872475589372
30
0.000000000000000
11
-41.6942758022550
21
13.2852166368888
31
0.000000000000000
  0
LINE
  5
F102F2
330
F102F3
100
AcDbEntity
8
Geo
100
AcDbLine
10
-41.6942758022550
20
13.2852166368888
30
0.000000000000000
11
-41.5942758022550
21
13.2823531449528
31
0.000000000000000
  0
LINE
  5
F102F4
330
F102F5
100
AcDbEntity
8
Geo
100
AcDbLine
10
-41.5942758022550
20
13.2823531449528
30
0.000000000000000
11
-41.4942758022550
21
13.2786576796798
31
0.000000000000000
  0
LINE
  5
F102F6
330
F102F7
100
AcDbEntity
8
Geo
100
AcDbLine
10
-41.4942758022550
20
13.2786576796798
30
0.000000000000000
11
-41.3942758022550
21
13.2741310109450
31
0.000000000000000
  0
LINE
  5
F102F8
330
F102F9
100
AcDbEntity
8
Geo
100
AcDbLine
10
-41.3942758022550
20
13.2741310109450
30
0.000000000000000
11
-41.2942758022550
21
13.2687740817880
31
0.000000000000000
  0
LINE
  5
F102FA
330
F102FB
100
AcDbEntity
8
Geo
100
AcDbLine
10
-41.2942758022550
20
13.2687740817880
30
0.000000000000000
11
-41.1942758022550
21
13.2625880082163
31
0.000000000000000
  0
LINE
  5
F102FC
330
F102FD
100
AcDbEntity
8
Geo
100
AcDbLine
10
-41.1942758022550
20
13.2625880082163
30
0.000000000000000
11
-41.0942758022550
21
13.2555740789730
31
0.000000000000000
  0
LINE
  5
F102FE
330
F102FF
100
AcDbEntity
8
Geo
100
AcDbLine
10
-41.0942758022550
20
13.2555740789730
30
0.000000000000000
11
-40.9942758022550
21
13.2477337552678
31
0.000000000000000
  0
LINE
  5
F10300
330
F10301
100
AcDbEntity
8
Geo
100
AcDbLine
10
-40.9942758022550
20
13.2477337552678
30
0.000000000000000
11
-40.8942758022550
21
13.2390686704731
31
0.000000000000000
  0
LINE
  5
F10302
330
F10303
100
AcDbEntity
8
Geo
100
AcDbLine
10
-40.8942758022550
20
13.2390686704731
30
0.000000000000000
11
-40.7942758022550
21
13.2295806297838
31
0.000000000000000
  0
LINE
  5
F10304
330
F10305
100
AcDbEntity
8
Geo
100
AcDbLine
10
-40.7942758022550
20
13.2295806297838
30
0.000000000000000
11
-40.6942758022550
21
13.2192716098405
31
0.000000000000000
  0
LINE
  5
F10306
330
F10307
100
AcDbEntity
8
Geo
100
AcDbLine
10
-40.6942758022550
20
13.2192716098405
30
0.000000000000000
11
-40.5942758022550
21
13.2081437583185
31
0.000000000000000
  0
LINE
  5
F10308
330
F10309
100
AcDbEntity
8
Geo
100
AcDbLine
10
-40.5942758022550
20
13.2081437583185
30
0.000000000000000
11
-40.4942758022550
21
13.1961993934800
31
0.000000000000000
  0
LINE
  5
F1030A
330
F1030B
100
AcDbEntity
8
Geo
100
AcDbLine
10
-40.4942758022550
20
13.1961993934800
30
0.000000000000000
11
-40.3942758022550
21
13.1834410036910
31
0.000000000000000
  0
LINE
  5
F1030C
330
F1030D
100
AcDbEntity
8
Geo
100
AcDbLine
10
-40.3942758022550
20
13.1834410036910
30
0.000000000000000
11
-40.2942758022550
21
13.1698712469033
31
0.000000000000000
  0
LINE
  5
F1030E
330
F1030F
100
AcDbEntity
8
Geo
100
AcDbLine
10
-40.2942758022550
20
13.1698712469033
30
0.000000000000000
11
-40.1942758022550
21
13.1554929501005
31
0.000000000000000
  0
LINE
  5
F10310
330
F10311
100
AcDbEntity
8
Geo
100
AcDbLine
10
-40.1942758022550
20
13.1554929501005
30
0.000000000000000
11
-40.0942758022550
21
13.1403091087091
31
0.000000000000000
  0
LINE
  5
F10312
330
F10313
100
AcDbEntity
8
Geo
100
AcDbLine
10
-40.0942758022550
20
13.1403091087091
30
0.000000000000000
11
-39.9942758022550
21
13.1243228859744
31
0.000000000000000
  0
LINE
  5
F10314
330
F10315
100
AcDbEntity
8
Geo
100
AcDbLine
10
-39.9942758022550
20
13.1243228859744
30
0.000000000000000
11
-39.8942758022550
21
13.1075376123018
31
0.000000000000000
  0
LINE
  5
F10316
330
F10317
100
AcDbEntity
8
Geo
100
AcDbLine
10
-39.8942758022550
20
13.1075376123018
30
0.000000000000000
11
-39.7942758022550
21
13.0899567845624
31
0.000000000000000
  0
LINE
  5
F10318
330
F10319
100
AcDbEntity
8
Geo
100
AcDbLine
10
-39.7942758022550
20
13.0899567845624
30
0.000000000000000
11
-39.6942758022550
21
13.0715840653653
31
0.000000000000000
  0
LINE
  5
F1031A
330
F1031B
100
AcDbEntity
8
Geo
100
AcDbLine
10
-39.6942758022550
20
13.0715840653653
30
0.000000000000000
11
-39.5942758022550
21
13.0524232822936
31
0.000000000000000
  0
LINE
  5
F1031C
330
F1031D
100
AcDbEntity
8
Geo
100
AcDbLine
10
-39.5942758022550
20
13.0524232822936
30
0.000000000000000
11
-39.4942758022550
21
13.0324784271080
31
0.000000000000000
  0
LINE
  5
F1031E
330
F1031F
100
AcDbEntity
8
Geo
100
AcDbLine
10
-39.4942758022550
20
13.0324784271080
30
0.000000000000000
11
-39.3942758022550
21
13.0117536549145
31
0.000000000000000
  0
LINE
  5
F10320
330
F10321
100
AcDbEntity
8
Geo
100
AcDbLine
10
-39.3942758022550
20
13.0117536549145
30
0.000000000000000
11
-39.2942758022550
21
12.9902532832990
31
0.000000000000000
  0
LINE
  5
F10322
330
F10323
100
AcDbEntity
8
Geo
100
AcDbLine
10
-39.2942758022550
20
12.9902532832990
30
0.000000000000000
11
-39.1942758022550
21
12.9679817914278
31
0.000000000000000
  0
LINE
  5
F10324
330
F10325
100
AcDbEntity
8
Geo
100
AcDbLine
10
-39.1942758022550
20
12.9679817914278
30
0.000000000000000
11
-39.0942758022550
21
12.9449438191145
31
0.000000000000000
  0
LINE
  5
F10326
330
F10327
100
AcDbEntity
8
Geo
100
AcDbLine
10
-39.0942758022550
20
12.9449438191145
30
0.000000000000000
11
-38.9942758022550
21
12.9211441658533
31
0.000000000000000
  0
LINE
  5
F10328
330
F10329
100
AcDbEntity
8
Geo
100
AcDbLine
10
-38.9942758022550
20
12.9211441658533
30
0.000000000000000
11
-38.8942758022550
21
12.8965877898193
31
0.000000000000000
  0
LINE
  5
F1032A
330
F1032B
100
AcDbEntity
8
Geo
100
AcDbLine
10
-38.8942758022550
20
12.8965877898193
30
0.000000000000000
11
-38.7942758022550
21
12.8712798068353
31
0.000000000000000
  0
LINE
  5
F1032C
330
F1032D
100
AcDbEntity
8
Geo
100
AcDbLine
10
-38.7942758022550
20
12.8712798068353
30
0.000000000000000
11
-38.6942758022550
21
12.8452254893063
31
0.000000000000000
  0
LINE
  5
F1032E
330
F1032F
100
AcDbEntity
8
Geo
100
AcDbLine
10
-38.6942758022550
20
12.8452254893063
30
0.000000000000000
11
-38.5942758022550
21
12.8184302651207
31
0.000000000000000
  0
LINE
  5
F10330
330
F10331
100
AcDbEntity
8
Geo
100
AcDbLine
10
-38.5942758022550
20
12.8184302651207
30
0.000000000000000
11
-38.4942758022550
21
12.7908997165202
31
0.000000000000000
  0
LINE
  5
F10332
330
F10333
100
AcDbEntity
8
Geo
100
AcDbLine
10
-38.4942758022550
20
12.7908997165202
30
0.000000000000000
11
-38.3942758022550
21
12.7626395789359
31
0.000000000000000
  0
LINE
  5
F10334
330
F10335
100
AcDbEntity
8
Geo
100
AcDbLine
10
-38.3942758022550
20
12.7626395789359
30
0.000000000000000
11
-38.2942758022550
21
12.7336557397945
31
0.000000000000000
  0
LINE
  5
F10336
330
F10337
100
AcDbEntity
8
Geo
100
AcDbLine
10
-38.2942758022550
20
12.7336557397945
30
0.000000000000000
11
-38.1942758022550
21
12.7039542372909
31
0.000000000000000
  0
LINE
  5
F10338
330
F10339
100
AcDbEntity
8
Geo
100
AcDbLine
10
-38.1942758022550
20
12.7039542372909
30
0.000000000000000
11
-38.0942758022550
21
12.6735412591307
31
0.000000000000000
  0
LINE
  5
F1033A
330
F1033B
100
AcDbEntity
8
Geo
100
AcDbLine
10
-38.0942758022550
20
12.6735412591307
30
0.000000000000000
11
-37.9942758022550
21
12.6424231412410
31
0.000000000000000
  0
LINE
  5
F1033C
330
F1033D
100
AcDbEntity
8
Geo
100
AcDbLine
10
-37.9942758022550
20
12.6424231412410
30
0.000000000000000
11
-37.8942758022550
21
12.6106063664505
31
0.000000000000000
  0
LINE
  5
F1033E
330
F1033F
100
AcDbEntity
8
Geo
100
AcDbLine
10
-37.8942758022550
20
12.6106063664505
30
0.000000000000000
11
-37.7942758022550
21
12.5780975631388
31
0.000000000000000
  0
LINE
  5
F10340
330
F10341
100
AcDbEntity
8
Geo
100
AcDbLine
10
-37.7942758022550
20
12.5780975631388
30
0.000000000000000
11
-37.6942758022550
21
12.5449035038558
31
0.000000000000000
  0
LINE
  5
F10342
330
F10343
100
AcDbEntity
8
Geo
100
AcDbLine
10
-37.6942758022550
20
12.5449035038558
30
0.000000000000000
11
-37.5942758022550
21
12.5110311039103
31
0.000000000000000
  0
LINE
  5
F10344
330
F10345
100
AcDbEntity
8
Geo
100
AcDbLine
10
-37.5942758022550
20
12.5110311039103
30
0.000000000000000
11
-37.4942758022550
21
12.4764874199299
31
0.000000000000000
  0
LINE
  5
F10346
330
F10347
100
AcDbEntity
8
Geo
100
AcDbLine
10
-37.4942758022550
20
12.4764874199299
30
0.000000000000000
11
-37.3942758022550
21
12.4412796483905
31
0.000000000000000
  0
LINE
  5
F10348
330
F10349
100
AcDbEntity
8
Geo
100
AcDbLine
10
-37.3942758022550
20
12.4412796483905
30
0.000000000000000
11
-37.2942758022550
21
12.4054151241171
31
0.000000000000000
  0
LINE
  5
F1034A
330
F1034B
100
AcDbEntity
8
Geo
100
AcDbLine
10
-37.2942758022550
20
12.4054151241171
30
0.000000000000000
11
-37.1942758022550
21
12.3689013187559
31
0.000000000000000
  0
LINE
  5
F1034C
330
F1034D
100
AcDbEntity
8
Geo
100
AcDbLine
10
-37.1942758022550
20
12.3689013187559
30
0.000000000000000
11
-37.0942758022550
21
12.3317458392176
31
0.000000000000000
  0
LINE
  5
F1034E
330
F1034F
100
AcDbEntity
8
Geo
100
AcDbLine
10
-37.0942758022550
20
12.3317458392176
30
0.000000000000000
11
-36.9942758022550
21
12.2939564260927
31
0.000000000000000
  0
LINE
  5
F10350
330
F10351
100
AcDbEntity
8
Geo
100
AcDbLine
10
-36.9942758022550
20
12.2939564260927
30
0.000000000000000
11
-36.8942758022550
21
12.2555409520390
31
0.000000000000000
  0
LINE
  5
F10352
330
F10353
100
AcDbEntity
8
Geo
100
AcDbLine
10
-36.8942758022550
20
12.2555409520390
30
0.000000000000000
11
-36.7942758022550
21
12.2165074201413
31
0.000000000000000
  0
LINE
  5
F10354
330
F10355
100
AcDbEntity
8
Geo
100
AcDbLine
10
-36.7942758022550
20
12.2165074201413
30
0.000000000000000
11
-36.6942758022550
21
12.1768639622441
31
0.000000000000000
  0
LINE
  5
F10356
330
F10357
100
AcDbEntity
8
Geo
100
AcDbLine
10
-36.6942758022550
20
12.1768639622441
30
0.000000000000000
11
-36.5942758022550
21
12.1366188372579
31
0.000000000000000
  0
LINE
  5
F10358
330
F10359
100
AcDbEntity
8
Geo
100
AcDbLine
10
-36.5942758022550
20
12.1366188372579
30
0.000000000000000
11
-36.4942758022550
21
12.0957804294381
31
0.000000000000000
  0
LINE
  5
F1035A
330
F1035B
100
AcDbEntity
8
Geo
100
AcDbLine
10
-36.4942758022550
20
12.0957804294381
30
0.000000000000000
11
-36.3942758022550
21
12.0543572466386
31
0.000000000000000
  0
LINE
  5
F1035C
330
F1035D
100
AcDbEntity
8
Geo
100
AcDbLine
10
-36.3942758022550
20
12.0543572466386
30
0.000000000000000
11
-36.2942758022550
21
12.0123579185394
31
0.000000000000000
  0
LINE
  5
F1035E
330
F1035F
100
AcDbEntity
8
Geo
100
AcDbLine
10
-36.2942758022550
20
12.0123579185394
30
0.000000000000000
11
-36.1942758022550
21
11.9697911948486
31
0.000000000000000
  0
LINE
  5
F10360
330
F10361
100
AcDbEntity
8
Geo
100
AcDbLine
10
-36.1942758022550
20
11.9697911948486
30
0.000000000000000
11
-36.0942758022550
21
11.9266659434797
31
0.000000000000000
  0
LINE
  5
F10362
330
F10363
100
AcDbEntity
8
Geo
100
AcDbLine
10
-36.0942758022550
20
11.9266659434797
30
0.000000000000000
11
-35.9942758022550
21
11.8829911487040
31
0.000000000000000
  0
LINE
  5
F10364
330
F10365
100
AcDbEntity
8
Geo
100
AcDbLine
10
-35.9942758022550
20
11.8829911487040
30
0.000000000000000
11
-35.8942758022550
21
11.8387759092791
31
0.000000000000000
  0
LINE
  5
F10366
330
F10367
100
AcDbEntity
8
Geo
100
AcDbLine
10
-35.8942758022550
20
11.8387759092791
30
0.000000000000000
11
-35.7942758022550
21
11.7940294365534
31
0.000000000000000
  0
LINE
  5
F10368
330
F10369
100
AcDbEntity
8
Geo
100
AcDbLine
10
-35.7942758022550
20
11.7940294365534
30
0.000000000000000
11
-35.6942758022550
21
11.7487610525469
31
0.000000000000000
  0
LINE
  5
F1036A
330
F1036B
100
AcDbEntity
8
Geo
100
AcDbLine
10
-35.6942758022550
20
11.7487610525469
30
0.000000000000000
11
-35.5942758022550
21
11.7029801880091
31
0.000000000000000
  0
LINE
  5
F1036C
330
F1036D
100
AcDbEntity
8
Geo
100
AcDbLine
10
-35.5942758022550
20
11.7029801880091
30
0.000000000000000
11
-35.4942758022550
21
11.6566963804545
31
0.000000000000000
  0
LINE
  5
F1036E
330
F1036F
100
AcDbEntity
8
Geo
100
AcDbLine
10
-35.4942758022550
20
11.6566963804545
30
0.000000000000000
11
-35.3942758022550
21
11.6099192721757
31
0.000000000000000
  0
LINE
  5
F10370
330
F10371
100
AcDbEntity
8
Geo
100
AcDbLine
10
-35.3942758022550
20
11.6099192721757
30
0.000000000000000
11
-35.2942758022550
21
11.5626586082344
31
0.000000000000000
  0
LINE
  5
F10372
330
F10373
100
AcDbEntity
8
Geo
100
AcDbLine
10
-35.2942758022550
20
11.5626586082344
30
0.000000000000000
11
-35.1942758022550
21
11.5149242344313
31
0.000000000000000
  0
LINE
  5
F10374
330
F10375
100
AcDbEntity
8
Geo
100
AcDbLine
10
-35.1942758022550
20
11.5149242344313
30
0.000000000000000
11
-35.0942758022550
21
11.4667260952549
31
0.000000000000000
  0
LINE
  5
F10376
330
F10377
100
AcDbEntity
8
Geo
100
AcDbLine
10
-35.0942758022550
20
11.4667260952549
30
0.000000000000000
11
-34.9942758022550
21
11.4180742318099
31
0.000000000000000
  0
LINE
  5
F10378
330
F10379
100
AcDbEntity
8
Geo
100
AcDbLine
10
-34.9942758022550
20
11.4180742318099
30
0.000000000000000
11
-34.8942758022550
21
11.3689787797253
31
0.000000000000000
  0
LINE
  5
F1037A
330
F1037B
100
AcDbEntity
8
Geo
100
AcDbLine
10
-34.8942758022550
20
11.3689787797253
30
0.000000000000000
11
-34.7942758022550
21
11.3194499670426
31
0.000000000000000
  0
LINE
  5
F1037C
330
F1037D
100
AcDbEntity
8
Geo
100
AcDbLine
10
-34.7942758022550
20
11.3194499670426
30
0.000000000000000
11
-34.6942758022550
21
11.2694981120854
31
0.000000000000000
  0
LINE
  5
F1037E
330
F1037F
100
AcDbEntity
8
Geo
100
AcDbLine
10
-34.6942758022550
20
11.2694981120854
30
0.000000000000000
11
-34.5942758022550
21
11.2191336213094
31
0.000000000000000
  0
LINE
  5
F10380
330
F10381
100
AcDbEntity
8
Geo
100
AcDbLine
10
-34.5942758022550
20
11.2191336213094
30
0.000000000000000
11
-34.4942758022550
21
11.1683669871347
31
0.000000000000000
  0
LINE
  5
F10382
330
F10383
100
AcDbEntity
8
Geo
100
AcDbLine
10
-34.4942758022550
20
11.1683669871347
30
0.000000000000000
11
-34.3942758022550
21
11.1172087857599
31
0.000000000000000
  0
LINE
  5
F10384
330
F10385
100
AcDbEntity
8
Geo
100
AcDbLine
10
-34.3942758022550
20
11.1172087857599
30
0.000000000000000
11
-34.2942758022550
21
11.0656696749584
31
0.000000000000000
  0
LINE
  5
F10386
330
F10387
100
AcDbEntity
8
Geo
100
AcDbLine
10
-34.2942758022550
20
11.0656696749584
30
0.000000000000000
11
-34.1942758022550
21
11.0137603918587
31
0.000000000000000
  0
LINE
  5
F10388
330
F10389
100
AcDbEntity
8
Geo
100
AcDbLine
10
-34.1942758022550
20
11.0137603918587
30
0.000000000000000
11
-34.0942758022550
21
10.9614917507070
31
0.000000000000000
  0
LINE
  5
F1038A
330
F1038B
100
AcDbEntity
8
Geo
100
AcDbLine
10
-34.0942758022550
20
10.9614917507070
30
0.000000000000000
11
-33.9942758022550
21
10.9088746406144
31
0.000000000000000
  0
LINE
  5
F1038C
330
F1038D
100
AcDbEntity
8
Geo
100
AcDbLine
10
-33.9942758022550
20
10.9088746406144
30
0.000000000000000
11
-33.8942758022550
21
10.8559200232886
31
0.000000000000000
  0
LINE
  5
F1038E
330
F1038F
100
AcDbEntity
8
Geo
100
AcDbLine
10
-33.8942758022550
20
10.8559200232886
30
0.000000000000000
11
-33.7942758022550
21
10.8026389307500
31
0.000000000000000
  0
LINE
  5
F10390
330
F10391
100
AcDbEntity
8
Geo
100
AcDbLine
10
-33.7942758022550
20
10.8026389307500
30
0.000000000000000
11
-33.6942758022550
21
10.7490424630335
31
0.000000000000000
  0
LINE
  5
F10392
330
F10393
100
AcDbEntity
8
Geo
100
AcDbLine
10
-50.0942758022550
20
9.23659863126290
30
0.000000000000000
11
-50.0942758022550
21
10.1931676362905
31
0.000000000000000
  0
LINE
  5
F10394
330
F10395
100
AcDbEntity
8
Geo
100
AcDbLine
10
-50.0942758022550
20
10.1931676362905
30
0.000000000000000
11
-49.9942758022550
21
10.5530940812404
31
0.000000000000000
  0
LINE
  5
F10396
330
F10397
100
AcDbEntity
8
Geo
100
AcDbLine
10
-49.9942758022550
20
10.5530940812404
30
0.000000000000000
11
-49.8942758022550
21
10.7976353035910
31
0.000000000000000
  0
LINE
  5
F10398
330
F10399
100
AcDbEntity
8
Geo
100
AcDbLine
10
-49.8942758022550
20
10.7976353035910
30
0.000000000000000
11
-49.7942758022550
21
10.9890718649091
31
0.000000000000000
  0
LINE
  5
F1039A
330
F1039B
100
AcDbEntity
8
Geo
100
AcDbLine
10
-49.7942758022550
20
10.9890718649091
30
0.000000000000000
11
-49.6942758022550
21
11.1475334335701
31
0.000000000000000
  0
LINE
  5
F1039C
330
F1039D
100
AcDbEntity
8
Geo
100
AcDbLine
10
-49.6942758022550
20
11.1475334335701
30
0.000000000000000
11
-49.5942758022550
21
11.2825934673809
31
0.000000000000000
  0
LINE
  5
F1039E
330
F1039F
100
AcDbEntity
8
Geo
100
AcDbLine
10
-49.5942758022550
20
11.2825934673809
30
0.000000000000000
11
-49.4942758022550
21
11.3996966235375
31
0.000000000000000
  0
LINE
  5
F103A0
330
F103A1
100
AcDbEntity
8
Geo
100
AcDbLine
10
-49.4942758022550
20
11.3996966235375
30
0.000000000000000
11
-49.3942758022550
21
11.5022883793962
31
0.000000000000000
  0
LINE
  5
F103A2
330
F103A3
100
AcDbEntity
8
Geo
100
AcDbLine
10
-49.3942758022550
20
11.5022883793962
30
0.000000000000000
11
-49.2942758022550
21
11.5927112905812
31
0.000000000000000
  0
LINE
  5
F103A4
330
F103A5
100
AcDbEntity
8
Geo
100
AcDbLine
10
-49.2942758022550
20
11.5927112905812
30
0.000000000000000
11
-49.1942758022550
21
11.6726427308155
31
0.000000000000000
  0
LINE
  5
F103A6
330
F103A7
100
AcDbEntity
8
Geo
100
AcDbLine
10
-49.1942758022550
20
11.6726427308155
30
0.000000000000000
11
-49.0942758022550
21
11.7433319313596
31
0.000000000000000
  0
LINE
  5
F103A8
330
F103A9
100
AcDbEntity
8
Geo
100
AcDbLine
10
-49.0942758022550
20
11.7433319313596
30
0.000000000000000
11
-48.9942758022550
21
11.8057385171147
31
0.000000000000000
  0
LINE
  5
F103AA
330
F103AB
100
AcDbEntity
8
Geo
100
AcDbLine
10
-48.9942758022550
20
11.8057385171147
30
0.000000000000000
11
-48.8942758022550
21
11.8606183873131
31
0.000000000000000
  0
LINE
  5
F103AC
330
F103AD
100
AcDbEntity
8
Geo
100
AcDbLine
10
-48.8942758022550
20
11.8606183873131
30
0.000000000000000
11
-48.7942758022550
21
11.9085795145468
31
0.000000000000000
  0
LINE
  5
F103AE
330
F103AF
100
AcDbEntity
8
Geo
100
AcDbLine
10
-48.7942758022550
20
11.9085795145468
30
0.000000000000000
11
-48.6942758022550
21
11.9501196165635
31
0.000000000000000
  0
LINE
  5
F103B0
330
F103B1
100
AcDbEntity
8
Geo
100
AcDbLine
10
-48.6942758022550
20
11.9501196165635
30
0.000000000000000
11
-48.5942758022550
21
11.9856524149063
31
0.000000000000000
  0
LINE
  5
F103B2
330
F103B3
100
AcDbEntity
8
Geo
100
AcDbLine
10
-48.5942758022550
20
11.9856524149063
30
0.000000000000000
11
-48.4942758022550
21
12.0155264388113
31
0.000000000000000
  0
LINE
  5
F103B4
330
F103B5
100
AcDbEntity
8
Geo
100
AcDbLine
10
-48.4942758022550
20
12.0155264388113
30
0.000000000000000
11
-48.3942758022550
21
12.0400388053157
31
0.000000000000000
  0
LINE
  5
F103B6
330
F103B7
100
AcDbEntity
8
Geo
100
AcDbLine
10
-48.3942758022550
20
12.0400388053157
30
0.000000000000000
11
-48.2942758022550
21
12.0594455213594
31
0.000000000000000
  0
LINE
  5
F103B8
330
F103B9
100
AcDbEntity
8
Geo
100
AcDbLine
10
-48.2942758022550
20
12.0594455213594
30
0.000000000000000
11
-48.1942758022550
21
12.0739693207944
31
0.000000000000000
  0
LINE
  5
F103BA
330
F103BB
100
AcDbEntity
8
Geo
100
AcDbLine
10
-48.1942758022550
20
12.0739693207944
30
0.000000000000000
11
-48.0942758022550
21
12.0838057176770
31
0.000000000000000
  0
LINE
  5
F103BC
330
F103BD
100
AcDbEntity
8
Geo
100
AcDbLine
10
-48.0942758022550
20
12.0838057176770
30
0.000000000000000
11
-47.9942758022550
21
12.0891277448835
31
0.000000000000000
  0
LINE
  5
F103BE
330
F103BF
100
AcDbEntity
8
Geo
100
AcDbLine
10
-47.9942758022550
20
12.0891277448835
30
0.000000000000000
11
-47.8942758022550
21
12.0900897075873
31
0.000000000000000
  0
LINE
  5
F103C0
330
F103C1
100
AcDbEntity
8
Geo
100
AcDbLine
10
-47.8942758022550
20
12.0900897075873
30
0.000000000000000
11
-47.7942758022550
21
12.0868301873707
31
0.000000000000000
  0
LINE
  5
F103C2
330
F103C3
100
AcDbEntity
8
Geo
100
AcDbLine
10
-47.7942758022550
20
12.0868301873707
30
0.000000000000000
11
-47.6942758022550
21
12.0794744684158
31
0.000000000000000
  0
LINE
  5
F103C4
330
F103C5
100
AcDbEntity
8
Geo
100
AcDbLine
10
-47.6942758022550
20
12.0794744684158
30
0.000000000000000
11
-47.5942758022550
21
12.0681365122638
31
0.000000000000000
  0
LINE
  5
F103C6
330
F103C7
100
AcDbEntity
8
Geo
100
AcDbLine
10
-47.5942758022550
20
12.0681365122638
30
0.000000000000000
11
-47.4942758022550
21
12.0529205756729
31
0.000000000000000
  0
LINE
  5
F103C8
330
F103C9
100
AcDbEntity
8
Geo
100
AcDbLine
10
-47.4942758022550
20
12.0529205756729
30
0.000000000000000
11
-47.3942758022550
21
12.0339225430342
31
0.000000000000000
  0
LINE
  5
F103CA
330
F103CB
100
AcDbEntity
8
Geo
100
AcDbLine
10
-47.3942758022550
20
12.0339225430342
30
0.000000000000000
11
-47.2942758022550
21
12.0112310278953
31
0.000000000000000
  0
LINE
  5
F103CC
330
F103CD
100
AcDbEntity
8
Geo
100
AcDbLine
10
-47.2942758022550
20
12.0112310278953
30
0.000000000000000
11
-47.1942758022550
21
11.9849282855760
31
0.000000000000000
  0
LINE
  5
F103CE
330
F103CF
100
AcDbEntity
8
Geo
100
AcDbLine
10
-47.1942758022550
20
11.9849282855760
30
0.000000000000000
11
-47.0942758022550
21
11.9550909693980
31
0.000000000000000
  0
LINE
  5
F103D0
330
F103D1
100
AcDbEntity
8
Geo
100
AcDbLine
10
-47.0942758022550
20
11.9550909693980
30
0.000000000000000
11
-46.9942758022550
21
11.9217907558129
31
0.000000000000000
  0
LINE
  5
F103D2
330
F103D3
100
AcDbEntity
8
Geo
100
AcDbLine
10
-46.9942758022550
20
11.9217907558129
30
0.000000000000000
11
-46.8942758022550
21
11.8850948581053
31
0.000000000000000
  0
LINE
  5
F103D4
330
F103D5
100
AcDbEntity
8
Geo
100
AcDbLine
10
-46.8942758022550
20
11.8850948581053
30
0.000000000000000
11
-46.7942758022550
21
11.8450664439223
31
0.000000000000000
  0
LINE
  5
F103D6
330
F103D7
100
AcDbEntity
8
Geo
100
AcDbLine
10
-46.7942758022550
20
11.8450664439223
30
0.000000000000000
11
-46.6942758022550
21
11.8017649683198
31
0.000000000000000
  0
LINE
  5
F103D8
330
F103D9
100
AcDbEntity
8
Geo
100
AcDbLine
10
-46.6942758022550
20
11.8017649683198
30
0.000000000000000
11
-46.5942758022550
21
11.7565857043000
31
0.000000000000000
  0
LINE
  5
F103DA
330
F103DB
100
AcDbEntity
8
Geo
100
AcDbLine
10
-46.5942758022550
20
11.7565857043000
30
0.000000000000000
11
-46.4942758022550
21
11.7108923296415
31
0.000000000000000
  0
LINE
  5
F103DC
330
F103DD
100
AcDbEntity
8
Geo
100
AcDbLine
10
-46.4942758022550
20
11.7108923296415
30
0.000000000000000
11
-46.3942758022550
21
11.6646943636320
31
0.000000000000000
  0
LINE
  5
F103DE
330
F103DF
100
AcDbEntity
8
Geo
100
AcDbLine
10
-46.3942758022550
20
11.6646943636320
30
0.000000000000000
11
-46.2942758022550
21
11.6180014306807
31
0.000000000000000
  0
LINE
  5
F103E0
330
F103E1
100
AcDbEntity
8
Geo
100
AcDbLine
10
-46.2942758022550
20
11.6180014306807
30
0.000000000000000
11
-46.1942758022550
21
11.5708232583131
31
0.000000000000000
  0
LINE
  5
F103E2
330
F103E3
100
AcDbEntity
8
Geo
100
AcDbLine
10
-46.1942758022550
20
11.5708232583131
30
0.000000000000000
11
-46.0942758022550
21
11.5231696751445
31
0.000000000000000
  0
LINE
  5
F103E4
330
F103E5
100
AcDbEntity
8
Geo
100
AcDbLine
10
-46.0942758022550
20
11.5231696751445
30
0.000000000000000
11
-45.9942758022550
21
11.4750506088323
31
0.000000000000000
  0
LINE
  5
F103E6
330
F103E7
100
AcDbEntity
8
Geo
100
AcDbLine
10
-45.9942758022550
20
11.4750506088323
30
0.000000000000000
11
-45.8942758022550
21
11.4264760840079
31
0.000000000000000
  0
LINE
  5
F103E8
330
F103E9
100
AcDbEntity
8
Geo
100
AcDbLine
10
-45.8942758022550
20
11.4264760840079
30
0.000000000000000
11
-45.7942758022550
21
11.3774562201884
31
0.000000000000000
  0
LINE
  5
F103EA
330
F103EB
100
AcDbEntity
8
Geo
100
AcDbLine
10
-45.7942758022550
20
11.3774562201884
30
0.000000000000000
11
-45.6942758022550
21
11.3280012296681
31
0.000000000000000
  0
LINE
  5
F103EC
330
F103ED
100
AcDbEntity
8
Geo
100
AcDbLine
10
-45.6942758022550
20
11.3280012296681
30
0.000000000000000
11
-45.5942758022550
21
11.2781214153911
31
0.000000000000000
  0
LINE
  5
F103EE
330
F103EF
100
AcDbEntity
8
Geo
100
AcDbLine
10
-45.5942758022550
20
11.2781214153911
30
0.000000000000000
11
-45.4942758022550
21
11.2278271688050
31
0.000000000000000
  0
LINE
  5
F103F0
330
F103F1
100
AcDbEntity
8
Geo
100
AcDbLine
10
-45.4942758022550
20
11.2278271688050
30
0.000000000000000
11
-45.3942758022550
21
11.1771289676959
31
0.000000000000000
  0
LINE
  5
F103F2
330
F103F3
100
AcDbEntity
8
Geo
100
AcDbLine
10
-45.3942758022550
20
11.1771289676959
30
0.000000000000000
11
-45.2942758022550
21
11.1260373740057
31
0.000000000000000
  0
LINE
  5
F103F4
330
F103F5
100
AcDbEntity
8
Geo
100
AcDbLine
10
-45.2942758022550
20
11.1260373740057
30
0.000000000000000
11
-45.1942758022550
21
11.0745630316317
31
0.000000000000000
  0
LINE
  5
F103F6
330
F103F7
100
AcDbEntity
8
Geo
100
AcDbLine
10
-45.1942758022550
20
11.0745630316317
30
0.000000000000000
11
-45.0942758022550
21
11.0227166642089
31
0.000000000000000
  0
LINE
  5
F103F8
330
F103F9
100
AcDbEntity
8
Geo
100
AcDbLine
10
-45.0942758022550
20
11.0227166642089
30
0.000000000000000
11
-44.9942758022550
21
10.9705090728764
31
0.000000000000000
  0
LINE
  5
F103FA
330
F103FB
100
AcDbEntity
8
Geo
100
AcDbLine
10
-44.9942758022550
20
10.9705090728764
30
0.000000000000000
11
-44.8942758022550
21
10.9179511340269
31
0.000000000000000
  0
LINE
  5
F103FC
330
F103FD
100
AcDbEntity
8
Geo
100
AcDbLine
10
-44.8942758022550
20
10.9179511340269
30
0.000000000000000
11
-44.7942758022550
21
10.8650537970409
31
0.000000000000000
  0
LINE
  5
F103FE
330
F103FF
100
AcDbEntity
8
Geo
100
AcDbLine
10
-44.7942758022550
20
10.8650537970409
30
0.000000000000000
11
-44.6942758022550
21
10.8118280820056
31
0.000000000000000
  0
LINE
  5
F10400
330
F10401
100
AcDbEntity
8
Geo
100
AcDbLine
10
-44.6942758022550
20
10.8118280820056
30
0.000000000000000
11
-44.5942758022550
21
10.7582850774191
31
0.000000000000000
  0
LINE
  5
F10402
330
F10403
100
AcDbEntity
8
Geo
100
AcDbLine
10
-44.5942758022550
20
10.7582850774191
30
0.000000000000000
11
-44.4942758022550
21
10.7044359378805
31
0.000000000000000
  0
LINE
  5
F10404
330
F10405
100
AcDbEntity
8
Geo
100
AcDbLine
10
-44.4942758022550
20
10.7044359378805
30
0.000000000000000
11
-44.3942758022550
21
10.6502918817656
31
0.000000000000000
  0
LINE
  5
F10406
330
F10407
100
AcDbEntity
8
Geo
100
AcDbLine
10
-44.3942758022550
20
10.6502918817656
30
0.000000000000000
11
-44.2942758022550
21
10.5958641888903
31
0.000000000000000
  0
LINE
  5
F10408
330
F10409
100
AcDbEntity
8
Geo
100
AcDbLine
10
-44.2942758022550
20
10.5958641888903
30
0.000000000000000
11
-44.1942758022550
21
10.5411641981604
31
0.000000000000000
  0
LINE
  5
F1040A
330
F1040B
100
AcDbEntity
8
Geo
100
AcDbLine
10
-44.1942758022550
20
10.5411641981604
30
0.000000000000000
11
-44.0942758022550
21
10.4862033052096
31
0.000000000000000
  0
LINE
  5
F1040C
330
F1040D
100
AcDbEntity
8
Geo
100
AcDbLine
10
-44.0942758022550
20
10.4862033052096
30
0.000000000000000
11
-43.9942758022550
21
10.4309929600250
31
0.000000000000000
  0
LINE
  5
F1040E
330
F1040F
100
AcDbEntity
8
Geo
100
AcDbLine
10
-43.9942758022550
20
10.4309929600250
30
0.000000000000000
11
-43.8942758022550
21
10.3755446645623
31
0.000000000000000
  0
LINE
  5
F10410
330
F10411
100
AcDbEntity
8
Geo
100
AcDbLine
10
-43.8942758022550
20
10.3755446645623
30
0.000000000000000
11
-43.7942758022550
21
10.3198699703490
31
0.000000000000000
  0
LINE
  5
F10412
330
F10413
100
AcDbEntity
8
Geo
100
AcDbLine
10
-43.7942758022550
20
10.3198699703490
30
0.000000000000000
11
-43.6942758022550
21
10.2639804760784
31
0.000000000000000
  0
LINE
  5
F10414
330
F10415
100
AcDbEntity
8
Geo
100
AcDbLine
10
-43.6942758022550
20
10.2639804760784
30
0.000000000000000
11
-43.5942758022550
21
10.2078878251931
31
0.000000000000000
  0
LINE
  5
F10416
330
F10417
100
AcDbEntity
8
Geo
100
AcDbLine
10
-43.5942758022550
20
10.2078878251931
30
0.000000000000000
11
-43.4942758022550
21
10.1516037034591
31
0.000000000000000
  0
LINE
  5
F10418
330
F10419
100
AcDbEntity
8
Geo
100
AcDbLine
10
-43.4942758022550
20
10.1516037034591
30
0.000000000000000
11
-43.3942758022550
21
10.0951398365315
31
0.000000000000000
  0
LINE
  5
F1041A
330
F1041B
100
AcDbEntity
8
Geo
100
AcDbLine
10
-43.3942758022550
20
10.0951398365315
30
0.000000000000000
11
-43.2942758022550
21
10.0385079875117
31
0.000000000000000
  0
LINE
  5
F1041C
330
F1041D
100
AcDbEntity
8
Geo
100
AcDbLine
10
-43.2942758022550
20
10.0385079875117
30
0.000000000000000
11
-43.1942758022550
21
9.98171995449672
31
0.000000000000000
  0
LINE
  5
F1041E
330
F1041F
100
AcDbEntity
8
Geo
100
AcDbLine
10
-43.1942758022550
20
9.98171995449672
30
0.000000000000000
11
-43.0942758022550
21
9.92478756812142
31
0.000000000000000
  0
LINE
  5
F10420
330
F10421
100
AcDbEntity
8
Geo
100
AcDbLine
10
-43.0942758022550
20
9.92478756812142
30
0.000000000000000
11
-42.9942758022550
21
9.86772268909371
31
0.000000000000000
  0
LINE
  5
F10422
330
F10423
100
AcDbEntity
8
Geo
100
AcDbLine
10
-42.9942758022550
20
9.86772268909371
30
0.000000000000000
11
-42.8942758022550
21
9.81053720572363
31
0.000000000000000
  0
LINE
  5
F10424
330
F10425
100
AcDbEntity
8
Geo
100
AcDbLine
10
-42.8942758022550
20
9.81053720572363
30
0.000000000000000
11
-42.7942758022550
21
9.75324303144674
31
0.000000000000000
  0
LINE
  5
F10426
330
F10427
100
AcDbEntity
8
Geo
100
AcDbLine
10
-42.7942758022550
20
9.75324303144674
30
0.000000000000000
11
-42.6942758022550
21
9.69585210234210
31
0.000000000000000
  0
LINE
  5
F10428
330
F10429
100
AcDbEntity
8
Geo
100
AcDbLine
10
-42.6942758022550
20
9.69585210234210
30
0.000000000000000
11
-42.5942758022550
21
9.63837637464572
31
0.000000000000000
  0
LINE
  5
F1042A
330
F1042B
100
AcDbEntity
8
Geo
100
AcDbLine
10
-42.5942758022550
20
9.63837637464572
30
0.000000000000000
11
-42.4942758022550
21
9.58082782225964
31
0.000000000000000
  0
LINE
  5
F1042C
330
F1042D
100
AcDbEntity
8
Geo
100
AcDbLine
10
-42.4942758022550
20
9.58082782225964
30
0.000000000000000
11
-42.3942758022550
21
9.52321843425747
31
0.000000000000000
  0
LINE
  5
F1042E
330
F1042F
100
AcDbEntity
8
Geo
100
AcDbLine
10
-42.3942758022550
20
9.52321843425747
30
0.000000000000000
11
-42.2942758022550
21
9.46556021238667
31
0.000000000000000
  0
LINE
  5
F10430
330
F10431
100
AcDbEntity
8
Geo
100
AcDbLine
10
-42.2942758022550
20
9.46556021238667
30
0.000000000000000
11
-42.1942758022550
21
9.40786516856825
31
0.000000000000000
  0
LINE
  5
F10432
330
F10433
100
AcDbEntity
8
Geo
100
AcDbLine
10
-42.1942758022550
20
9.40786516856825
30
0.000000000000000
11
-42.0942758022550
21
9.35014532239435
31
0.000000000000000
  0
LINE
  5
F10434
330
F10435
100
AcDbEntity
8
Geo
100
AcDbLine
10
-42.0942758022550
20
9.35014532239435
30
0.000000000000000
11
-41.9942758022550
21
9.29241269862413
31
0.000000000000000
  0
LINE
  5
F10436
330
F10437
100
AcDbEntity
8
Geo
100
AcDbLine
10
-41.9942758022550
20
9.29241269862413
30
0.000000000000000
11
-41.8942758022550
21
9.23467932467875
31
0.000000000000000
  0
LINE
  5
F10438
330
F10439
100
AcDbEntity
8
Geo
100
AcDbLine
10
-41.8942758022550
20
9.23467932467875
30
0.000000000000000
11
-41.7942758022550
21
9.17695722813564
31
0.000000000000000
  0
LINE
  5
F1043A
330
F1043B
100
AcDbEntity
8
Geo
100
AcDbLine
10
-41.7942758022550
20
9.17695722813564
30
0.000000000000000
11
-41.6942758022550
21
9.11925843422278
31
0.000000000000000
  0
LINE
  5
F1043C
330
F1043D
100
AcDbEntity
8
Geo
100
AcDbLine
10
-41.6942758022550
20
9.11925843422278
30
0.000000000000000
11
-41.5942758022550
21
9.06159496331357
31
0.000000000000000
  0
LINE
  5
F1043E
330
F1043F
100
AcDbEntity
8
Geo
100
AcDbLine
10
-41.5942758022550
20
9.06159496331357
30
0.000000000000000
11
-41.4942758022550
21
9.00397882842254
31
0.000000000000000
  0
LINE
  5
F10440
330
F10441
100
AcDbEntity
8
Geo
100
AcDbLine
10
-41.4942758022550
20
9.00397882842254
30
0.000000000000000
11
-41.3942758022550
21
8.94642203270275
31
0.000000000000000
  0
LINE
  5
F10442
330
F10443
100
AcDbEntity
8
Geo
100
AcDbLine
10
-41.3942758022550
20
8.94642203270275
30
0.000000000000000
11
-41.2942758022550
21
8.88893656694512
31
0.000000000000000
  0
LINE
  5
F10444
330
F10445
100
AcDbEntity
8
Geo
100
AcDbLine
10
-41.2942758022550
20
8.88893656694512
30
0.000000000000000
11
-41.1942758022550
21
8.83153440708044
31
0.000000000000000
  0
LINE
  5
F10446
330
F10447
100
AcDbEntity
8
Geo
100
AcDbLine
10
-41.1942758022550
20
8.83153440708044
30
0.000000000000000
11
-41.0942758022550
21
8.77422751168439
31
0.000000000000000
  0
LINE
  5
F10448
330
F10449
100
AcDbEntity
8
Geo
100
AcDbLine
10
-41.0942758022550
20
8.77422751168439
30
0.000000000000000
11
-40.9942758022550
21
8.71702781948625
31
0.000000000000000
  0
LINE
  5
F1044A
330
F1044B
100
AcDbEntity
8
Geo
100
AcDbLine
10
-40.9942758022550
20
8.71702781948625
30
0.000000000000000
11
-40.8942758022550
21
8.65994724688166
31
0.000000000000000
  0
LINE
  5
F1044C
330
F1044D
100
AcDbEntity
8
Geo
100
AcDbLine
10
-40.8942758022550
20
8.65994724688166
30
0.000000000000000
11
-40.7942758022550
21
8.60299768545015
31
0.000000000000000
  0
LINE
  5
F1044E
330
F1044F
100
AcDbEntity
8
Geo
100
AcDbLine
10
-40.7942758022550
20
8.60299768545015
30
0.000000000000000
11
-40.6942758022550
21
8.54619099947768
31
0.000000000000000
  0
LINE
  5
F10450
330
F10451
100
AcDbEntity
8
Geo
100
AcDbLine
10
-40.6942758022550
20
8.54619099947768
30
0.000000000000000
11
-40.5942758022550
21
8.48953902348505
31
0.000000000000000
  0
LINE
  5
F10452
330
F10453
100
AcDbEntity
8
Geo
100
AcDbLine
10
-40.5942758022550
20
8.48953902348505
30
0.000000000000000
11
-40.4942758022550
21
8.43305355976236
31
0.000000000000000
  0
LINE
  5
F10454
330
F10455
100
AcDbEntity
8
Geo
100
AcDbLine
10
-40.4942758022550
20
8.43305355976236
30
0.000000000000000
11
-40.3942758022550
21
8.37674637591023
31
0.000000000000000
  0
LINE
  5
F10456
330
F10457
100
AcDbEntity
8
Geo
100
AcDbLine
10
-40.3942758022550
20
8.37674637591023
30
0.000000000000000
11
-40.2942758022550
21
8.32062920238832
31
0.000000000000000
  0
LINE
  5
F10458
330
F10459
100
AcDbEntity
8
Geo
100
AcDbLine
10
-40.2942758022550
20
8.32062920238832
30
0.000000000000000
11
-40.1942758022550
21
8.26471373007148
31
0.000000000000000
  0
LINE
  5
F1045A
330
F1045B
100
AcDbEntity
8
Geo
100
AcDbLine
10
-40.1942758022550
20
8.26471373007148
30
0.000000000000000
11
-40.0942758022550
21
8.20901160781420
31
0.000000000000000
  0
LINE
  5
F1045C
330
F1045D
100
AcDbEntity
8
Geo
100
AcDbLine
10
-40.0942758022550
20
8.20901160781420
30
0.000000000000000
11
-39.9942758022550
21
8.15353444002381
31
0.000000000000000
  0
LINE
  5
F1045E
330
F1045F
100
AcDbEntity
8
Geo
100
AcDbLine
10
-39.9942758022550
20
8.15353444002381
30
0.000000000000000
11
-39.8942758022550
21
8.09829378424296
31
0.000000000000000
  0
LINE
  5
F10460
330
F10461
100
AcDbEntity
8
Geo
100
AcDbLine
10
-39.8942758022550
20
8.09829378424296
30
0.000000000000000
11
-39.7942758022550
21
8.04330114874179
31
0.000000000000000
  0
LINE
  5
F10462
330
F10463
100
AcDbEntity
8
Geo
100
AcDbLine
10
-39.7942758022550
20
8.04330114874179
30
0.000000000000000
11
-39.6942758022550
21
7.98856799012048
31
0.000000000000000
  0
LINE
  5
F10464
330
F10465
100
AcDbEntity
8
Geo
100
AcDbLine
10
-39.6942758022550
20
7.98856799012048
30
0.000000000000000
11
-39.5942758022550
21
7.93410571092243
31
0.000000000000000
  0
LINE
  5
F10466
330
F10467
100
AcDbEntity
8
Geo
100
AcDbLine
10
-39.5942758022550
20
7.93410571092243
30
0.000000000000000
11
-39.4942758022550
21
7.87992565725882
31
0.000000000000000
  0
LINE
  5
F10468
330
F10469
100
AcDbEntity
8
Geo
100
AcDbLine
10
-39.4942758022550
20
7.87992565725882
30
0.000000000000000
11
-39.3942758022550
21
7.82603911644489
31
0.000000000000000
  0
LINE
  5
F1046A
330
F1046B
100
AcDbEntity
8
Geo
100
AcDbLine
10
-39.3942758022550
20
7.82603911644489
30
0.000000000000000
11
-39.2942758022550
21
7.77245731464839
31
0.000000000000000
  0
LINE
  5
F1046C
330
F1046D
100
AcDbEntity
8
Geo
100
AcDbLine
10
-39.2942758022550
20
7.77245731464839
30
0.000000000000000
11
-39.1942758022550
21
7.71919141455090
31
0.000000000000000
  0
LINE
  5
F1046E
330
F1046F
100
AcDbEntity
8
Geo
100
AcDbLine
10
-39.1942758022550
20
7.71919141455090
30
0.000000000000000
11
-39.0942758022550
21
7.66625251302228
31
0.000000000000000
  0
LINE
  5
F10470
330
F10471
100
AcDbEntity
8
Geo
100
AcDbLine
10
-39.0942758022550
20
7.66625251302228
30
0.000000000000000
11
-38.9942758022550
21
7.61365163880889
31
0.000000000000000
  0
LINE
  5
F10472
330
F10473
100
AcDbEntity
8
Geo
100
AcDbLine
10
-38.9942758022550
20
7.61365163880889
30
0.000000000000000
11
-38.8942758022550
21
7.56139975023593
31
0.000000000000000
  0
LINE
  5
F10474
330
F10475
100
AcDbEntity
8
Geo
100
AcDbLine
10
-38.8942758022550
20
7.56139975023593
30
0.000000000000000
11
-38.7942758022550
21
7.50950773292453
31
0.000000000000000
  0
LINE
  5
F10476
330
F10477
100
AcDbEntity
8
Geo
100
AcDbLine
10
-38.7942758022550
20
7.50950773292453
30
0.000000000000000
11
-38.6942758022550
21
7.45798639752394
31
0.000000000000000
  0
LINE
  5
F10478
330
F10479
100
AcDbEntity
8
Geo
100
AcDbLine
10
-38.6942758022550
20
7.45798639752394
30
0.000000000000000
11
-38.5942758022550
21
7.40684647745936
31
0.000000000000000
  0
LINE
  5
F1047A
330
F1047B
100
AcDbEntity
8
Geo
100
AcDbLine
10
-38.5942758022550
20
7.40684647745936
30
0.000000000000000
11
-38.4942758022550
21
7.35609862669584
31
0.000000000000000
  0
LINE
  5
F1047C
330
F1047D
100
AcDbEntity
8
Geo
100
AcDbLine
10
-38.4942758022550
20
7.35609862669584
30
0.000000000000000
11
-38.3942758022550
21
7.30575341751874
31
0.000000000000000
  0
LINE
  5
F1047E
330
F1047F
100
AcDbEntity
8
Geo
100
AcDbLine
10
-38.3942758022550
20
7.30575341751874
30
0.000000000000000
11
-38.2942758022550
21
7.25582133833121
31
0.000000000000000
  0
LINE
  5
F10480
330
F10481
100
AcDbEntity
8
Geo
100
AcDbLine
10
-38.2942758022550
20
7.25582133833121
30
0.000000000000000
11
-38.1942758022550
21
7.20631279146915
31
0.000000000000000
  0
LINE
  5
F10482
330
F10483
100
AcDbEntity
8
Geo
100
AcDbLine
10
-38.1942758022550
20
7.20631279146915
30
0.000000000000000
11
-38.0942758022550
21
7.15723809103409
31
0.000000000000000
  0
LINE
  5
F10484
330
F10485
100
AcDbEntity
8
Geo
100
AcDbLine
10
-38.0942758022550
20
7.15723809103409
30
0.000000000000000
11
-37.9942758022550
21
7.10860746074446
31
0.000000000000000
  0
LINE
  5
F10486
330
F10487
100
AcDbEntity
8
Geo
100
AcDbLine
10
-37.9942758022550
20
7.10860746074446
30
0.000000000000000
11
-37.8942758022550
21
7.06043103180568
31
0.000000000000000
  0
LINE
  5
F10488
330
F10489
100
AcDbEntity
8
Geo
100
AcDbLine
10
-37.8942758022550
20
7.06043103180568
30
0.000000000000000
11
-37.7942758022550
21
7.01271884079952
31
0.000000000000000
  0
LINE
  5
F1048A
330
F1048B
100
AcDbEntity
8
Geo
100
AcDbLine
10
-37.7942758022550
20
7.01271884079952
30
0.000000000000000
11
-37.6942758022550
21
6.96548082759321
31
0.000000000000000
  0
LINE
  5
F1048C
330
F1048D
100
AcDbEntity
8
Geo
100
AcDbLine
10
-37.6942758022550
20
6.96548082759321
30
0.000000000000000
11
-37.5942758022550
21
6.91872683326866
31
0.000000000000000
  0
LINE
  5
F1048E
330
F1048F
100
AcDbEntity
8
Geo
100
AcDbLine
10
-37.5942758022550
20
6.91872683326866
30
0.000000000000000
11
-37.4942758022550
21
6.87246659807223
31
0.000000000000000
  0
LINE
  5
F10490
330
F10491
100
AcDbEntity
8
Geo
100
AcDbLine
10
-37.4942758022550
20
6.87246659807223
30
0.000000000000000
11
-37.3942758022550
21
6.82670975938562
31
0.000000000000000
  0
LINE
  5
F10492
330
F10493
100
AcDbEntity
8
Geo
100
AcDbLine
10
-37.3942758022550
20
6.82670975938562
30
0.000000000000000
11
-37.2942758022550
21
6.78146584971805
31
0.000000000000000
  0
LINE
  5
F10494
330
F10495
100
AcDbEntity
8
Geo
100
AcDbLine
10
-37.2942758022550
20
6.78146584971805
30
0.000000000000000
11
-37.1942758022550
21
6.73674429472039
31
0.000000000000000
  0
LINE
  5
F10496
330
F10497
100
AcDbEntity
8
Geo
100
AcDbLine
10
-37.1942758022550
20
6.73674429472039
30
0.000000000000000
11
-37.0942758022550
21
6.69255441122152
31
0.000000000000000
  0
LINE
  5
F10498
330
F10499
100
AcDbEntity
8
Geo
100
AcDbLine
10
-37.0942758022550
20
6.69255441122152
30
0.000000000000000
11
-36.9942758022550
21
6.64890540528733
31
0.000000000000000
  0
LINE
  5
F1049A
330
F1049B
100
AcDbEntity
8
Geo
100
AcDbLine
10
-36.9942758022550
20
6.64890540528733
30
0.000000000000000
11
-36.8942758022550
21
6.60580637030287
31
0.000000000000000
  0
LINE
  5
F1049C
330
F1049D
100
AcDbEntity
8
Geo
100
AcDbLine
10
-36.8942758022550
20
6.60580637030287
30
0.000000000000000
11
-36.7942758022550
21
6.56326628507785
31
0.000000000000000
  0
LINE
  5
F1049E
330
F1049F
100
AcDbEntity
8
Geo
100
AcDbLine
10
-36.7942758022550
20
6.56326628507785
30
0.000000000000000
11
-36.6942758022550
21
6.52129401197619
31
0.000000000000000
  0
LINE
  5
F104A0
330
F104A1
100
AcDbEntity
8
Geo
100
AcDbLine
10
-36.6942758022550
20
6.52129401197619
30
0.000000000000000
11
-36.5942758022550
21
6.47989829506962
31
0.000000000000000
  0
LINE
  5
F104A2
330
F104A3
100
AcDbEntity
8
Geo
100
AcDbLine
10
-36.5942758022550
20
6.47989829506962
30
0.000000000000000
11
-36.4942758022550
21
6.43908775831613
31
0.000000000000000
  0
LINE
  5
F104A4
330
F104A5
100
AcDbEntity
8
Geo
100
AcDbLine
10
-36.4942758022550
20
6.43908775831613
30
0.000000000000000
11
-36.3942758022550
21
6.39887090376325
31
0.000000000000000
  0
LINE
  5
F104A6
330
F104A7
100
AcDbEntity
8
Geo
100
AcDbLine
10
-36.3942758022550
20
6.39887090376325
30
0.000000000000000
11
-36.2942758022550
21
6.35925610977690
31
0.000000000000000
  0
LINE
  5
F104A8
330
F104A9
100
AcDbEntity
8
Geo
100
AcDbLine
10
-36.2942758022550
20
6.35925610977690
30
0.000000000000000
11
-36.1942758022550
21
6.32025162929587
31
0.000000000000000
  0
LINE
  5
F104AA
330
F104AB
100
AcDbEntity
8
Geo
100
AcDbLine
10
-36.1942758022550
20
6.32025162929587
30
0.000000000000000
11
-36.0942758022550
21
6.28186558811252
31
0.000000000000000
  0
LINE
  5
F104AC
330
F104AD
100
AcDbEntity
8
Geo
100
AcDbLine
10
-36.0942758022550
20
6.28186558811252
30
0.000000000000000
11
-35.9942758022550
21
6.24410598317993
31
0.000000000000000
  0
LINE
  5
F104AE
330
F104AF
100
AcDbEntity
8
Geo
100
AcDbLine
10
-35.9942758022550
20
6.24410598317993
30
0.000000000000000
11
-35.8942758022550
21
6.20698068094589
31
0.000000000000000
  0
LINE
  5
F104B0
330
F104B1
100
AcDbEntity
8
Geo
100
AcDbLine
10
-35.8942758022550
20
6.20698068094589
30
0.000000000000000
11
-35.7942758022550
21
6.17049741571409
31
0.000000000000000
  0
LINE
  5
F104B2
330
F104B3
100
AcDbEntity
8
Geo
100
AcDbLine
10
-35.7942758022550
20
6.17049741571409
30
0.000000000000000
11
-35.6942758022550
21
6.13466378803282
31
0.000000000000000
  0
LINE
  5
F104B4
330
F104B5
100
AcDbEntity
8
Geo
100
AcDbLine
10
-35.6942758022550
20
6.13466378803282
30
0.000000000000000
11
-35.5942758022550
21
6.09948726311158
31
0.000000000000000
  0
LINE
  5
F104B6
330
F104B7
100
AcDbEntity
8
Geo
100
AcDbLine
10
-35.5942758022550
20
6.09948726311158
30
0.000000000000000
11
-35.4942758022550
21
6.06497516926583
31
0.000000000000000
  0
LINE
  5
F104B8
330
F104B9
100
AcDbEntity
8
Geo
100
AcDbLine
10
-35.4942758022550
20
6.06497516926583
30
0.000000000000000
11
-35.3942758022550
21
6.03113469639031
31
0.000000000000000
  0
LINE
  5
F104BA
330
F104BB
100
AcDbEntity
8
Geo
100
AcDbLine
10
-35.3942758022550
20
6.03113469639031
30
0.000000000000000
11
-35.2942758022550
21
5.99797289446112
31
0.000000000000000
  0
LINE
  5
F104BC
330
F104BD
100
AcDbEntity
8
Geo
100
AcDbLine
10
-35.2942758022550
20
5.99797289446112
30
0.000000000000000
11
-35.1942758022550
21
5.96549667206707
31
0.000000000000000
  0
LINE
  5
F104BE
330
F104BF
100
AcDbEntity
8
Geo
100
AcDbLine
10
-35.1942758022550
20
5.96549667206707
30
0.000000000000000
11
-35.0942758022550
21
5.93371279497035
31
0.000000000000000
  0
LINE
  5
F104C0
330
F104C1
100
AcDbEntity
8
Geo
100
AcDbLine
10
-35.0942758022550
20
5.93371279497035
30
0.000000000000000
11
-34.9942758022550
21
5.90262788469707
31
0.000000000000000
  0
LINE
  5
F104C2
330
F104C3
100
AcDbEntity
8
Geo
100
AcDbLine
10
-34.9942758022550
20
5.90262788469707
30
0.000000000000000
11
-34.8942758022550
21
5.87224841715777
31
0.000000000000000
  0
LINE
  5
F104C4
330
F104C5
100
AcDbEntity
8
Geo
100
AcDbLine
10
-34.8942758022550
20
5.87224841715777
30
0.000000000000000
11
-34.7942758022550
21
5.84258072129831
31
0.000000000000000
  0
LINE
  5
F104C6
330
F104C7
100
AcDbEntity
8
Geo
100
AcDbLine
10
-34.7942758022550
20
5.84258072129831
30
0.000000000000000
11
-34.6942758022550
21
5.81363097778136
31
0.000000000000000
  0
LINE
  5
F104C8
330
F104C9
100
AcDbEntity
8
Geo
100
AcDbLine
10
-34.6942758022550
20
5.81363097778136
30
0.000000000000000
11
-34.5942758022550
21
5.78540521769877
31
0.000000000000000
  0
LINE
  5
F104CA
330
F104CB
100
AcDbEntity
8
Geo
100
AcDbLine
10
-34.5942758022550
20
5.78540521769877
30
0.000000000000000
11
-34.4942758022550
21
5.75790932131514
31
0.000000000000000
  0
LINE
  5
F104CC
330
F104CD
100
AcDbEntity
8
Geo
100
AcDbLine
10
-34.4942758022550
20
5.75790932131514
30
0.000000000000000
11
-34.3942758022550
21
5.73114901684277
31
0.000000000000000
  0
LINE
  5
F104CE
330
F104CF
100
AcDbEntity
8
Geo
100
AcDbLine
10
-34.3942758022550
20
5.73114901684277
30
0.000000000000000
11
-34.2942758022550
21
5.70512987924831
31
0.000000000000000
  0
LINE
  5
F104D0
330
F104D1
100
AcDbEntity
8
Geo
100
AcDbLine
10
-34.2942758022550
20
5.70512987924831
30
0.000000000000000
11
-34.1942758022550
21
5.67985732909130
31
0.000000000000000
  0
LINE
  5
F104D2
330
F104D3
100
AcDbEntity
8
Geo
100
AcDbLine
10
-34.1942758022550
20
5.67985732909130
30
0.000000000000000
11
-34.0942758022550
21
5.65533663139495
31
0.000000000000000
  0
LINE
  5
F104D4
330
F104D5
100
AcDbEntity
8
Geo
100
AcDbLine
10
-34.0942758022550
20
5.65533663139495
30
0.000000000000000
11
-33.9942758022550
21
5.63157289454927
31
0.000000000000000
  0
LINE
  5
F104D6
330
F104D7
100
AcDbEntity
8
Geo
100
AcDbLine
10
-33.9942758022550
20
5.63157289454927
30
0.000000000000000
11
-33.8942758022550
21
5.60857106924682
31
0.000000000000000
  0
LINE
  5
F104D8
330
F104D9
100
AcDbEntity
8
Geo
100
AcDbLine
10
-33.8942758022550
20
5.60857106924682
30
0.000000000000000
11
-33.7942758022550
21
5.58633594745134
31
0.000000000000000
  0
LINE
  5
F104DA
330
F104DB
100
AcDbEntity
8
Geo
100
AcDbLine
10
-33.7942758022550
20
5.58633594745134
30
0.000000000000000
11
-33.6942758022550
21
5.56487216139944
31
0.000000000000000
  0
LINE
  5
F104DC
330
F104DD
100
AcDbEntity
8
Geo
100
AcDbLine
10
-50.0942758022550
20
7.18168104474603
30
0.000000000000000
11
-50.0942758022550
21
7.38561960510130
31
0.000000000000000
  0
LINE
  5
F104DE
330
F104DF
100
AcDbEntity
8
Geo
100
AcDbLine
10
-50.0942758022550
20
7.38561960510130
30
0.000000000000000
11
-49.9942758022550
21
7.41488802378816
31
0.000000000000000
  0
LINE
  5
F104E0
330
F104E1
100
AcDbEntity
8
Geo
100
AcDbLine
10
-49.9942758022550
20
7.41488802378816
30
0.000000000000000
11
-49.8942758022550
21
7.42241108247961
31
0.000000000000000
  0
LINE
  5
F104E2
330
F104E3
100
AcDbEntity
8
Geo
100
AcDbLine
10
-49.8942758022550
20
7.42241108247961
30
0.000000000000000
11
-49.7942758022550
21
7.41821945711215
31
0.000000000000000
  0
LINE
  5
F104E4
330
F104E5
100
AcDbEntity
8
Geo
100
AcDbLine
10
-49.7942758022550
20
7.41821945711215
30
0.000000000000000
11
-49.6942758022550
21
7.40595389534430
31
0.000000000000000
  0
LINE
  5
F104E6
330
F104E7
100
AcDbEntity
8
Geo
100
AcDbLine
10
-49.6942758022550
20
7.40595389534430
30
0.000000000000000
11
-49.5942758022550
21
7.38753994622702
31
0.000000000000000
  0
LINE
  5
F104E8
330
F104E9
100
AcDbEntity
8
Geo
100
AcDbLine
10
-49.5942758022550
20
7.38753994622702
30
0.000000000000000
11
-49.4942758022550
21
7.36419099058998
31
0.000000000000000
  0
LINE
  5
F104EA
330
F104EB
100
AcDbEntity
8
Geo
100
AcDbLine
10
-49.4942758022550
20
7.36419099058998
30
0.000000000000000
11
-49.3942758022550
21
7.33675610663065
31
0.000000000000000
  0
LINE
  5
F104EC
330
F104ED
100
AcDbEntity
8
Geo
100
AcDbLine
10
-49.3942758022550
20
7.33675610663065
30
0.000000000000000
11
-49.2942758022550
21
7.30587278573521
31
0.000000000000000
  0
LINE
  5
F104EE
330
F104EF
100
AcDbEntity
8
Geo
100
AcDbLine
10
-49.2942758022550
20
7.30587278573521
30
0.000000000000000
11
-49.1942758022550
21
7.27204456260023
31
0.000000000000000
  0
LINE
  5
F104F0
330
F104F1
100
AcDbEntity
8
Geo
100
AcDbLine
10
-49.1942758022550
20
7.27204456260023
30
0.000000000000000
11
-49.0942758022550
21
7.23568469214954
31
0.000000000000000
  0
LINE
  5
F104F2
330
F104F3
100
AcDbEntity
8
Geo
100
AcDbLine
10
-49.0942758022550
20
7.23568469214954
30
0.000000000000000
11
-48.9942758022550
21
7.19714263478981
31
0.000000000000000
  0
LINE
  5
F104F4
330
F104F5
100
AcDbEntity
8
Geo
100
AcDbLine
10
-48.9942758022550
20
7.19714263478981
30
0.000000000000000
11
-48.8942758022550
21
7.15672107178651
31
0.000000000000000
  0
LINE
  5
F104F6
330
F104F7
100
AcDbEntity
8
Geo
100
AcDbLine
10
-48.8942758022550
20
7.15672107178651
30
0.000000000000000
11
-48.7942758022550
21
7.11468735148198
31
0.000000000000000
  0
LINE
  5
F104F8
330
F104F9
100
AcDbEntity
8
Geo
100
AcDbLine
10
-48.7942758022550
20
7.11468735148198
30
0.000000000000000
11
-48.6942758022550
21
7.07128148423404
31
0.000000000000000
  0
LINE
  5
F104FA
330
F104FB
100
AcDbEntity
8
Geo
100
AcDbLine
10
-48.6942758022550
20
7.07128148423404
30
0.000000000000000
11
-48.5942758022550
21
7.02672190485449
31
0.000000000000000
  0
LINE
  5
F104FC
330
F104FD
100
AcDbEntity
8
Geo
100
AcDbLine
10
-48.5942758022550
20
7.02672190485449
30
0.000000000000000
11
-48.4942758022550
21
6.98120973842904
31
0.000000000000000
  0
LINE
  5
F104FE
330
F104FF
100
AcDbEntity
8
Geo
100
AcDbLine
10
-48.4942758022550
20
6.98120973842904
30
0.000000000000000
11
-48.3942758022550
21
6.93493203214871
31
0.000000000000000
  0
LINE
  5
F10500
330
F10501
100
AcDbEntity
8
Geo
100
AcDbLine
10
-48.3942758022550
20
6.93493203214871
30
0.000000000000000
11
-48.2942758022550
21
6.88806425421316
31
0.000000000000000
  0
LINE
  5
F10502
330
F10503
100
AcDbEntity
8
Geo
100
AcDbLine
10
-48.2942758022550
20
6.88806425421316
30
0.000000000000000
11
-48.1942758022550
21
6.84077226167453
31
0.000000000000000
  0
LINE
  5
F10504
330
F10505
100
AcDbEntity
8
Geo
100
AcDbLine
10
-48.1942758022550
20
6.84077226167453
30
0.000000000000000
11
-48.0942758022550
21
6.79321387618616
31
0.000000000000000
  0
LINE
  5
F10506
330
F10507
100
AcDbEntity
8
Geo
100
AcDbLine
10
-48.0942758022550
20
6.79321387618616
30
0.000000000000000
11
-47.9942758022550
21
6.74554016558435
31
0.000000000000000
  0
LINE
  5
F10508
330
F10509
100
AcDbEntity
8
Geo
100
AcDbLine
10
-47.9942758022550
20
6.74554016558435
30
0.000000000000000
11
-47.8942758022550
21
6.69789650179114
31
0.000000000000000
  0
LINE
  5
F1050A
330
F1050B
100
AcDbEntity
8
Geo
100
AcDbLine
10
-47.8942758022550
20
6.69789650179114
30
0.000000000000000
11
-47.7942758022550
21
6.65042344677367
31
0.000000000000000
  0
LINE
  5
F1050C
330
F1050D
100
AcDbEntity
8
Geo
100
AcDbLine
10
-47.7942758022550
20
6.65042344677367
30
0.000000000000000
11
-47.6942758022550
21
6.60325750523596
31
0.000000000000000
  0
LINE
  5
F1050E
330
F1050F
100
AcDbEntity
8
Geo
100
AcDbLine
10
-47.6942758022550
20
6.60325750523596
30
0.000000000000000
11
-47.5942758022550
21
6.55653177347291
31
0.000000000000000
  0
LINE
  5
F10510
330
F10511
100
AcDbEntity
8
Geo
100
AcDbLine
10
-47.5942758022550
20
6.55653177347291
30
0.000000000000000
11
-47.4942758022550
21
6.51037650718097
31
0.000000000000000
  0
LINE
  5
F10512
330
F10513
100
AcDbEntity
8
Geo
100
AcDbLine
10
-47.4942758022550
20
6.51037650718097
30
0.000000000000000
11
-47.3942758022550
21
6.46491962620585
31
0.000000000000000
  0
LINE
  5
F10514
330
F10515
100
AcDbEntity
8
Geo
100
AcDbLine
10
-47.3942758022550
20
6.46491962620585
30
0.000000000000000
11
-47.2942758022550
21
6.42028717069066
31
0.000000000000000
  0
LINE
  5
F10516
330
F10517
100
AcDbEntity
8
Geo
100
AcDbLine
10
-47.2942758022550
20
6.42028717069066
30
0.000000000000000
11
-47.1942758022550
21
6.37660372051306
31
0.000000000000000
  0
LINE
  5
F10518
330
F10519
100
AcDbEntity
8
Geo
100
AcDbLine
10
-47.1942758022550
20
6.37660372051306
30
0.000000000000000
11
-47.0942758022550
21
6.33399278802368
31
0.000000000000000
  0
LINE
  5
F1051A
330
F1051B
100
AcDbEntity
8
Geo
100
AcDbLine
10
-47.0942758022550
20
6.33399278802368
30
0.000000000000000
11
-46.9942758022550
21
6.29257719275560
31
0.000000000000000
  0
LINE
  5
F1051C
330
F1051D
100
AcDbEntity
8
Geo
100
AcDbLine
10
-46.9942758022550
20
6.29257719275560
30
0.000000000000000
11
-46.8942758022550
21
6.25247942584904
31
0.000000000000000
  0
LINE
  5
F1051E
330
F1051F
100
AcDbEntity
8
Geo
100
AcDbLine
10
-46.8942758022550
20
6.25247942584904
30
0.000000000000000
11
-46.7942758022550
21
6.21382201135282
31
0.000000000000000
  0
LINE
  5
F10520
330
F10521
100
AcDbEntity
8
Geo
100
AcDbLine
10
-46.7942758022550
20
6.21382201135282
30
0.000000000000000
11
-46.6942758022550
21
6.17672787127260
31
0.000000000000000
  0
LINE
  5
F10522
330
F10523
100
AcDbEntity
8
Geo
100
AcDbLine
10
-46.6942758022550
20
6.17672787127260
30
0.000000000000000
11
-46.5942758022550
21
6.14078194568992
31
0.000000000000000
  0
LINE
  5
F10524
330
F10525
100
AcDbEntity
8
Geo
100
AcDbLine
10
-46.5942758022550
20
6.14078194568992
30
0.000000000000000
11
-46.4942758022550
21
6.10549184827321
31
0.000000000000000
  0
LINE
  5
F10526
330
F10527
100
AcDbEntity
8
Geo
100
AcDbLine
10
-46.4942758022550
20
6.10549184827321
30
0.000000000000000
11
-46.3942758022550
21
6.07086493099847
31
0.000000000000000
  0
LINE
  5
F10528
330
F10529
100
AcDbEntity
8
Geo
100
AcDbLine
10
-46.3942758022550
20
6.07086493099847
30
0.000000000000000
11
-46.2942758022550
21
6.03690840768156
31
0.000000000000000
  0
LINE
  5
F1052A
330
F1052B
100
AcDbEntity
8
Geo
100
AcDbLine
10
-46.2942758022550
20
6.03690840768156
30
0.000000000000000
11
-46.1942758022550
21
6.00362935247536
31
0.000000000000000
  0
LINE
  5
F1052C
330
F1052D
100
AcDbEntity
8
Geo
100
AcDbLine
10
-46.1942758022550
20
6.00362935247536
30
0.000000000000000
11
-46.0942758022550
21
5.97103469839598
31
0.000000000000000
  0
LINE
  5
F1052E
330
F1052F
100
AcDbEntity
8
Geo
100
AcDbLine
10
-46.0942758022550
20
5.97103469839598
30
0.000000000000000
11
-45.9942758022550
21
5.93913123587850
31
0.000000000000000
  0
LINE
  5
F10530
330
F10531
100
AcDbEntity
8
Geo
100
AcDbLine
10
-45.9942758022550
20
5.93913123587850
30
0.000000000000000
11
-45.8942758022550
21
5.90792561136219
31
0.000000000000000
  0
LINE
  5
F10532
330
F10533
100
AcDbEntity
8
Geo
100
AcDbLine
10
-45.8942758022550
20
5.90792561136219
30
0.000000000000000
11
-45.7942758022550
21
5.87742432590596
31
0.000000000000000
  0
LINE
  5
F10534
330
F10535
100
AcDbEntity
8
Geo
100
AcDbLine
10
-45.7942758022550
20
5.87742432590596
30
0.000000000000000
11
-45.6942758022550
21
5.84763373383398
31
0.000000000000000
  0
LINE
  5
F10536
330
F10537
100
AcDbEntity
8
Geo
100
AcDbLine
10
-45.6942758022550
20
5.84763373383398
30
0.000000000000000
11
-45.5942758022550
21
5.81856004141184
31
0.000000000000000
  0
LINE
  5
F10538
330
F10539
100
AcDbEntity
8
Geo
100
AcDbLine
10
-45.5942758022550
20
5.81856004141184
30
0.000000000000000
11
-45.4942758022550
21
5.79020930555363
31
0.000000000000000
  0
LINE
  5
F1053A
330
F1053B
100
AcDbEntity
8
Geo
100
AcDbLine
10
-45.4942758022550
20
5.79020930555363
30
0.000000000000000
11
-45.3942758022550
21
5.76258743256012
31
0.000000000000000
  0
LINE
  5
F1053C
330
F1053D
100
AcDbEntity
8
Geo
100
AcDbLine
10
-45.3942758022550
20
5.76258743256012
30
0.000000000000000
11
-45.2942758022550
21
5.73570017688828
31
0.000000000000000
  0
LINE
  5
F1053E
330
F1053F
100
AcDbEntity
8
Geo
100
AcDbLine
10
-45.2942758022550
20
5.73570017688828
30
0.000000000000000
11
-45.1942758022550
21
5.70955313995246
31
0.000000000000000
  0
LINE
  5
F10540
330
F10541
100
AcDbEntity
8
Geo
100
AcDbLine
10
-45.1942758022550
20
5.70955313995246
30
0.000000000000000
11
-45.0942758022550
21
5.68415176895745
31
0.000000000000000
  0
LINE
  5
F10542
330
F10543
100
AcDbEntity
8
Geo
100
AcDbLine
10
-45.0942758022550
20
5.68415176895745
30
0.000000000000000
11
-44.9942758022550
21
5.65950135576366
31
0.000000000000000
  0
LINE
  5
F10544
330
F10545
100
AcDbEntity
8
Geo
100
AcDbLine
10
-44.9942758022550
20
5.65950135576366
30
0.000000000000000
11
-44.8942758022550
21
5.63560703578470
31
0.000000000000000
  0
LINE
  5
F10546
330
F10547
100
AcDbEntity
8
Geo
100
AcDbLine
10
-44.8942758022550
20
5.63560703578470
30
0.000000000000000
11
-44.7942758022550
21
5.61247378691746
31
0.000000000000000
  0
LINE
  5
F10548
330
F10549
100
AcDbEntity
8
Geo
100
AcDbLine
10
-44.7942758022550
20
5.61247378691746
30
0.000000000000000
11
-44.6942758022550
21
5.59010642850512
31
0.000000000000000
  0
LINE
  5
F1054A
330
F1054B
100
AcDbEntity
8
Geo
100
AcDbLine
10
-44.6942758022550
20
5.59010642850512
30
0.000000000000000
11
-44.5942758022550
21
5.56850962033312
31
0.000000000000000
  0
LINE
  5
F1054C
330
F1054D
100
AcDbEntity
8
Geo
100
AcDbLine
10
-44.5942758022550
20
5.56850962033312
30
0.000000000000000
11
-44.4942758022550
21
5.54768786165838
31
0.000000000000000
  0
LINE
  5
F1054E
330
F1054F
100
AcDbEntity
8
Geo
100
AcDbLine
10
-44.4942758022550
20
5.54768786165838
30
0.000000000000000
11
-44.3942758022550
21
5.52764549027198
31
0.000000000000000
  0
LINE
  5
F10550
330
F10551
100
AcDbEntity
8
Geo
100
AcDbLine
10
-44.3942758022550
20
5.52764549027198
30
0.000000000000000
11
-44.2942758022550
21
5.50838668159547
31
0.000000000000000
  0
LINE
  5
F10552
330
F10553
100
AcDbEntity
8
Geo
100
AcDbLine
10
-44.2942758022550
20
5.50838668159547
30
0.000000000000000
11
-44.1942758022550
21
5.48991544781101
31
0.000000000000000
  0
LINE
  5
F10554
330
F10555
100
AcDbEntity
8
Geo
100
AcDbLine
10
-44.1942758022550
20
5.48991544781101
30
0.000000000000000
11
-44.0942758022550
21
5.47223563702548
31
0.000000000000000
  0
LINE
  5
F10556
330
F10557
100
AcDbEntity
8
Geo
100
AcDbLine
10
-44.0942758022550
20
5.47223563702548
30
0.000000000000000
11
-43.9942758022550
21
5.45535093246885
31
0.000000000000000
  0
LINE
  5
F10558
330
F10559
100
AcDbEntity
8
Geo
100
AcDbLine
10
-43.9942758022550
20
5.45535093246885
30
0.000000000000000
11
-43.8942758022550
21
5.43926485172685
31
0.000000000000000
  0
LINE
  5
F1055A
330
F1055B
100
AcDbEntity
8
Geo
100
AcDbLine
10
-43.8942758022550
20
5.43926485172685
30
0.000000000000000
11
-43.7942758022550
21
5.42398074600810
31
0.000000000000000
  0
LINE
  5
F1055C
330
F1055D
100
AcDbEntity
8
Geo
100
AcDbLine
10
-43.7942758022550
20
5.42398074600810
30
0.000000000000000
11
-43.6942758022550
21
5.40950179944603
31
0.000000000000000
  0
LINE
  5
F1055E
330
F1055F
100
AcDbEntity
8
Geo
100
AcDbLine
10
-43.6942758022550
20
5.40950179944603
30
0.000000000000000
11
-43.5942758022550
21
5.39583102843545
31
0.000000000000000
  0
LINE
  5
F10560
330
F10561
100
AcDbEntity
8
Geo
100
AcDbLine
10
-43.5942758022550
20
5.39583102843545
30
0.000000000000000
11
-43.4942758022550
21
5.38297128100423
31
0.000000000000000
  0
LINE
  5
F10562
330
F10563
100
AcDbEntity
8
Geo
100
AcDbLine
10
-43.4942758022550
20
5.38297128100423
30
0.000000000000000
11
-43.3942758022550
21
5.37092523621989
31
0.000000000000000
  0
LINE
  5
F10564
330
F10565
100
AcDbEntity
8
Geo
100
AcDbLine
10
-43.3942758022550
20
5.37092523621989
30
0.000000000000000
11
-43.2942758022550
21
5.35969540363153
31
0.000000000000000
  0
LINE
  5
F10566
330
F10567
100
AcDbEntity
8
Geo
100
AcDbLine
10
-43.2942758022550
20
5.35969540363153
30
0.000000000000000
11
-43.1942758022550
21
5.34928412274699
31
0.000000000000000
  0
LINE
  5
F10568
330
F10569
100
AcDbEntity
8
Geo
100
AcDbLine
10
-43.1942758022550
20
5.34928412274699
30
0.000000000000000
11
-43.0942758022550
21
5.33969356254546
31
0.000000000000000
  0
LINE
  5
F1056A
330
F1056B
100
AcDbEntity
8
Geo
100
AcDbLine
10
-43.0942758022550
20
5.33969356254546
30
0.000000000000000
11
-42.9942758022550
21
5.33092572102564
31
0.000000000000000
  0
LINE
  5
F1056C
330
F1056D
100
AcDbEntity
8
Geo
100
AcDbLine
10
-42.9942758022550
20
5.33092572102564
30
0.000000000000000
11
-42.8942758022550
21
5.32298242478945
31
0.000000000000000
  0
LINE
  5
F1056E
330
F1056F
100
AcDbEntity
8
Geo
100
AcDbLine
10
-42.8942758022550
20
5.32298242478945
30
0.000000000000000
11
-42.7942758022550
21
5.31586532866156
31
0.000000000000000
  0
LINE
  5
F10570
330
F10571
100
AcDbEntity
8
Geo
100
AcDbLine
10
-42.7942758022550
20
5.31586532866156
30
0.000000000000000
11
-42.6942758022550
21
5.30957591534458
31
0.000000000000000
  0
LINE
  5
F10572
330
F10573
100
AcDbEntity
8
Geo
100
AcDbLine
10
-42.6942758022550
20
5.30957591534458
30
0.000000000000000
11
-42.5942758022550
21
5.30411549511020
31
0.000000000000000
  0
LINE
  5
F10574
330
F10575
100
AcDbEntity
8
Geo
100
AcDbLine
10
-42.5942758022550
20
5.30411549511020
30
0.000000000000000
11
-42.4942758022550
21
5.29948520552622
31
0.000000000000000
  0
LINE
  5
F10576
330
F10577
100
AcDbEntity
8
Geo
100
AcDbLine
10
-42.4942758022550
20
5.29948520552622
30
0.000000000000000
11
-42.3942758022550
21
5.29568601121956
31
0.000000000000000
  0
LINE
  5
F10578
330
F10579
100
AcDbEntity
8
Geo
100
AcDbLine
10
-42.3942758022550
20
5.29568601121956
30
0.000000000000000
11
-42.2942758022550
21
5.29271870367529
31
0.000000000000000
  0
LINE
  5
F1057A
330
F1057B
100
AcDbEntity
8
Geo
100
AcDbLine
10
-42.2942758022550
20
5.29271870367529
30
0.000000000000000
11
-42.1942758022550
21
5.29058390107175
31
0.000000000000000
  0
LINE
  5
F1057C
330
F1057D
100
AcDbEntity
8
Geo
100
AcDbLine
10
-42.1942758022550
20
5.29058390107175
30
0.000000000000000
11
-42.0942758022550
21
5.28928204815177
31
0.000000000000000
  0
LINE
  5
F1057E
330
F1057F
100
AcDbEntity
8
Geo
100
AcDbLine
10
-42.0942758022550
20
5.28928204815177
30
0.000000000000000
11
-41.9942758022550
21
5.28881341612998
31
0.000000000000000
  0
LINE
  5
F10580
330
F10581
100
AcDbEntity
8
Geo
100
AcDbLine
10
-41.9942758022550
20
5.28881341612998
30
0.000000000000000
11
-41.9880386762021
21
5.28881179531658
31
0.000000000000000
  0
LINE
  5
F10582
330
F10583
100
AcDbEntity
8
Geo
100
AcDbLine
10
-33.6942758022550
20
6.19837083222192
30
0.000000000000000
11
-33.5942758022550
21
6.16203916995961
31
0.000000000000000
  0
LINE
  5
F10584
330
F10585
100
AcDbEntity
8
Geo
100
AcDbLine
10
-33.5942758022550
20
6.16203916995961
30
0.000000000000000
11
-33.4942758022550
21
6.12635890735178
31
0.000000000000000
  0
LINE
  5
F10586
330
F10587
100
AcDbEntity
8
Geo
100
AcDbLine
10
-33.4942758022550
20
6.12635890735178
30
0.000000000000000
11
-33.3942758022550
21
6.09133747765743
31
0.000000000000000
  0
LINE
  5
F10588
330
F10589
100
AcDbEntity
8
Geo
100
AcDbLine
10
-33.3942758022550
20
6.09133747765743
30
0.000000000000000
11
-33.2942758022550
21
6.05698217688113
31
0.000000000000000
  0
LINE
  5
F1058A
330
F1058B
100
AcDbEntity
8
Geo
100
AcDbLine
10
-33.2942758022550
20
6.05698217688113
30
0.000000000000000
11
-33.1942758022550
21
6.02330016225387
31
0.000000000000000
  0
LINE
  5
F1058C
330
F1058D
100
AcDbEntity
8
Geo
100
AcDbLine
10
-33.1942758022550
20
6.02330016225387
30
0.000000000000000
11
-33.0942758022550
21
5.99029845074693
31
0.000000000000000
  0
LINE
  5
F1058E
330
F1058F
100
AcDbEntity
8
Geo
100
AcDbLine
10
-33.0942758022550
20
5.99029845074693
30
0.000000000000000
11
-32.9942758022550
21
5.95798391763269
31
0.000000000000000
  0
LINE
  5
F10590
330
F10591
100
AcDbEntity
8
Geo
100
AcDbLine
10
-32.9942758022550
20
5.95798391763269
30
0.000000000000000
11
-32.8942758022550
21
5.92636329513149
31
0.000000000000000
  0
LINE
  5
F10592
330
F10593
100
AcDbEntity
8
Geo
100
AcDbLine
10
-32.8942758022550
20
5.92636329513149
30
0.000000000000000
11
-32.7942758022550
21
5.89544317123748
31
0.000000000000000
  0
LINE
  5
F10594
330
F10595
100
AcDbEntity
8
Geo
100
AcDbLine
10
-32.7942758022550
20
5.89544317123748
30
0.000000000000000
11
-32.6942758022550
21
5.86522998891704
31
0.000000000000000
  0
LINE
  5
F10596
330
F10597
100
AcDbEntity
8
Geo
100
AcDbLine
10
-32.6942758022550
20
5.86522998891704
30
0.000000000000000
11
-32.5942758022550
21
5.83573004603981
31
0.000000000000000
  0
LINE
  5
F10598
330
F10599
100
AcDbEntity
8
Geo
100
AcDbLine
10
-32.5942758022550
20
5.83573004603981
30
0.000000000000000
11
-32.4942758022550
21
5.80694949666021
31
0.000000000000000
  0
LINE
  5
F1059A
330
F1059B
100
AcDbEntity
8
Geo
100
AcDbLine
10
-32.4942758022550
20
5.80694949666021
30
0.000000000000000
11
-32.3942758022550
21
5.77889435463653
31
0.000000000000000
  0
LINE
  5
F1059C
330
F1059D
100
AcDbEntity
8
Geo
100
AcDbLine
10
-32.3942758022550
20
5.77889435463653
30
0.000000000000000
11
-32.2942758022550
21
5.75157050107625
31
0.000000000000000
  0
LINE
  5
F1059E
330
F1059F
100
AcDbEntity
8
Geo
100
AcDbLine
10
-32.2942758022550
20
5.75157050107625
30
0.000000000000000
11
-32.1942758022550
21
5.72498369774042
31
0.000000000000000
  0
LINE
  5
F105A0
330
F105A1
100
AcDbEntity
8
Geo
100
AcDbLine
10
-32.1942758022550
20
5.72498369774042
30
0.000000000000000
11
-32.0942758022550
21
5.69913960932698
31
0.000000000000000
  0
LINE
  5
F105A2
330
F105A3
100
AcDbEntity
8
Geo
100
AcDbLine
10
-32.0942758022550
20
5.69913960932698
30
0.000000000000000
11
-31.9942758022550
21
5.67404383846399
31
0.000000000000000
  0
LINE
  5
F105A4
330
F105A5
100
AcDbEntity
8
Geo
100
AcDbLine
10
-31.9942758022550
20
5.67404383846399
30
0.000000000000000
11
-31.8942758022550
21
5.64970197823787
31
0.000000000000000
  0
LINE
  5
F105A6
330
F105A7
100
AcDbEntity
8
Geo
100
AcDbLine
10
-31.8942758022550
20
5.64970197823787
30
0.000000000000000
11
-31.7942758022550
21
5.62611968808587
31
0.000000000000000
  0
LINE
  5
F105A8
330
F105A9
100
AcDbEntity
8
Geo
100
AcDbLine
10
-31.7942758022550
20
5.62611968808587
30
0.000000000000000
11
-31.6942758022550
21
5.60330279978709
31
0.000000000000000
  0
LINE
  5
F105AA
330
F105AB
100
AcDbEntity
8
Geo
100
AcDbLine
10
-31.6942758022550
20
5.60330279978709
30
0.000000000000000
11
-31.5942758022550
21
5.58125746093909
31
0.000000000000000
  0
LINE
  5
F105AC
330
F105AD
100
AcDbEntity
8
Geo
100
AcDbLine
10
-31.5942758022550
20
5.58125746093909
30
0.000000000000000
11
-31.4942758022550
21
5.55999032350253
31
0.000000000000000
  0
LINE
  5
F105AE
330
F105AF
100
AcDbEntity
8
Geo
100
AcDbLine
10
-31.4942758022550
20
5.55999032350253
30
0.000000000000000
11
-31.3942758022550
21
5.53950878448161
31
0.000000000000000
  0
LINE
  5
F105B0
330
F105B1
100
AcDbEntity
8
Geo
100
AcDbLine
10
-31.3942758022550
20
5.53950878448161
30
0.000000000000000
11
-31.2942758022550
21
5.51982128427712
31
0.000000000000000
  0
LINE
  5
F105B2
330
F105B3
100
AcDbEntity
8
Geo
100
AcDbLine
10
-31.2942758022550
20
5.51982128427712
30
0.000000000000000
11
-31.1942758022550
21
5.50093766536916
31
0.000000000000000
  0
LINE
  5
F105B4
330
F105B5
100
AcDbEntity
8
Geo
100
AcDbLine
10
-31.1942758022550
20
5.50093766536916
30
0.000000000000000
11
-31.0942758022550
21
5.48286958942830
31
0.000000000000000
  0
LINE
  5
F105B6
330
F105B7
100
AcDbEntity
8
Geo
100
AcDbLine
10
-31.0942758022550
20
5.48286958942830
30
0.000000000000000
11
-30.9942758022550
21
5.46563100447425
31
0.000000000000000
  0
LINE
  5
F105B8
330
F105B9
100
AcDbEntity
8
Geo
100
AcDbLine
10
-30.9942758022550
20
5.46563100447425
30
0.000000000000000
11
-30.8942758022550
21
5.44923864528023
31
0.000000000000000
  0
LINE
  5
F105BA
330
F105BB
100
AcDbEntity
8
Geo
100
AcDbLine
10
-30.8942758022550
20
5.44923864528023
30
0.000000000000000
11
-30.7942758022550
21
5.43371254031287
31
0.000000000000000
  0
LINE
  5
F105BC
330
F105BD
100
AcDbEntity
8
Geo
100
AcDbLine
10
-30.7942758022550
20
5.43371254031287
30
0.000000000000000
11
-30.6942758022550
21
5.41907648844250
31
0.000000000000000
  0
LINE
  5
F105BE
330
F105BF
100
AcDbEntity
8
Geo
100
AcDbLine
10
-30.6942758022550
20
5.41907648844250
30
0.000000000000000
11
-30.5942758022550
21
5.40535846136640
31
0.000000000000000
  0
LINE
  5
F105C0
330
F105C1
100
AcDbEntity
8
Geo
100
AcDbLine
10
-30.5942758022550
20
5.40535846136640
30
0.000000000000000
11
-30.4942758022550
21
5.39259088872097
31
0.000000000000000
  0
LINE
  5
F105C2
330
F105C3
100
AcDbEntity
8
Geo
100
AcDbLine
10
-30.4942758022550
20
5.39259088872097
30
0.000000000000000
11
-30.3942758022550
21
5.38081080213850
31
0.000000000000000
  0
LINE
  5
F105C4
330
F105C5
100
AcDbEntity
8
Geo
100
AcDbLine
10
-30.3942758022550
20
5.38081080213850
30
0.000000000000000
11
-30.2942758022550
21
5.37005986891825
31
0.000000000000000
  0
LINE
  5
F105C6
330
F105C7
100
AcDbEntity
8
Geo
100
AcDbLine
10
-30.2942758022550
20
5.37005986891825
30
0.000000000000000
11
-30.1942758022550
21
5.36038446334253
31
0.000000000000000
  0
LINE
  5
F105C8
330
F105C9
100
AcDbEntity
8
Geo
100
AcDbLine
10
-30.1942758022550
20
5.36038446334253
30
0.000000000000000
11
-30.0942758022550
21
5.35183614859599
31
0.000000000000000
  0
LINE
  5
F105CA
330
F105CB
100
AcDbEntity
8
Geo
100
AcDbLine
10
-30.0942758022550
20
5.35183614859599
30
0.000000000000000
11
-29.9942758022550
21
5.34447334481167
31
0.000000000000000
  0
LINE
  5
F105CC
330
F105CD
100
AcDbEntity
8
Geo
100
AcDbLine
10
-29.9942758022550
20
5.34447334481167
30
0.000000000000000
11
-29.8942758022550
21
5.33836564700967
31
0.000000000000000
  0
LINE
  5
F105CE
330
F105CF
100
AcDbEntity
8
Geo
100
AcDbLine
10
-29.8942758022550
20
5.33836564700967
30
0.000000000000000
11
-29.7942758022550
21
5.33360339448036
31
0.000000000000000
  0
LINE
  5
F105D0
330
F105D1
100
AcDbEntity
8
Geo
100
AcDbLine
10
-29.7942758022550
20
5.33360339448036
30
0.000000000000000
11
-29.6942758022549
21
5.33031692516848
31
0.000000000000000
  0
LINE
  5
F105D2
330
F105D3
100
AcDbEntity
8
Geo
100
AcDbLine
10
-29.6942758022549
20
5.33031692516848
30
0.000000000000000
11
-29.5942758022549
21
5.32871283421889
31
0.000000000000000
  0
LINE
  5
F105D4
330
F105D5
100
AcDbEntity
8
Geo
100
AcDbLine
10
-29.5942758022549
20
5.32871283421889
30
0.000000000000000
11
-29.4942758022549
21
5.32913901251670
31
0.000000000000000
  0
LINE
  5
F105D6
330
F105D7
100
AcDbEntity
8
Geo
100
AcDbLine
10
-29.4942758022549
20
5.32913901251670
30
0.000000000000000
11
-29.3942758022549
21
5.33219699302511
31
0.000000000000000
  0
LINE
  5
F105D8
330
F105D9
100
AcDbEntity
8
Geo
100
AcDbLine
10
-29.3942758022549
20
5.33219699302511
30
0.000000000000000
11
-29.2942758022549
21
5.33893014642862
31
0.000000000000000
  0
LINE
  5
F105DA
330
F105DB
100
AcDbEntity
8
Geo
100
AcDbLine
10
-29.2942758022549
20
5.33893014642862
30
0.000000000000000
11
-29.1942758022549
21
5.35113071696262
31
0.000000000000000
  0
LINE
  5
F105DC
330
F105DD
100
AcDbEntity
8
Geo
100
AcDbLine
10
-29.1942758022549
20
5.35113071696262
30
0.000000000000000
11
-29.0942758022549
21
5.37182869826312
31
0.000000000000000
  0
LINE
  5
F105DE
330
F105DF
100
AcDbEntity
8
Geo
100
AcDbLine
10
-29.0942758022549
20
5.37182869826312
30
0.000000000000000
11
-28.9942758022549
21
5.40605133183434
31
0.000000000000000
  0
LINE
  5
F105E0
330
F105E1
100
AcDbEntity
8
Geo
100
AcDbLine
10
-28.9942758022549
20
5.40605133183434
30
0.000000000000000
11
-28.8942758022549
21
5.46197052135687
31
0.000000000000000
  0
LINE
  5
F105E2
330
F105E3
100
AcDbEntity
8
Geo
100
AcDbLine
10
-28.8942758022549
20
5.46197052135687
30
0.000000000000000
11
-28.7942758022549
21
5.55257457992346
31
0.000000000000000
  0
LINE
  5
F105E4
330
F105E5
100
AcDbEntity
8
Geo
100
AcDbLine
10
-28.7942758022549
20
5.55257457992346
30
0.000000000000000
11
-28.6942758022550
21
5.69797595505842
31
0.000000000000000
  0
LINE
  5
F105E6
330
F105E7
100
AcDbEntity
8
Geo
100
AcDbLine
10
-28.6942758022550
20
5.69797595505842
30
0.000000000000000
11
-28.6942758022550
21
5.74339814897580
31
0.000000000000000
  0
LINE
  5
F105E8
330
F105E9
100
AcDbEntity
8
Geo
100
AcDbLine
10
-28.6942758022550
20
5.74339814897580
30
0.000000000000000
11
-28.7942758022549
21
5.94396858660689
31
0.000000000000000
  0
LINE
  5
F105EA
330
F105EB
100
AcDbEntity
8
Geo
100
AcDbLine
10
-28.7942758022549
20
5.94396858660689
30
0.000000000000000
11
-28.8942758022549
21
6.15681090609906
31
0.000000000000000
  0
LINE
  5
F105EC
330
F105ED
100
AcDbEntity
8
Geo
100
AcDbLine
10
-28.8942758022549
20
6.15681090609906
30
0.000000000000000
11
-28.9942758022549
21
6.37469543756483
31
0.000000000000000
  0
LINE
  5
F105EE
330
F105EF
100
AcDbEntity
8
Geo
100
AcDbLine
10
-28.9942758022549
20
6.37469543756483
30
0.000000000000000
11
-29.0942758022549
21
6.59219400527409
31
0.000000000000000
  0
LINE
  5
F105F0
330
F105F1
100
AcDbEntity
8
Geo
100
AcDbLine
10
-29.0942758022549
20
6.59219400527409
30
0.000000000000000
11
-29.1942758022549
21
6.80535981037326
31
0.000000000000000
  0
LINE
  5
F105F2
330
F105F3
100
AcDbEntity
8
Geo
100
AcDbLine
10
-29.1942758022549
20
6.80535981037326
30
0.000000000000000
11
-29.2942758022549
21
7.01143766066782
31
0.000000000000000
  0
LINE
  5
F105F4
330
F105F5
100
AcDbEntity
8
Geo
100
AcDbLine
10
-29.2942758022549
20
7.01143766066782
30
0.000000000000000
11
-29.3942758022549
21
7.20861222598789
31
0.000000000000000
  0
LINE
  5
F105F6
330
F105F7
100
AcDbEntity
8
Geo
100
AcDbLine
10
-29.3942758022549
20
7.20861222598789
30
0.000000000000000
11
-29.4942758022549
21
7.39579578101230
31
0.000000000000000
  0
LINE
  5
F105F8
330
F105F9
100
AcDbEntity
8
Geo
100
AcDbLine
10
-29.4942758022549
20
7.39579578101230
30
0.000000000000000
11
-29.5942758022549
21
7.57245332821674
31
0.000000000000000
  0
LINE
  5
F105FA
330
F105FB
100
AcDbEntity
8
Geo
100
AcDbLine
10
-29.5942758022549
20
7.57245332821674
30
0.000000000000000
11
-29.6942758022549
21
7.73846118246950
31
0.000000000000000
  0
LINE
  5
F105FC
330
F105FD
100
AcDbEntity
8
Geo
100
AcDbLine
10
-29.6942758022549
20
7.73846118246950
30
0.000000000000000
11
-29.7942758022550
21
7.89399440084532
31
0.000000000000000
  0
LINE
  5
F105FE
330
F105FF
100
AcDbEntity
8
Geo
100
AcDbLine
10
-29.7942758022550
20
7.89399440084532
30
0.000000000000000
11
-29.8942758022550
21
8.03943840808838
31
0.000000000000000
  0
LINE
  5
F10600
330
F10601
100
AcDbEntity
8
Geo
100
AcDbLine
10
-29.8942758022550
20
8.03943840808838
30
0.000000000000000
11
-29.9942758022550
21
8.17532050000169
31
0.000000000000000
  0
LINE
  5
F10602
330
F10603
100
AcDbEntity
8
Geo
100
AcDbLine
10
-29.9942758022550
20
8.17532050000169
30
0.000000000000000
11
-30.0942758022550
21
8.30225741129612
31
0.000000000000000
  0
LINE
  5
F10604
330
F10605
100
AcDbEntity
8
Geo
100
AcDbLine
10
-30.0942758022550
20
8.30225741129612
30
0.000000000000000
11
-30.1942758022550
21
8.42091569310193
31
0.000000000000000
  0
LINE
  5
F10606
330
F10607
100
AcDbEntity
8
Geo
100
AcDbLine
10
-30.1942758022550
20
8.42091569310193
30
0.000000000000000
11
-30.2942758022550
21
8.53198219051891
31
0.000000000000000
  0
LINE
  5
F10608
330
F10609
100
AcDbEntity
8
Geo
100
AcDbLine
10
-30.2942758022550
20
8.53198219051891
30
0.000000000000000
11
-30.3942758022550
21
8.63614240684208
31
0.000000000000000
  0
LINE
  5
F1060A
330
F1060B
100
AcDbEntity
8
Geo
100
AcDbLine
10
-30.3942758022550
20
8.63614240684208
30
0.000000000000000
11
-30.4942758022550
21
8.73406497329997
31
0.000000000000000
  0
LINE
  5
F1060C
330
F1060D
100
AcDbEntity
8
Geo
100
AcDbLine
10
-30.4942758022550
20
8.73406497329997
30
0.000000000000000
11
-30.5942758022550
21
8.82639080817022
31
0.000000000000000
  0
LINE
  5
F1060E
330
F1060F
100
AcDbEntity
8
Geo
100
AcDbLine
10
-30.5942758022550
20
8.82639080817022
30
0.000000000000000
11
-30.6942758022550
21
8.91372585053759
31
0.000000000000000
  0
LINE
  5
F10610
330
F10611
100
AcDbEntity
8
Geo
100
AcDbLine
10
-30.6942758022550
20
8.91372585053759
30
0.000000000000000
11
-30.7942758022550
21
8.99663649853282
31
0.000000000000000
  0
LINE
  5
F10612
330
F10613
100
AcDbEntity
8
Geo
100
AcDbLine
10
-30.7942758022550
20
8.99663649853282
30
0.000000000000000
11
-30.8942758022550
21
9.07564707763257
31
0.000000000000000
  0
LINE
  5
F10614
330
F10615
100
AcDbEntity
8
Geo
100
AcDbLine
10
-30.8942758022550
20
9.07564707763257
30
0.000000000000000
11
-30.9942758022550
21
9.15123881950631
31
0.000000000000000
  0
LINE
  5
F10616
330
F10617
100
AcDbEntity
8
Geo
100
AcDbLine
10
-30.9942758022550
20
9.15123881950631
30
0.000000000000000
11
-31.0942758022550
21
9.22384995334304
31
0.000000000000000
  0
LINE
  5
F10618
330
F10619
100
AcDbEntity
8
Geo
100
AcDbLine
10
-31.0942758022550
20
9.22384995334304
30
0.000000000000000
11
-31.1942758022550
21
9.29387660604829
31
0.000000000000000
  0
LINE
  5
F1061A
330
F1061B
100
AcDbEntity
8
Geo
100
AcDbLine
10
-31.1942758022550
20
9.29387660604829
30
0.000000000000000
11
-31.2942758022550
21
9.36167428066195
31
0.000000000000000
  0
LINE
  5
F1061C
330
F1061D
100
AcDbEntity
8
Geo
100
AcDbLine
10
-31.2942758022550
20
9.36167428066195
30
0.000000000000000
11
-31.3942758022550
21
9.42755973835739
31
0.000000000000000
  0
LINE
  5
F1061E
330
F1061F
100
AcDbEntity
8
Geo
100
AcDbLine
10
-31.3942758022550
20
9.42755973835739
30
0.000000000000000
11
-31.4942758022550
21
9.49181315214003
31
0.000000000000000
  0
LINE
  5
F10620
330
F10621
100
AcDbEntity
8
Geo
100
AcDbLine
10
-31.4942758022550
20
9.49181315214003
30
0.000000000000000
11
-31.5942758022550
21
9.55468043283654
31
0.000000000000000
  0
LINE
  5
F10622
330
F10623
100
AcDbEntity
8
Geo
100
AcDbLine
10
-31.5942758022550
20
9.55468043283654
30
0.000000000000000
11
-31.6942758022550
21
9.61637565250587
31
0.000000000000000
  0
LINE
  5
F10624
330
F10625
100
AcDbEntity
8
Geo
100
AcDbLine
10
-31.6942758022550
20
9.61637565250587
30
0.000000000000000
11
-31.7942758022550
21
9.67708350886009
31
0.000000000000000
  0
LINE
  5
F10626
330
F10627
100
AcDbEntity
8
Geo
100
AcDbLine
10
-31.7942758022550
20
9.67708350886009
30
0.000000000000000
11
-31.8942758022550
21
9.73696178810149
31
0.000000000000000
  0
LINE
  5
F10628
330
F10629
100
AcDbEntity
8
Geo
100
AcDbLine
10
-31.8942758022550
20
9.73696178810149
30
0.000000000000000
11
-31.9942758022550
21
9.79614379388275
31
0.000000000000000
  0
LINE
  5
F1062A
330
F1062B
100
AcDbEntity
8
Geo
100
AcDbLine
10
-31.9942758022550
20
9.79614379388275
30
0.000000000000000
11
-32.0942758022550
21
9.85474071774753
31
0.000000000000000
  0
LINE
  5
F1062C
330
F1062D
100
AcDbEntity
8
Geo
100
AcDbLine
10
-32.0942758022550
20
9.85474071774753
30
0.000000000000000
11
-32.1942758022550
21
9.91284393207591
31
0.000000000000000
  0
LINE
  5
F1062E
330
F1062F
100
AcDbEntity
8
Geo
100
AcDbLine
10
-32.1942758022550
20
9.91284393207591
30
0.000000000000000
11
-32.2942758022550
21
9.97052719075633
31
0.000000000000000
  0
LINE
  5
F10630
330
F10631
100
AcDbEntity
8
Geo
100
AcDbLine
10
-32.2942758022550
20
9.97052719075633
30
0.000000000000000
11
-32.3942758022550
21
10.0278487259251
31
0.000000000000000
  0
LINE
  5
F10632
330
F10633
100
AcDbEntity
8
Geo
100
AcDbLine
10
-32.3942758022550
20
10.0278487259251
30
0.000000000000000
11
-32.4942758022550
21
10.0848532314535
31
0.000000000000000
  0
LINE
  5
F10634
330
F10635
100
AcDbEntity
8
Geo
100
AcDbLine
10
-32.4942758022550
20
10.0848532314535
30
0.000000000000000
11
-32.5942758022550
21
10.1415737256507
31
0.000000000000000
  0
LINE
  5
F10636
330
F10637
100
AcDbEntity
8
Geo
100
AcDbLine
10
-32.5942758022550
20
10.1415737256507
30
0.000000000000000
11
-32.6942758022550
21
10.1980332870504
31
0.000000000000000
  0
LINE
  5
F10638
330
F10639
100
AcDbEntity
8
Geo
100
AcDbLine
10
-32.6942758022550
20
10.1980332870504
30
0.000000000000000
11
-32.7942758022550
21
10.2542466582978
31
0.000000000000000
  0
LINE
  5
F1063A
330
F1063B
100
AcDbEntity
8
Geo
100
AcDbLine
10
-32.7942758022550
20
10.2542466582978
30
0.000000000000000
11
-32.8942758022550
21
10.3102217141286
31
0.000000000000000
  0
LINE
  5
F1063C
330
F1063D
100
AcDbEntity
8
Geo
100
AcDbLine
10
-32.8942758022550
20
10.3102217141286
30
0.000000000000000
11
-32.9942758022550
21
10.3659607903102
31
0.000000000000000
  0
LINE
  5
F1063E
330
F1063F
100
AcDbEntity
8
Geo
100
AcDbLine
10
-32.9942758022550
20
10.3659607903102
30
0.000000000000000
11
-33.0942758022550
21
10.4214618712355
31
0.000000000000000
  0
LINE
  5
F10640
330
F10641
100
AcDbEntity
8
Geo
100
AcDbLine
10
-33.0942758022550
20
10.4214618712355
30
0.000000000000000
11
-33.1942758022550
21
10.4767196346491
31
0.000000000000000
  0
LINE
  5
F10642
330
F10643
100
AcDbEntity
8
Geo
100
AcDbLine
10
-33.1942758022550
20
10.4767196346491
30
0.000000000000000
11
-33.2942758022550
21
10.5317263527693
31
0.000000000000000
  0
LINE
  5
F10644
330
F10645
100
AcDbEntity
8
Geo
100
AcDbLine
10
-33.2942758022550
20
10.5317263527693
30
0.000000000000000
11
-33.3942758022550
21
10.5864726498435
31
0.000000000000000
  0
LINE
  5
F10646
330
F10647
100
AcDbEntity
8
Geo
100
AcDbLine
10
-33.3942758022550
20
10.5864726498435
30
0.000000000000000
11
-33.4942758022550
21
10.6409481169582
31
0.000000000000000
  0
LINE
  5
F10648
330
F10649
100
AcDbEntity
8
Geo
100
AcDbLine
10
-33.4942758022550
20
10.6409481169582
30
0.000000000000000
11
-33.5942758022550
21
10.6951417856984
31
0.000000000000000
  0
LINE
  5
F1064A
330
F1064B
100
AcDbEntity
8
Geo
100
AcDbLine
10
-33.5942758022550
20
10.6951417856984
30
0.000000000000000
11
-33.6942758022550
21
10.7490424630335
31
0.000000000000000
  0
LINE
  5
F1064C
330
F1064D
100
AcDbEntity
8
Geo
100
AcDbLine
10
-31.1870431122205
20
5.28881179531658
30
0.000000000000000
11
-31.1942758022550
21
5.28881500185633
31
0.000000000000000
  0
LINE
  5
F1064E
330
F1064F
100
AcDbEntity
8
Geo
100
AcDbLine
10
-31.1942758022550
20
5.28881500185633
30
0.000000000000000
11
-31.2942758022550
21
5.28947546809561
31
0.000000000000000
  0
LINE
  5
F10650
330
F10651
100
AcDbEntity
8
Geo
100
AcDbLine
10
-31.2942758022550
20
5.28947546809561
30
0.000000000000000
11
-31.3942758022550
21
5.29121889354407
31
0.000000000000000
  0
LINE
  5
F10652
330
F10653
100
AcDbEntity
8
Geo
100
AcDbLine
10
-31.3942758022550
20
5.29121889354407
30
0.000000000000000
11
-31.4942758022550
21
5.29396631030369
31
0.000000000000000
  0
LINE
  5
F10654
330
F10655
100
AcDbEntity
8
Geo
100
AcDbLine
10
-31.4942758022550
20
5.29396631030369
30
0.000000000000000
11
-31.5942758022550
21
5.29765734233141
31
0.000000000000000
  0
LINE
  5
F10656
330
F10657
100
AcDbEntity
8
Geo
100
AcDbLine
10
-31.5942758022550
20
5.29765734233141
30
0.000000000000000
11
-31.6942758022550
21
5.30224661718851
31
0.000000000000000
  0
LINE
  5
F10658
330
F10659
100
AcDbEntity
8
Geo
100
AcDbLine
10
-31.6942758022550
20
5.30224661718851
30
0.000000000000000
11
-31.7942758022550
21
5.30770075988162
31
0.000000000000000
  0
LINE
  5
F1065A
330
F1065B
100
AcDbEntity
8
Geo
100
AcDbLine
10
-31.7942758022550
20
5.30770075988162
30
0.000000000000000
11
-31.8942758022550
21
5.31399587706742
31
0.000000000000000
  0
LINE
  5
F1065C
330
F1065D
100
AcDbEntity
8
Geo
100
AcDbLine
10
-31.8942758022550
20
5.31399587706742
30
0.000000000000000
11
-31.9942758022550
21
5.32111545572217
31
0.000000000000000
  0
LINE
  5
F1065E
330
F1065F
100
AcDbEntity
8
Geo
100
AcDbLine
10
-31.9942758022550
20
5.32111545572217
30
0.000000000000000
11
-32.0942758022550
21
5.32904861366592
31
0.000000000000000
  0
LINE
  5
F10660
330
F10661
100
AcDbEntity
8
Geo
100
AcDbLine
10
-32.0942758022550
20
5.32904861366592
30
0.000000000000000
11
-32.1942758022550
21
5.33778865032089
31
0.000000000000000
  0
LINE
  5
F10662
330
F10663
100
AcDbEntity
8
Geo
100
AcDbLine
10
-32.1942758022550
20
5.33778865032089
30
0.000000000000000
11
-32.2942758022550
21
5.34733185503774
31
0.000000000000000
  0
LINE
  5
F10664
330
F10665
100
AcDbEntity
8
Geo
100
AcDbLine
10
-32.2942758022550
20
5.34733185503774
30
0.000000000000000
11
-32.3942758022550
21
5.35767653750659
31
0.000000000000000
  0
LINE
  5
F10666
330
F10667
100
AcDbEntity
8
Geo
100
AcDbLine
10
-32.3942758022550
20
5.35767653750659
30
0.000000000000000
11
-32.4942758022550
21
5.36882225043855
31
0.000000000000000
  0
LINE
  5
F10668
330
F10669
100
AcDbEntity
8
Geo
100
AcDbLine
10
-32.4942758022550
20
5.36882225043855
30
0.000000000000000
11
-32.5942758022550
21
5.38076917909899
31
0.000000000000000
  0
LINE
  5
F1066A
330
F1066B
100
AcDbEntity
8
Geo
100
AcDbLine
10
-32.5942758022550
20
5.38076917909899
30
0.000000000000000
11
-32.6942758022550
21
5.39351767561659
31
0.000000000000000
  0
LINE
  5
F1066C
330
F1066D
100
AcDbEntity
8
Geo
100
AcDbLine
10
-32.6942758022550
20
5.39351767561659
30
0.000000000000000
11
-32.7942758022550
21
5.40706791848229
31
0.000000000000000
  0
LINE
  5
F1066E
330
F1066F
100
AcDbEntity
8
Geo
100
AcDbLine
10
-32.7942758022550
20
5.40706791848229
30
0.000000000000000
11
-32.8942758022550
21
5.42141967946479
31
0.000000000000000
  0
LINE
  5
F10670
330
F10671
100
AcDbEntity
8
Geo
100
AcDbLine
10
-32.8942758022550
20
5.42141967946479
30
0.000000000000000
11
-32.9942758022550
21
5.43657218145761
31
0.000000000000000
  0
LINE
  5
F10672
330
F10673
100
AcDbEntity
8
Geo
100
AcDbLine
10
-32.9942758022550
20
5.43657218145761
30
0.000000000000000
11
-33.0942758022550
21
5.45252403166785
31
0.000000000000000
  0
LINE
  5
F10674
330
F10675
100
AcDbEntity
8
Geo
100
AcDbLine
10
-33.0942758022550
20
5.45252403166785
30
0.000000000000000
11
-33.1942758022550
21
5.46927321516684
31
0.000000000000000
  0
LINE
  5
F10676
330
F10677
100
AcDbEntity
8
Geo
100
AcDbLine
10
-33.1942758022550
20
5.46927321516684
30
0.000000000000000
11
-33.2942758022550
21
5.48681713423771
31
0.000000000000000
  0
LINE
  5
F10678
330
F10679
100
AcDbEntity
8
Geo
100
AcDbLine
10
-33.2942758022550
20
5.48681713423771
30
0.000000000000000
11
-33.3942758022550
21
5.50515267924540
31
0.000000000000000
  0
LINE
  5
F1067A
330
F1067B
100
AcDbEntity
8
Geo
100
AcDbLine
10
-33.3942758022550
20
5.50515267924540
30
0.000000000000000
11
-33.4942758022550
21
5.52427631697432
31
0.000000000000000
  0
LINE
  5
F1067C
330
F1067D
100
AcDbEntity
8
Geo
100
AcDbLine
10
-33.4942758022550
20
5.52427631697432
30
0.000000000000000
11
-33.5942758022550
21
5.54418418256886
31
0.000000000000000
  0
LINE
  5
F1067E
330
F1067F
100
AcDbEntity
8
Geo
100
AcDbLine
10
-33.5942758022550
20
5.54418418256886
30
0.000000000000000
11
-33.6942758022550
21
5.56487216139944
31
0.000000000000000
  0
LINE
  5
F10680
330
F10681
100
AcDbEntity
8
Geo
100
AcDbLine
10
-33.6942758022550
20
11.8283343200496
30
0.000000000000000
11
-33.5942758022550
21
11.7834646668236
31
0.000000000000000
  0
LINE
  5
F10682
330
F10683
100
AcDbEntity
8
Geo
100
AcDbLine
10
-33.5942758022550
20
11.7834646668236
30
0.000000000000000
11
-33.4942758022550
21
11.7380753032722
31
0.000000000000000
  0
LINE
  5
F10684
330
F10685
100
AcDbEntity
8
Geo
100
AcDbLine
10
-33.4942758022550
20
11.7380753032722
30
0.000000000000000
11
-33.3942758022550
21
11.6921756853487
31
0.000000000000000
  0
LINE
  5
F10686
330
F10687
100
AcDbEntity
8
Geo
100
AcDbLine
10
-33.3942758022550
20
11.6921756853487
30
0.000000000000000
11
-33.2942758022550
21
11.6457753753075
31
0.000000000000000
  0
LINE
  5
F10688
330
F10689
100
AcDbEntity
8
Geo
100
AcDbLine
10
-33.2942758022550
20
11.6457753753075
30
0.000000000000000
11
-33.1942758022550
21
11.5988840397133
31
0.000000000000000
  0
LINE
  5
F1068A
330
F1068B
100
AcDbEntity
8
Geo
100
AcDbLine
10
-33.1942758022550
20
11.5988840397133
30
0.000000000000000
11
-33.0942758022550
21
11.5515114474348
31
0.000000000000000
  0
LINE
  5
F1068C
330
F1068D
100
AcDbEntity
8
Geo
100
AcDbLine
10
-33.0942758022550
20
11.5515114474348
30
0.000000000000000
11
-32.9942758022550
21
11.5036674676447
31
0.000000000000000
  0
LINE
  5
F1068E
330
F1068F
100
AcDbEntity
8
Geo
100
AcDbLine
10
-32.9942758022550
20
11.5036674676447
30
0.000000000000000
11
-32.8942758022550
21
11.4553620678935
31
0.000000000000000
  0
LINE
  5
F10690
330
F10691
100
AcDbEntity
8
Geo
100
AcDbLine
10
-32.8942758022550
20
11.4553620678935
30
0.000000000000000
11
-32.7942758022550
21
11.4066053124271
31
0.000000000000000
  0
LINE
  5
F10692
330
F10693
100
AcDbEntity
8
Geo
100
AcDbLine
10
-32.7942758022550
20
11.4066053124271
30
0.000000000000000
11
-32.6942758022550
21
11.3574073611269
31
0.000000000000000
  0
LINE
  5
F10694
330
F10695
100
AcDbEntity
8
Geo
100
AcDbLine
10
-32.6942758022550
20
11.3574073611269
30
0.000000000000000
11
-32.5942758022550
21
11.3077784698339
31
0.000000000000000
  0
LINE
  5
F10696
330
F10697
100
AcDbEntity
8
Geo
100
AcDbLine
10
-32.5942758022550
20
11.3077784698339
30
0.000000000000000
11
-32.4942758022550
21
11.2577289934728
31
0.000000000000000
  0
LINE
  5
F10698
330
F10699
100
AcDbEntity
8
Geo
100
AcDbLine
10
-32.4942758022550
20
11.2577289934728
30
0.000000000000000
11
-32.3942758022550
21
11.2072693944336
31
0.000000000000000
  0
LINE
  5
F1069A
330
F1069B
100
AcDbEntity
8
Geo
100
AcDbLine
10
-32.3942758022550
20
11.2072693944336
30
0.000000000000000
11
-32.2942758022550
21
11.1564102602766
31
0.000000000000000
  0
LINE
  5
F1069C
330
F1069D
100
AcDbEntity
8
Geo
100
AcDbLine
10
-32.2942758022550
20
11.1564102602766
30
0.000000000000000
11
-32.1942758022550
21
11.1051623371798
31
0.000000000000000
  0
LINE
  5
F1069E
330
F1069F
100
AcDbEntity
8
Geo
100
AcDbLine
10
-32.1942758022550
20
11.1051623371798
30
0.000000000000000
11
-32.0942758022550
21
11.0535365889126
31
0.000000000000000
  0
LINE
  5
F106A0
330
F106A1
100
AcDbEntity
8
Geo
100
AcDbLine
10
-32.0942758022550
20
11.0535365889126
30
0.000000000000000
11
-31.9942758022550
21
11.0015442957707
31
0.000000000000000
  0
LINE
  5
F106A2
330
F106A3
100
AcDbEntity
8
Geo
100
AcDbLine
10
-31.9942758022550
20
11.0015442957707
30
0.000000000000000
11
-31.8942758022550
21
10.9491972142002
31
0.000000000000000
  0
LINE
  5
F106A4
330
F106A5
100
AcDbEntity
8
Geo
100
AcDbLine
10
-31.8942758022550
20
10.9491972142002
30
0.000000000000000
11
-31.7942758022550
21
10.8965078261725
31
0.000000000000000
  0
LINE
  5
F106A6
330
F106A7
100
AcDbEntity
8
Geo
100
AcDbLine
10
-31.7942758022550
20
10.8965078261725
30
0.000000000000000
11
-31.6942758022550
21
10.8434897181904
31
0.000000000000000
  0
LINE
  5
F106A8
330
F106A9
100
AcDbEntity
8
Geo
100
AcDbLine
10
-31.6942758022550
20
10.8434897181904
30
0.000000000000000
11
-31.5942758022550
21
10.7901581436449
31
0.000000000000000
  0
LINE
  5
F106AA
330
F106AB
100
AcDbEntity
8
Geo
100
AcDbLine
10
-31.5942758022550
20
10.7901581436449
30
0.000000000000000
11
-31.4942758022550
21
10.7365308396544
31
0.000000000000000
  0
LINE
  5
F106AC
330
F106AD
100
AcDbEntity
8
Geo
100
AcDbLine
10
-31.4942758022550
20
10.7365308396544
30
0.000000000000000
11
-31.3942758022550
21
10.6826291911557
31
0.000000000000000
  0
LINE
  5
F106AE
330
F106AF
100
AcDbEntity
8
Geo
100
AcDbLine
10
-31.3942758022550
20
10.6826291911557
30
0.000000000000000
11
-31.2942758022550
21
10.6284798615533
31
0.000000000000000
  0
LINE
  5
F106B0
330
F106B1
100
AcDbEntity
8
Geo
100
AcDbLine
10
-31.2942758022550
20
10.6284798615533
30
0.000000000000000
11
-31.1942758022550
21
10.5741170414255
31
0.000000000000000
  0
LINE
  5
F106B2
330
F106B3
100
AcDbEntity
8
Geo
100
AcDbLine
10
-31.1942758022550
20
10.5741170414255
30
0.000000000000000
11
-31.0942758022550
21
10.5195855054023
31
0.000000000000000
  0
LINE
  5
F106B4
330
F106B5
100
AcDbEntity
8
Geo
100
AcDbLine
10
-31.0942758022550
20
10.5195855054023
30
0.000000000000000
11
-30.9942758022550
21
10.4649447132022
31
0.000000000000000
  0
LINE
  5
F106B6
330
F106B7
100
AcDbEntity
8
Geo
100
AcDbLine
10
-30.9942758022550
20
10.4649447132022
30
0.000000000000000
11
-30.8942758022550
21
10.4102742447637
31
0.000000000000000
  0
LINE
  5
F106B8
330
F106B9
100
AcDbEntity
8
Geo
100
AcDbLine
10
-30.8942758022550
20
10.4102742447637
30
0.000000000000000
11
-30.7942758022550
21
10.3556809222810
31
0.000000000000000
  0
LINE
  5
F106BA
330
F106BB
100
AcDbEntity
8
Geo
100
AcDbLine
10
-30.7942758022550
20
10.3556809222810
30
0.000000000000000
11
-30.6942758022550
21
10.3013080445601
31
0.000000000000000
  0
LINE
  5
F106BC
330
F106BD
100
AcDbEntity
8
Geo
100
AcDbLine
10
-30.6942758022550
20
10.3013080445601
30
0.000000000000000
11
-30.5942758022550
21
10.2473472422518
31
0.000000000000000
  0
LINE
  5
F106BE
330
F106BF
100
AcDbEntity
8
Geo
100
AcDbLine
10
-30.5942758022550
20
10.2473472422518
30
0.000000000000000
11
-30.4942758022550
21
10.1940535569512
31
0.000000000000000
  0
LINE
  5
F106C0
330
F106C1
100
AcDbEntity
8
Geo
100
AcDbLine
10
-30.4942758022550
20
10.1940535569512
30
0.000000000000000
11
-30.3942758022550
21
10.1417644536272
31
0.000000000000000
  0
LINE
  5
F106C2
330
F106C3
100
AcDbEntity
8
Geo
100
AcDbLine
10
-30.3942758022550
20
10.1417644536272
30
0.000000000000000
11
-30.2942758022550
21
10.0909235950985
31
0.000000000000000
  0
LINE
  5
F106C4
330
F106C5
100
AcDbEntity
8
Geo
100
AcDbLine
10
-30.2942758022550
20
10.0909235950985
30
0.000000000000000
11
-30.1942758022550
21
10.0421103399848
31
0.000000000000000
  0
LINE
  5
F106C6
330
F106C7
100
AcDbEntity
8
Geo
100
AcDbLine
10
-30.1942758022550
20
10.0421103399848
30
0.000000000000000
11
-30.0942758022550
21
9.99607607203997
31
0.000000000000000
  0
LINE
  5
F106C8
330
F106C9
100
AcDbEntity
8
Geo
100
AcDbLine
10
-30.0942758022550
20
9.99607607203997
30
0.000000000000000
11
-29.9942758022550
21
9.95378862789691
31
0.000000000000000
  0
LINE
  5
F106CA
330
F106CB
100
AcDbEntity
8
Geo
100
AcDbLine
10
-29.9942758022550
20
9.95378862789691
30
0.000000000000000
11
-29.8942758022550
21
9.91648625658382
31
0.000000000000000
  0
LINE
  5
F106CC
330
F106CD
100
AcDbEntity
8
Geo
100
AcDbLine
10
-29.8942758022550
20
9.91648625658382
30
0.000000000000000
11
-29.7942758022550
21
9.88574270082797
31
0.000000000000000
  0
LINE
  5
F106CE
330
F106CF
100
AcDbEntity
8
Geo
100
AcDbLine
10
-29.7942758022550
20
9.88574270082797
30
0.000000000000000
11
-29.6942758022549
21
9.86354509260430
31
0.000000000000000
  0
LINE
  5
F106D0
330
F106D1
100
AcDbEntity
8
Geo
100
AcDbLine
10
-29.6942758022549
20
9.86354509260430
30
0.000000000000000
11
-29.5942758022549
21
9.85238629643690
31
0.000000000000000
  0
LINE
  5
F106D2
330
F106D3
100
AcDbEntity
8
Geo
100
AcDbLine
10
-29.5942758022549
20
9.85238629643690
30
0.000000000000000
11
-29.4942758022549
21
9.85537287159510
31
0.000000000000000
  0
LINE
  5
F106D4
330
F106D5
100
AcDbEntity
8
Geo
100
AcDbLine
10
-29.4942758022549
20
9.85537287159510
30
0.000000000000000
11
-29.3942758022549
21
9.87634843782329
31
0.000000000000000
  0
LINE
  5
F106D6
330
F106D7
100
AcDbEntity
8
Geo
100
AcDbLine
10
-29.3942758022549
20
9.87634843782329
30
0.000000000000000
11
-29.2942758022549
21
9.92002884180545
31
0.000000000000000
  0
LINE
  5
F106D8
330
F106D9
100
AcDbEntity
8
Geo
100
AcDbLine
10
-29.2942758022549
20
9.92002884180545
30
0.000000000000000
11
-29.1942758022549
21
9.99213798221227
31
0.000000000000000
  0
LINE
  5
F106DA
330
F106DB
100
AcDbEntity
8
Geo
100
AcDbLine
10
-29.1942758022549
20
9.99213798221227
30
0.000000000000000
11
-29.0942758022549
21
10.0995173012788
31
0.000000000000000
  0
LINE
  5
F106DC
330
F106DD
100
AcDbEntity
8
Geo
100
AcDbLine
10
-29.0942758022549
20
10.0995173012788
30
0.000000000000000
11
-28.9942758022549
21
10.2501500205106
31
0.000000000000000
  0
LINE
  5
F106DE
330
F106DF
100
AcDbEntity
8
Geo
100
AcDbLine
10
-28.9942758022549
20
10.2501500205106
30
0.000000000000000
11
-28.8942758022549
21
10.4529792505903
31
0.000000000000000
  0
LINE
  5
F106E0
330
F106E1
100
AcDbEntity
8
Geo
100
AcDbLine
10
-28.8942758022549
20
10.4529792505903
30
0.000000000000000
11
-28.7942758022549
21
10.7172835207321
31
0.000000000000000
  0
LINE
  5
F106E2
330
F106E3
100
AcDbEntity
8
Geo
100
AcDbLine
10
-28.7942758022549
20
10.7172835207321
30
0.000000000000000
11
-28.6942758022550
21
11.0511675960326
31
0.000000000000000
  0
LINE
  5
F106E4
330
F106E5
100
AcDbEntity
8
Geo
100
AcDbLine
10
-28.6942758022550
20
11.0511675960326
30
0.000000000000000
11
-28.6942758022550
21
11.1408490725712
31
0.000000000000000
  0
LINE
  5
F106E6
330
F106E7
100
AcDbEntity
8
Geo
100
AcDbLine
10
-28.6942758022550
20
11.1408490725712
30
0.000000000000000
11
-28.7942758022549
21
11.4824443783051
31
0.000000000000000
  0
LINE
  5
F106E8
330
F106E9
100
AcDbEntity
8
Geo
100
AcDbLine
10
-28.7942758022549
20
11.4824443783051
30
0.000000000000000
11
-28.8942758022549
21
11.7768974911761
31
0.000000000000000
  0
LINE
  5
F106EA
330
F106EB
100
AcDbEntity
8
Geo
100
AcDbLine
10
-28.8942758022549
20
11.7768974911761
30
0.000000000000000
11
-28.9942758022549
21
12.0288712569859
31
0.000000000000000
  0
LINE
  5
F106EC
330
F106ED
100
AcDbEntity
8
Geo
100
AcDbLine
10
-28.9942758022549
20
12.0288712569859
30
0.000000000000000
11
-29.0942758022549
21
12.2431734005414
31
0.000000000000000
  0
LINE
  5
F106EE
330
F106EF
100
AcDbEntity
8
Geo
100
AcDbLine
10
-29.0942758022549
20
12.2431734005414
30
0.000000000000000
11
-29.1942758022549
21
12.4244881559254
31
0.000000000000000
  0
LINE
  5
F106F0
330
F106F1
100
AcDbEntity
8
Geo
100
AcDbLine
10
-29.1942758022549
20
12.4244881559254
30
0.000000000000000
11
-29.2942758022549
21
12.5772106535503
31
0.000000000000000
  0
LINE
  5
F106F2
330
F106F3
100
AcDbEntity
8
Geo
100
AcDbLine
10
-29.2942758022549
20
12.5772106535503
30
0.000000000000000
11
-29.3942758022549
21
12.7053553340066
31
0.000000000000000
  0
LINE
  5
F106F4
330
F106F5
100
AcDbEntity
8
Geo
100
AcDbLine
10
-29.3942758022549
20
12.7053553340066
30
0.000000000000000
11
-29.4942758022549
21
12.8125158648417
31
0.000000000000000
  0
LINE
  5
F106F6
330
F106F7
100
AcDbEntity
8
Geo
100
AcDbLine
10
-29.4942758022549
20
12.8125158648417
30
0.000000000000000
11
-29.5942758022549
21
12.9018594856211
31
0.000000000000000
  0
LINE
  5
F106F8
330
F106F9
100
AcDbEntity
8
Geo
100
AcDbLine
10
-29.5942758022549
20
12.9018594856211
30
0.000000000000000
11
-29.6942758022549
21
12.9761432121063
31
0.000000000000000
  0
LINE
  5
F106FA
330
F106FB
100
AcDbEntity
8
Geo
100
AcDbLine
10
-29.6942758022549
20
12.9761432121063
30
0.000000000000000
11
-29.7942758022550
21
13.0377429011227
31
0.000000000000000
  0
LINE
  5
F106FC
330
F106FD
100
AcDbEntity
8
Geo
100
AcDbLine
10
-29.7942758022550
20
13.0377429011227
30
0.000000000000000
11
-29.8942758022550
21
13.0886889169201
31
0.000000000000000
  0
LINE
  5
F106FE
330
F106FF
100
AcDbEntity
8
Geo
100
AcDbLine
10
-29.8942758022550
20
13.0886889169201
30
0.000000000000000
11
-29.9942758022550
21
13.1307041851758
31
0.000000000000000
  0
LINE
  5
F10700
330
F10701
100
AcDbEntity
8
Geo
100
AcDbLine
10
-29.9942758022550
20
13.1307041851758
30
0.000000000000000
11
-30.0942758022550
21
13.1652419117214
31
0.000000000000000
  0
LINE
  5
F10702
330
F10703
100
AcDbEntity
8
Geo
100
AcDbLine
10
-30.0942758022550
20
13.1652419117214
30
0.000000000000000
11
-30.1942758022550
21
13.1935213050958
31
0.000000000000000
  0
LINE
  5
F10704
330
F10705
100
AcDbEntity
8
Geo
100
AcDbLine
10
-30.1942758022550
20
13.1935213050958
30
0.000000000000000
11
-30.2942758022550
21
13.2165603806135
31
0.000000000000000
  0
LINE
  5
F10706
330
F10707
100
AcDbEntity
8
Geo
100
AcDbLine
10
-30.2942758022550
20
13.2165603806135
30
0.000000000000000
11
-30.3942758022550
21
13.2352054235990
31
0.000000000000000
  0
LINE
  5
F10708
330
F10709
100
AcDbEntity
8
Geo
100
AcDbLine
10
-30.3942758022550
20
13.2352054235990
30
0.000000000000000
11
-30.4942758022550
21
13.2501570167612
31
0.000000000000000
  0
LINE
  5
F1070A
330
F1070B
100
AcDbEntity
8
Geo
100
AcDbLine
10
-30.4942758022550
20
13.2501570167612
30
0.000000000000000
11
-30.5942758022550
21
13.2619927414411
31
0.000000000000000
  0
LINE
  5
F1070C
330
F1070D
100
AcDbEntity
8
Geo
100
AcDbLine
10
-30.5942758022550
20
13.2619927414411
30
0.000000000000000
11
-30.6942758022550
21
13.2711867819331
31
0.000000000000000
  0
LINE
  5
F1070E
330
F1070F
100
AcDbEntity
8
Geo
100
AcDbLine
10
-30.6942758022550
20
13.2711867819331
30
0.000000000000000
11
-30.7942758022550
21
13.2781267234652
31
0.000000000000000
  0
LINE
  5
F10710
330
F10711
100
AcDbEntity
8
Geo
100
AcDbLine
10
-30.7942758022550
20
13.2781267234652
30
0.000000000000000
11
-30.8942758022550
21
13.2831278573145
31
0.000000000000000
  0
LINE
  5
F10712
330
F10713
100
AcDbEntity
8
Geo
100
AcDbLine
10
-30.8942758022550
20
13.2831278573145
30
0.000000000000000
11
-30.9942758022550
21
13.2864453048228
31
0.000000000000000
  0
LINE
  5
F10714
330
F10715
100
AcDbEntity
8
Geo
100
AcDbLine
10
-30.9942758022550
20
13.2864453048228
30
0.000000000000000
11
-31.0942758022550
21
13.2882842554152
31
0.000000000000000
  0
LINE
  5
F10716
330
F10717
100
AcDbEntity
8
Geo
100
AcDbLine
10
-31.0942758022550
20
13.2882842554152
30
0.000000000000000
11
-31.1870431122205
21
13.2888117953166
31
0.000000000000000
  0
LINE
  5
F10718
330
F10719
100
AcDbEntity
8
Geo
100
AcDbLine
10
-50.0942758022550
20
9.80755926004824
30
0.000000000000000
11
-50.0942758022550
21
8.84451763554390
31
0.000000000000000
  0
LINE
  5
F1071A
330
F1071B
100
AcDbEntity
8
Geo
100
AcDbLine
10
-50.0942758022550
20
8.84451763554390
30
0.000000000000000
11
-49.9942758022550
21
8.65733291179496
31
0.000000000000000
  0
LINE
  5
F1071C
330
F1071D
100
AcDbEntity
8
Geo
100
AcDbLine
10
-49.9942758022550
20
8.65733291179496
30
0.000000000000000
11
-49.8942758022550
21
8.53567456702853
31
0.000000000000000
  0
LINE
  5
F1071E
330
F1071F
100
AcDbEntity
8
Geo
100
AcDbLine
10
-49.8942758022550
20
8.53567456702853
30
0.000000000000000
11
-49.7942758022550
21
8.44484981111981
31
0.000000000000000
  0
LINE
  5
F10720
330
F10721
100
AcDbEntity
8
Geo
100
AcDbLine
10
-49.7942758022550
20
8.44484981111981
30
0.000000000000000
11
-49.6942758022550
21
8.37358101276644
31
0.000000000000000
  0
LINE
  5
F10722
330
F10723
100
AcDbEntity
8
Geo
100
AcDbLine
10
-49.6942758022550
20
8.37358101276644
30
0.000000000000000
11
-49.5942758022550
21
8.31657633175348
31
0.000000000000000
  0
LINE
  5
F10724
330
F10725
100
AcDbEntity
8
Geo
100
AcDbLine
10
-49.5942758022550
20
8.31657633175348
30
0.000000000000000
11
-49.4942758022550
21
8.27061055029959
31
0.000000000000000
  0
LINE
  5
F10726
330
F10727
100
AcDbEntity
8
Geo
100
AcDbLine
10
-49.4942758022550
20
8.27061055029959
30
0.000000000000000
11
-49.3942758022550
21
8.22718117305165
31
0.000000000000000
  0
LINE
  5
F10728
330
F10729
100
AcDbEntity
8
Geo
100
AcDbLine
10
-49.3942758022550
20
8.22718117305165
30
0.000000000000000
11
-49.2942758022550
21
8.18166932510404
31
0.000000000000000
  0
LINE
  5
F1072A
330
F1072B
100
AcDbEntity
8
Geo
100
AcDbLine
10
-49.2942758022550
20
8.18166932510404
30
0.000000000000000
11
-49.1942758022550
21
8.13430764964554
31
0.000000000000000
  0
LINE
  5
F1072C
330
F1072D
100
AcDbEntity
8
Geo
100
AcDbLine
10
-49.1942758022550
20
8.13430764964554
30
0.000000000000000
11
-49.0942758022550
21
8.08530914747562
31
0.000000000000000
  0
LINE
  5
F1072E
330
F1072F
100
AcDbEntity
8
Geo
100
AcDbLine
10
-49.0942758022550
20
8.08530914747562
30
0.000000000000000
11
-48.9942758022550
21
8.03487064333133
31
0.000000000000000
  0
LINE
  5
F10730
330
F10731
100
AcDbEntity
8
Geo
100
AcDbLine
10
-48.9942758022550
20
8.03487064333133
30
0.000000000000000
11
-48.8942758022550
21
7.98317550733557
31
0.000000000000000
  0
LINE
  5
F10732
330
F10733
100
AcDbEntity
8
Geo
100
AcDbLine
10
-48.8942758022550
20
7.98317550733557
30
0.000000000000000
11
-48.7942758022550
21
7.93039581812081
31
0.000000000000000
  0
LINE
  5
F10734
330
F10735
100
AcDbEntity
8
Geo
100
AcDbLine
10
-48.7942758022550
20
7.93039581812081
30
0.000000000000000
11
-48.6942758022550
21
7.87669410265364
31
0.000000000000000
  0
LINE
  5
F10736
330
F10737
100
AcDbEntity
8
Geo
100
AcDbLine
10
-48.6942758022550
20
7.87669410265364
30
0.000000000000000
11
-48.5942758022550
21
7.82222475147553
31
0.000000000000000
  0
LINE
  5
F10738
330
F10739
100
AcDbEntity
8
Geo
100
AcDbLine
10
-48.5942758022550
20
7.82222475147553
30
0.000000000000000
11
-48.4942758022550
21
7.76713518235913
31
0.000000000000000
  0
LINE
  5
F1073A
330
F1073B
100
AcDbEntity
8
Geo
100
AcDbLine
10
-48.4942758022550
20
7.76713518235913
30
0.000000000000000
11
-48.3942758022550
21
7.71156680700874
31
0.000000000000000
  0
LINE
  5
F1073C
330
F1073D
100
AcDbEntity
8
Geo
100
AcDbLine
10
-48.3942758022550
20
7.71156680700874
30
0.000000000000000
11
-48.2942758022550
21
7.65565584217562
31
0.000000000000000
  0
LINE
  5
F1073E
330
F1073F
100
AcDbEntity
8
Geo
100
AcDbLine
10
-48.2942758022550
20
7.65565584217562
30
0.000000000000000
11
-48.1942758022550
21
7.59953399688812
31
0.000000000000000
  0
LINE
  5
F10740
330
F10741
100
AcDbEntity
8
Geo
100
AcDbLine
10
-48.1942758022550
20
7.59953399688812
30
0.000000000000000
11
-48.0942758022550
21
7.54332906036881
31
0.000000000000000
  0
LINE
  5
F10742
330
F10743
100
AcDbEntity
8
Geo
100
AcDbLine
10
-48.0942758022550
20
7.54332906036881
30
0.000000000000000
11
-47.9942758022550
21
7.48716540990326
31
0.000000000000000
  0
LINE
  5
F10744
330
F10745
100
AcDbEntity
8
Geo
100
AcDbLine
10
-47.9942758022550
20
7.48716540990326
30
0.000000000000000
11
-47.8942758022550
21
7.43116445393753
31
0.000000000000000
  0
LINE
  5
F10746
330
F10747
100
AcDbEntity
8
Geo
100
AcDbLine
10
-47.8942758022550
20
7.43116445393753
30
0.000000000000000
11
-47.7942758022550
21
7.37544502265968
31
0.000000000000000
  0
LINE
  5
F10748
330
F10749
100
AcDbEntity
8
Geo
100
AcDbLine
10
-47.7942758022550
20
7.37544502265968
30
0.000000000000000
11
-47.6942758022550
21
7.32012371601553
31
0.000000000000000
  0
LINE
  5
F1074A
330
F1074B
100
AcDbEntity
8
Geo
100
AcDbLine
10
-47.6942758022550
20
7.32012371601553
30
0.000000000000000
11
-47.5942758022550
21
7.26531521734108
31
0.000000000000000
  0
LINE
  5
F1074C
330
F1074D
100
AcDbEntity
8
Geo
100
AcDbLine
10
-47.5942758022550
20
7.26531521734108
30
0.000000000000000
11
-47.4942758022550
21
7.21113257943375
31
0.000000000000000
  0
LINE
  5
F1074E
330
F1074F
100
AcDbEntity
8
Geo
100
AcDbLine
10
-47.4942758022550
20
7.21113257943375
30
0.000000000000000
11
-47.3942758022550
21
7.15768748883864
31
0.000000000000000
  0
LINE
  5
F10750
330
F10751
100
AcDbEntity
8
Geo
100
AcDbLine
10
-47.3942758022550
20
7.15768748883864
30
0.000000000000000
11
-47.2942758022550
21
7.10509051332495
31
0.000000000000000
  0
LINE
  5
F10752
330
F10753
100
AcDbEntity
8
Geo
100
AcDbLine
10
-47.2942758022550
20
7.10509051332495
30
0.000000000000000
11
-47.1942758022550
21
7.05345133692212
31
0.000000000000000
  0
LINE
  5
F10754
330
F10755
100
AcDbEntity
8
Geo
100
AcDbLine
10
-47.1942758022550
20
7.05345133692212
30
0.000000000000000
11
-47.0942758022550
21
7.00287898643711
31
0.000000000000000
  0
LINE
  5
F10756
330
F10757
100
AcDbEntity
8
Geo
100
AcDbLine
10
-47.0942758022550
20
7.00287898643711
30
0.000000000000000
11
-46.9942758022550
21
6.95348205305915
31
0.000000000000000
  0
LINE
  5
F10758
330
F10759
100
AcDbEntity
8
Geo
100
AcDbLine
10
-46.9942758022550
20
6.95348205305915
30
0.000000000000000
11
-46.8942758022550
21
6.90536891245556
31
0.000000000000000
  0
LINE
  5
F1075A
330
F1075B
100
AcDbEntity
8
Geo
100
AcDbLine
10
-46.8942758022550
20
6.90536891245556
30
0.000000000000000
11
-46.7942758022550
21
6.85864794666164
31
0.000000000000000
  0
LINE
  5
F1075C
330
F1075D
100
AcDbEntity
8
Geo
100
AcDbLine
10
-46.7942758022550
20
6.85864794666164
30
0.000000000000000
11
-46.6942758022550
21
6.81342777106108
31
0.000000000000000
  0
LINE
  5
F1075E
330
F1075F
100
AcDbEntity
8
Geo
100
AcDbLine
10
-46.6942758022550
20
6.81342777106108
30
0.000000000000000
11
-46.5942758022550
21
6.76925369158573
31
0.000000000000000
  0
LINE
  5
F10760
330
F10761
100
AcDbEntity
8
Geo
100
AcDbLine
10
-46.5942758022550
20
6.76925369158573
30
0.000000000000000
11
-46.4942758022550
21
6.72560451093572
31
0.000000000000000
  0
LINE
  5
F10762
330
F10763
100
AcDbEntity
8
Geo
100
AcDbLine
10
-46.4942758022550
20
6.72560451093572
30
0.000000000000000
11
-46.3942758022550
21
6.68248932253250
31
0.000000000000000
  0
LINE
  5
F10764
330
F10765
100
AcDbEntity
8
Geo
100
AcDbLine
10
-46.3942758022550
20
6.68248932253250
30
0.000000000000000
11
-46.2942758022550
21
6.63991710855104
31
0.000000000000000
  0
LINE
  5
F10766
330
F10767
100
AcDbEntity
8
Geo
100
AcDbLine
10
-46.2942758022550
20
6.63991710855104
30
0.000000000000000
11
-46.1942758022550
21
6.59789673804861
31
0.000000000000000
  0
LINE
  5
F10768
330
F10769
100
AcDbEntity
8
Geo
100
AcDbLine
10
-46.1942758022550
20
6.59789673804861
30
0.000000000000000
11
-46.0942758022550
21
6.55643696511708
31
0.000000000000000
  0
LINE
  5
F1076A
330
F1076B
100
AcDbEntity
8
Geo
100
AcDbLine
10
-46.0942758022550
20
6.55643696511708
30
0.000000000000000
11
-45.9942758022550
21
6.51554642705918
31
0.000000000000000
  0
LINE
  5
F1076C
330
F1076D
100
AcDbEntity
8
Geo
100
AcDbLine
10
-45.9942758022550
20
6.51554642705918
30
0.000000000000000
11
-45.8942758022550
21
6.47523364258912
31
0.000000000000000
  0
LINE
  5
F1076E
330
F1076F
100
AcDbEntity
8
Geo
100
AcDbLine
10
-45.8942758022550
20
6.47523364258912
30
0.000000000000000
11
-45.7942758022550
21
6.43550701005786
31
0.000000000000000
  0
LINE
  5
F10770
330
F10771
100
AcDbEntity
8
Geo
100
AcDbLine
10
-45.7942758022550
20
6.43550701005786
30
0.000000000000000
11
-45.6942758022550
21
6.39637480570349
31
0.000000000000000
  0
LINE
  5
F10772
330
F10773
100
AcDbEntity
8
Geo
100
AcDbLine
10
-45.6942758022550
20
6.39637480570349
30
0.000000000000000
11
-45.5942758022550
21
6.35784518192704
31
0.000000000000000
  0
LINE
  5
F10774
330
F10775
100
AcDbEntity
8
Geo
100
AcDbLine
10
-45.5942758022550
20
6.35784518192704
30
0.000000000000000
11
-45.4942758022550
21
6.31992616559412
31
0.000000000000000
  0
LINE
  5
F10776
330
F10777
100
AcDbEntity
8
Geo
100
AcDbLine
10
-45.4942758022550
20
6.31992616559412
30
0.000000000000000
11
-45.3942758022550
21
6.28262565636264
31
0.000000000000000
  0
LINE
  5
F10778
330
F10779
100
AcDbEntity
8
Geo
100
AcDbLine
10
-45.3942758022550
20
6.28262565636264
30
0.000000000000000
11
-45.2942758022550
21
6.24595142503711
31
0.000000000000000
  0
LINE
  5
F1077A
330
F1077B
100
AcDbEntity
8
Geo
100
AcDbLine
10
-45.2942758022550
20
6.24595142503711
30
0.000000000000000
11
-45.1942758022550
21
6.20991111194975
31
0.000000000000000
  0
LINE
  5
F1077C
330
F1077D
100
AcDbEntity
8
Geo
100
AcDbLine
10
-45.1942758022550
20
6.20991111194975
30
0.000000000000000
11
-45.0942758022550
21
6.17451222536877
31
0.000000000000000
  0
LINE
  5
F1077E
330
F1077F
100
AcDbEntity
8
Geo
100
AcDbLine
10
-45.0942758022550
20
6.17451222536877
30
0.000000000000000
11
-44.9942758022550
21
6.13976213993417
31
0.000000000000000
  0
LINE
  5
F10780
330
F10781
100
AcDbEntity
8
Geo
100
AcDbLine
10
-44.9942758022550
20
6.13976213993417
30
0.000000000000000
11
-44.8942758022550
21
6.10566809512139
31
0.000000000000000
  0
LINE
  5
F10782
330
F10783
100
AcDbEntity
8
Geo
100
AcDbLine
10
-44.8942758022550
20
6.10566809512139
30
0.000000000000000
11
-44.7942758022550
21
6.07223719373312
31
0.000000000000000
  0
LINE
  5
F10784
330
F10785
100
AcDbEntity
8
Geo
100
AcDbLine
10
-44.7942758022550
20
6.07223719373312
30
0.000000000000000
11
-44.6942758022550
21
6.03947640041958
31
0.000000000000000
  0
LINE
  5
F10786
330
F10787
100
AcDbEntity
8
Geo
100
AcDbLine
10
-44.6942758022550
20
6.03947640041958
30
0.000000000000000
11
-44.5942758022550
21
6.00739254022754
31
0.000000000000000
  0
LINE
  5
F10788
330
F10789
100
AcDbEntity
8
Geo
100
AcDbLine
10
-44.5942758022550
20
6.00739254022754
30
0.000000000000000
11
-44.4942758022550
21
5.97599229717850
31
0.000000000000000
  0
LINE
  5
F1078A
330
F1078B
100
AcDbEntity
8
Geo
100
AcDbLine
10
-44.4942758022550
20
5.97599229717850
30
0.000000000000000
11
-44.3942758022550
21
5.94528221287620
31
0.000000000000000
  0
LINE
  5
F1078C
330
F1078D
100
AcDbEntity
8
Geo
100
AcDbLine
10
-44.3942758022550
20
5.94528221287620
30
0.000000000000000
11
-44.2942758022550
21
5.91526868514377
31
0.000000000000000
  0
LINE
  5
F1078E
330
F1078F
100
AcDbEntity
8
Geo
100
AcDbLine
10
-44.2942758022550
20
5.91526868514377
30
0.000000000000000
11
-44.1942758022550
21
5.88595796669096
31
0.000000000000000
  0
LINE
  5
F10790
330
F10791
100
AcDbEntity
8
Geo
100
AcDbLine
10
-44.1942758022550
20
5.88595796669096
30
0.000000000000000
11
-44.0942758022550
21
5.85735616381142
31
0.000000000000000
  0
LINE
  5
F10792
330
F10793
100
AcDbEntity
8
Geo
100
AcDbLine
10
-44.0942758022550
20
5.85735616381142
30
0.000000000000000
11
-43.9942758022550
21
5.82946923511064
31
0.000000000000000
  0
LINE
  5
F10794
330
F10795
100
AcDbEntity
8
Geo
100
AcDbLine
10
-43.9942758022550
20
5.82946923511064
30
0.000000000000000
11
-43.8942758022550
21
5.80230299026457
31
0.000000000000000
  0
LINE
  5
F10796
330
F10797
100
AcDbEntity
8
Geo
100
AcDbLine
10
-43.8942758022550
20
5.80230299026457
30
0.000000000000000
11
-43.7942758022550
21
5.77586308880928
31
0.000000000000000
  0
LINE
  5
F10798
330
F10799
100
AcDbEntity
8
Geo
100
AcDbLine
10
-43.7942758022550
20
5.77586308880928
30
0.000000000000000
11
-43.6942758022550
21
5.75015503896197
31
0.000000000000000
  0
LINE
  5
F1079A
330
F1079B
100
AcDbEntity
8
Geo
100
AcDbLine
10
-43.6942758022550
20
5.75015503896197
30
0.000000000000000
11
-43.5942758022550
21
5.72518419647335
31
0.000000000000000
  0
LINE
  5
F1079C
330
F1079D
100
AcDbEntity
8
Geo
100
AcDbLine
10
-43.5942758022550
20
5.72518419647335
30
0.000000000000000
11
-43.4942758022550
21
5.70095576351198
31
0.000000000000000
  0
LINE
  5
F1079E
330
F1079F
100
AcDbEntity
8
Geo
100
AcDbLine
10
-43.4942758022550
20
5.70095576351198
30
0.000000000000000
11
-43.3942758022550
21
5.67747478758041
31
0.000000000000000
  0
LINE
  5
F107A0
330
F107A1
100
AcDbEntity
8
Geo
100
AcDbLine
10
-43.3942758022550
20
5.67747478758041
30
0.000000000000000
11
-43.2942758022550
21
5.65474616046370
31
0.000000000000000
  0
LINE
  5
F107A2
330
F107A3
100
AcDbEntity
8
Geo
100
AcDbLine
10
-43.2942758022550
20
5.65474616046370
30
0.000000000000000
11
-43.1942758022550
21
5.63277461721030
31
0.000000000000000
  0
LINE
  5
F107A4
330
F107A5
100
AcDbEntity
8
Geo
100
AcDbLine
10
-43.1942758022550
20
5.63277461721030
30
0.000000000000000
11
-43.0942758022550
21
5.61156473514558
31
0.000000000000000
  0
LINE
  5
F107A6
330
F107A7
100
AcDbEntity
8
Geo
100
AcDbLine
10
-43.0942758022550
20
5.61156473514558
30
0.000000000000000
11
-42.9942758022550
21
5.59112093291827
31
0.000000000000000
  0
LINE
  5
F107A8
330
F107A9
100
AcDbEntity
8
Geo
100
AcDbLine
10
-42.9942758022550
20
5.59112093291827
30
0.000000000000000
11
-42.8942758022550
21
5.57144746957987
31
0.000000000000000
  0
LINE
  5
F107AA
330
F107AB
100
AcDbEntity
8
Geo
100
AcDbLine
10
-42.8942758022550
20
5.57144746957987
30
0.000000000000000
11
-42.7942758022550
21
5.55254844369744
31
0.000000000000000
  0
LINE
  5
F107AC
330
F107AD
100
AcDbEntity
8
Geo
100
AcDbLine
10
-42.7942758022550
20
5.55254844369744
30
0.000000000000000
11
-42.6942758022550
21
5.53442779249967
31
0.000000000000000
  0
LINE
  5
F107AE
330
F107AF
100
AcDbEntity
8
Geo
100
AcDbLine
10
-42.6942758022550
20
5.53442779249967
30
0.000000000000000
11
-42.5942758022550
21
5.51708929105669
31
0.000000000000000
  0
LINE
  5
F107B0
330
F107B1
100
AcDbEntity
8
Geo
100
AcDbLine
10
-42.5942758022550
20
5.51708929105669
30
0.000000000000000
11
-42.4942758022550
21
5.50053655149358
31
0.000000000000000
  0
LINE
  5
F107B2
330
F107B3
100
AcDbEntity
8
Geo
100
AcDbLine
10
-42.4942758022550
20
5.50053655149358
30
0.000000000000000
11
-42.3942758022550
21
5.48477302223790
31
0.000000000000000
  0
LINE
  5
F107B4
330
F107B5
100
AcDbEntity
8
Geo
100
AcDbLine
10
-42.3942758022550
20
5.48477302223790
30
0.000000000000000
11
-42.2942758022550
21
5.46980198730122
31
0.000000000000000
  0
LINE
  5
F107B6
330
F107B7
100
AcDbEntity
8
Geo
100
AcDbLine
10
-42.2942758022550
20
5.46980198730122
30
0.000000000000000
11
-42.1942758022550
21
5.45562656559500
31
0.000000000000000
  0
LINE
  5
F107B8
330
F107B9
100
AcDbEntity
8
Geo
100
AcDbLine
10
-42.1942758022550
20
5.45562656559500
30
0.000000000000000
11
-42.0942758022550
21
5.44224971028083
31
0.000000000000000
  0
LINE
  5
F107BA
330
F107BB
100
AcDbEntity
8
Geo
100
AcDbLine
10
-42.0942758022550
20
5.44224971028083
30
0.000000000000000
11
-41.9942758022550
21
5.42967420815518
31
0.000000000000000
  0
LINE
  5
F107BC
330
F107BD
100
AcDbEntity
8
Geo
100
AcDbLine
10
-41.9942758022550
20
5.42967420815518
30
0.000000000000000
11
-41.8942758022550
21
5.41790267906884
31
0.000000000000000
  0
LINE
  5
F107BE
330
F107BF
100
AcDbEntity
8
Geo
100
AcDbLine
10
-41.8942758022550
20
5.41790267906884
30
0.000000000000000
11
-41.7942758022550
21
5.40693757538114
31
0.000000000000000
  0
LINE
  5
F107C0
330
F107C1
100
AcDbEntity
8
Geo
100
AcDbLine
10
-41.7942758022550
20
5.40693757538114
30
0.000000000000000
11
-41.6942758022550
21
5.39678118144901
31
0.000000000000000
  0
LINE
  5
F107C2
330
F107C3
100
AcDbEntity
8
Geo
100
AcDbLine
10
-41.6942758022550
20
5.39678118144901
30
0.000000000000000
11
-41.5942758022550
21
5.38743561315112
31
0.000000000000000
  0
LINE
  5
F107C4
330
F107C5
100
AcDbEntity
8
Geo
100
AcDbLine
10
-41.5942758022550
20
5.38743561315112
30
0.000000000000000
11
-41.4942758022550
21
5.37890281744707
31
0.000000000000000
  0
LINE
  5
F107C6
330
F107C7
100
AcDbEntity
8
Geo
100
AcDbLine
10
-41.4942758022550
20
5.37890281744707
30
0.000000000000000
11
-41.3942758022550
21
5.37118457197176
31
0.000000000000000
  0
LINE
  5
F107C8
330
F107C9
100
AcDbEntity
8
Geo
100
AcDbLine
10
-41.3942758022550
20
5.37118457197176
30
0.000000000000000
11
-41.2942758022550
21
5.36428248466509
31
0.000000000000000
  0
LINE
  5
F107CA
330
F107CB
100
AcDbEntity
8
Geo
100
AcDbLine
10
-41.2942758022550
20
5.36428248466509
30
0.000000000000000
11
-41.1942758022550
21
5.35819799343695
31
0.000000000000000
  0
LINE
  5
F107CC
330
F107CD
100
AcDbEntity
8
Geo
100
AcDbLine
10
-41.1942758022550
20
5.35819799343695
30
0.000000000000000
11
-41.0942758022550
21
5.35293236586766
31
0.000000000000000
  0
LINE
  5
F107CE
330
F107CF
100
AcDbEntity
8
Geo
100
AcDbLine
10
-41.0942758022550
20
5.35293236586766
30
0.000000000000000
11
-40.9942758022550
21
5.34848669894394
31
0.000000000000000
  0
LINE
  5
F107D0
330
F107D1
100
AcDbEntity
8
Geo
100
AcDbLine
10
-40.9942758022550
20
5.34848669894394
30
0.000000000000000
11
-40.8942758022550
21
5.34486191883031
31
0.000000000000000
  0
LINE
  5
F107D2
330
F107D3
100
AcDbEntity
8
Geo
100
AcDbLine
10
-40.8942758022550
20
5.34486191883031
30
0.000000000000000
11
-40.7942758022550
21
5.34205878067617
31
0.000000000000000
  0
LINE
  5
F107D4
330
F107D5
100
AcDbEntity
8
Geo
100
AcDbLine
10
-40.7942758022550
20
5.34205878067617
30
0.000000000000000
11
-40.6942758022550
21
5.34007786845852
31
0.000000000000000
  0
LINE
  5
F107D6
330
F107D7
100
AcDbEntity
8
Geo
100
AcDbLine
10
-40.6942758022550
20
5.34007786845852
30
0.000000000000000
11
-40.5942758022550
21
5.33891959486023
31
0.000000000000000
  0
LINE
  5
F107D8
330
F107D9
100
AcDbEntity
8
Geo
100
AcDbLine
10
-40.5942758022550
20
5.33891959486023
30
0.000000000000000
11
-40.5035211355259
21
5.28881179531658
31
0.000000000000000
  0
LINE
  5
F107DA
330
F107DB
100
AcDbEntity
8
Geo
100
AcDbLine
10
-50.0942758022550
20
7.27928908186434
30
0.000000000000000
11
-50.0942758022550
21
7.18168104474603
31
0.000000000000000
  0
LINE
  5
F107DC
330
F107DD
100
AcDbEntity
8
Geo
100
AcDbLine
10
-40.5035211355259
20
13.2888117953166
30
0.000000000000000
11
-40.4942758022550
21
13.2390393894491
31
0.000000000000000
  0
LINE
  5
F107DE
330
F107DF
100
AcDbEntity
8
Geo
100
AcDbLine
10
-40.4942758022550
20
13.2390393894491
30
0.000000000000000
11
-40.3942758022550
21
13.2385518333305
31
0.000000000000000
  0
LINE
  5
F107E0
330
F107E1
100
AcDbEntity
8
Geo
100
AcDbLine
10
-40.3942758022550
20
13.2385518333305
30
0.000000000000000
11
-40.2942758022550
21
13.2372414289898
31
0.000000000000000
  0
LINE
  5
F107E2
330
F107E3
100
AcDbEntity
8
Geo
100
AcDbLine
10
-40.2942758022550
20
13.2372414289898
30
0.000000000000000
11
-40.1942758022550
21
13.2351084494230
31
0.000000000000000
  0
LINE
  5
F107E4
330
F107E5
100
AcDbEntity
8
Geo
100
AcDbLine
10
-40.1942758022550
20
13.2351084494230
30
0.000000000000000
11
-40.0942758022550
21
13.2321533389932
31
0.000000000000000
  0
LINE
  5
F107E6
330
F107E7
100
AcDbEntity
8
Geo
100
AcDbLine
10
-40.0942758022550
20
13.2321533389932
30
0.000000000000000
11
-39.9942758022550
21
13.2283767133378
31
0.000000000000000
  0
LINE
  5
F107E8
330
F107E9
100
AcDbEntity
8
Geo
100
AcDbLine
10
-39.9942758022550
20
13.2283767133378
30
0.000000000000000
11
-39.8942758022550
21
13.2237793592399
31
0.000000000000000
  0
LINE
  5
F107EA
330
F107EB
100
AcDbEntity
8
Geo
100
AcDbLine
10
-39.8942758022550
20
13.2237793592399
30
0.000000000000000
11
-39.7942758022550
21
13.2183622344652
31
0.000000000000000
  0
LINE
  5
F107EC
330
F107ED
100
AcDbEntity
8
Geo
100
AcDbLine
10
-39.7942758022550
20
13.2183622344652
30
0.000000000000000
11
-39.6942758022550
21
13.2121264675617
31
0.000000000000000
  0
LINE
  5
F107EE
330
F107EF
100
AcDbEntity
8
Geo
100
AcDbLine
10
-39.6942758022550
20
13.2121264675617
30
0.000000000000000
11
-39.5942758022550
21
13.2050733576249
31
0.000000000000000
  0
LINE
  5
F107F0
330
F107F1
100
AcDbEntity
8
Geo
100
AcDbLine
10
-39.5942758022550
20
13.2050733576249
30
0.000000000000000
11
-39.4942758022550
21
13.1972043740273
31
0.000000000000000
  0
LINE
  5
F107F2
330
F107F3
100
AcDbEntity
8
Geo
100
AcDbLine
10
-39.4942758022550
20
13.1972043740273
30
0.000000000000000
11
-39.3942758022550
21
13.1885211561119
31
0.000000000000000
  0
LINE
  5
F107F4
330
F107F5
100
AcDbEntity
8
Geo
100
AcDbLine
10
-39.3942758022550
20
13.1885211561119
30
0.000000000000000
11
-39.2942758022550
21
13.1790255128511
31
0.000000000000000
  0
LINE
  5
F107F6
330
F107F7
100
AcDbEntity
8
Geo
100
AcDbLine
10
-39.2942758022550
20
13.1790255128511
30
0.000000000000000
11
-39.1942758022550
21
13.1687194224696
31
0.000000000000000
  0
LINE
  5
F107F8
330
F107F9
100
AcDbEntity
8
Geo
100
AcDbLine
10
-39.1942758022550
20
13.1687194224696
30
0.000000000000000
11
-39.0942758022550
21
13.1576050320322
31
0.000000000000000
  0
LINE
  5
F107FA
330
F107FB
100
AcDbEntity
8
Geo
100
AcDbLine
10
-39.0942758022550
20
13.1576050320322
30
0.000000000000000
11
-38.9942758022550
21
13.1456846569968
31
0.000000000000000
  0
LINE
  5
F107FC
330
F107FD
100
AcDbEntity
8
Geo
100
AcDbLine
10
-38.9942758022550
20
13.1456846569968
30
0.000000000000000
11
-38.8942758022550
21
13.1329607807317
31
0.000000000000000
  0
LINE
  5
F107FE
330
F107FF
100
AcDbEntity
8
Geo
100
AcDbLine
10
-38.8942758022550
20
13.1329607807317
30
0.000000000000000
11
-38.7942758022550
21
13.1194360539984
31
0.000000000000000
  0
LINE
  5
F10800
330
F10801
100
AcDbEntity
8
Geo
100
AcDbLine
10
-38.7942758022550
20
13.1194360539984
30
0.000000000000000
11
-38.6942758022550
21
13.1051132943994
31
0.000000000000000
  0
LINE
  5
F10802
330
F10803
100
AcDbEntity
8
Geo
100
AcDbLine
10
-38.6942758022550
20
13.1051132943994
30
0.000000000000000
11
-38.5942758022550
21
13.0899954857912
31
0.000000000000000
  0
LINE
  5
F10804
330
F10805
100
AcDbEntity
8
Geo
100
AcDbLine
10
-38.5942758022550
20
13.0899954857912
30
0.000000000000000
11
-38.4942758022550
21
13.0740857776626
31
0.000000000000000
  0
LINE
  5
F10806
330
F10807
100
AcDbEntity
8
Geo
100
AcDbLine
10
-38.4942758022550
20
13.0740857776626
30
0.000000000000000
11
-38.3942758022550
21
13.0573874844785
31
0.000000000000000
  0
LINE
  5
F10808
330
F10809
100
AcDbEntity
8
Geo
100
AcDbLine
10
-38.3942758022550
20
13.0573874844785
30
0.000000000000000
11
-38.2942758022550
21
13.0399040849896
31
0.000000000000000
  0
LINE
  5
F1080A
330
F1080B
100
AcDbEntity
8
Geo
100
AcDbLine
10
-38.2942758022550
20
13.0399040849896
30
0.000000000000000
11
-38.1942758022550
21
13.0216392215075
31
0.000000000000000
  0
LINE
  5
F1080C
330
F1080D
100
AcDbEntity
8
Geo
100
AcDbLine
10
-38.1942758022550
20
13.0216392215075
30
0.000000000000000
11
-38.0942758022550
21
13.0025966991462
31
0.000000000000000
  0
LINE
  5
F1080E
330
F1080F
100
AcDbEntity
8
Geo
100
AcDbLine
10
-38.0942758022550
20
13.0025966991462
30
0.000000000000000
11
-37.9942758022550
21
12.9827804850289
31
0.000000000000000
  0
LINE
  5
F10810
330
F10811
100
AcDbEntity
8
Geo
100
AcDbLine
10
-37.9942758022550
20
12.9827804850289
30
0.000000000000000
11
-37.8942758022550
21
12.9621947074618
31
0.000000000000000
  0
LINE
  5
F10812
330
F10813
100
AcDbEntity
8
Geo
100
AcDbLine
10
-37.8942758022550
20
12.9621947074618
30
0.000000000000000
11
-37.7942758022550
21
12.9408436550742
31
0.000000000000000
  0
LINE
  5
F10814
330
F10815
100
AcDbEntity
8
Geo
100
AcDbLine
10
-37.7942758022550
20
12.9408436550742
30
0.000000000000000
11
-37.6942758022550
21
12.9187317759248
31
0.000000000000000
  0
LINE
  5
F10816
330
F10817
100
AcDbEntity
8
Geo
100
AcDbLine
10
-37.6942758022550
20
12.9187317759248
30
0.000000000000000
11
-37.5942758022550
21
12.8958636765750
31
0.000000000000000
  0
LINE
  5
F10818
330
F10819
100
AcDbEntity
8
Geo
100
AcDbLine
10
-37.5942758022550
20
12.8958636765750
30
0.000000000000000
11
-37.4942758022550
21
12.8722441211295
31
0.000000000000000
  0
LINE
  5
F1081A
330
F1081B
100
AcDbEntity
8
Geo
100
AcDbLine
10
-37.4942758022550
20
12.8722441211295
30
0.000000000000000
11
-37.3942758022550
21
12.8478780302437
31
0.000000000000000
  0
LINE
  5
F1081C
330
F1081D
100
AcDbEntity
8
Geo
100
AcDbLine
10
-37.3942758022550
20
12.8478780302437
30
0.000000000000000
11
-37.2942758022550
21
12.8227704800982
31
0.000000000000000
  0
LINE
  5
F1081E
330
F1081F
100
AcDbEntity
8
Geo
100
AcDbLine
10
-37.2942758022550
20
12.8227704800982
30
0.000000000000000
11
-37.1942758022550
21
12.7969267013420
31
0.000000000000000
  0
LINE
  5
F10820
330
F10821
100
AcDbEntity
8
Geo
100
AcDbLine
10
-37.1942758022550
20
12.7969267013420
30
0.000000000000000
11
-37.0942758022550
21
12.7703520780021
31
0.000000000000000
  0
LINE
  5
F10822
330
F10823
100
AcDbEntity
8
Geo
100
AcDbLine
10
-37.0942758022550
20
12.7703520780021
30
0.000000000000000
11
-36.9942758022550
21
12.7430521463623
31
0.000000000000000
  0
LINE
  5
F10824
330
F10825
100
AcDbEntity
8
Geo
100
AcDbLine
10
-36.9942758022550
20
12.7430521463623
30
0.000000000000000
11
-36.8942758022550
21
12.7150325938095
31
0.000000000000000
  0
LINE
  5
F10826
330
F10827
100
AcDbEntity
8
Geo
100
AcDbLine
10
-36.8942758022550
20
12.7150325938095
30
0.000000000000000
11
-36.7942758022550
21
12.6862992576493
31
0.000000000000000
  0
LINE
  5
F10828
330
F10829
100
AcDbEntity
8
Geo
100
AcDbLine
10
-36.7942758022550
20
12.6862992576493
30
0.000000000000000
11
-36.6942758022550
21
12.6568581238893
31
0.000000000000000
  0
LINE
  5
F1082A
330
F1082B
100
AcDbEntity
8
Geo
100
AcDbLine
10
-36.6942758022550
20
12.6568581238893
30
0.000000000000000
11
-36.5942758022550
21
12.6267153259927
31
0.000000000000000
  0
LINE
  5
F1082C
330
F1082D
100
AcDbEntity
8
Geo
100
AcDbLine
10
-36.5942758022550
20
12.6267153259927
30
0.000000000000000
11
-36.4942758022550
21
12.5958771436000
31
0.000000000000000
  0
LINE
  5
F1082E
330
F1082F
100
AcDbEntity
8
Geo
100
AcDbLine
10
-36.4942758022550
20
12.5958771436000
30
0.000000000000000
11
-36.3942758022550
21
12.5643500012210
31
0.000000000000000
  0
LINE
  5
F10830
330
F10831
100
AcDbEntity
8
Geo
100
AcDbLine
10
-36.3942758022550
20
12.5643500012210
30
0.000000000000000
11
-36.2942758022550
21
12.5321404668962
31
0.000000000000000
  0
LINE
  5
F10832
330
F10833
100
AcDbEntity
8
Geo
100
AcDbLine
10
-36.2942758022550
20
12.5321404668962
30
0.000000000000000
11
-36.1942758022550
21
12.4992552508289
31
0.000000000000000
  0
LINE
  5
F10834
330
F10835
100
AcDbEntity
8
Geo
100
AcDbLine
10
-36.1942758022550
20
12.4992552508289
30
0.000000000000000
11
-36.0942758022550
21
12.4657012039869
31
0.000000000000000
  0
LINE
  5
F10836
330
F10837
100
AcDbEntity
8
Geo
100
AcDbLine
10
-36.0942758022550
20
12.4657012039869
30
0.000000000000000
11
-35.9942758022550
21
12.4314853166751
31
0.000000000000000
  0
LINE
  5
F10838
330
F10839
100
AcDbEntity
8
Geo
100
AcDbLine
10
-35.9942758022550
20
12.4314853166751
30
0.000000000000000
11
-35.8942758022550
21
12.3966147170796
31
0.000000000000000
  0
LINE
  5
F1083A
330
F1083B
100
AcDbEntity
8
Geo
100
AcDbLine
10
-35.8942758022550
20
12.3966147170796
30
0.000000000000000
11
-35.7942758022550
21
12.3610966697827
31
0.000000000000000
  0
LINE
  5
F1083C
330
F1083D
100
AcDbEntity
8
Geo
100
AcDbLine
10
-35.7942758022550
20
12.3610966697827
30
0.000000000000000
11
-35.6942758022550
21
12.3249385742490
31
0.000000000000000
  0
LINE
  5
F1083E
330
F1083F
100
AcDbEntity
8
Geo
100
AcDbLine
10
-35.6942758022550
20
12.3249385742490
30
0.000000000000000
11
-35.5942758022550
21
12.2881479632842
31
0.000000000000000
  0
LINE
  5
F10840
330
F10841
100
AcDbEntity
8
Geo
100
AcDbLine
10
-35.5942758022550
20
12.2881479632842
30
0.000000000000000
11
-35.4942758022550
21
12.2507325014661
31
0.000000000000000
  0
LINE
  5
F10842
330
F10843
100
AcDbEntity
8
Geo
100
AcDbLine
10
-35.4942758022550
20
12.2507325014661
30
0.000000000000000
11
-35.3942758022550
21
12.2126999835470
31
0.000000000000000
  0
LINE
  5
F10844
330
F10845
100
AcDbEntity
8
Geo
100
AcDbLine
10
-35.3942758022550
20
12.2126999835470
30
0.000000000000000
11
-35.2942758022550
21
12.1740583328308
31
0.000000000000000
  0
LINE
  5
F10846
330
F10847
100
AcDbEntity
8
Geo
100
AcDbLine
10
-35.2942758022550
20
12.1740583328308
30
0.000000000000000
11
-35.1942758022550
21
12.1348155995214
31
0.000000000000000
  0
LINE
  5
F10848
330
F10849
100
AcDbEntity
8
Geo
100
AcDbLine
10
-35.1942758022550
20
12.1348155995214
30
0.000000000000000
11
-35.0942758022550
21
12.0949799590465
31
0.000000000000000
  0
LINE
  5
F1084A
330
F1084B
100
AcDbEntity
8
Geo
100
AcDbLine
10
-35.0942758022550
20
12.0949799590465
30
0.000000000000000
11
-34.9942758022550
21
12.0545597103537
31
0.000000000000000
  0
LINE
  5
F1084C
330
F1084D
100
AcDbEntity
8
Geo
100
AcDbLine
10
-34.9942758022550
20
12.0545597103537
30
0.000000000000000
11
-34.8942758022550
21
12.0135632741819
31
0.000000000000000
  0
LINE
  5
F1084E
330
F1084F
100
AcDbEntity
8
Geo
100
AcDbLine
10
-34.8942758022550
20
12.0135632741819
30
0.000000000000000
11
-34.7942758022550
21
11.9719991913072
31
0.000000000000000
  0
LINE
  5
F10850
330
F10851
100
AcDbEntity
8
Geo
100
AcDbLine
10
-34.7942758022550
20
11.9719991913072
30
0.000000000000000
11
-34.6942758022550
21
11.9298761207630
31
0.000000000000000
  0
LINE
  5
F10852
330
F10853
100
AcDbEntity
8
Geo
100
AcDbLine
10
-34.6942758022550
20
11.9298761207630
30
0.000000000000000
11
-34.5942758022550
21
11.8872028380367
31
0.000000000000000
  0
LINE
  5
F10854
330
F10855
100
AcDbEntity
8
Geo
100
AcDbLine
10
-34.5942758022550
20
11.8872028380367
30
0.000000000000000
11
-34.4942758022550
21
11.8439882332413
31
0.000000000000000
  0
LINE
  5
F10856
330
F10857
100
AcDbEntity
8
Geo
100
AcDbLine
10
-34.4942758022550
20
11.8439882332413
30
0.000000000000000
11
-34.3942758022550
21
11.8002413092630
31
0.000000000000000
  0
LINE
  5
F10858
330
F10859
100
AcDbEntity
8
Geo
100
AcDbLine
10
-34.3942758022550
20
11.8002413092630
30
0.000000000000000
11
-34.2942758022550
21
11.7559711798862
31
0.000000000000000
  0
LINE
  5
F1085A
330
F1085B
100
AcDbEntity
8
Geo
100
AcDbLine
10
-34.2942758022550
20
11.7559711798862
30
0.000000000000000
11
-34.1942758022550
21
11.7111870678944
31
0.000000000000000
  0
LINE
  5
F1085C
330
F1085D
100
AcDbEntity
8
Geo
100
AcDbLine
10
-34.1942758022550
20
11.7111870678944
30
0.000000000000000
11
-34.0942758022550
21
11.6658983031488
31
0.000000000000000
  0
LINE
  5
F1085E
330
F1085F
100
AcDbEntity
8
Geo
100
AcDbLine
10
-34.0942758022550
20
11.6658983031488
30
0.000000000000000
11
-33.9942758022550
21
11.6201143206451
31
0.000000000000000
  0
LINE
  5
F10860
330
F10861
100
AcDbEntity
8
Geo
100
AcDbLine
10
-33.9942758022550
20
11.6201143206451
30
0.000000000000000
11
-33.8942758022550
21
11.5738446585472
31
0.000000000000000
  0
LINE
  5
F10862
330
F10863
100
AcDbEntity
8
Geo
100
AcDbLine
10
-33.8942758022550
20
11.5738446585472
30
0.000000000000000
11
-33.7942758022550
21
11.5270989562009
31
0.000000000000000
  0
LINE
  5
F10864
330
F10865
100
AcDbEntity
8
Geo
100
AcDbLine
10
-33.7942758022550
20
11.5270989562009
30
0.000000000000000
11
-33.6942758022550
21
11.4798869521250
31
0.000000000000000
  0
LINE
  5
F10866
330
F10867
100
AcDbEntity
8
Geo
100
AcDbLine
10
-50.0942758022550
20
11.3959425458871
30
0.000000000000000
11
-50.0942758022550
21
11.3160964738060
31
0.000000000000000
  0
LINE
  5
F10868
330
F10869
100
AcDbEntity
8
Geo
100
AcDbLine
10
-50.0942758022550
20
11.3160964738060
30
0.000000000000000
11
-49.9942758022550
21
11.4235728501069
31
0.000000000000000
  0
LINE
  5
F1086A
330
F1086B
100
AcDbEntity
8
Geo
100
AcDbLine
10
-49.9942758022550
20
11.4235728501069
30
0.000000000000000
11
-49.8942758022550
21
11.5292090400583
31
0.000000000000000
  0
LINE
  5
F1086C
330
F1086D
100
AcDbEntity
8
Geo
100
AcDbLine
10
-49.8942758022550
20
11.5292090400583
30
0.000000000000000
11
-49.7942758022550
21
11.6311532812114
31
0.000000000000000
  0
LINE
  5
F1086E
330
F1086F
100
AcDbEntity
8
Geo
100
AcDbLine
10
-49.7942758022550
20
11.6311532812114
30
0.000000000000000
11
-49.6942758022550
21
11.7290594671097
31
0.000000000000000
  0
LINE
  5
F10870
330
F10871
100
AcDbEntity
8
Geo
100
AcDbLine
10
-49.6942758022550
20
11.7290594671097
30
0.000000000000000
11
-49.5942758022550
21
11.8229858718383
31
0.000000000000000
  0
LINE
  5
F10872
330
F10873
100
AcDbEntity
8
Geo
100
AcDbLine
10
-49.5942758022550
20
11.8229858718383
30
0.000000000000000
11
-49.4942758022550
21
11.9130136728840
31
0.000000000000000
  0
LINE
  5
F10874
330
F10875
100
AcDbEntity
8
Geo
100
AcDbLine
10
-49.4942758022550
20
11.9130136728840
30
0.000000000000000
11
-49.3942758022550
21
11.9967545881465
31
0.000000000000000
  0
LINE
  5
F10876
330
F10877
100
AcDbEntity
8
Geo
100
AcDbLine
10
-49.3942758022550
20
11.9967545881465
30
0.000000000000000
11
-49.2942758022550
21
12.0730459344757
31
0.000000000000000
  0
LINE
  5
F10878
330
F10879
100
AcDbEntity
8
Geo
100
AcDbLine
10
-49.2942758022550
20
12.0730459344757
30
0.000000000000000
11
-49.1942758022550
21
12.1424668496016
31
0.000000000000000
  0
LINE
  5
F1087A
330
F1087B
100
AcDbEntity
8
Geo
100
AcDbLine
10
-49.1942758022550
20
12.1424668496016
30
0.000000000000000
11
-49.0942758022550
21
12.2054951929126
31
0.000000000000000
  0
LINE
  5
F1087C
330
F1087D
100
AcDbEntity
8
Geo
100
AcDbLine
10
-49.0942758022550
20
12.2054951929126
30
0.000000000000000
11
-48.9942758022550
21
12.2625308258072
31
0.000000000000000
  0
LINE
  5
F1087E
330
F1087F
100
AcDbEntity
8
Geo
100
AcDbLine
10
-48.9942758022550
20
12.2625308258072
30
0.000000000000000
11
-48.8942758022550
21
12.3139125305931
31
0.000000000000000
  0
LINE
  5
F10880
330
F10881
100
AcDbEntity
8
Geo
100
AcDbLine
10
-48.8942758022550
20
12.3139125305931
30
0.000000000000000
11
-48.7942758022550
21
12.3599305671709
31
0.000000000000000
  0
LINE
  5
F10882
330
F10883
100
AcDbEntity
8
Geo
100
AcDbLine
10
-48.7942758022550
20
12.3599305671709
30
0.000000000000000
11
-48.6942758022550
21
12.4008361647409
31
0.000000000000000
  0
LINE
  5
F10884
330
F10885
100
AcDbEntity
8
Geo
100
AcDbLine
10
-48.6942758022550
20
12.4008361647409
30
0.000000000000000
11
-48.5942758022550
21
12.4368488134741
31
0.000000000000000
  0
LINE
  5
F10886
330
F10887
100
AcDbEntity
8
Geo
100
AcDbLine
10
-48.5942758022550
20
12.4368488134741
30
0.000000000000000
11
-48.4942758022550
21
12.4681619468123
31
0.000000000000000
  0
LINE
  5
F10888
330
F10889
100
AcDbEntity
8
Geo
100
AcDbLine
10
-48.4942758022550
20
12.4681619468123
30
0.000000000000000
11
-48.3942758022550
21
12.4949474264160
31
0.000000000000000
  0
LINE
  5
F1088A
330
F1088B
100
AcDbEntity
8
Geo
100
AcDbLine
10
-48.3942758022550
20
12.4949474264160
30
0.000000000000000
11
-48.2942758022550
21
12.5173591226625
31
0.000000000000000
  0
LINE
  5
F1088C
330
F1088D
100
AcDbEntity
8
Geo
100
AcDbLine
10
-48.2942758022550
20
12.5173591226625
30
0.000000000000000
11
-48.1942758022550
21
12.5355358024870
31
0.000000000000000
  0
LINE
  5
F1088E
330
F1088F
100
AcDbEntity
8
Geo
100
AcDbLine
10
-48.1942758022550
20
12.5355358024870
30
0.000000000000000
11
-48.0942758022550
21
12.5496034800859
31
0.000000000000000
  0
LINE
  5
F10890
330
F10891
100
AcDbEntity
8
Geo
100
AcDbLine
10
-48.0942758022550
20
12.5496034800859
30
0.000000000000000
11
-47.9942758022550
21
12.5596773462729
31
0.000000000000000
  0
LINE
  5
F10892
330
F10893
100
AcDbEntity
8
Geo
100
AcDbLine
10
-47.9942758022550
20
12.5596773462729
30
0.000000000000000
11
-47.8942758022550
21
12.5658633637982
31
0.000000000000000
  0
LINE
  5
F10894
330
F10895
100
AcDbEntity
8
Geo
100
AcDbLine
10
-47.8942758022550
20
12.5658633637982
30
0.000000000000000
11
-47.7942758022550
21
12.5682595952265
31
0.000000000000000
  0
LINE
  5
F10896
330
F10897
100
AcDbEntity
8
Geo
100
AcDbLine
10
-47.7942758022550
20
12.5682595952265
30
0.000000000000000
11
-47.6942758022550
21
12.5669573147003
31
0.000000000000000
  0
LINE
  5
F10898
330
F10899
100
AcDbEntity
8
Geo
100
AcDbLine
10
-47.6942758022550
20
12.5669573147003
30
0.000000000000000
11
-47.5942758022550
21
12.5620419435283
31
0.000000000000000
  0
LINE
  5
F1089A
330
F1089B
100
AcDbEntity
8
Geo
100
AcDbLine
10
-47.5942758022550
20
12.5620419435283
30
0.000000000000000
11
-47.4942758022550
21
12.5535938409403
31
0.000000000000000
  0
LINE
  5
F1089C
330
F1089D
100
AcDbEntity
8
Geo
100
AcDbLine
10
-47.4942758022550
20
12.5535938409403
30
0.000000000000000
11
-47.3942758022550
21
12.5416889747929
31
0.000000000000000
  0
LINE
  5
F1089E
330
F1089F
100
AcDbEntity
8
Geo
100
AcDbLine
10
-47.3942758022550
20
12.5416889747929
30
0.000000000000000
11
-47.2942758022550
21
12.5263994919573
31
0.000000000000000
  0
LINE
  5
F108A0
330
F108A1
100
AcDbEntity
8
Geo
100
AcDbLine
10
-47.2942758022550
20
12.5263994919573
30
0.000000000000000
11
-47.1942758022550
21
12.5077942041804
31
0.000000000000000
  0
LINE
  5
F108A2
330
F108A3
100
AcDbEntity
8
Geo
100
AcDbLine
10
-47.1942758022550
20
12.5077942041804
30
0.000000000000000
11
-47.0942758022550
21
12.4859390021184
31
0.000000000000000
  0
LINE
  5
F108A4
330
F108A5
100
AcDbEntity
8
Geo
100
AcDbLine
10
-47.0942758022550
20
12.4859390021184
30
0.000000000000000
11
-46.9942758022550
21
12.4608972077748
31
0.000000000000000
  0
LINE
  5
F108A6
330
F108A7
100
AcDbEntity
8
Geo
100
AcDbLine
10
-46.9942758022550
20
12.4608972077748
30
0.000000000000000
11
-46.8942758022550
21
12.4327298736035
31
0.000000000000000
  0
LINE
  5
F108A8
330
F108A9
100
AcDbEntity
8
Geo
100
AcDbLine
10
-46.8942758022550
20
12.4327298736035
30
0.000000000000000
11
-46.7942758022550
21
12.4014960349199
31
0.000000000000000
  0
LINE
  5
F108AA
330
F108AB
100
AcDbEntity
8
Geo
100
AcDbLine
10
-46.7942758022550
20
12.4014960349199
30
0.000000000000000
11
-46.6942758022550
21
12.3672529209395
31
0.000000000000000
  0
LINE
  5
F108AC
330
F108AD
100
AcDbEntity
8
Geo
100
AcDbLine
10
-46.6942758022550
20
12.3672529209395
30
0.000000000000000
11
-46.5942758022550
21
12.3312044053178
31
0.000000000000000
  0
LINE
  5
F108AE
330
F108AF
100
AcDbEntity
8
Geo
100
AcDbLine
10
-46.5942758022550
20
12.3312044053178
30
0.000000000000000
11
-46.4942758022550
21
12.2945220689063
31
0.000000000000000
  0
LINE
  5
F108B0
330
F108B1
100
AcDbEntity
8
Geo
100
AcDbLine
10
-46.4942758022550
20
12.2945220689063
30
0.000000000000000
11
-46.3942758022550
21
12.2572135537257
31
0.000000000000000
  0
LINE
  5
F108B2
330
F108B3
100
AcDbEntity
8
Geo
100
AcDbLine
10
-46.3942758022550
20
12.2572135537257
30
0.000000000000000
11
-46.2942758022550
21
12.2192866322485
31
0.000000000000000
  0
LINE
  5
F108B4
330
F108B5
100
AcDbEntity
8
Geo
100
AcDbLine
10
-46.2942758022550
20
12.2192866322485
30
0.000000000000000
11
-46.1942758022550
21
12.1807492057794
31
0.000000000000000
  0
LINE
  5
F108B6
330
F108B7
100
AcDbEntity
8
Geo
100
AcDbLine
10
-46.1942758022550
20
12.1807492057794
30
0.000000000000000
11
-46.0942758022550
21
12.1416093028096
31
0.000000000000000
  0
LINE
  5
F108B8
330
F108B9
100
AcDbEntity
8
Geo
100
AcDbLine
10
-46.0942758022550
20
12.1416093028096
30
0.000000000000000
11
-45.9942758022550
21
12.1018750773438
31
0.000000000000000
  0
LINE
  5
F108BA
330
F108BB
100
AcDbEntity
8
Geo
100
AcDbLine
10
-45.9942758022550
20
12.1018750773438
30
0.000000000000000
11
-45.8942758022550
21
12.0615548072022
31
0.000000000000000
  0
LINE
  5
F108BC
330
F108BD
100
AcDbEntity
8
Geo
100
AcDbLine
10
-45.8942758022550
20
12.0615548072022
30
0.000000000000000
11
-45.7942758022550
21
12.0206568922951
31
0.000000000000000
  0
LINE
  5
F108BE
330
F108BF
100
AcDbEntity
8
Geo
100
AcDbLine
10
-45.7942758022550
20
12.0206568922951
30
0.000000000000000
11
-45.6942758022550
21
11.9791898528735
31
0.000000000000000
  0
LINE
  5
F108C0
330
F108C1
100
AcDbEntity
8
Geo
100
AcDbLine
10
-45.6942758022550
20
11.9791898528735
30
0.000000000000000
11
-45.5942758022550
21
11.9371623277540
31
0.000000000000000
  0
LINE
  5
F108C2
330
F108C3
100
AcDbEntity
8
Geo
100
AcDbLine
10
-45.5942758022550
20
11.9371623277540
30
0.000000000000000
11
-45.4942758022550
21
11.8945830725190
31
0.000000000000000
  0
LINE
  5
F108C4
330
F108C5
100
AcDbEntity
8
Geo
100
AcDbLine
10
-45.4942758022550
20
11.8945830725190
30
0.000000000000000
11
-45.3942758022550
21
11.8514609576927
31
0.000000000000000
  0
LINE
  5
F108C6
330
F108C7
100
AcDbEntity
8
Geo
100
AcDbLine
10
-45.3942758022550
20
11.8514609576927
30
0.000000000000000
11
-45.2942758022550
21
11.8078049668930
31
0.000000000000000
  0
LINE
  5
F108C8
330
F108C9
100
AcDbEntity
8
Geo
100
AcDbLine
10
-45.2942758022550
20
11.8078049668930
30
0.000000000000000
11
-45.1942758022550
21
11.7636241949601
31
0.000000000000000
  0
LINE
  5
F108CA
330
F108CB
100
AcDbEntity
8
Geo
100
AcDbLine
10
-45.1942758022550
20
11.7636241949601
30
0.000000000000000
11
-45.0942758022550
21
11.7189278460616
31
0.000000000000000
  0
LINE
  5
F108CC
330
F108CD
100
AcDbEntity
8
Geo
100
AcDbLine
10
-45.0942758022550
20
11.7189278460616
30
0.000000000000000
11
-44.9942758022550
21
11.6737252317754
31
0.000000000000000
  0
LINE
  5
F108CE
330
F108CF
100
AcDbEntity
8
Geo
100
AcDbLine
10
-44.9942758022550
20
11.6737252317754
30
0.000000000000000
11
-44.8942758022550
21
11.6280257691491
31
0.000000000000000
  0
LINE
  5
F108D0
330
F108D1
100
AcDbEntity
8
Geo
100
AcDbLine
10
-44.8942758022550
20
11.6280257691491
30
0.000000000000000
11
-44.7942758022550
21
11.5818389787390
31
0.000000000000000
  0
LINE
  5
F108D2
330
F108D3
100
AcDbEntity
8
Geo
100
AcDbLine
10
-44.7942758022550
20
11.5818389787390
30
0.000000000000000
11
-44.6942758022550
21
11.5351744826259
31
0.000000000000000
  0
LINE
  5
F108D4
330
F108D5
100
AcDbEntity
8
Geo
100
AcDbLine
10
-44.6942758022550
20
11.5351744826259
30
0.000000000000000
11
-44.5942758022550
21
11.4880420024111
31
0.000000000000000
  0
LINE
  5
F108D6
330
F108D7
100
AcDbEntity
8
Geo
100
AcDbLine
10
-44.5942758022550
20
11.4880420024111
30
0.000000000000000
11
-44.4942758022550
21
11.4404513571907
31
0.000000000000000
  0
LINE
  5
F108D8
330
F108D9
100
AcDbEntity
8
Geo
100
AcDbLine
10
-44.4942758022550
20
11.4404513571907
30
0.000000000000000
11
-44.3942758022550
21
11.3924124615106
31
0.000000000000000
  0
LINE
  5
F108DA
330
F108DB
100
AcDbEntity
8
Geo
100
AcDbLine
10
-44.3942758022550
20
11.3924124615106
30
0.000000000000000
11
-44.2942758022550
21
11.3439353233001
31
0.000000000000000
  0
LINE
  5
F108DC
330
F108DD
100
AcDbEntity
8
Geo
100
AcDbLine
10
-44.2942758022550
20
11.3439353233001
30
0.000000000000000
11
-44.1942758022550
21
11.2950300417877
31
0.000000000000000
  0
LINE
  5
F108DE
330
F108DF
100
AcDbEntity
8
Geo
100
AcDbLine
10
-44.1942758022550
20
11.2950300417877
30
0.000000000000000
11
-44.0942758022550
21
11.2457068053969
31
0.000000000000000
  0
LINE
  5
F108E0
330
F108E1
100
AcDbEntity
8
Geo
100
AcDbLine
10
-44.0942758022550
20
11.2457068053969
30
0.000000000000000
11
-43.9942758022550
21
11.1959758896235
31
0.000000000000000
  0
LINE
  5
F108E2
330
F108E3
100
AcDbEntity
8
Geo
100
AcDbLine
10
-43.9942758022550
20
11.1959758896235
30
0.000000000000000
11
-43.8942758022550
21
11.1458476548951
31
0.000000000000000
  0
LINE
  5
F108E4
330
F108E5
100
AcDbEntity
8
Geo
100
AcDbLine
10
-43.8942758022550
20
11.1458476548951
30
0.000000000000000
11
-43.7942758022550
21
11.0953325444126
31
0.000000000000000
  0
LINE
  5
F108E6
330
F108E7
100
AcDbEntity
8
Geo
100
AcDbLine
10
-43.7942758022550
20
11.0953325444126
30
0.000000000000000
11
-43.6942758022550
21
11.0444410819747
31
0.000000000000000
  0
LINE
  5
F108E8
330
F108E9
100
AcDbEntity
8
Geo
100
AcDbLine
10
-43.6942758022550
20
11.0444410819747
30
0.000000000000000
11
-43.5942758022550
21
10.9931838697853
31
0.000000000000000
  0
LINE
  5
F108EA
330
F108EB
100
AcDbEntity
8
Geo
100
AcDbLine
10
-43.5942758022550
20
10.9931838697853
30
0.000000000000000
11
-43.4942758022550
21
10.9415715862448
31
0.000000000000000
  0
LINE
  5
F108EC
330
F108ED
100
AcDbEntity
8
Geo
100
AcDbLine
10
-43.4942758022550
20
10.9415715862448
30
0.000000000000000
11
-43.3942758022550
21
10.8896149837258
31
0.000000000000000
  0
LINE
  5
F108EE
330
F108EF
100
AcDbEntity
8
Geo
100
AcDbLine
10
-43.3942758022550
20
10.8896149837258
30
0.000000000000000
11
-43.2942758022550
21
10.8373248863324
31
0.000000000000000
  0
LINE
  5
F108F0
330
F108F1
100
AcDbEntity
8
Geo
100
AcDbLine
10
-43.2942758022550
20
10.8373248863324
30
0.000000000000000
11
-43.1942758022550
21
10.7847121876457
31
0.000000000000000
  0
LINE
  5
F108F2
330
F108F3
100
AcDbEntity
8
Geo
100
AcDbLine
10
-43.1942758022550
20
10.7847121876457
30
0.000000000000000
11
-43.0942758022550
21
10.7317878484546
31
0.000000000000000
  0
LINE
  5
F108F4
330
F108F5
100
AcDbEntity
8
Geo
100
AcDbLine
10
-43.0942758022550
20
10.7317878484546
30
0.000000000000000
11
-42.9942758022550
21
10.6785628944714
31
0.000000000000000
  0
LINE
  5
F108F6
330
F108F7
100
AcDbEntity
8
Geo
100
AcDbLine
10
-42.9942758022550
20
10.6785628944714
30
0.000000000000000
11
-42.8942758022550
21
10.6250484140357
31
0.000000000000000
  0
LINE
  5
F108F8
330
F108F9
100
AcDbEntity
8
Geo
100
AcDbLine
10
-42.8942758022550
20
10.6250484140357
30
0.000000000000000
11
-42.7942758022550
21
10.5712555558042
31
0.000000000000000
  0
LINE
  5
F108FA
330
F108FB
100
AcDbEntity
8
Geo
100
AcDbLine
10
-42.7942758022550
20
10.5712555558042
30
0.000000000000000
11
-42.6942758022550
21
10.5171955264276
31
0.000000000000000
  0
LINE
  5
F108FC
330
F108FD
100
AcDbEntity
8
Geo
100
AcDbLine
10
-42.6942758022550
20
10.5171955264276
30
0.000000000000000
11
-42.5942758022550
21
10.4628795882167
31
0.000000000000000
  0
LINE
  5
F108FE
330
F108FF
100
AcDbEntity
8
Geo
100
AcDbLine
10
-42.5942758022550
20
10.4628795882167
30
0.000000000000000
11
-42.4942758022550
21
10.4083190567954
31
0.000000000000000
  0
LINE
  5
F10900
330
F10901
100
AcDbEntity
8
Geo
100
AcDbLine
10
-42.4942758022550
20
10.4083190567954
30
0.000000000000000
11
-42.3942758022550
21
10.3535252987436
31
0.000000000000000
  0
LINE
  5
F10902
330
F10903
100
AcDbEntity
8
Geo
100
AcDbLine
10
-42.3942758022550
20
10.3535252987436
30
0.000000000000000
11
-42.2942758022550
21
10.2985097292297
31
0.000000000000000
  0
LINE
  5
F10904
330
F10905
100
AcDbEntity
8
Geo
100
AcDbLine
10
-42.2942758022550
20
10.2985097292297
30
0.000000000000000
11
-42.1942758022550
21
10.2432838096314
31
0.000000000000000
  0
LINE
  5
F10906
330
F10907
100
AcDbEntity
8
Geo
100
AcDbLine
10
-42.1942758022550
20
10.2432838096314
30
0.000000000000000
11
-42.0942758022550
21
10.1878590451490
31
0.000000000000000
  0
LINE
  5
F10908
330
F10909
100
AcDbEntity
8
Geo
100
AcDbLine
10
-42.0942758022550
20
10.1878590451490
30
0.000000000000000
11
-41.9942758022550
21
10.1322469824080
31
0.000000000000000
  0
LINE
  5
F1090A
330
F1090B
100
AcDbEntity
8
Geo
100
AcDbLine
10
-41.9942758022550
20
10.1322469824080
30
0.000000000000000
11
-41.8942758022550
21
10.0764592070536
31
0.000000000000000
  0
LINE
  5
F1090C
330
F1090D
100
AcDbEntity
8
Geo
100
AcDbLine
10
-41.8942758022550
20
10.0764592070536
30
0.000000000000000
11
-41.7942758022550
21
10.0205073413372
31
0.000000000000000
  0
LINE
  5
F1090E
330
F1090F
100
AcDbEntity
8
Geo
100
AcDbLine
10
-41.7942758022550
20
10.0205073413372
30
0.000000000000000
11
-41.6942758022550
21
9.96440304169524
31
0.000000000000000
  0
LINE
  5
F10910
330
F10911
100
AcDbEntity
8
Geo
100
AcDbLine
10
-41.6942758022550
20
9.96440304169524
30
0.000000000000000
11
-41.5942758022550
21
9.90815799632045
31
0.000000000000000
  0
LINE
  5
F10912
330
F10913
100
AcDbEntity
8
Geo
100
AcDbLine
10
-41.5942758022550
20
9.90815799632045
30
0.000000000000000
11
-41.4942758022550
21
9.85178392272721
31
0.000000000000000
  0
LINE
  5
F10914
330
F10915
100
AcDbEntity
8
Geo
100
AcDbLine
10
-41.4942758022550
20
9.85178392272721
30
0.000000000000000
11
-41.3942758022550
21
9.79529256531028
31
0.000000000000000
  0
LINE
  5
F10916
330
F10917
100
AcDbEntity
8
Geo
100
AcDbLine
10
-41.3942758022550
20
9.79529256531028
30
0.000000000000000
11
-41.2942758022550
21
9.73869569289816
31
0.000000000000000
  0
LINE
  5
F10918
330
F10919
100
AcDbEntity
8
Geo
100
AcDbLine
10
-41.2942758022550
20
9.73869569289816
30
0.000000000000000
11
-41.1942758022550
21
9.68200509630121
31
0.000000000000000
  0
LINE
  5
F1091A
330
F1091B
100
AcDbEntity
8
Geo
100
AcDbLine
10
-41.1942758022550
20
9.68200509630121
30
0.000000000000000
11
-41.0942758022550
21
9.62523258585535
31
0.000000000000000
  0
LINE
  5
F1091C
330
F1091D
100
AcDbEntity
8
Geo
100
AcDbLine
10
-41.0942758022550
20
9.62523258585535
30
0.000000000000000
11
-40.9942758022550
21
9.56838998896159
31
0.000000000000000
  0
LINE
  5
F1091E
330
F1091F
100
AcDbEntity
8
Geo
100
AcDbLine
10
-40.9942758022550
20
9.56838998896159
30
0.000000000000000
11
-40.8942758022550
21
9.51148914762202
31
0.000000000000000
  0
LINE
  5
F10920
330
F10921
100
AcDbEntity
8
Geo
100
AcDbLine
10
-40.8942758022550
20
9.51148914762202
30
0.000000000000000
11
-40.7942758022550
21
9.45454191597278
31
0.000000000000000
  0
LINE
  5
F10922
330
F10923
100
AcDbEntity
8
Geo
100
AcDbLine
10
-40.7942758022550
20
9.45454191597278
30
0.000000000000000
11
-40.6942758022550
21
9.39756015781449
31
0.000000000000000
  0
LINE
  5
F10924
330
F10925
100
AcDbEntity
8
Geo
100
AcDbLine
10
-40.6942758022550
20
9.39756015781449
30
0.000000000000000
11
-40.5942758022550
21
9.34055574414068
31
0.000000000000000
  0
LINE
  5
F10926
330
F10927
100
AcDbEntity
8
Geo
100
AcDbLine
10
-40.5942758022550
20
9.34055574414068
30
0.000000000000000
11
-40.4942758022550
21
9.28354055066468
31
0.000000000000000
  0
LINE
  5
F10928
330
F10929
100
AcDbEntity
8
Geo
100
AcDbLine
10
-40.4942758022550
20
9.28354055066468
30
0.000000000000000
11
-40.3942758022550
21
9.22652645534559
31
0.000000000000000
  0
LINE
  5
F1092A
330
F1092B
100
AcDbEntity
8
Geo
100
AcDbLine
10
-40.3942758022550
20
9.22652645534559
30
0.000000000000000
11
-40.2942758022550
21
9.16952533591371
31
0.000000000000000
  0
LINE
  5
F1092C
330
F1092D
100
AcDbEntity
8
Geo
100
AcDbLine
10
-40.2942758022550
20
9.16952533591371
30
0.000000000000000
11
-40.1942758022550
21
9.11254906739610
31
0.000000000000000
  0
LINE
  5
F1092E
330
F1092F
100
AcDbEntity
8
Geo
100
AcDbLine
10
-40.1942758022550
20
9.11254906739610
30
0.000000000000000
11
-40.0942758022550
21
9.05560951964261
31
0.000000000000000
  0
LINE
  5
F10930
330
F10931
100
AcDbEntity
8
Geo
100
AcDbLine
10
-40.0942758022550
20
9.05560951964261
30
0.000000000000000
11
-39.9942758022550
21
8.99871855485310
31
0.000000000000000
  0
LINE
  5
F10932
330
F10933
100
AcDbEntity
8
Geo
100
AcDbLine
10
-39.9942758022550
20
8.99871855485310
30
0.000000000000000
11
-39.8942758022550
21
8.94188802510612
31
0.000000000000000
  0
LINE
  5
F10934
330
F10935
100
AcDbEntity
8
Geo
100
AcDbLine
10
-39.8942758022550
20
8.94188802510612
30
0.000000000000000
11
-39.7942758022550
21
8.88512976988982
31
0.000000000000000
  0
LINE
  5
F10936
330
F10937
100
AcDbEntity
8
Geo
100
AcDbLine
10
-39.7942758022550
20
8.88512976988982
30
0.000000000000000
11
-39.6942758022550
21
8.82845561363542
31
0.000000000000000
  0
LINE
  5
F10938
330
F10939
100
AcDbEntity
8
Geo
100
AcDbLine
10
-39.6942758022550
20
8.82845561363542
30
0.000000000000000
11
-39.5942758022550
21
8.77187736325382
31
0.000000000000000
  0
LINE
  5
F1093A
330
F1093B
100
AcDbEntity
8
Geo
100
AcDbLine
10
-39.5942758022550
20
8.77187736325382
30
0.000000000000000
11
-39.4942758022550
21
8.71540680567587
31
0.000000000000000
  0
LINE
  5
F1093C
330
F1093D
100
AcDbEntity
8
Geo
100
AcDbLine
10
-39.4942758022550
20
8.71540680567587
30
0.000000000000000
11
-39.3942758022550
21
8.65905570539684
31
0.000000000000000
  0
LINE
  5
F1093E
330
F1093F
100
AcDbEntity
8
Geo
100
AcDbLine
10
-39.3942758022550
20
8.65905570539684
30
0.000000000000000
11
-39.2942758022550
21
8.60283580202546
31
0.000000000000000
  0
LINE
  5
F10940
330
F10941
100
AcDbEntity
8
Geo
100
AcDbLine
10
-39.2942758022550
20
8.60283580202546
30
0.000000000000000
11
-39.1942758022550
21
8.54675880783826
31
0.000000000000000
  0
LINE
  5
F10942
330
F10943
100
AcDbEntity
8
Geo
100
AcDbLine
10
-39.1942758022550
20
8.54675880783826
30
0.000000000000000
11
-39.0942758022550
21
8.49083640533954
31
0.000000000000000
  0
LINE
  5
F10944
330
F10945
100
AcDbEntity
8
Geo
100
AcDbLine
10
-39.0942758022550
20
8.49083640533954
30
0.000000000000000
11
-38.9942758022550
21
8.43508024482755
31
0.000000000000000
  0
LINE
  5
F10946
330
F10947
100
AcDbEntity
8
Geo
100
AcDbLine
10
-38.9942758022550
20
8.43508024482755
30
0.000000000000000
11
-38.8942758022550
21
8.37950194196742
31
0.000000000000000
  0
LINE
  5
F10948
330
F10949
100
AcDbEntity
8
Geo
100
AcDbLine
10
-38.8942758022550
20
8.37950194196742
30
0.000000000000000
11
-38.7942758022550
21
8.32411307537120
31
0.000000000000000
  0
LINE
  5
F1094A
330
F1094B
100
AcDbEntity
8
Geo
100
AcDbLine
10
-38.7942758022550
20
8.32411307537120
30
0.000000000000000
11
-38.6942758022550
21
8.26892518418578
31
0.000000000000000
  0
LINE
  5
F1094C
330
F1094D
100
AcDbEntity
8
Geo
100
AcDbLine
10
-38.6942758022550
20
8.26892518418578
30
0.000000000000000
11
-38.5942758022550
21
8.21394976568888
31
0.000000000000000
  0
LINE
  5
F1094E
330
F1094F
100
AcDbEntity
8
Geo
100
AcDbLine
10
-38.5942758022550
20
8.21394976568888
30
0.000000000000000
11
-38.4942758022550
21
8.15919827289385
31
0.000000000000000
  0
LINE
  5
F10950
330
F10951
100
AcDbEntity
8
Geo
100
AcDbLine
10
-38.4942758022550
20
8.15919827289385
30
0.000000000000000
11
-38.3942758022550
21
8.10468211216365
31
0.000000000000000
  0
LINE
  5
F10952
330
F10953
100
AcDbEntity
8
Geo
100
AcDbLine
10
-38.3942758022550
20
8.10468211216365
30
0.000000000000000
11
-38.2942758022550
21
8.05041264083460
31
0.000000000000000
  0
LINE
  5
F10954
330
F10955
100
AcDbEntity
8
Geo
100
AcDbLine
10
-38.2942758022550
20
8.05041264083460
30
0.000000000000000
11
-38.1942758022550
21
7.99640116485026
31
0.000000000000000
  0
LINE
  5
F10956
330
F10957
100
AcDbEntity
8
Geo
100
AcDbLine
10
-38.1942758022550
20
7.99640116485026
30
0.000000000000000
11
-38.0942758022550
21
7.94265893640612
31
0.000000000000000
  0
LINE
  5
F10958
330
F10959
100
AcDbEntity
8
Geo
100
AcDbLine
10
-38.0942758022550
20
7.94265893640612
30
0.000000000000000
11
-37.9942758022550
21
7.88919715160539
31
0.000000000000000
  0
LINE
  5
F1095A
330
F1095B
100
AcDbEntity
8
Geo
100
AcDbLine
10
-37.9942758022550
20
7.88919715160539
30
0.000000000000000
11
-37.8942758022550
21
7.83602694812653
31
0.000000000000000
  0
LINE
  5
F1095C
330
F1095D
100
AcDbEntity
8
Geo
100
AcDbLine
10
-37.8942758022550
20
7.83602694812653
30
0.000000000000000
11
-37.7942758022550
21
7.78315940290297
31
0.000000000000000
  0
LINE
  5
F1095E
330
F1095F
100
AcDbEntity
8
Geo
100
AcDbLine
10
-37.7942758022550
20
7.78315940290297
30
0.000000000000000
11
-37.6942758022550
21
7.73060552981541
31
0.000000000000000
  0
LINE
  5
F10960
330
F10961
100
AcDbEntity
8
Geo
100
AcDbLine
10
-37.6942758022550
20
7.73060552981541
30
0.000000000000000
11
-37.5942758022550
21
7.67837627739733
31
0.000000000000000
  0
LINE
  5
F10962
330
F10963
100
AcDbEntity
8
Geo
100
AcDbLine
10
-37.5942758022550
20
7.67837627739733
30
0.000000000000000
11
-37.4942758022550
21
7.62648252655407
31
0.000000000000000
  0
LINE
  5
F10964
330
F10965
100
AcDbEntity
8
Geo
100
AcDbLine
10
-37.4942758022550
20
7.62648252655407
30
0.000000000000000
11
-37.3942758022550
21
7.57493508829604
31
0.000000000000000
  0
LINE
  5
F10966
330
F10967
100
AcDbEntity
8
Geo
100
AcDbLine
10
-37.3942758022550
20
7.57493508829604
30
0.000000000000000
11
-37.2942758022550
21
7.52374470148643
31
0.000000000000000
  0
LINE
  5
F10968
330
F10969
100
AcDbEntity
8
Geo
100
AcDbLine
10
-37.2942758022550
20
7.52374470148643
30
0.000000000000000
11
-37.1942758022550
21
7.47292203060401
31
0.000000000000000
  0
LINE
  5
F1096A
330
F1096B
100
AcDbEntity
8
Geo
100
AcDbLine
10
-37.1942758022550
20
7.47292203060401
30
0.000000000000000
11
-37.0942758022550
21
7.42247766352139
31
0.000000000000000
  0
LINE
  5
F1096C
330
F1096D
100
AcDbEntity
8
Geo
100
AcDbLine
10
-37.0942758022550
20
7.42247766352139
30
0.000000000000000
11
-36.9942758022550
21
7.37242210929927
31
0.000000000000000
  0
LINE
  5
F1096E
330
F1096F
100
AcDbEntity
8
Geo
100
AcDbLine
10
-36.9942758022550
20
7.37242210929927
30
0.000000000000000
11
-36.8942758022550
21
7.32276579599707
31
0.000000000000000
  0
LINE
  5
F10970
330
F10971
100
AcDbEntity
8
Geo
100
AcDbLine
10
-36.8942758022550
20
7.32276579599707
30
0.000000000000000
11
-36.7942758022550
21
7.27351906850046
31
0.000000000000000
  0
LINE
  5
F10972
330
F10973
100
AcDbEntity
8
Geo
100
AcDbLine
10
-36.7942758022550
20
7.27351906850046
30
0.000000000000000
11
-36.6942758022550
21
7.22469218636620
31
0.000000000000000
  0
LINE
  5
F10974
330
F10975
100
AcDbEntity
8
Geo
100
AcDbLine
10
-36.6942758022550
20
7.22469218636620
30
0.000000000000000
11
-36.5942758022550
21
7.17629532168482
31
0.000000000000000
  0
LINE
  5
F10976
330
F10977
100
AcDbEntity
8
Geo
100
AcDbLine
10
-36.5942758022550
20
7.17629532168482
30
0.000000000000000
11
-36.4942758022550
21
7.12833855696141
31
0.000000000000000
  0
LINE
  5
F10978
330
F10979
100
AcDbEntity
8
Geo
100
AcDbLine
10
-36.4942758022550
20
7.12833855696141
30
0.000000000000000
11
-36.3942758022550
21
7.08083188301517
31
0.000000000000000
  0
LINE
  5
F1097A
330
F1097B
100
AcDbEntity
8
Geo
100
AcDbLine
10
-36.3942758022550
20
7.08083188301517
30
0.000000000000000
11
-36.2942758022550
21
7.03378519689800
31
0.000000000000000
  0
LINE
  5
F1097C
330
F1097D
100
AcDbEntity
8
Geo
100
AcDbLine
10
-36.2942758022550
20
7.03378519689800
30
0.000000000000000
11
-36.1942758022550
21
6.98720829983269
31
0.000000000000000
  0
LINE
  5
F1097E
330
F1097F
100
AcDbEntity
8
Geo
100
AcDbLine
10
-36.1942758022550
20
6.98720829983269
30
0.000000000000000
11
-36.0942758022550
21
6.94111089517101
31
0.000000000000000
  0
LINE
  5
F10980
330
F10981
100
AcDbEntity
8
Geo
100
AcDbLine
10
-36.0942758022550
20
6.94111089517101
30
0.000000000000000
11
-35.9942758022550
21
6.89550258637218
31
0.000000000000000
  0
LINE
  5
F10982
330
F10983
100
AcDbEntity
8
Geo
100
AcDbLine
10
-35.9942758022550
20
6.89550258637218
30
0.000000000000000
11
-35.8942758022550
21
6.85039287500225
31
0.000000000000000
  0
LINE
  5
F10984
330
F10985
100
AcDbEntity
8
Geo
100
AcDbLine
10
-35.8942758022550
20
6.85039287500225
30
0.000000000000000
11
-35.7942758022550
21
6.80579115875461
31
0.000000000000000
  0
LINE
  5
F10986
330
F10987
100
AcDbEntity
8
Geo
100
AcDbLine
10
-35.7942758022550
20
6.80579115875461
30
0.000000000000000
11
-35.6942758022550
21
6.76170672949214
31
0.000000000000000
  0
LINE
  5
F10988
330
F10989
100
AcDbEntity
8
Geo
100
AcDbLine
10
-35.6942758022550
20
6.76170672949214
30
0.000000000000000
11
-35.5942758022550
21
6.71814877131151
31
0.000000000000000
  0
LINE
  5
F1098A
330
F1098B
100
AcDbEntity
8
Geo
100
AcDbLine
10
-35.5942758022550
20
6.71814877131151
30
0.000000000000000
11
-35.4942758022550
21
6.67512635862978
31
0.000000000000000
  0
LINE
  5
F1098C
330
F1098D
100
AcDbEntity
8
Geo
100
AcDbLine
10
-35.4942758022550
20
6.67512635862978
30
0.000000000000000
11
-35.3942758022550
21
6.63264845429399
31
0.000000000000000
  0
LINE
  5
F1098E
330
F1098F
100
AcDbEntity
8
Geo
100
AcDbLine
10
-35.3942758022550
20
6.63264845429399
30
0.000000000000000
11
-35.2942758022550
21
6.59072390771390
31
0.000000000000000
  0
LINE
  5
F10990
330
F10991
100
AcDbEntity
8
Geo
100
AcDbLine
10
-35.2942758022550
20
6.59072390771390
30
0.000000000000000
11
-35.1942758022550
21
6.54936145301843
31
0.000000000000000
  0
LINE
  5
F10992
330
F10993
100
AcDbEntity
8
Geo
100
AcDbLine
10
-35.1942758022550
20
6.54936145301843
30
0.000000000000000
11
-35.0942758022550
21
6.50856970723603
31
0.000000000000000
  0
LINE
  5
F10994
330
F10995
100
AcDbEntity
8
Geo
100
AcDbLine
10
-35.0942758022550
20
6.50856970723603
30
0.000000000000000
11
-34.9942758022550
21
6.46835716849952
31
0.000000000000000
  0
LINE
  5
F10996
330
F10997
100
AcDbEntity
8
Geo
100
AcDbLine
10
-34.9942758022550
20
6.46835716849952
30
0.000000000000000
11
-34.8942758022550
21
6.42873221427571
31
0.000000000000000
  0
LINE
  5
F10998
330
F10999
100
AcDbEntity
8
Geo
100
AcDbLine
10
-34.8942758022550
20
6.42873221427571
30
0.000000000000000
11
-34.7942758022550
21
6.38970309962008
31
0.000000000000000
  0
LINE
  5
F1099A
330
F1099B
100
AcDbEntity
8
Geo
100
AcDbLine
10
-34.7942758022550
20
6.38970309962008
30
0.000000000000000
11
-34.6942758022550
21
6.35127795545700
31
0.000000000000000
  0
LINE
  5
F1099C
330
F1099D
100
AcDbEntity
8
Geo
100
AcDbLine
10
-34.6942758022550
20
6.35127795545700
30
0.000000000000000
11
-34.5942758022550
21
6.31346478688588
31
0.000000000000000
  0
LINE
  5
F1099E
330
F1099F
100
AcDbEntity
8
Geo
100
AcDbLine
10
-34.5942758022550
20
6.31346478688588
30
0.000000000000000
11
-34.4942758022550
21
6.27627147151339
31
0.000000000000000
  0
LINE
  5
F109A0
330
F109A1
100
AcDbEntity
8
Geo
100
AcDbLine
10
-34.4942758022550
20
6.27627147151339
30
0.000000000000000
11
-34.3942758022550
21
6.23970575781238
31
0.000000000000000
  0
LINE
  5
F109A2
330
F109A3
100
AcDbEntity
8
Geo
100
AcDbLine
10
-34.3942758022550
20
6.23970575781238
30
0.000000000000000
11
-34.2942758022550
21
6.20377526350763
31
0.000000000000000
  0
LINE
  5
F109A4
330
F109A5
100
AcDbEntity
8
Geo
100
AcDbLine
10
-34.2942758022550
20
6.20377526350763
30
0.000000000000000
11
-34.1942758022550
21
6.16848747398881
31
0.000000000000000
  0
LINE
  5
F109A6
330
F109A7
100
AcDbEntity
8
Geo
100
AcDbLine
10
-34.1942758022550
20
6.16848747398881
30
0.000000000000000
11
-34.0942758022550
21
6.13384974075113
31
0.000000000000000
  0
LINE
  5
F109A8
330
F109A9
100
AcDbEntity
8
Geo
100
AcDbLine
10
-34.0942758022550
20
6.13384974075113
30
0.000000000000000
11
-33.9942758022550
21
6.09986927986371
31
0.000000000000000
  0
LINE
  5
F109AA
330
F109AB
100
AcDbEntity
8
Geo
100
AcDbLine
10
-33.9942758022550
20
6.09986927986371
30
0.000000000000000
11
-33.8942758022550
21
6.06655317046634
31
0.000000000000000
  0
LINE
  5
F109AC
330
F109AD
100
AcDbEntity
8
Geo
100
AcDbLine
10
-33.8942758022550
20
6.06655317046634
30
0.000000000000000
11
-33.7942758022550
21
6.03390835329466
31
0.000000000000000
  0
LINE
  5
F109AE
330
F109AF
100
AcDbEntity
8
Geo
100
AcDbLine
10
-33.7942758022550
20
6.03390835329466
30
0.000000000000000
11
-33.6942758022550
21
6.00194162923415
31
0.000000000000000
  0
LINE
  5
F109B0
330
F109B1
100
AcDbEntity
8
Geo
100
AcDbLine
10
49.3057241977450
20
12.7888117953166
30
0.000000000000000
11
49.3057241977450
21
9.28881179531658
31
0.000000000000000
  0
ARC
  5
F109B2
330
F109B3
100
AcDbEntity
8
Geo
100
AcDbCircle
10
-46.6942758022550
20
9.28881179531658
30
0.000000000000000
 40
4.00000000000000
100
AcDbArc
 50
180.000000000000
 51
270.000000000000
  0
LINE
  5
F109B4
330
F109B5
100
AcDbEntity
8
Geo
100
AcDbLine
10
-46.6942758022550
20
5.28881179531658
30
0.000000000000000
11
-28.6942758022550
21
5.28881179531658
31
0.000000000000000
  0
LINE
  5
F109B6
330
F109B7
100
AcDbEntity
8
Geo
100
AcDbLine
10
-28.6942758022550
20
5.28881179531658
30
0.000000000000000
11
48.8057241977450
21
5.28881179531658
31
0.000000000000000
  0
LINE
  5
F109B8
330
F109B9
100
AcDbEntity
8
Geo
100
AcDbLine
10
48.8057241977450
20
5.28881179531658
30
0.000000000000000
11
49.3057241977450
21
5.78881179531658
31
0.000000000000000
  0
LINE
  5
F109BA
330
F109BB
100
AcDbEntity
8
Geo
100
AcDbLine
10
-46.6942758022550
20
13.2888117953166
30
0.000000000000000
11
-46.6942758022550
21
5.28881179531658
31
0.000000000000000
  0
LINE
  5
F109BC
330
F109BD
100
AcDbEntity
8
Geo
100
AcDbLine
10
-28.6942758022550
20
13.2888117953166
30
0.000000000000000
11
-28.6942758022550
21
5.28881179531658
31
0.000000000000000
  0
LINE
  5
F109BE
330
F109BF
100
AcDbEntity
8
Geo
100
AcDbLine
10
-28.6942758022550
20
13.2888117953166
30
0.000000000000000
11
-28.6942758022550
21
5.28881179531658
31
0.000000000000000
  0
LINE
  5
F109C0
330
F109C1
100
AcDbEntity
8
Geo
100
AcDbLine
10
48.8057241977450
20
13.2888117953166
30
0.000000000000000
11
48.8057241977450
21
5.28881179531658
31
0.000000000000000
  0
LINE
  5
F109C2
330
F109C3
100
AcDbEntity
8
Geo
100
AcDbLine
10
49.3057241977450
20
12.7888117953166
30
0.000000000000000
11
49.3057241977450
21
5.78881179531658
31
0.000000000000000
  0
LINE
  5
F109C4
330
F109C5
100
AcDbEntity
8
Geo
 6
Dashdot
100
AcDbLine
10
-50.6942758022550
20
9.28881179531658
30
0.000000000000000
11
49.3057241977450
21
9.28881179531658
31
0.000000000000000
  0
LWPOLYLINE
  5
F109C6
330
F109C7
100
AcDbEntity
8
Rahmen
100
AcDbPolyline
90
   4
70
   1
43
   0.0
 10
-134.596704249783
 20
99.9002601908066
 10
143.339115351258
 20
99.9002601908066
 10
143.339115351258
 20
-100.082393755421
 10
-134.596704249783
 20
-100.082393755421
  0
TEXT
  5
F109C8
330
F109C9
 100
AcDbEntity
8
Text
100
AcDbText
10
-133.503902862099
20
-99.5823937554206
30
0.000000000000000
40
1.00000000000000
1
ISBESketcher - ©ISBE GmbH      lizensiert für: Schmid Werkzeuge
100
AcDbText
  0
LWPOLYLINE
  5
F109CA
330
F109CB
100
AcDbEntity
8
Rahmen
100
AcDbPolyline
90
   4
70
   1
43
   0.0
 10
103.451864700781
 20
-97.1682567215958
 10
143.339115351258
 20
-97.1682567215958
 10
143.339115351258
 20
-100.082393755421
 10
103.451864700781
 20
-100.082393755421
  0
TEXT
  5
F109CC
330
F109CD
 100
AcDbEntity
8
Text
100
AcDbText
10
104.500000000000
20
-99.4570685169124
30
0.000000000000000
40
1.50000000000000
1
Ers. durch:
100
AcDbText
  0
TEXT
  5
F109CE
330
F109CF
 100
AcDbEntity
8
Text
100
AcDbText
10
0.000000000000000
20
0.500000000000000
30
0.000000000000000
40
1.50000000000000
1

100
AcDbText
  0
LWPOLYLINE
  5
F109D0
330
F109D1
100
AcDbEntity
8
Rahmen
100
AcDbPolyline
90
   4
70
   1
43
   0.0
 10
63.3824804856895
 20
-97.1682567215958
 10
103.451864700781
 20
-97.1682567215958
 10
103.451864700781
 20
-100.082393755421
 10
63.3824804856895
 20
-100.082393755421
  0
TEXT
  5
F109D2
330
F109D3
 100
AcDbEntity
8
Text
100
AcDbText
10
64.5000000000000
20
-99.4570685169124
30
0.000000000000000
40
1.50000000000000
1
Ers. für:
100
AcDbText
  0
TEXT
  5
F109D4
330
F109D5
 100
AcDbEntity
8
Text
100
AcDbText
10
0.000000000000000
20
0.500000000000000
30
0.000000000000000
40
1.50000000000000
1

100
AcDbText
  0
LWPOLYLINE
  5
F109D6
330
F109D7
100
AcDbEntity
8
Rahmen
100
AcDbPolyline
90
   4
70
   1
43
   0.0
 10
130.043365134432
 20
-94.0719861231570
 10
143.339115351258
 20
-94.0719861231570
 10
143.339115351258
 20
-97.1682567215958
 10
130.043365134432
 20
-97.1682567215958
  0
TEXT
  5
F109D8
330
F109D9
 100
AcDbEntity
8
Text
100
AcDbText
10
131.166666666667
20
-96.4570685169124
30
0.000000000000000
40
1.50000000000000
1
Blätter
100
AcDbText
  0
TEXT
  5
F109DA
330
F109DB
 100
AcDbEntity
8
Text
100
AcDbText
10
0.000000000000000
20
0.500000000000000
30
0.000000000000000
40
1.50000000000000
1

100
AcDbText
  0
LWPOLYLINE
  5
F109DC
330
F109DD
100
AcDbEntity
8
Rahmen
100
AcDbPolyline
90
   4
70
   1
43
   0.0
 10
130.043365134432
 20
-91.1578490893322
 10
143.339115351258
 20
-91.1578490893322
 10
143.339115351258
 20
-94.0719861231570
 10
130.043365134432
 20
-94.0719861231570
  0
TEXT
  5
F109DE
330
F109DF
 100
AcDbEntity
8
Text
100
AcDbText
10
131.166666666667
20
-93.4570685169124
30
0.000000000000000
40
1.50000000000000
1
Blatt
100
AcDbText
  0
TEXT
  5
F109E0
330
F109E1
 100
AcDbEntity
8
Text
100
AcDbText
10
0.000000000000000
20
0.500000000000000
30
0.000000000000000
40
1.50000000000000
1

100
AcDbText
  0
LWPOLYLINE
  5
F109E2
330
F109E3
100
AcDbEntity
8
Rahmen
100
AcDbPolyline
90
   4
70
   1
43
   0.0
 10
63.3824804856895
 20
-91.1578490893322
 10
130.043365134432
 20
-91.1578490893322
 10
130.043365134432
 20
-97.1682567215958
 10
63.3824804856895
 20
-97.1682567215958
  0
TEXT
  5
F109E4
330
F109E5
 100
AcDbEntity
8
Text
100
AcDbText
10
64.5000000000000
20
-93.4570685169124
30
0.000000000000000
40
1.50000000000000
1
Datum:
100
AcDbText
  0
TEXT
  5
F109E6
330
F109E7
 100
AcDbEntity
8
Text
100
AcDbText
10
90.9139924833767
20
-96.4570685169124
30
0.000000000000000
40
1.50000000000000
1
30.09.2021
100
AcDbText
  0
LWPOLYLINE
  5
F109E8
330
F109E9
100
AcDbEntity
8
Rahmen
100
AcDbPolyline
90
   4
70
   1
43
   0.0
 10
63.3824804856895
 20
-85.1474414570685
 10
143.339115351258
 20
-85.1474414570685
 10
143.339115351258
 20
-91.1578490893322
 10
63.3824804856895
 20
-91.1578490893322
  0
TEXT
  5
F109EA
330
F109EB
 100
AcDbEntity
8
Text
100
AcDbText
10
0.000000000000000
20
0.500000000000000
30
0.000000000000000
40
1.50000000000000
1

100
AcDbText
  0
TEXT
  5
F109EC
330
F109ED
 100
AcDbEntity
8
Text
100
AcDbText
10
74.8139635732871
20
-89.6254697889564
30
0.000000000000000
40
2.50000000000000
1
VHM-Radiusfräser R0141-8-b
100
AcDbText
  0
LWPOLYLINE
  5
F109EE
330
F109EF
100
AcDbEntity
8
Rahmen
100
AcDbPolyline
90
   4
70
   1
43
   0.0
 10
103.451864700781
 20
-79.1370338248049
 10
143.339115351258
 20
-79.1370338248049
 10
143.339115351258
 20
-85.1474414570685
 10
103.451864700781
 20
-85.1474414570685
  0
TEXT
  5
F109F0
330
F109F1
 100
AcDbEntity
8
Text
100
AcDbText
10
104.500000000000
20
-81.4570685169124
30
0.000000000000000
40
1.50000000000000
1
Zu bearb. Material:
100
AcDbText
  0
TEXT
  5
F109F2
330
F109F3
 100
AcDbEntity
8
Text
100
AcDbText
10
0.000000000000000
20
0.500000000000000
30
0.000000000000000
40
1.50000000000000
1

100
AcDbText
  0
LWPOLYLINE
  5
F109F4
330
F109F5
100
AcDbEntity
8
Rahmen
100
AcDbPolyline
90
   4
70
   1
43
   0.0
 10
63.3824804856895
 20
-79.1370338248049
 10
103.451864700781
 20
-79.1370338248049
 10
103.451864700781
 20
-85.1474414570685
 10
63.3824804856895
 20
-85.1474414570685
  0
TEXT
  5
F109F6
330
F109F7
 100
AcDbEntity
8
Text
100
AcDbText
10
64.5000000000000
20
-81.4570685169124
30
0.000000000000000
40
1.50000000000000
1
Werkstoff:
100
AcDbText
  0
TEXT
  5
F109F8
330
F109F9
 100
AcDbEntity
8
Text
100
AcDbText
10
80.7679965307892
20
-84.4570685169124
30
0.000000000000000
40
1.50000000000000
1
VHM
100
AcDbText
  0
LWPOLYLINE
  5
F109FA
330
F109FB
100
AcDbEntity
8
Rahmen
100
AcDbPolyline
90
   4
70
   1
43
   0.0
 10
103.451864700781
 20
-76.0407632263660
 10
143.339115351258
 20
-76.0407632263660
 10
143.339115351258
 20
-79.1370338248049
 10
103.451864700781
 20
-79.1370338248049
  0
TEXT
  5
F109FC
330
F109FD
 100
AcDbEntity
8
Text
100
AcDbText
10
0.000000000000000
20
0.500000000000000
30
0.000000000000000
40
1.50000000000000
1

100
AcDbText
  0
TEXT
  5
F109FE
330
F109FF
 100
AcDbEntity
8
Text
100
AcDbText
10
0.000000000000000
20
0.500000000000000
30
0.000000000000000
40
1.50000000000000
1

100
AcDbText
  0
LWPOLYLINE
  5
F10A00
330
F10A01
100
AcDbEntity
8
Rahmen
100
AcDbPolyline
90
   4
70
   1
43
   0.0
 10
63.3824804856895
 20
-76.0407632263660
 10
103.451864700781
 20
-76.0407632263660
 10
103.451864700781
 20
-79.1370338248049
 10
63.3824804856895
 20
-79.1370338248049
  0
TEXT
  5
F10A02
330
F10A03
 100
AcDbEntity
8
Text
100
AcDbText
10
64.5000000000000
20
-78.4570685169124
30
0.000000000000000
40
1.50000000000000
1
Maßstab:
100
AcDbText
  0
TEXT
  5
F10A04
330
F10A05
 100
AcDbEntity
8
Text
100
AcDbText
10
89.0411968777103
20
-78.4570685169124
30
0.000000000000000
40
1.50000000000000
1
1 : 1
100
AcDbText
0
VIEWPORT
5
294
102
{ACAD_XDICTIONARY
360
58A
102
}
330
25D
100
AcDbEntity
67
1
8
0
60
1
100
AcDbViewport
10
0.0
20
0.0
30
0.0
40
10.0
41
10.0
68
-1
69
1
12
0.0
22
0.0
13
0.0
23
0.0
14
1.0
24
1.0
15
0.0
25
0.0
16
0.0
26
0.0
36
1.0
17
0.0
27
0.0
37
0.0
42
0.0
43
0.0
44
0.0
45
10.0
50
0.0
51
0.0000000000007958
72
100
90
32800
1

281
0
71
0
74
0
110
0.0
120
0.0
130
0.0
111
1.0
121
0.0
131
0.0
112
0.0
122
1.0
132
0.0
79
0
146
0.0
1001
VD_INVISIBLE_NOT_FOR_READ
1000
VD_INVISIBLE_NOT_FOR_READ
0
VIEWPORT
5
295
102
{ACAD_XDICTIONARY
360
58C
102
}
330
25D
100
AcDbEntity
67
1
8
0
60
1
100
AcDbViewport
10
0.0
20
0.0
30
0.0
40
10.0
41
10.0
68
0
69
2
12
0.0
22
0.0
13
0.0
23
0.0
14
1.0
24
1.0
15
0.0
25
0.0
16
0.0
26
0.0
36
1.0
17
0.0
27
0.0
37
0.0
42
0.0
43
0.0
44
0.0
45
10.0
50
0.0
51
0.0000000000007958
72
100
90
163872
1

281
0
71
0
74
0
110
0.0
120
0.0
130
0.0
111
1.0
121
0.0
131
0.0
112
0.0
122
1.0
132
0.0
79
0
146
0.0
1001
VD_INVISIBLE_NOT_FOR_READ
1000
VD_INVISIBLE_NOT_FOR_READ
0
ENDSEC
0
SECTION
2
OBJECTS
0
DICTIONARY
5
13
330
0
100
AcDbDictionary
281
1
3
ACAD_COLOR
350
FA7
3
ACAD_GROUP
350
14
3
ACAD_LAYOUT
350
FCF
3
ACAD_MATERIAL
350
F7A
3
ACAD_MLEADERSTYLE
350
FCD
3
ACAD_MLINESTYLE
350
16
3
ACAD_PLOTSETTINGS
350
17
3
ACAD_PLOTSTYLENAME
350
18
3
ACAD_SCALELIST
350
FAB
3
ACAD_TABLESTYLE
350
FA8
3
ACAD_VISUALSTYLE
350
F93
3
ACDB_RECOMPOSE_DATA
350
107E
3
AcDbVariableDictionary
350
FF0
3
DWGPROPS
350
107F
0
DICTIONARY
5
F10014
330
F10013
100
AcDbDictionary
280
1
281
1
3
ACAD_MTEXT_2008_RT
360
F10015
0
DICTIONARY
5
F10019
330
F10018
100
AcDbDictionary
280
1
281
1
3
ACAD_MTEXT_2008_RT
360
F1001A
0
DICTIONARY
5
F1000A
330
F10009
100
AcDbDictionary
280
1
281
1
3
ACAD_MTEXT_2008_RT
360
F1000B
0
DICTIONARY
5
F10005
330
F10004
100
AcDbDictionary
280
1
281
1
3
ACAD_MTEXT_2008_RT
360
F10006
0
DICTIONARY
5
F1000F
330
F1000E
100
AcDbDictionary
280
1
281
1
3
ACAD_MTEXT_2008_RT
360
F10010
0
DICTIONARY
5
FA7
102
{ACAD_REACTORS
330
13
102
}
330
13
100
AcDbDictionary
281
1
0
DICTIONARY
5
14
330
13
100
AcDbDictionary
281
1
0
DICTIONARY
5
FCF
102
{ACAD_REACTORS
330
13
102
}
330
13
100
AcDbDictionary
281
1
3
Layout1
350
FD1
3
Model
350
FD0
0
DICTIONARY
5
F7A
102
{ACAD_REACTORS
330
13
102
}
330
13
100
AcDbDictionary
281
1
3
ByBlock
350
F83
3
ByLayer
350
F7B
3
Global
350
F8B
0
DICTIONARY
5
FCD
102
{ACAD_REACTORS
330
13
102
}
330
13
100
AcDbDictionary
281
1
3
Standard
350
FCE
0
DICTIONARY
5
16
330
13
100
AcDbDictionary
281
1
3
Standard
350
FAA
0
DICTIONARY
5
17
102
{ACAD_REACTORS
330
13
102
}
330
13
100
AcDbDictionary
281
1
0
ACDBDICTIONARYWDFLT
5
18
102
{ACAD_REACTORS
330
13
102
}
330
13
100
AcDbDictionary
281
1
3
Normal
350
19
100
AcDbDictionaryWithDefault
340
19
0
DICTIONARY
5
FAB
102
{ACAD_REACTORS
330
13
102
}
330
13
100
AcDbDictionary
281
1
3
A0
350
FAC
3
A1
350
FAD
3
A2
350
FAE
3
A3
350
FAF
3
A4
350
FB0
3
A5
350
FB1
3
A6
350
FB2
3
A7
350
FB3
3
A8
350
FB4
3
A9
350
FB5
3
B0
350
FB6
3
B1
350
FB7
3
B2
350
FB8
3
B3
350
FB9
3
B4
350
FBA
3
B5
350
FBB
3
B6
350
FBC
3
B7
350
FBD
3
B8
350
FBE
3
B9
350
FBF
3
C0
350
FC0
3
C1
350
FC1
3
C2
350
FC2
3
C3
350
FC3
3
C4
350
FC4
3
C5
350
FC5
3
C6
350
FC6
3
C7
350
FC7
3
C8
350
FC8
3
C9
350
FC9
3
D0
350
FCA
3
D1
350
FCB
3
D2
350
FCC
0
DICTIONARY
5
FA8
102
{ACAD_REACTORS
330
13
102
}
330
13
100
AcDbDictionary
281
1
3
Standard
350
FA9
0
DICTIONARY
5
F93
102
{ACAD_REACTORS
330
13
102
}
330
13
100
AcDbDictionary
281
1
3
2dWireframe
350
F99
3
3D Hidden
350
F9B
3
3dWireframe
350
F9A
3
Basic
350
F98
3
Brighten
350
F9F
3
ColorChange
350
FA3
3
Conceptual
350
F9C
3
Dim
350
F9E
3
EdgeColorOff
350
FA6
3
Facepattern
350
FA2
3
Flat
350
F94
3
FlatWithEdges
350
F95
3
Gouraud
350
F96
3
GouraudWithEdges
350
F97
3
JitterOff
350
FA4
3
Linepattern
350
FA1
3
OverhangOff
350
FA5
3
Realistic
350
F9D
3
Thicken
350
FA0
0
XRECORD
5
107E
102
{ACAD_REACTORS
330
13
102
}
330
13
100
AcDbXrecord
280
1
90
1
330
FA9
330
F10013
330
F10018
330
F10009
330
F10004
330
F1000E
0
DICTIONARY
5
FF0
102
{ACAD_REACTORS
330
13
102
}
330
13
100
AcDbDictionary
281
1
3
CANNOSCALE
350
FF3
3
CMLEADERSTYLE
350
FF2
3
CTABLESTYLE
350
FF1
3
DIMASSOC
350
FF6
3
INDEXCTL
350
FF5
3
SORTENTS
350
FF4
3
XCLIPFRAME
350
1078
0
XRECORD
5
107F
102
{ACAD_REACTORS
330
13
102
}
330
13
100
AcDbXrecord
280
1
1
DWGPROPS COOKIE
2

3

4

6

7

8

9

300
=
301
=
302
=
303
=
304
=
305
=
306
=
307
=
308
=
309
=
40
0.0
41
0.0
42
0.0
1

90
0
0
XRECORD
5
F10015
102
{ACAD_REACTORS
330
F10014
102
}
330
F10014
100
AcDbXrecord
280
1
40
48458.0
1
22
0
XRECORD
5
F1001A
102
{ACAD_REACTORS
330
F10019
102
}
330
F10019
100
AcDbXrecord
280
1
40
48458.0
1
100
0
XRECORD
5
F1000B
102
{ACAD_REACTORS
330
F1000A
102
}
330
F1000A
100
AcDbXrecord
280
1
40
48458.0
1
R4
0
XRECORD
5
F10006
102
{ACAD_REACTORS
330
F10005
102
}
330
F10005
100
AcDbXrecord
280
1
40
48458.0
1
Ø8
0
LAYOUT
5
FD1
102
{ACAD_XDICTIONARY
360
10A9
102
}
102
{ACAD_REACTORS
330
FCF
102
}
330
FCF
100
AcDbPlotSettings
1

2
Microsoft XPS Document Writer
4

6

40
0.0
41
0.0
42
0.0
43
0.0
44
0.0
45
0.0
46
0.0
47
0.0
48
0.0
49
0.0
140
0.0
141
0.0
142
1.0
143
1.0
70
688
72
0
73
0
74
5
7

75
16
147
1.0
148
0.0
149
0.0
100
AcDbLayout
1
Layout1
70
1
71
1
10
0.0
20
0.0
11
12.0
21
9.0
12
0.0
22
0.0
32
0.0
14
1.000000000000000E+20
24
1.000000000000000E+20
34
1.000000000000000E+20
15
-1.000000000000000E+20
25
-1.000000000000000E+20
35
-1.000000000000000E+20
146
0.0
13
0.0
23
0.0
33
0.0
16
1.0
26
0.0
36
0.0
17
0.0
27
1.0
37
0.0
76
0
330
25D
0
LAYOUT
5
FD0
102
{ACAD_XDICTIONARY
360
10A7
102
}
102
{ACAD_REACTORS
330
FCF
102
}
330
FCF
100
AcDbPlotSettings
1

2
Microsoft XPS Document Writer
4

6

40
0.0
41
0.0
42
0.0
43
0.0
44
0.0
45
0.0
46
0.0
47
0.0
48
0.0
49
0.0
140
0.0
141
0.0
142
1.0
143
1.0
70
1712
72
0
73
0
74
0
7

75
0
147
1.0
148
0.0
149
0.0
100
AcDbLayout
1
Model
70
1
71
0
10
0.0
20
0.0
11
12.0
21
9.0
12
0.0
22
0.0
32
0.0
14
0.0
24
0.0
34
0.0
15
0.0
25
0.0
35
0.0
146
0.0
13
0.0
23
0.0
33
0.0
16
1.0
26
0.0
36
0.0
17
0.0
27
1.0
37
0.0
76
0
330
261
331
26B
0
MATERIAL
5
F83
102
{ACAD_XDICTIONARY
360
F84
102
}
102
{ACAD_REACTORS
330
F7A
102
}
330
F7A
100
AcDbMaterial
1
ByBlock
72
0
43
0.0208333333333333
43
0.0
43
0.0
43
0.0
43
0.0
43
0.0208333333333333
43
0.0
43
0.0
43
0.0
43
0.0
43
1.0
43
0.0
43
0.0
43
0.0
43
0.0
43
1.0
77
0
47
0.0208333333333333
47
0.0
47
0.0
47
0.0
47
0.0
47
0.0208333333333333
47
0.0
47
0.0
47
0.0
47
0.0
47
1.0
47
0.0
47
0.0
47
0.0
47
0.0
47
1.0
171
0
49
0.0208333333333333
49
0.0
49
0.0
49
0.0
49
0.0
49
0.0208333333333333
49
0.0
49
0.0
49
0.0
49
0.0
49
1.0
49
0.0
49
0.0
49
0.0
49
0.0
49
1.0
175
0
142
0.0208333333333333
142
0.0
142
0.0
142
0.0
142
0.0
142
0.0208333333333333
142
0.0
142
0.0
142
0.0
142
0.0
142
1.0
142
0.0
142
0.0
142
0.0
142
0.0
142
1.0
179
0
144
0.0208333333333333
144
0.0
144
0.0
144
0.0
144
0.0
144
0.0208333333333333
144
0.0
144
0.0
144
0.0
144
0.0
144
1.0
144
0.0
144
0.0
144
0.0
144
0.0
144
1.0
147
0.0208333333333333
147
0.0
147
0.0
147
0.0
147
0.0
147
0.0208333333333333
147
0.0
147
0.0
147
0.0
147
0.0
147
1.0
147
0.0
147
0.0
147
0.0
147
0.0
147
1.0
0
MATERIAL
5
F7B
102
{ACAD_XDICTIONARY
360
F7C
102
}
102
{ACAD_REACTORS
330
F7A
102
}
330
F7A
100
AcDbMaterial
1
ByLayer
72
0
43
0.0208333333333333
43
0.0
43
0.0
43
0.0
43
0.0
43
0.0208333333333333
43
0.0
43
0.0
43
0.0
43
0.0
43
1.0
43
0.0
43
0.0
43
0.0
43
0.0
43
1.0
77
0
47
0.0208333333333333
47
0.0
47
0.0
47
0.0
47
0.0
47
0.0208333333333333
47
0.0
47
0.0
47
0.0
47
0.0
47
1.0
47
0.0
47
0.0
47
0.0
47
0.0
47
1.0
171
0
49
0.0208333333333333
49
0.0
49
0.0
49
0.0
49
0.0
49
0.0208333333333333
49
0.0
49
0.0
49
0.0
49
0.0
49
1.0
49
0.0
49
0.0
49
0.0
49
0.0
49
1.0
175
0
142
0.0208333333333333
142
0.0
142
0.0
142
0.0
142
0.0
142
0.0208333333333333
142
0.0
142
0.0
142
0.0
142
0.0
142
1.0
142
0.0
142
0.0
142
0.0
142
0.0
142
1.0
179
0
144
0.0208333333333333
144
0.0
144
0.0
144
0.0
144
0.0
144
0.0208333333333333
144
0.0
144
0.0
144
0.0
144
0.0
144
1.0
144
0.0
144
0.0
144
0.0
144
0.0
144
1.0
147
0.0208333333333333
147
0.0
147
0.0
147
0.0
147
0.0
147
0.0208333333333333
147
0.0
147
0.0
147
0.0
147
0.0
147
1.0
147
0.0
147
0.0
147
0.0
147
0.0
147
1.0
0
MATERIAL
5
F8B
102
{ACAD_XDICTIONARY
360
F8C
102
}
102
{ACAD_REACTORS
330
F7A
102
}
330
F7A
100
AcDbMaterial
1
Global
72
0
43
0.0208333333333333
43
0.0
43
0.0
43
0.0
43
0.0
43
0.0208333333333333
43
0.0
43
0.0
43
0.0
43
0.0
43
1.0
43
0.0
43
0.0
43
0.0
43
0.0
43
1.0
77
0
47
0.0208333333333333
47
0.0
47
0.0
47
0.0
47
0.0
47
0.0208333333333333
47
0.0
47
0.0
47
0.0
47
0.0
47
1.0
47
0.0
47
0.0
47
0.0
47
0.0
47
1.0
171
0
49
0.0208333333333333
49
0.0
49
0.0
49
0.0
49
0.0
49
0.0208333333333333
49
0.0
49
0.0
49
0.0
49
0.0
49
1.0
49
0.0
49
0.0
49
0.0
49
0.0
49
1.0
175
0
142
0.0208333333333333
142
0.0
142
0.0
142
0.0
142
0.0
142
0.0208333333333333
142
0.0
142
0.0
142
0.0
142
0.0
142
1.0
142
0.0
142
0.0
142
0.0
142
0.0
142
1.0
179
0
144
0.0208333333333333
144
0.0
144
0.0
144
0.0
144
0.0
144
0.0208333333333333
144
0.0
144
0.0
144
0.0
144
0.0
144
1.0
144
0.0
144
0.0
144
0.0
144
0.0
144
1.0
147
0.0208333333333333
147
0.0
147
0.0
147
0.0
147
0.0
147
0.0208333333333333
147
0.0
147
0.0
147
0.0
147
0.0
147
1.0
147
0.0
147
0.0
147
0.0
147
0.0
147
1.0
0
MLEADERSTYLE
5
FCE
102
{ACAD_REACTORS
330
FCD
102
}
330
FCD
100
AcDbMLeaderStyle
170
2
171
1
172
0
90
2
40
0.0
41
0.0
173
1
91
-1056964608
340
256
92
-2
290
1
42
0.09
291
1
43
0.36
3
Standard
44
0.18
300

342
253
174
1
178
6
175
1
176
0
93
-1056964608
45
0.18
292
0
297
0
46
0.18
94
-1056964608
47
1.0
49
1.0
140
1.0
293
1
141
0.0
294
1
177
0
142
1.0
295
0
296
0
143
0.125
1001
ACAD_MLEADERVER
1070
2
0
MLINESTYLE
5
FAA
102
{ACAD_REACTORS
330
16
102
}
330
16
100
AcDbMlineStyle
2
STANDARD
70
0
3

62
256
51
90.0
52
90.0
71
2
49
0.5
62
256
6
BYLAYER
49
-0.5
62
256
6
BYLAYER
0
ACDBPLACEHOLDER
5
19
102
{ACAD_REACTORS
330
18
102
}
330
18
0
SCALE
5
FAC
102
{ACAD_REACTORS
330
FAB
102
}
330
FAB
100
AcDbScale
70
0
300
1:1
140
1.0
141
1.0
290
1
0
SCALE
5
FAD
102
{ACAD_REACTORS
330
FAB
102
}
330
FAB
100
AcDbScale
70
0
300
1:2
140
1.0
141
2.0
290
0
0
SCALE
5
FAE
102
{ACAD_REACTORS
330
FAB
102
}
330
FAB
100
AcDbScale
70
0
300
1:4
140
1.0
141
4.0
290
0
0
SCALE
5
FAF
102
{ACAD_REACTORS
330
FAB
102
}
330
FAB
100
AcDbScale
70
0
300
1:5
140
1.0
141
5.0
290
0
0
SCALE
5
FB0
102
{ACAD_REACTORS
330
FAB
102
}
330
FAB
100
AcDbScale
70
0
300
1:8
140
1.0
141
8.0
290
0
0
SCALE
5
FB1
102
{ACAD_REACTORS
330
FAB
102
}
330
FAB
100
AcDbScale
70
0
300
1:10
140
1.0
141
10.0
290
0
0
SCALE
5
FB2
102
{ACAD_REACTORS
330
FAB
102
}
330
FAB
100
AcDbScale
70
0
300
1:16
140
1.0
141
16.0
290
0
0
SCALE
5
FB3
102
{ACAD_REACTORS
330
FAB
102
}
330
FAB
100
AcDbScale
70
0
300
1:20
140
1.0
141
20.0
290
0
0
SCALE
5
FB4
102
{ACAD_REACTORS
330
FAB
102
}
330
FAB
100
AcDbScale
70
0
300
1:30
140
1.0
141
30.0
290
0
0
SCALE
5
FB5
102
{ACAD_REACTORS
330
FAB
102
}
330
FAB
100
AcDbScale
70
0
300
1:40
140
1.0
141
40.0
290
0
0
SCALE
5
FB6
102
{ACAD_REACTORS
330
FAB
102
}
330
FAB
100
AcDbScale
70
0
300
1:50
140
1.0
141
50.0
290
0
0
SCALE
5
FB7
102
{ACAD_REACTORS
330
FAB
102
}
330
FAB
100
AcDbScale
70
0
300
1:100
140
1.0
141
100.0
290
0
0
SCALE
5
FB8
102
{ACAD_REACTORS
330
FAB
102
}
330
FAB
100
AcDbScale
70
0
300
2:1
140
2.0
141
1.0
290
0
0
SCALE
5
FB9
102
{ACAD_REACTORS
330
FAB
102
}
330
FAB
100
AcDbScale
70
0
300
4:1
140
4.0
141
1.0
290
0
0
SCALE
5
FBA
102
{ACAD_REACTORS
330
FAB
102
}
330
FAB
100
AcDbScale
70
0
300
8:1
140
8.0
141
1.0
290
0
0
SCALE
5
FBB
102
{ACAD_REACTORS
330
FAB
102
}
330
FAB
100
AcDbScale
70
0
300
10:1
140
10.0
141
1.0
290
0
0
SCALE
5
FBC
102
{ACAD_REACTORS
330
FAB
102
}
330
FAB
100
AcDbScale
70
0
300
100:1
140
100.0
141
1.0
290
0
0
SCALE
5
FBD
102
{ACAD_REACTORS
330
FAB
102
}
330
FAB
100
AcDbScale
70
0
300
1/128" = 1'-0"
140
0.0078125
141
12.0
290
0
0
SCALE
5
FBE
102
{ACAD_REACTORS
330
FAB
102
}
330
FAB
100
AcDbScale
70
0
300
1/64" = 1'-0"
140
0.015625
141
12.0
290
0
0
SCALE
5
FBF
102
{ACAD_REACTORS
330
FAB
102
}
330
FAB
100
AcDbScale
70
0
300
1/32" = 1'-0"
140
0.03125
141
12.0
290
0
0
SCALE
5
FC0
102
{ACAD_REACTORS
330
FAB
102
}
330
FAB
100
AcDbScale
70
0
300
1/16" = 1'-0"
140
0.0625
141
12.0
290
0
0
SCALE
5
FC1
102
{ACAD_REACTORS
330
FAB
102
}
330
FAB
100
AcDbScale
70
0
300
3/32" = 1'-0"
140
0.09375
141
12.0
290
0
0
SCALE
5
FC2
102
{ACAD_REACTORS
330
FAB
102
}
330
FAB
100
AcDbScale
70
0
300
1/8" = 1'-0"
140
0.125
141
12.0
290
0
0
SCALE
5
FC3
102
{ACAD_REACTORS
330
FAB
102
}
330
FAB
100
AcDbScale
70
0
300
3/16" = 1'-0"
140
0.1875
141
12.0
290
0
0
SCALE
5
FC4
102
{ACAD_REACTORS
330
FAB
102
}
330
FAB
100
AcDbScale
70
0
300
1/4" = 1'-0"
140
0.25
141
12.0
290
0
0
SCALE
5
FC5
102
{ACAD_REACTORS
330
FAB
102
}
330
FAB
100
AcDbScale
70
0
300
3/8" = 1'-0"
140
0.375
141
12.0
290
0
0
SCALE
5
FC6
102
{ACAD_REACTORS
330
FAB
102
}
330
FAB
100
AcDbScale
70
0
300
1/2" = 1'-0"
140
0.5
141
12.0
290
0
0
SCALE
5
FC7
102
{ACAD_REACTORS
330
FAB
102
}
330
FAB
100
AcDbScale
70
0
300
3/4" = 1'-0"
140
0.75
141
12.0
290
0
0
SCALE
5
FC8
102
{ACAD_REACTORS
330
FAB
102
}
330
FAB
100
AcDbScale
70
0
300
1" = 1'-0"
140
1.0
141
12.0
290
0
0
SCALE
5
FC9
102
{ACAD_REACTORS
330
FAB
102
}
330
FAB
100
AcDbScale
70
0
300
1-1/2" = 1'-0"
140
1.5
141
12.0
290
0
0
SCALE
5
FCA
102
{ACAD_REACTORS
330
FAB
102
}
330
FAB
100
AcDbScale
70
0
300
3" = 1'-0"
140
3.0
141
12.0
290
0
0
SCALE
5
FCB
102
{ACAD_REACTORS
330
FAB
102
}
330
FAB
100
AcDbScale
70
0
300
6" = 1'-0"
140
6.0
141
12.0
290
0
0
SCALE
5
FCC
102
{ACAD_REACTORS
330
FAB
102
}
330
FAB
100
AcDbScale
70
0
300
1'-0" = 1'-0"
140
12.0
141
12.0
290
0
0
TABLESTYLE
5
FA9
102
{ACAD_XDICTIONARY
360
FF8
102
}
102
{ACAD_REACTORS
330
FA8
102
}
330
FA8
100
AcDbTableStyle
3
Standard
70
0
71
0
40
0.06
41
0.06
280
0
281
0
7
Standard
140
0.18
170
2
62
0
63
7
283
0
274
-2
284
1
64
0
275
-2
285
1
65
0
276
-2
286
1
66
0
277
-2
287
1
67
0
278
-2
288
1
68
0
279
-2
289
1
69
0
7
Standard
140
0.25
170
5
62
0
63
7
283
0
274
-2
284
1
64
0
275
-2
285
1
65
0
276
-2
286
1
66
0
277
-2
287
1
67
0
278
-2
288
1
68
0
279
-2
289
1
69
0
7
Standard
140
0.18
170
5
62
0
63
7
283
0
274
-2
284
1
64
0
275
-2
285
1
65
0
276
-2
286
1
66
0
277
-2
287
1
67
0
278
-2
288
1
68
0
279
-2
289
1
69
0
0
VISUALSTYLE
5
F99
102
{ACAD_XDICTIONARY
360
108A
102
}
102
{ACAD_REACTORS
330
F93
102
}
330
F93
100
AcDbVisualStyle
2

70
4
71
0
72
2
73
0
90
0
40
-0.6
41
-30.0
62
5
63
7
74
1
91
4
64
7
65
257
75
1
175
1
42
1.0
92
0
66
257
43
1.0
76
1
77
6
78
2
67
7
79
5
170
0
171
0
290
0
174
0
93
1
44
0.0
173
0
291
0
45
0.0
1001
ACAD
1000
AcDbSavedByObjectVersion
1070
0
0
VISUALSTYLE
5
F9B
102
{ACAD_XDICTIONARY
360
108E
102
}
102
{ACAD_REACTORS
330
F93
102
}
330
F93
100
AcDbVisualStyle
2

70
6
71
1
72
2
73
2
90
0
40
-0.6
41
-30.0
62
5
63
7
74
2
91
2
64
7
65
257
75
2
175
1
42
179.0
92
0
66
257
43
1.0
76
1
77
6
78
2
67
7
79
3
170
0
171
0
290
0
174
0
93
1
44
0.0
173
0
291
0
45
0.0
1001
ACAD
1000
AcDbSavedByObjectVersion
1070
0
0
VISUALSTYLE
5
F9A
102
{ACAD_XDICTIONARY
360
108C
102
}
102
{ACAD_REACTORS
330
F93
102
}
330
F93
100
AcDbVisualStyle
2

70
5
71
0
72
2
73
0
90
0
40
-0.6
41
-30.0
62
5
63
7
74
1
91
4
64
7
65
257
75
1
175
1
42
1.0
92
0
66
257
43
1.0
76
1
77
6
78
2
67
7
79
5
170
0
171
0
290
0
174
0
93
1
44
0.0
173
0
291
0
45
0.0
1001
ACAD
1000
AcDbSavedByObjectVersion
1070
0
0
VISUALSTYLE
5
F98
102
{ACAD_XDICTIONARY
360
1088
102
}
102
{ACAD_REACTORS
330
F93
102
}
330
F93
100
AcDbVisualStyle
2

70
7
71
1
72
0
73
1
90
0
40
-0.6
41
-30.0
62
5
63
7
74
0
91
4
64
7
65
257
75
1
175
1
42
1.0
92
8
66
7
43
1.0
76
1
77
6
78
2
67
7
79
5
170
0
171
0
290
0
174
0
93
1
44
0.0
173
0
291
1
45
0.0
1001
ACAD
1000
AcDbSavedByObjectVersion
1070
0
0
VISUALSTYLE
5
F9F
102
{ACAD_XDICTIONARY
360
1096
102
}
102
{ACAD_REACTORS
330
F93
102
}
330
F93
100
AcDbVisualStyle
2

70
12
71
2
72
2
73
0
90
0
40
-0.6
41
-30.0
62
5
63
7
74
1
91
4
64
7
65
257
75
1
175
1
42
1.0
92
8
66
7
43
1.0
76
1
77
6
78
2
67
7
79
5
170
0
171
0
290
0
174
0
93
1
44
50.0
173
0
291
1
45
0.0
1001
ACAD
1000
AcDbSavedByObjectVersion
1070
0
0
VISUALSTYLE
5
FA3
102
{ACAD_XDICTIONARY
360
109E
102
}
102
{ACAD_REACTORS
330
F93
102
}
330
F93
100
AcDbVisualStyle
2

70
16
71
2
72
2
73
3
90
0
40
-0.6
41
-30.0
62
5
63
8
74
1
91
4
64
7
65
257
75
1
175
1
42
1.0
92
8
66
8
43
1.0
76
1
77
6
78
2
67
7
79
5
170
0
171
0
290
0
174
0
93
1
44
0.0
173
0
291
1
45
0.0
1001
ACAD
1000
AcDbSavedByObjectVersion
1070
0
0
VISUALSTYLE
5
F9C
102
{ACAD_XDICTIONARY
360
1090
102
}
102
{ACAD_REACTORS
330
F93
102
}
330
F93
100
AcDbVisualStyle
2

70
9
71
3
72
2
73
0
90
0
40
-0.6
41
-30.0
62
5
63
7
74
2
91
2
64
7
65
257
75
1
175
1
42
179.0
92
8
66
7
43
1.0
76
1
77
6
78
2
67
7
79
3
170
0
171
0
290
0
174
0
93
1
44
0.0
173
0
291
0
45
0.0
1001
ACAD
1000
AcDbSavedByObjectVersion
1070
0
0
VISUALSTYLE
5
F9E
102
{ACAD_XDICTIONARY
360
1094
102
}
102
{ACAD_REACTORS
330
F93
102
}
330
F93
100
AcDbVisualStyle
2

70
11
71
2
72
2
73
0
90
0
40
-0.6
41
-30.0
62
5
63
7
74
1
91
4
64
7
65
257
75
1
175
1
42
1.0
92
8
66
7
43
1.0
76
1
77
6
78
2
67
7
79
5
170
0
171
0
290
0
174
0
93
1
44
-50.0
173
0
291
1
45
0.0
1001
ACAD
1000
AcDbSavedByObjectVersion
1070
0
0
VISUALSTYLE
5
FA6
102
{ACAD_XDICTIONARY
360
10A4
102
}
102
{ACAD_REACTORS
330
F93
102
}
330
F93
100
AcDbVisualStyle
2

70
22
71
2
72
2
73
0
90
0
40
-0.6
41
-30.0
62
5
63
7
74
1
91
4
64
7
65
257
75
1
175
1
42
1.0
92
8
66
7
43
1.0
76
1
77
6
78
2
67
7
79
5
170
0
171
0
290
0
174
0
93
1
44
0.0
173
0
291
1
45
0.0
1001
ACAD
1000
AcDbSavedByObjectVersion
1070
0
0
VISUALSTYLE
5
FA2
102
{ACAD_XDICTIONARY
360
109C
102
}
102
{ACAD_REACTORS
330
F93
102
}
330
F93
100
AcDbVisualStyle
2

70
15
71
2
72
2
73
0
90
0
40
-0.6
41
-30.0
62
5
63
7
74
1
91
4
64
7
65
257
75
1
175
1
42
1.0
92
8
66
7
43
1.0
76
1
77
6
78
2
67
7
79
5
170
0
171
0
290
0
174
0
93
1
44
0.0
173
0
291
1
45
0.0
1001
ACAD
1000
AcDbSavedByObjectVersion
1070
0
0
VISUALSTYLE
5
F94
102
{ACAD_XDICTIONARY
360
1080
102
}
102
{ACAD_REACTORS
330
F93
102
}
330
F93
100
AcDbVisualStyle
2

70
0
71
2
72
1
73
1
90
2
40
-0.6
41
30.0
62
5
63
7
74
0
91
4
64
7
65
257
75
1
175
1
42
1.0
92
8
66
7
43
1.0
76
1
77
6
78
2
67
7
79
5
170
0
171
0
290
0
174
0
93
13
44
0.0
173
0
291
1
45
0.0
1001
ACAD
1000
AcDbSavedByObjectVersion
1070
0
0
VISUALSTYLE
5
F95
102
{ACAD_XDICTIONARY
360
1082
102
}
102
{ACAD_REACTORS
330
F93
102
}
330
F93
100
AcDbVisualStyle
2

70
1
71
2
72
1
73
1
90
2
40
-0.6
41
30.0
62
5
63
7
74
1
91
4
64
7
65
257
75
1
175
1
42
1.0
92
0
66
257
43
1.0
76
1
77
6
78
2
67
7
79
5
170
0
171
0
290
0
174
0
93
13
44
0.0
173
0
291
1
45
0.0
1001
ACAD
1000
AcDbSavedByObjectVersion
1070
0
0
VISUALSTYLE
5
F96
102
{ACAD_XDICTIONARY
360
1084
102
}
102
{ACAD_REACTORS
330
F93
102
}
330
F93
100
AcDbVisualStyle
2

70
2
71
2
72
2
73
1
90
2
40
-0.6
41
30.0
62
5
63
7
74
0
91
4
64
7
65
257
75
1
175
1
42
1.0
92
0
66
7
43
1.0
76
1
77
6
78
2
67
7
79
5
170
0
171
0
290
0
174
0
93
13
44
0.0
173
0
291
1
45
0.0
1001
ACAD
1000
AcDbSavedByObjectVersion
1070
0
0
VISUALSTYLE
5
F97
102
{ACAD_XDICTIONARY
360
1086
102
}
102
{ACAD_REACTORS
330
F93
102
}
330
F93
100
AcDbVisualStyle
2

70
3
71
2
72
2
73
1
90
2
40
-0.6
41
30.0
62
5
63
7
74
1
91
4
64
7
65
257
75
1
175
1
42
1.0
92
0
66
257
43
1.0
76
1
77
6
78
2
67
7
79
5
170
0
171
0
290
0
174
0
93
13
44
0.0
173
0
291
1
45
0.0
1001
ACAD
1000
AcDbSavedByObjectVersion
1070
0
0
VISUALSTYLE
5
FA4
102
{ACAD_XDICTIONARY
360
10A0
102
}
102
{ACAD_REACTORS
330
F93
102
}
330
F93
100
AcDbVisualStyle
2

70
20
71
2
72
2
73
0
90
0
40
-0.6
41
-30.0
62
5
63
7
74
1
91
4
64
7
65
257
75
1
175
1
42
1.0
92
10
66
7
43
1.0
76
1
77
6
78
2
67
7
79
5
170
0
171
0
290
0
174
0
93
1
44
0.0
173
0
291
1
45
0.0
1001
ACAD
1000
AcDbSavedByObjectVersion
1070
0
0
VISUALSTYLE
5
FA1
102
{ACAD_XDICTIONARY
360
109A
102
}
102
{ACAD_REACTORS
330
F93
102
}
330
F93
100
AcDbVisualStyle
2

70
14
71
2
72
2
73
0
90
0
40
-0.6
41
-30.0
62
5
63
7
74
1
91
4
64
7
65
257
75
7
175
7
42
1.0
92
8
66
7
43
1.0
76
1
77
6
78
2
67
7
79
5
170
0
171
0
290
0
174
0
93
1
44
0.0
173
0
291
1
45
0.0
1001
ACAD
1000
AcDbSavedByObjectVersion
1070
0
0
VISUALSTYLE
5
FA5
102
{ACAD_XDICTIONARY
360
10A2
102
}
102
{ACAD_REACTORS
330
F93
102
}
330
F93
100
AcDbVisualStyle
2

70
21
71
2
72
2
73
0
90
0
40
-0.6
41
-30.0
62
5
63
7
74
1
91
4
64
7
65
257
75
1
175
1
42
1.0
92
9
66
7
43
1.0
76
1
77
6
78
2
67
7
79
5
170
0
171
0
290
0
174
0
93
1
44
0.0
173
0
291
1
45
0.0
1001
ACAD
1000
AcDbSavedByObjectVersion
1070
0
0
VISUALSTYLE
5
F9D
102
{ACAD_XDICTIONARY
360
1092
102
}
102
{ACAD_REACTORS
330
F93
102
}
330
F93
100
AcDbVisualStyle
2

70
8
71
2
72
2
73
0
90
0
40
-0.6
41
-30.0
62
5
63
7
74
1
91
0
64
7
65
257
75
1
175
1
42
1.0
92
8
66
8
43
1.0
76
1
77
6
78
2
67
7
79
5
170
0
171
0
290
0
174
0
93
13
44
0.0
173
0
291
0
45
0.0
1001
ACAD
1000
AcDbSavedByObjectVersion
1070
0
0
VISUALSTYLE
5
FA0
102
{ACAD_XDICTIONARY
360
1098
102
}
102
{ACAD_REACTORS
330
F93
102
}
330
F93
100
AcDbVisualStyle
2

70
13
71
2
72
2
73
0
90
0
40
-0.6
41
-30.0
62
5
63
7
74
1
91
4
64
7
65
257
75
1
175
1
42
1.0
92
12
66
7
43
1.0
76
1
77
6
78
2
67
7
79
5
170
0
171
0
290
0
174
0
93
1
44
0.0
173
0
291
1
45
0.0
1001
ACAD
1000
AcDbSavedByObjectVersion
1070
0
0
DICTIONARYVAR
5
FF3
102
{ACAD_REACTORS
330
FF0
102
}
330
FF0
100
DictionaryVariables
280
0
1
1:1
0
DICTIONARYVAR
5
FF2
102
{ACAD_REACTORS
330
FF0
102
}
330
FF0
100
DictionaryVariables
280
0
1
STANDARD
0
DICTIONARYVAR
5
FF1
102
{ACAD_REACTORS
330
FF0
102
}
330
FF0
100
DictionaryVariables
280
0
1
STANDARD
0
DICTIONARYVAR
5
FF6
102
{ACAD_REACTORS
330
FF0
102
}
330
FF0
100
DictionaryVariables
280
0
1
1
0
DICTIONARYVAR
5
FF5
102
{ACAD_REACTORS
330
FF0
102
}
330
FF0
100
DictionaryVariables
280
0
1
0
0
DICTIONARYVAR
5
FF4
102
{ACAD_REACTORS
330
FF0
102
}
330
FF0
100
DictionaryVariables
280
0
1
127
0
DICTIONARYVAR
5
1078
102
{ACAD_REACTORS
330
FF0
102
}
330
FF0
100
DictionaryVariables
280
0
1
2
0
DICTIONARY
5
10A9
330
FD1
100
AcDbDictionary
280
1
281
1
3
ACAD_XREC_ROUNDTRIP
360
10AA
0
DICTIONARY
5
10A7
330
FD0
100
AcDbDictionary
280
1
281
1
3
ACAD_XREC_ROUNDTRIP
360
10A8
0
DICTIONARY
5
F84
330
F83
100
AcDbDictionary
280
1
281
1
3
ACAD_XREC_ROUNDTRIP
360
FFF
3
BUMPTILE
360
F86
3
DIFFUSETILE
360
F85
3
OPACITYTILE
360
F89
3
REFLECTIONTILE
360
F88
3
REFRACTIONTILE
360
F8A
3
SPECULARTILE
360
F87
0
DICTIONARY
5
F7C
330
F7B
100
AcDbDictionary
280
1
281
1
3
ACAD_XREC_ROUNDTRIP
360
FFE
3
BUMPTILE
360
F7E
3
DIFFUSETILE
360
F7D
3
OPACITYTILE
360
F81
3
REFLECTIONTILE
360
F80
3
REFRACTIONTILE
360
F82
3
SPECULARTILE
360
F7F
0
DICTIONARY
5
F8C
330
F8B
100
AcDbDictionary
280
1
281
1
3
ACAD_XREC_ROUNDTRIP
360
1000
3
BUMPTILE
360
F8E
3
DIFFUSETILE
360
F8D
3
OPACITYTILE
360
F91
3
REFLECTIONTILE
360
F90
3
REFRACTIONTILE
360
F92
3
SPECULARTILE
360
F8F
0
DICTIONARY
5
FF8
330
FA9
100
AcDbDictionary
280
1
281
1
3
ACAD_ROUNDTRIP_2008_TABLESTYLE_CELLSTYLEMAP
360
1079
3
ACAD_XREC_ROUNDTRIP
360
10A6
0
DICTIONARY
5
108A
330
F99
100
AcDbDictionary
280
1
281
1
3
ACAD_XREC_ROUNDTRIP
360
108B
0
DICTIONARY
5
108E
330
F9B
100
AcDbDictionary
280
1
281
1
3
ACAD_XREC_ROUNDTRIP
360
108F
0
DICTIONARY
5
108C
330
F9A
100
AcDbDictionary
280
1
281
1
3
ACAD_XREC_ROUNDTRIP
360
108D
0
DICTIONARY
5
1088
330
F98
100
AcDbDictionary
280
1
281
1
3
ACAD_XREC_ROUNDTRIP
360
1089
0
DICTIONARY
5
1096
330
F9F
100
AcDbDictionary
280
1
281
1
3
ACAD_XREC_ROUNDTRIP
360
1097
0
DICTIONARY
5
109E
330
FA3
100
AcDbDictionary
280
1
281
1
3
ACAD_XREC_ROUNDTRIP
360
109F
0
DICTIONARY
5
1090
330
F9C
100
AcDbDictionary
280
1
281
1
3
ACAD_XREC_ROUNDTRIP
360
1091
0
DICTIONARY
5
1094
330
F9E
100
AcDbDictionary
280
1
281
1
3
ACAD_XREC_ROUNDTRIP
360
1095
0
DICTIONARY
5
10A4
330
FA6
100
AcDbDictionary
280
1
281
1
3
ACAD_XREC_ROUNDTRIP
360
10A5
0
DICTIONARY
5
109C
330
FA2
100
AcDbDictionary
280
1
281
1
3
ACAD_XREC_ROUNDTRIP
360
109D
0
DICTIONARY
5
1080
330
F94
100
AcDbDictionary
280
1
281
1
3
ACAD_XREC_ROUNDTRIP
360
1081
0
DICTIONARY
5
1082
330
F95
100
AcDbDictionary
280
1
281
1
3
ACAD_XREC_ROUNDTRIP
360
1083
0
DICTIONARY
5
1084
330
F96
100
AcDbDictionary
280
1
281
1
3
ACAD_XREC_ROUNDTRIP
360
1085
0
DICTIONARY
5
1086
330
F97
100
AcDbDictionary
280
1
281
1
3
ACAD_XREC_ROUNDTRIP
360
1087
0
DICTIONARY
5
10A0
330
FA4
100
AcDbDictionary
280
1
281
1
3
ACAD_XREC_ROUNDTRIP
360
10A1
0
DICTIONARY
5
109A
330
FA1
100
AcDbDictionary
280
1
281
1
3
ACAD_XREC_ROUNDTRIP
360
109B
0
DICTIONARY
5
10A2
330
FA5
100
AcDbDictionary
280
1
281
1
3
ACAD_XREC_ROUNDTRIP
360
10A3
0
DICTIONARY
5
1092
330
F9D
100
AcDbDictionary
280
1
281
1
3
ACAD_XREC_ROUNDTRIP
360
1093
0
DICTIONARY
5
1098
330
FA0
100
AcDbDictionary
280
1
281
1
3
ACAD_XREC_ROUNDTRIP
360
1099
0
XRECORD
5
10AA
102
{ACAD_REACTORS
330
10A9
102
}
330
10A9
100
AcDbXrecord
280
1
102
SHADEPLOT
70
0
102
SHADEPLOTRESLEVEL
70
2
102
SHADEPLOTCUSTOMDPI
70
300
0
XRECORD
5
10A8
102
{ACAD_REACTORS
330
10A7
102
}
330
10A7
100
AcDbXrecord
280
1
102
SHADEPLOT
70
0
102
SHADEPLOTRESLEVEL
70
2
102
SHADEPLOTCUSTOMDPI
70
300
0
XRECORD
5
FFF
102
{ACAD_REACTORS
330
F84
102
}
330
F84
100
AcDbXrecord
280
1
102
MATERIAL
148
0.0
149
0.0
149
0.0
93
0
94
127
282
0
72
0
77
0
171
0
175
0
179
0
273
0
0
XRECORD
5
F86
102
{ACAD_REACTORS
330
F84
102
}
330
F84
100
AcDbXrecord
280
1
270
1
271
1
0
XRECORD
5
F85
102
{ACAD_REACTORS
330
F84
102
}
330
F84
100
AcDbXrecord
280
1
270
1
271
1
0
XRECORD
5
F89
102
{ACAD_REACTORS
330
F84
102
}
330
F84
100
AcDbXrecord
280
1
270
1
271
1
0
XRECORD
5
F88
102
{ACAD_REACTORS
330
F84
102
}
330
F84
100
AcDbXrecord
280
1
270
1
271
1
0
XRECORD
5
F8A
102
{ACAD_REACTORS
330
F84
102
}
330
F84
100
AcDbXrecord
280
1
270
1
271
1
0
XRECORD
5
F87
102
{ACAD_REACTORS
330
F84
102
}
330
F84
100
AcDbXrecord
280
1
270
1
271
1
0
XRECORD
5
FFE
102
{ACAD_REACTORS
330
F7C
102
}
330
F7C
100
AcDbXrecord
280
1
102
MATERIAL
148
0.0
149
0.0
149
0.0
93
0
94
127
282
0
72
0
77
0
171
0
175
0
179
0
273
0
0
XRECORD
5
F7E
102
{ACAD_REACTORS
330
F7C
102
}
330
F7C
100
AcDbXrecord
280
1
270
1
271
1
0
XRECORD
5
F7D
102
{ACAD_REACTORS
330
F7C
102
}
330
F7C
100
AcDbXrecord
280
1
270
1
271
1
0
XRECORD
5
F81
102
{ACAD_REACTORS
330
F7C
102
}
330
F7C
100
AcDbXrecord
280
1
270
1
271
1
0
XRECORD
5
F80
102
{ACAD_REACTORS
330
F7C
102
}
330
F7C
100
AcDbXrecord
280
1
270
1
271
1
0
XRECORD
5
F82
102
{ACAD_REACTORS
330
F7C
102
}
330
F7C
100
AcDbXrecord
280
1
270
1
271
1
0
XRECORD
5
F7F
102
{ACAD_REACTORS
330
F7C
102
}
330
F7C
100
AcDbXrecord
280
1
270
1
271
1
0
XRECORD
5
1000
102
{ACAD_REACTORS
330
F8C
102
}
330
F8C
100
AcDbXrecord
280
1
102
MATERIAL
148
0.0
149
0.0
149
0.0
93
0
94
127
282
0
72
0
77
0
171
0
175
0
179
0
273
0
0
XRECORD
5
F8E
102
{ACAD_REACTORS
330
F8C
102
}
330
F8C
100
AcDbXrecord
280
1
270
1
271
1
0
XRECORD
5
F8D
102
{ACAD_REACTORS
330
F8C
102
}
330
F8C
100
AcDbXrecord
280
1
270
1
271
1
0
XRECORD
5
F91
102
{ACAD_REACTORS
330
F8C
102
}
330
F8C
100
AcDbXrecord
280
1
270
1
271
1
0
XRECORD
5
F90
102
{ACAD_REACTORS
330
F8C
102
}
330
F8C
100
AcDbXrecord
280
1
270
1
271
1
0
XRECORD
5
F92
102
{ACAD_REACTORS
330
F8C
102
}
330
F8C
100
AcDbXrecord
280
1
270
1
271
1
0
XRECORD
5
F8F
102
{ACAD_REACTORS
330
F8C
102
}
330
F8C
100
AcDbXrecord
280
1
270
1
271
1
0
CELLSTYLEMAP
5
1079
102
{ACAD_REACTORS
330
FF8
102
}
330
FF8
100
AcDbCellStyleMap
90
3
300
CELLSTYLE
1
TABLEFORMAT_BEGIN
90
5
170
1
91
0
92
32768
62
257
93
1
300
CONTENTFORMAT
1
CONTENTFORMAT_BEGIN
90
0
91
0
92
512
93
0
300

40
0.0
140
1.0
94
5
62
0
340
253
144
0.25
309
CONTENTFORMAT_END
171
1
301
MARGIN
1
CELLMARGIN_BEGIN
40
0.06
40
0.06
40
0.06
40
0.06
40
0.18
40
0.18
309
CELLMARGIN_END
94
6
95
1
302
GRIDFORMAT
1
GRIDFORMAT_BEGIN
90
0
91
1
62
0
92
-2
340
0
93
0
40
0.045
309
GRIDFORMAT_END
95
2
302
GRIDFORMAT
1
GRIDFORMAT_BEGIN
90
0
91
1
62
0
92
-2
340
0
93
0
40
0.045
309
GRIDFORMAT_END
95
4
302
GRIDFORMAT
1
GRIDFORMAT_BEGIN
90
0
91
1
62
0
92
-2
340
0
93
0
40
0.045
309
GRIDFORMAT_END
95
8
302
GRIDFORMAT
1
GRIDFORMAT_BEGIN
90
0
91
1
62
0
92
-2
340
0
93
0
40
0.045
309
GRIDFORMAT_END
95
16
302
GRIDFORMAT
1
GRIDFORMAT_BEGIN
90
0
91
1
62
0
92
-2
340
0
93
0
40
0.045
309
GRIDFORMAT_END
95
32
302
GRIDFORMAT
1
GRIDFORMAT_BEGIN
90
0
91
1
62
0
92
-2
340
0
93
0
40
0.045
309
GRIDFORMAT_END
309
TABLEFORMAT_END
1
CELLSTYLE_BEGIN
90
1
91
1
300
_TITLE
309
CELLSTYLE_END
300
CELLSTYLE
1
TABLEFORMAT_BEGIN
90
5
170
1
91
0
92
0
62
257
93
1
300
CONTENTFORMAT
1
CONTENTFORMAT_BEGIN
90
0
91
0
92
512
93
0
300

40
0.0
140
1.0
94
5
62
0
340
253
144
0.18
309
CONTENTFORMAT_END
171
1
301
MARGIN
1
CELLMARGIN_BEGIN
40
0.06
40
0.06
40
0.06
40
0.06
40
0.18
40
0.18
309
CELLMARGIN_END
94
6
95
1
302
GRIDFORMAT
1
GRIDFORMAT_BEGIN
90
0
91
1
62
0
92
-2
340
0
93
0
40
0.045
309
GRIDFORMAT_END
95
2
302
GRIDFORMAT
1
GRIDFORMAT_BEGIN
90
0
91
1
62
0
92
-2
340
0
93
0
40
0.045
309
GRIDFORMAT_END
95
4
302
GRIDFORMAT
1
GRIDFORMAT_BEGIN
90
0
91
1
62
0
92
-2
340
0
93
0
40
0.045
309
GRIDFORMAT_END
95
8
302
GRIDFORMAT
1
GRIDFORMAT_BEGIN
90
0
91
1
62
0
92
-2
340
0
93
0
40
0.045
309
GRIDFORMAT_END
95
16
302
GRIDFORMAT
1
GRIDFORMAT_BEGIN
90
0
91
1
62
0
92
-2
340
0
93
0
40
0.045
309
GRIDFORMAT_END
95
32
302
GRIDFORMAT
1
GRIDFORMAT_BEGIN
90
0
91
1
62
0
92
-2
340
0
93
0
40
0.045
309
GRIDFORMAT_END
309
TABLEFORMAT_END
1
CELLSTYLE_BEGIN
90
2
91
1
300
_HEADER
309
CELLSTYLE_END
300
CELLSTYLE
1
TABLEFORMAT_BEGIN
90
5
170
1
91
0
92
0
62
257
93
1
300
CONTENTFORMAT
1
CONTENTFORMAT_BEGIN
90
0
91
0
92
512
93
0
300

40
0.0
140
1.0
94
2
62
0
340
253
144
0.18
309
CONTENTFORMAT_END
171
1
301
MARGIN
1
CELLMARGIN_BEGIN
40
0.06
40
0.06
40
0.06
40
0.06
40
0.18
40
0.18
309
CELLMARGIN_END
94
6
95
1
302
GRIDFORMAT
1
GRIDFORMAT_BEGIN
90
0
91
1
62
0
92
-2
340
0
93
0
40
0.045
309
GRIDFORMAT_END
95
2
302
GRIDFORMAT
1
GRIDFORMAT_BEGIN
90
0
91
1
62
0
92
-2
340
0
93
0
40
0.045
309
GRIDFORMAT_END
95
4
302
GRIDFORMAT
1
GRIDFORMAT_BEGIN
90
0
91
1
62
0
92
-2
340
0
93
0
40
0.045
309
GRIDFORMAT_END
95
8
302
GRIDFORMAT
1
GRIDFORMAT_BEGIN
90
0
91
1
62
0
92
-2
340
0
93
0
40
0.045
309
GRIDFORMAT_END
95
16
302
GRIDFORMAT
1
GRIDFORMAT_BEGIN
90
0
91
1
62
0
92
-2
340
0
93
0
40
0.045
309
GRIDFORMAT_END
95
32
302
GRIDFORMAT
1
GRIDFORMAT_BEGIN
90
0
91
1
62
0
92
-2
340
0
93
0
40
0.045
309
GRIDFORMAT_END
309
TABLEFORMAT_END
1
CELLSTYLE_BEGIN
90
3
91
2
300
_DATA
309
CELLSTYLE_END
0
XRECORD
5
10A6
102
{ACAD_REACTORS
330
FF8
102
}
330
FF8
100
AcDbXrecord
280
1
102
ACAD_ROUNDTRIP_PRE2007_TABLESTYLE
90
512
91
0
1

92
512
93
0
2

94
512
95
0
3

0
XRECORD
5
108B
102
{ACAD_REACTORS
330
108A
102
}
330
108A
100
AcDbXrecord
280
1
102
RTVSPropertyOp0
70
1
102
RTVSPropertyOp1
70
1
102
RTVSPropertyOp2
70
1
102
RTVSPropertyOp3
70
1
102
RTVSPropertyOp4
70
1
102
RTVSPropertyOp5
70
1
102
RTVSPropertyOp6
70
1
102
RTVSPropertyOp7
70
1
102
RTVSPropertyOp8
70
1
102
RTVSPropertyOp9
70
1
102
RTVSPropertyOp10
70
1
102
RTVSPropertyOp11
70
1
102
RTVSPropertyOp12
70
1
102
RTVSPropertyOp13
70
1
102
RTVSPropertyOp14
70
1
102
RTVSPropertyOp15
70
1
102
RTVSPropertyOp16
70
1
102
RTVSPropertyOp17
70
1
102
RTVSPropertyOp18
70
1
102
RTVSPropertyOp19
70
1
102
RTVSPropertyOp20
70
1
102
RTVSPropertyOp21
70
1
102
RTVSPropertyOp22
70
1
102
RTVSPropertyOp23
70
1
102
RTVSPropertyOp24
70
1
102
RTVSPropertyOp25
70
1
102
RTVSPropertyOp26
70
1
102
RTVSPropertyOp27
70
1
0
XRECORD
5
108F
102
{ACAD_REACTORS
330
108E
102
}
330
108E
100
AcDbXrecord
280
1
102
RTVSPropertyOp0
70
1
102
RTVSPropertyOp1
70
1
102
RTVSPropertyOp2
70
1
102
RTVSPropertyOp3
70
1
102
RTVSPropertyOp4
70
1
102
RTVSPropertyOp5
70
1
102
RTVSPropertyOp6
70
1
102
RTVSPropertyOp7
70
1
102
RTVSPropertyOp8
70
1
102
RTVSPropertyOp9
70
1
102
RTVSPropertyOp10
70
1
102
RTVSPropertyOp11
70
1
102
RTVSPropertyOp12
70
1
102
RTVSPropertyOp13
70
1
102
RTVSPropertyOp14
70
1
102
RTVSPropertyOp15
70
1
102
RTVSPropertyOp16
70
1
102
RTVSPropertyOp17
70
1
102
RTVSPropertyOp18
70
1
102
RTVSPropertyOp19
70
1
102
RTVSPropertyOp20
70
1
102
RTVSPropertyOp21
70
1
102
RTVSPropertyOp22
70
1
102
RTVSPropertyOp23
70
1
102
RTVSPropertyOp24
70
1
102
RTVSPropertyOp25
70
1
102
RTVSPropertyOp26
70
1
102
RTVSPropertyOp27
70
1
0
XRECORD
5
108D
102
{ACAD_REACTORS
330
108C
102
}
330
108C
100
AcDbXrecord
280
1
102
RTVSPropertyOp0
70
1
102
RTVSPropertyOp1
70
1
102
RTVSPropertyOp2
70
1
102
RTVSPropertyOp3
70
1
102
RTVSPropertyOp4
70
1
102
RTVSPropertyOp5
70
1
102
RTVSPropertyOp6
70
1
102
RTVSPropertyOp7
70
1
102
RTVSPropertyOp8
70
1
102
RTVSPropertyOp9
70
1
102
RTVSPropertyOp10
70
1
102
RTVSPropertyOp11
70
1
102
RTVSPropertyOp12
70
1
102
RTVSPropertyOp13
70
1
102
RTVSPropertyOp14
70
1
102
RTVSPropertyOp15
70
1
102
RTVSPropertyOp16
70
1
102
RTVSPropertyOp17
70
1
102
RTVSPropertyOp18
70
1
102
RTVSPropertyOp19
70
1
102
RTVSPropertyOp20
70
1
102
RTVSPropertyOp21
70
1
102
RTVSPropertyOp22
70
1
102
RTVSPropertyOp23
70
1
102
RTVSPropertyOp24
70
1
102
RTVSPropertyOp25
70
1
102
RTVSPropertyOp26
70
1
102
RTVSPropertyOp27
70
1
0
XRECORD
5
1089
102
{ACAD_REACTORS
330
1088
102
}
330
1088
100
AcDbXrecord
280
1
102
RTVSPropertyOp0
70
1
102
RTVSPropertyOp1
70
1
102
RTVSPropertyOp2
70
1
102
RTVSPropertyOp3
70
1
102
RTVSPropertyOp4
70
1
102
RTVSPropertyOp5
70
1
102
RTVSPropertyOp6
70
1
102
RTVSPropertyOp7
70
1
102
RTVSPropertyOp8
70
1
102
RTVSPropertyOp9
70
1
102
RTVSPropertyOp10
70
1
102
RTVSPropertyOp11
70
1
102
RTVSPropertyOp12
70
1
102
RTVSPropertyOp13
70
1
102
RTVSPropertyOp14
70
1
102
RTVSPropertyOp15
70
1
102
RTVSPropertyOp16
70
1
102
RTVSPropertyOp17
70
1
102
RTVSPropertyOp18
70
1
102
RTVSPropertyOp19
70
1
102
RTVSPropertyOp20
70
1
102
RTVSPropertyOp21
70
1
102
RTVSPropertyOp22
70
1
102
RTVSPropertyOp23
70
1
102
RTVSPropertyOp24
70
1
102
RTVSPropertyOp25
70
1
102
RTVSPropertyOp26
70
1
102
RTVSPropertyOp27
70
1
0
XRECORD
5
1097
102
{ACAD_REACTORS
330
1096
102
}
330
1096
100
AcDbXrecord
280
1
102
RTVSPropertyOp0
70
1
102
RTVSPropertyOp1
70
1
102
RTVSPropertyOp2
70
1
102
RTVSPropertyOp3
70
1
102
RTVSPropertyOp4
70
1
102
RTVSPropertyOp5
70
1
102
RTVSPropertyOp6
70
1
102
RTVSPropertyOp7
70
1
102
RTVSPropertyOp8
70
1
102
RTVSPropertyOp9
70
1
102
RTVSPropertyOp10
70
1
102
RTVSPropertyOp11
70
1
102
RTVSPropertyOp12
70
1
102
RTVSPropertyOp13
70
1
102
RTVSPropertyOp14
70
1
102
RTVSPropertyOp15
70
1
102
RTVSPropertyOp16
70
1
102
RTVSPropertyOp17
70
1
102
RTVSPropertyOp18
70
1
102
RTVSPropertyOp19
70
1
102
RTVSPropertyOp20
70
1
102
RTVSPropertyOp21
70
1
102
RTVSPropertyOp22
70
1
102
RTVSPropertyOp23
70
1
102
RTVSPropertyOp24
70
1
102
RTVSPropertyOp25
70
1
102
RTVSPropertyOp26
70
1
102
RTVSPropertyOp27
70
1
0
XRECORD
5
109F
102
{ACAD_REACTORS
330
109E
102
}
330
109E
100
AcDbXrecord
280
1
102
RTVSPropertyOp0
70
1
102
RTVSPropertyOp1
70
1
102
RTVSPropertyOp2
70
1
102
RTVSPropertyOp3
70
1
102
RTVSPropertyOp4
70
1
102
RTVSPropertyOp5
70
1
102
RTVSPropertyOp6
70
1
102
RTVSPropertyOp7
70
1
102
RTVSPropertyOp8
70
1
102
RTVSPropertyOp9
70
1
102
RTVSPropertyOp10
70
1
102
RTVSPropertyOp11
70
1
102
RTVSPropertyOp12
70
1
102
RTVSPropertyOp13
70
1
102
RTVSPropertyOp14
70
1
102
RTVSPropertyOp15
70
1
102
RTVSPropertyOp16
70
1
102
RTVSPropertyOp17
70
1
102
RTVSPropertyOp18
70
1
102
RTVSPropertyOp19
70
1
102
RTVSPropertyOp20
70
1
102
RTVSPropertyOp21
70
1
102
RTVSPropertyOp22
70
1
102
RTVSPropertyOp23
70
1
102
RTVSPropertyOp24
70
1
102
RTVSPropertyOp25
70
1
102
RTVSPropertyOp26
70
1
102
RTVSPropertyOp27
70
1
0
XRECORD
5
1091
102
{ACAD_REACTORS
330
1090
102
}
330
1090
100
AcDbXrecord
280
1
102
RTVSPropertyOp0
70
1
102
RTVSPropertyOp1
70
1
102
RTVSPropertyOp2
70
1
102
RTVSPropertyOp3
70
1
102
RTVSPropertyOp4
70
1
102
RTVSPropertyOp5
70
1
102
RTVSPropertyOp6
70
1
102
RTVSPropertyOp7
70
1
102
RTVSPropertyOp8
70
1
102
RTVSPropertyOp9
70
1
102
RTVSPropertyOp10
70
1
102
RTVSPropertyOp11
70
1
102
RTVSPropertyOp12
70
1
102
RTVSPropertyOp13
70
1
102
RTVSPropertyOp14
70
1
102
RTVSPropertyOp15
70
1
102
RTVSPropertyOp16
70
1
102
RTVSPropertyOp17
70
1
102
RTVSPropertyOp18
70
1
102
RTVSPropertyOp19
70
1
102
RTVSPropertyOp20
70
1
102
RTVSPropertyOp21
70
1
102
RTVSPropertyOp22
70
1
102
RTVSPropertyOp23
70
1
102
RTVSPropertyOp24
70
1
102
RTVSPropertyOp25
70
1
102
RTVSPropertyOp26
70
1
102
RTVSPropertyOp27
70
1
0
XRECORD
5
1095
102
{ACAD_REACTORS
330
1094
102
}
330
1094
100
AcDbXrecord
280
1
102
RTVSPropertyOp0
70
1
102
RTVSPropertyOp1
70
1
102
RTVSPropertyOp2
70
1
102
RTVSPropertyOp3
70
1
102
RTVSPropertyOp4
70
1
102
RTVSPropertyOp5
70
1
102
RTVSPropertyOp6
70
1
102
RTVSPropertyOp7
70
1
102
RTVSPropertyOp8
70
1
102
RTVSPropertyOp9
70
1
102
RTVSPropertyOp10
70
1
102
RTVSPropertyOp11
70
1
102
RTVSPropertyOp12
70
1
102
RTVSPropertyOp13
70
1
102
RTVSPropertyOp14
70
1
102
RTVSPropertyOp15
70
1
102
RTVSPropertyOp16
70
1
102
RTVSPropertyOp17
70
1
102
RTVSPropertyOp18
70
1
102
RTVSPropertyOp19
70
1
102
RTVSPropertyOp20
70
1
102
RTVSPropertyOp21
70
1
102
RTVSPropertyOp22
70
1
102
RTVSPropertyOp23
70
1
102
RTVSPropertyOp24
70
1
102
RTVSPropertyOp25
70
1
102
RTVSPropertyOp26
70
1
102
RTVSPropertyOp27
70
1
0
XRECORD
5
10A5
102
{ACAD_REACTORS
330
10A4
102
}
330
10A4
100
AcDbXrecord
280
1
102
RTVSPropertyOp0
70
0
102
RTVSPropertyOp1
70
0
102
RTVSPropertyOp2
70
0
102
RTVSPropertyOp3
70
0
102
RTVSPropertyOp4
70
0
102
RTVSPropertyOp5
70
0
102
RTVSPropertyOp6
70
0
102
RTVSPropertyOp7
70
0
102
RTVSPropertyOp8
70
0
102
RTVSPropertyOp9
70
0
102
RTVSPropertyOp10
70
0
102
RTVSPropertyOp11
70
0
102
RTVSPropertyOp12
70
0
102
RTVSPropertyOp13
70
0
102
RTVSPropertyOp14
70
2
102
RTVSPropertyOp15
70
0
102
RTVSPropertyOp16
70
0
102
RTVSPropertyOp17
70
0
102
RTVSPropertyOp18
70
0
102
RTVSPropertyOp19
70
0
102
RTVSPropertyOp20
70
0
102
RTVSPropertyOp21
70
0
102
RTVSPropertyOp22
70
0
102
RTVSPropertyOp23
70
0
102
RTVSPropertyOp24
70
0
102
RTVSPropertyOp25
70
0
102
RTVSPropertyOp26
70
0
102
RTVSPropertyOp27
70
0
0
XRECORD
5
109D
102
{ACAD_REACTORS
330
109C
102
}
330
109C
100
AcDbXrecord
280
1
102
RTVSPropertyOp0
70
1
102
RTVSPropertyOp1
70
1
102
RTVSPropertyOp2
70
1
102
RTVSPropertyOp3
70
1
102
RTVSPropertyOp4
70
1
102
RTVSPropertyOp5
70
1
102
RTVSPropertyOp6
70
1
102
RTVSPropertyOp7
70
1
102
RTVSPropertyOp8
70
1
102
RTVSPropertyOp9
70
1
102
RTVSPropertyOp10
70
1
102
RTVSPropertyOp11
70
1
102
RTVSPropertyOp12
70
1
102
RTVSPropertyOp13
70
1
102
RTVSPropertyOp14
70
1
102
RTVSPropertyOp15
70
1
102
RTVSPropertyOp16
70
1
102
RTVSPropertyOp17
70
1
102
RTVSPropertyOp18
70
1
102
RTVSPropertyOp19
70
1
102
RTVSPropertyOp20
70
1
102
RTVSPropertyOp21
70
1
102
RTVSPropertyOp22
70
1
102
RTVSPropertyOp23
70
1
102
RTVSPropertyOp24
70
1
102
RTVSPropertyOp25
70
1
102
RTVSPropertyOp26
70
1
102
RTVSPropertyOp27
70
1
0
XRECORD
5
1081
102
{ACAD_REACTORS
330
1080
102
}
330
1080
100
AcDbXrecord
280
1
102
RTVSPropertyOp0
70
1
102
RTVSPropertyOp1
70
1
102
RTVSPropertyOp2
70
1
102
RTVSPropertyOp3
70
1
102
RTVSPropertyOp4
70
1
102
RTVSPropertyOp5
70
1
102
RTVSPropertyOp6
70
1
102
RTVSPropertyOp7
70
1
102
RTVSPropertyOp8
70
1
102
RTVSPropertyOp9
70
1
102
RTVSPropertyOp10
70
1
102
RTVSPropertyOp11
70
1
102
RTVSPropertyOp12
70
1
102
RTVSPropertyOp13
70
1
102
RTVSPropertyOp14
70
1
102
RTVSPropertyOp15
70
1
102
RTVSPropertyOp16
70
1
102
RTVSPropertyOp17
70
1
102
RTVSPropertyOp18
70
1
102
RTVSPropertyOp19
70
1
102
RTVSPropertyOp20
70
1
102
RTVSPropertyOp21
70
1
102
RTVSPropertyOp22
70
1
102
RTVSPropertyOp23
70
1
102
RTVSPropertyOp24
70
1
102
RTVSPropertyOp25
70
1
102
RTVSPropertyOp26
70
1
102
RTVSPropertyOp27
70
1
0
XRECORD
5
1083
102
{ACAD_REACTORS
330
1082
102
}
330
1082
100
AcDbXrecord
280
1
102
RTVSPropertyOp0
70
1
102
RTVSPropertyOp1
70
1
102
RTVSPropertyOp2
70
1
102
RTVSPropertyOp3
70
1
102
RTVSPropertyOp4
70
1
102
RTVSPropertyOp5
70
1
102
RTVSPropertyOp6
70
1
102
RTVSPropertyOp7
70
1
102
RTVSPropertyOp8
70
1
102
RTVSPropertyOp9
70
1
102
RTVSPropertyOp10
70
1
102
RTVSPropertyOp11
70
1
102
RTVSPropertyOp12
70
1
102
RTVSPropertyOp13
70
1
102
RTVSPropertyOp14
70
1
102
RTVSPropertyOp15
70
1
102
RTVSPropertyOp16
70
1
102
RTVSPropertyOp17
70
1
102
RTVSPropertyOp18
70
1
102
RTVSPropertyOp19
70
1
102
RTVSPropertyOp20
70
1
102
RTVSPropertyOp21
70
1
102
RTVSPropertyOp22
70
1
102
RTVSPropertyOp23
70
1
102
RTVSPropertyOp24
70
1
102
RTVSPropertyOp25
70
1
102
RTVSPropertyOp26
70
1
102
RTVSPropertyOp27
70
1
0
XRECORD
5
1085
102
{ACAD_REACTORS
330
1084
102
}
330
1084
100
AcDbXrecord
280
1
102
RTVSPropertyOp0
70
1
102
RTVSPropertyOp1
70
1
102
RTVSPropertyOp2
70
1
102
RTVSPropertyOp3
70
1
102
RTVSPropertyOp4
70
1
102
RTVSPropertyOp5
70
1
102
RTVSPropertyOp6
70
1
102
RTVSPropertyOp7
70
1
102
RTVSPropertyOp8
70
1
102
RTVSPropertyOp9
70
1
102
RTVSPropertyOp10
70
1
102
RTVSPropertyOp11
70
1
102
RTVSPropertyOp12
70
1
102
RTVSPropertyOp13
70
1
102
RTVSPropertyOp14
70
1
102
RTVSPropertyOp15
70
1
102
RTVSPropertyOp16
70
1
102
RTVSPropertyOp17
70
1
102
RTVSPropertyOp18
70
1
102
RTVSPropertyOp19
70
1
102
RTVSPropertyOp20
70
1
102
RTVSPropertyOp21
70
1
102
RTVSPropertyOp22
70
1
102
RTVSPropertyOp23
70
1
102
RTVSPropertyOp24
70
1
102
RTVSPropertyOp25
70
1
102
RTVSPropertyOp26
70
1
102
RTVSPropertyOp27
70
1
0
XRECORD
5
1087
102
{ACAD_REACTORS
330
1086
102
}
330
1086
100
AcDbXrecord
280
1
102
RTVSPropertyOp0
70
1
102
RTVSPropertyOp1
70
1
102
RTVSPropertyOp2
70
1
102
RTVSPropertyOp3
70
1
102
RTVSPropertyOp4
70
1
102
RTVSPropertyOp5
70
1
102
RTVSPropertyOp6
70
1
102
RTVSPropertyOp7
70
1
102
RTVSPropertyOp8
70
1
102
RTVSPropertyOp9
70
1
102
RTVSPropertyOp10
70
1
102
RTVSPropertyOp11
70
1
102
RTVSPropertyOp12
70
1
102
RTVSPropertyOp13
70
1
102
RTVSPropertyOp14
70
1
102
RTVSPropertyOp15
70
1
102
RTVSPropertyOp16
70
1
102
RTVSPropertyOp17
70
1
102
RTVSPropertyOp18
70
1
102
RTVSPropertyOp19
70
1
102
RTVSPropertyOp20
70
1
102
RTVSPropertyOp21
70
1
102
RTVSPropertyOp22
70
1
102
RTVSPropertyOp23
70
1
102
RTVSPropertyOp24
70
1
102
RTVSPropertyOp25
70
1
102
RTVSPropertyOp26
70
1
102
RTVSPropertyOp27
70
1
0
XRECORD
5
10A1
102
{ACAD_REACTORS
330
10A0
102
}
330
10A0
100
AcDbXrecord
280
1
102
RTVSPropertyOp0
70
0
102
RTVSPropertyOp1
70
0
102
RTVSPropertyOp2
70
0
102
RTVSPropertyOp3
70
0
102
RTVSPropertyOp4
70
0
102
RTVSPropertyOp5
70
0
102
RTVSPropertyOp6
70
0
102
RTVSPropertyOp7
70
0
102
RTVSPropertyOp8
70
0
102
RTVSPropertyOp9
70
0
102
RTVSPropertyOp10
70
0
102
RTVSPropertyOp11
70
0
102
RTVSPropertyOp12
70
0
102
RTVSPropertyOp13
70
0
102
RTVSPropertyOp14
70
2
102
RTVSPropertyOp15
70
0
102
RTVSPropertyOp16
70
0
102
RTVSPropertyOp17
70
0
102
RTVSPropertyOp18
70
0
102
RTVSPropertyOp19
70
0
102
RTVSPropertyOp20
70
0
102
RTVSPropertyOp21
70
0
102
RTVSPropertyOp22
70
0
102
RTVSPropertyOp23
70
0
102
RTVSPropertyOp24
70
0
102
RTVSPropertyOp25
70
0
102
RTVSPropertyOp26
70
0
102
RTVSPropertyOp27
70
0
0
XRECORD
5
109B
102
{ACAD_REACTORS
330
109A
102
}
330
109A
100
AcDbXrecord
280
1
102
RTVSPropertyOp0
70
1
102
RTVSPropertyOp1
70
1
102
RTVSPropertyOp2
70
1
102
RTVSPropertyOp3
70
1
102
RTVSPropertyOp4
70
1
102
RTVSPropertyOp5
70
1
102
RTVSPropertyOp6
70
1
102
RTVSPropertyOp7
70
1
102
RTVSPropertyOp8
70
1
102
RTVSPropertyOp9
70
1
102
RTVSPropertyOp10
70
1
102
RTVSPropertyOp11
70
1
102
RTVSPropertyOp12
70
1
102
RTVSPropertyOp13
70
1
102
RTVSPropertyOp14
70
1
102
RTVSPropertyOp15
70
1
102
RTVSPropertyOp16
70
1
102
RTVSPropertyOp17
70
1
102
RTVSPropertyOp18
70
1
102
RTVSPropertyOp19
70
1
102
RTVSPropertyOp20
70
1
102
RTVSPropertyOp21
70
1
102
RTVSPropertyOp22
70
1
102
RTVSPropertyOp23
70
1
102
RTVSPropertyOp24
70
1
102
RTVSPropertyOp25
70
1
102
RTVSPropertyOp26
70
1
102
RTVSPropertyOp27
70
1
0
XRECORD
5
10A3
102
{ACAD_REACTORS
330
10A2
102
}
330
10A2
100
AcDbXrecord
280
1
102
RTVSPropertyOp0
70
0
102
RTVSPropertyOp1
70
0
102
RTVSPropertyOp2
70
0
102
RTVSPropertyOp3
70
0
102
RTVSPropertyOp4
70
0
102
RTVSPropertyOp5
70
0
102
RTVSPropertyOp6
70
0
102
RTVSPropertyOp7
70
0
102
RTVSPropertyOp8
70
0
102
RTVSPropertyOp9
70
0
102
RTVSPropertyOp10
70
0
102
RTVSPropertyOp11
70
0
102
RTVSPropertyOp12
70
0
102
RTVSPropertyOp13
70
0
102
RTVSPropertyOp14
70
2
102
RTVSPropertyOp15
70
0
102
RTVSPropertyOp16
70
0
102
RTVSPropertyOp17
70
0
102
RTVSPropertyOp18
70
0
102
RTVSPropertyOp19
70
0
102
RTVSPropertyOp20
70
0
102
RTVSPropertyOp21
70
0
102
RTVSPropertyOp22
70
0
102
RTVSPropertyOp23
70
0
102
RTVSPropertyOp24
70
0
102
RTVSPropertyOp25
70
0
102
RTVSPropertyOp26
70
0
102
RTVSPropertyOp27
70
0
0
XRECORD
5
1093
102
{ACAD_REACTORS
330
1092
102
}
330
1092
100
AcDbXrecord
280
1
102
RTVSPropertyOp0
70
1
102
RTVSPropertyOp1
70
1
102
RTVSPropertyOp2
70
1
102
RTVSPropertyOp3
70
1
102
RTVSPropertyOp4
70
1
102
RTVSPropertyOp5
70
1
102
RTVSPropertyOp6
70
1
102
RTVSPropertyOp7
70
1
102
RTVSPropertyOp8
70
1
102
RTVSPropertyOp9
70
1
102
RTVSPropertyOp10
70
1
102
RTVSPropertyOp11
70
1
102
RTVSPropertyOp12
70
1
102
RTVSPropertyOp13
70
1
102
RTVSPropertyOp14
70
1
102
RTVSPropertyOp15
70
1
102
RTVSPropertyOp16
70
1
102
RTVSPropertyOp17
70
1
102
RTVSPropertyOp18
70
1
102
RTVSPropertyOp19
70
1
102
RTVSPropertyOp20
70
1
102
RTVSPropertyOp21
70
1
102
RTVSPropertyOp22
70
1
102
RTVSPropertyOp23
70
1
102
RTVSPropertyOp24
70
1
102
RTVSPropertyOp25
70
1
102
RTVSPropertyOp26
70
1
102
RTVSPropertyOp27
70
1
0
XRECORD
5
1099
102
{ACAD_REACTORS
330
1098
102
}
330
1098
100
AcDbXrecord
280
1
102
RTVSPropertyOp0
70
1
102
RTVSPropertyOp1
70
1
102
RTVSPropertyOp2
70
1
102
RTVSPropertyOp3
70
1
102
RTVSPropertyOp4
70
1
102
RTVSPropertyOp5
70
1
102
RTVSPropertyOp6
70
1
102
RTVSPropertyOp7
70
1
102
RTVSPropertyOp8
70
1
102
RTVSPropertyOp9
70
1
102
RTVSPropertyOp10
70
1
102
RTVSPropertyOp11
70
1
102
RTVSPropertyOp12
70
1
102
RTVSPropertyOp13
70
1
102
RTVSPropertyOp14
70
1
102
RTVSPropertyOp15
70
1
102
RTVSPropertyOp16
70
1
102
RTVSPropertyOp17
70
1
102
RTVSPropertyOp18
70
1
102
RTVSPropertyOp19
70
1
102
RTVSPropertyOp20
70
1
102
RTVSPropertyOp21
70
1
102
RTVSPropertyOp22
70
1
102
RTVSPropertyOp23
70
1
102
RTVSPropertyOp24
70
1
102
RTVSPropertyOp25
70
1
102
RTVSPropertyOp26
70
1
102
RTVSPropertyOp27
70
1
0
ENDSEC
0
EOF
