0
SECTION
2
HEADER
9
$ACADVER
1
AC1015
9
$ACADMAINTVER
70
20
9
$DWGCODEPAGE
3
ANSI_1252
9
$INSBASE
10
0.0
20
0.0
30
0.0
9
$EXTMIN
10
-150.000000000000
20
-105.000000000000
30
0.0
9
$EXTMAX
10
150.000000000000
20
105.000000000000
30
0.0
9
$LIMMIN
10
0.0
20
0.0
9
$LIMMAX
10
12.0
20
9.0
9
$ORTHOMODE
70
0
9
$REGENMODE
70
1
9
$FILLMODE
70
1
9
$QTEXTMODE
70
0
9
$MIRRTEXT
70
1
9
$LTSCALE
40
1.0
9
$ATTMODE
70
1
9
$TEXTSIZE
40
0.2
9
$TRACEWID
40
0.05
9
$TEXTSTYLE
7
Standard
9
$CLAYER
8
0
9
$CELTYPE
6
ByLayer
9
$CECOLOR
62
256
9
$CELTSCALE
40
1.0
9
$DISPSILH
70
0
9
$DIMSCALE
40
1.0
9
$DIMASZ
40
2.5
9
$DIMEXO
40
0.625
9
$DIMDLI
40
0.38
9
$DIMRND
40
0.0
9
$DIMDLE
40
0.0
9
$DIMEXE
40
1.25
9
$DIMTP
40
0.0
9
$DIMTM
40
0.000000001
9
$DIMTXT
40
2.5
9
$DIMCEN
40
0.09
9
$DIMTSZ
40
0.0
9
$DIMTOL
70
1
9
$DIMLIM
70
0
9
$DIMTIH
70
0
9
$DIMTOH
70
0
9
$DIMSE1
70
0
9
$DIMSE2
70
0
9
$DIMTAD
70
1
9
$DIMZIN
70
0
9
$DIMBLK
1
VDDIM_DEFAULT
9
$DIMASO
70
1
9
$DIMSHO
70
1
9
$DIMPOST
1

9
$DIMAPOST
1

9
$DIMALT
70
0
9
$DIMALTD
70
2
9
$DIMALTF
40
25.4
9
$DIMLFAC
40
1.00000000000000
9
$DIMTOFL
70
0
9
$DIMTVP
40
0.0
9
$DIMTIX
70
0
9
$DIMSOXD
70
0
9
$DIMSAH
70
0
9
$DIMBLK1
1

9
$DIMBLK2
1

9
$DIMSTYLE
2
BEM-ISBE
9
$DIMCLRD
70
0
9
$DIMCLRE
70
0
9
$DIMCLRT
70
0
9
$DIMTFAC
40
0.5
9
$DIMGAP
40
0.625
9
$DIMJUST
70
0
9
$DIMSD1
70
0
9
$DIMSD2
70
0
9
$DIMTOLJ
70
1
9
$DIMTZIN
70
0
9
$DIMALTZ
70
0
9
$DIMALTTZ
70
0
9
$DIMUPT
70
0
9
$DIMDEC
70
3
9
$DIMTDEC
70
3
9
$DIMALTU
70
2
9
$DIMALTTD
70
2
9
$DIMTXSTY
7
Standard
9
$DIMAUNIT
70
0
9
$DIMADEC
70
3
9
$DIMALTRND
40
0.0
9
$DIMAZIN
70
0
9
$DIMDSEP
70
46
9
$DIMATFIT
70
3
9
$DIMFRAC
70
0
9
$DIMLDRBLK
1

9
$DIMLUNIT
70
2
9
$DIMLWD
70
-2
9
$DIMLWE
70
-2
9
$DIMTMOVE
70
0
9
$LUNITS
70
2
9
$LUPREC
70
4
9
$SKETCHINC
40
0.1
9
$FILLETRAD
40
0.5
9
$AUNITS
70
0
9
$AUPREC
70
0
9
$MENU
1
.
9
$ELEVATION
40
0.0
9
$PELEVATION
40
0.0
9
$THICKNESS
40
0.0
9
$LIMCHECK
70
0
9
$CHAMFERA
40
0.5
9
$CHAMFERB
40
0.5
9
$CHAMFERC
40
1.0
9
$CHAMFERD
40
0.0
9
$SKPOLY
70
0
9
$TDCREATE
40
0.0
9
$TDUCREATE
40
0.0
9
$TDUPDATE
40
0.0
9
$TDUUPDATE
40
0.0
9
$TDINDWG
40
0.0
9
$TDUSRTIMER
40
0.0
9
$USRTIMER
70
1
9
$ANGBASE
50
0.0
9
$ANGDIR
70
0
9
$PDMODE
70
0
9
$PDSIZE
40
0.0
9
$PLINEWID
40
0.0
9
$SPLFRAME
70
0
9
$SPLINETYPE
70
6
9
$SPLINESEGS
70
8
9
$HANDSEED
5
10AB
9
$SURFTAB1
70
6
9
$SURFTAB2
70
6
9
$SURFTYPE
70
6
9
$SURFU
70
6
9
$SURFV
70
6
9
$UCSBASE
2

9
$UCSNAME
2

9
$UCSORG
10
0.0
20
0.0
30
0.0
9
$UCSXDIR
10
1.0
20
0.0
30
0.0
9
$UCSYDIR
10
0.0
20
1.0
30
0.0
9
$UCSORTHOREF
2

9
$UCSORTHOVIEW
70
0
9
$UCSORGTOP
10
0.0
20
0.0
30
0.0
9
$UCSORGBOTTOM
10
0.0
20
0.0
30
0.0
9
$UCSORGLEFT
10
0.0
20
0.0
30
0.0
9
$UCSORGRIGHT
10
0.0
20
0.0
30
0.0
9
$UCSORGFRONT
10
0.0
20
0.0
30
0.0
9
$UCSORGBACK
10
0.0
20
0.0
30
0.0
9
$PUCSBASE
2

9
$PUCSNAME
2

9
$PUCSORG
10
0.0
20
0.0
30
0.0
9
$PUCSXDIR
10
1.0
20
0.0
30
0.0
9
$PUCSYDIR
10
0.0
20
1.0
30
0.0
9
$PUCSORTHOREF
2

9
$PUCSORTHOVIEW
70
0
9
$PUCSORGTOP
10
0.0
20
0.0
30
0.0
9
$PUCSORGBOTTOM
10
0.0
20
0.0
30
0.0
9
$PUCSORGLEFT
10
0.0
20
0.0
30
0.0
9
$PUCSORGRIGHT
10
0.0
20
0.0
30
0.0
9
$PUCSORGFRONT
10
0.0
20
0.0
30
0.0
9
$PUCSORGBACK
10
0.0
20
0.0
30
0.0
9
$USERI1
70
0
9
$USERI2
70
0
9
$USERI3
70
0
9
$USERI4
70
0
9
$USERI5
70
0
9
$USERR1
40
0.0
9
$USERR2
40
0.0
9
$USERR3
40
0.0
9
$USERR4
40
0.0
9
$USERR5
40
0.0
9
$WORLDVIEW
70
1
9
$SHADEDGE
70
3
9
$SHADEDIF
70
70
9
$TILEMODE
70
1
9
$MAXACTVP
70
64
9
$PINSBASE
10
0.0
20
0.0
30
0.0
9
$PLIMCHECK
70
0
9
$PEXTMIN
10
1.000000000000000E+20
20
1.000000000000000E+20
30
1.000000000000000E+20
9
$PEXTMAX
10
-1.000000000000000E+20
20
-1.000000000000000E+20
30
-1.000000000000000E+20
9
$PLIMMIN
10
0.0
20
0.0
9
$PLIMMAX
10
12.0
20
9.0
9
$UNITMODE
70
0
9
$VISRETAIN
70
1
9
$PLINEGEN
70
0
9
$PSLTSCALE
70
1
9
$TREEDEPTH
70
3020
9
$CMLSTYLE
2
Standard
9
$CMLJUST
70
0
9
$CMLSCALE
40
1.0
9
$PROXYGRAPHICS
70
1
9
$MEASUREMENT
70
0
9
$CELWEIGHT
370
-1
9
$ENDCAPS
280
0
9
$JOINSTYLE
280
0
9
$LWDISPLAY
290
0
9
$INSUNITS
70
4
9
$HYPERLINKBASE
1

9
$STYLESHEET
1

9
$XEDIT
290
1
9
$CEPSNTYPE
380
0
9
$PSTYLEMODE
290
0
9
$FINGERPRINTGUID
2
{FAEB1C30-E019-11D5-929B-00C0DF256EC4}
9
$VERSIONGUID
2
{04C5C4E4-4947-4D90-8812-D401569E61F7}
9
$EXTNAMES
290
1
9
$PSVPSCALE
40
0.0
9
$OLESTARTUP
290
0
0
ENDSEC
0
SECTION
2
CLASSES
0
CLASS
1
ACDBDICTIONARYWDFLT
2
AcDbDictionaryWithDefault
3
ObjectDBX Classes
90
0
280
0
281
0
0
CLASS
1
ACDBPLACEHOLDER
2
AcDbPlaceHolder
3
ObjectDBX Classes
90
0
280
0
281
0
0
CLASS
1
LAYOUT
2
AcDbLayout
3
ObjectDBX Classes
90
0
280
0
281
0
0
CLASS
1
MATERIAL
2
AcDbMaterial
3
ObjectDBX Classes
90
1153
280
0
281
0
0
CLASS
1
VISUALSTYLE
2
AcDbVisualStyle
3
ObjectDBX Classes
90
4095
280
0
281
0
0
CLASS
1
TABLESTYLE
2
AcDbTableStyle
3
ObjectDBX Classes
90
4095
280
0
281
0
0
CLASS
1
SCALE
2
AcDbScale
3
ObjectDBX Classes
90
1153
280
0
281
0
0
CLASS
1
MLEADERSTYLE
2
AcDbMLeaderStyle
3
ACDB_MLEADERSTYLE_CLASS
90
4095
280
0
281
0
0
CLASS
1
DICTIONARYVAR
2
AcDbDictionaryVar
3
ObjectDBX Classes
90
0
280
0
281
0
0
CLASS
1
CELLSTYLEMAP
2
AcDbCellStyleMap
3
ObjectDBX Classes
90
1152
280
0
281
0
0
ENDSEC
0
SECTION
2
TABLES
0
TABLE
2
VPORT
5
24A
330
0
100
AcDbSymbolTable
70
1
0
VPORT
5
26B
330
24A
100
AcDbSymbolTableRecord
100
AcDbViewportTableRecord
2
*Active
70
0
10
0.0
20
0.0
11
1.0
21
1.0
12
0.000000000000000
22
0.000000000000000
13
0.0
23
0.0
14
10.0
24
10.0
15
10.0
25
10.0
16
0.0
26
0.0
36
1.0
17
0.0
27
0.0
37
0.0
40
210.000000000000
41
1.42857142857143
42
1.0
43
0.0
44
0.0
50
0.0
51
0.0000000000007958
71
0
72
100
73
1
74
3
75
0
76
0
77
0
78
1
281
0
65
1
110
0.0
120
0.0
130
0.0
111
1.0
121
0.0
131
0.0
112
0.0
122
1.0
132
0.0
79
0
146
0.0
0
ENDTAB
0
TABLE
2
LTYPE
5
247
330
0
100
AcDbSymbolTable
70
25
0
LTYPE
5
256
330
247
100
AcDbSymbolTableRecord
100
AcDbLinetypeTableRecord
2
ByBlock
70
0
3

72
65
73
0
40
0.0
0
LTYPE
5
257
330
247
100
AcDbSymbolTableRecord
100
AcDbLinetypeTableRecord
2
ByLayer
70
0
3

72
65
73
0
40
0.0
0
LTYPE
5
258
330
247
100
AcDbSymbolTableRecord
100
AcDbLinetypeTableRecord
2
Continuous
70
0
3
Solid line
72
65
73
0
40
0.0
0
LTYPE
5
273
330
247
100
AcDbSymbolTableRecord
100
AcDbLinetypeTableRecord
2
CENTER
70
0
3
Center ____ _ ____ _ ____ _ ____ _ ____ _ ____
72
65
73
4
40
2.0
49
1.25
74
0
49
-0.25
74
0
49
0.25
74
0
49
-0.25
74
0
0
LTYPE
5
274
330
247
100
AcDbSymbolTableRecord
100
AcDbLinetypeTableRecord
2
DASHDOT
70
0
3
Dashdot __ . __ . __ . __ . __ . __ . __ . __
72
65
73
4
40
1.0
49
0.5
74
0
49
-0.25
74
0
49
0.0
74
0
49
-0.25
74
0
0
LTYPE
5
275
330
247
100
AcDbSymbolTableRecord
100
AcDbLinetypeTableRecord
2
DASHED
70
0
3
Dashed __ __ __ __ __ __ __ __ __ __ __ __ __ _
72
65
73
2
40
0.75
49
0.5
74
0
49
-0.25
74
0
0
LTYPE
5
276
330
247
100
AcDbSymbolTableRecord
100
AcDbLinetypeTableRecord
2
HIDDEN
70
0
3
Hidden __ __ __ __ __ __ __ __ __ __ __ __ __ __
72
65
73
2
40
0.375
49
0.25
74
0
49
-0.125
74
0
0
LTYPE
5
277
330
247
100
AcDbSymbolTableRecord
100
AcDbLinetypeTableRecord
2
HIDDEN2
70
0
3
Hidden2 _ _ _ _ _ _ _ _ _ _ _ _ _ _ _ _ _
72
65
73
2
40
0.1875
49
0.125
74
0
49
-0.0625
74
0
0
LTYPE
5
278
330
247
100
AcDbSymbolTableRecord
100
AcDbLinetypeTableRecord
2
BORDER
70
0
3
Border __ __ . __ __ . __ __ . __ __ . __ __ .
72
65
73
6
40
1.75
49
0.5
74
0
49
-0.25
74
0
49
0.5
74
0
49
-0.25
74
0
49
0.0
74
0
49
-0.25
74
0
0
LTYPE
5
279
330
247
100
AcDbSymbolTableRecord
100
AcDbLinetypeTableRecord
2
BORDER2
70
0
3
Border2 __.__.__.__.__.__.__.__.__.__.__.
72
65
73
6
40
0.875
49
0.25
74
0
49
-0.125
74
0
49
0.25
74
0
49
-0.125
74
0
49
0.0
74
0
49
-0.125
74
0
0
LTYPE
5
27A
330
247
100
AcDbSymbolTableRecord
100
AcDbLinetypeTableRecord
2
BORDERX2
70
0
3
Borderx2  ____  ____  .  ____  ____  .  ___
72
65
73
6
40
3.5
49
1.0
74
0
49
-0.5
74
0
49
1.0
74
0
49
-0.5
74
0
49
0.0
74
0
49
-0.5
74
0
0
LTYPE
5
27B
330
247
100
AcDbSymbolTableRecord
100
AcDbLinetypeTableRecord
2
CENTER2
70
0
3
Center2  ___ _ ___ _ ___ _ ___ _ ___ _ ___
72
65
73
4
40
1.125
49
0.75
74
0
49
-0.125
74
0
49
0.125
74
0
49
-0.125
74
0
0
LTYPE
5
27C
330
247
100
AcDbSymbolTableRecord
100
AcDbLinetypeTableRecord
2
CENTERX2
70
0
3
Centerx2  ________  __  ________  __  _____
72
65
73
4
40
4.0
49
2.5
74
0
49
-0.5
74
0
49
0.5
74
0
49
-0.5
74
0
0
LTYPE
5
27D
330
247
100
AcDbSymbolTableRecord
100
AcDbLinetypeTableRecord
2
DASHDOT2
70
0
3
Dashdot2  _._._._._._._._._._._._._._._.
72
65
73
4
40
0.5
49
0.25
74
0
49
-0.125
74
0
49
0.0
74
0
49
-0.125
74
0
0
LTYPE
5
27E
330
247
100
AcDbSymbolTableRecord
100
AcDbLinetypeTableRecord
2
DASHDOTX2
70
0
3
Dashdotx2 ____  .  ____  .  ____  .  ___
72
65
73
4
40
2.0
49
1.0
74
0
49
-0.5
74
0
49
0.0
74
0
49
-0.5
74
0
0
LTYPE
5
27F
330
247
100
AcDbSymbolTableRecord
100
AcDbLinetypeTableRecord
2
DASHED2
70
0
3
Dashed2 _ _ _ _ _ _ _ _ _ _ _ _ _ _ _ _ _
72
65
73
2
40
0.375
49
0.25
74
0
49
-0.125
74
0
0
LTYPE
5
280
330
247
100
AcDbSymbolTableRecord
100
AcDbLinetypeTableRecord
2
DASHEDX2
70
0
3
Dashedx2 ____  ____  ____  ____  ____  ___
72
65
73
2
40
1.5
49
1.0
74
0
49
-0.5
74
0
0
LTYPE
5
281
330
247
100
AcDbSymbolTableRecord
100
AcDbLinetypeTableRecord
2
DIVIDE
70
0
3
Divide ____ . . ____ . . ____ . . ____ . . ____
72
65
73
6
40
1.25
49
0.5
74
0
49
-0.25
74
0
49
0.0
74
0
49
-0.25
74
0
49
0.0
74
0
49
-0.25
74
0
0
LTYPE
5
282
330
247
100
AcDbSymbolTableRecord
100
AcDbLinetypeTableRecord
2
DIVIDE2
70
0
3
Divide2 __..__..__..__..__..__..__..__.._
72
65
73
6
40
0.625
49
0.25
74
0
49
-0.125
74
0
49
0.0
74
0
49
-0.125
74
0
49
0.0
74
0
49
-0.125
74
0
0
LTYPE
5
283
330
247
100
AcDbSymbolTableRecord
100
AcDbLinetypeTableRecord
2
DIVIDEX2
70
0
3
Dividex2 ________  .  .  ________  .  .  _
72
65
73
6
40
2.5
49
1.0
74
0
49
-0.5
74
0
49
0.0
74
0
49
-0.5
74
0
49
0.0
74
0
49
-0.5
74
0
0
LTYPE
5
284
330
247
100
AcDbSymbolTableRecord
100
AcDbLinetypeTableRecord
2
DOT
70
0
3
Dot . . . . . . . . . . . . . . . . . . . . . . . .
72
65
73
2
40
0.25
49
0.0
74
0
49
-0.25
74
0
0
LTYPE
5
285
330
247
100
AcDbSymbolTableRecord
100
AcDbLinetypeTableRecord
2
DOT2
70
0
3
Dot2 ........................................
72
65
73
2
40
0.125
49
0.0
74
0
49
-0.125
74
0
0
LTYPE
5
286
330
247
100
AcDbSymbolTableRecord
100
AcDbLinetypeTableRecord
2
DOTX2
70
0
3
Dotx2 .  .  .  .  .  .  .  .  .  .  .  .  .  .
72
65
73
2
40
0.5
49
0.0
74
0
49
-0.5
74
0
0
LTYPE
5
287
330
247
100
AcDbSymbolTableRecord
100
AcDbLinetypeTableRecord
2
HIDDENX2
70
0
3
Hiddenx2 ____ ____ ____ ____ ____ ____ ____
72
65
73
2
40
0.75
49
0.5
74
0
49
-0.25
74
0
0
LTYPE
5
288
330
247
100
AcDbSymbolTableRecord
100
AcDbLinetypeTableRecord
2
PHANTOM
70
0
3
Phantom ______  __  __  ______  __  __  ______
72
65
73
6
40
2.5
49
1.25
74
0
49
-0.25
74
0
49
0.25
74
0
49
-0.25
74
0
49
0.25
74
0
49
-0.25
74
0
0
LTYPE
5
289
330
247
100
AcDbSymbolTableRecord
100
AcDbLinetypeTableRecord
2
PHANTOM2
70
0
3
Phantom2 ___ _ _ ___ _ _ ___ _ _ ___ _ _
72
65
73
6
40
1.25
49
0.625
74
0
49
-0.125
74
0
49
0.125
74
0
49
-0.125
74
0
49
0.125
74
0
49
-0.125
74
0
0
LTYPE
5
28A
330
247
100
AcDbSymbolTableRecord
100
AcDbLinetypeTableRecord
2
PHANTOMX2
70
0
3
Phantomx2 ____________    ____    ____   _
72
65
73
6
40
5.0
49
2.5
74
0
49
-0.5
74
0
49
0.5
74
0
49
-0.5
74
0
49
0.5
74
0
49
-0.5
74
0
0
ENDTAB
0
TABLE
2
LAYER
5
244
330
0
100
AcDbSymbolTable
70
6
0
LAYER
5
252
330
244
100
AcDbSymbolTableRecord
100
AcDbLayerTableRecord
2
0
70
0
62
7
6
Continuous
370
0
390
251
0
LAYER
5
23F
330
244
100
AcDbSymbolTableRecord
100
AcDbLayerTableRecord
2
Bemassung
70
0
 62
   7
6
Continuous
370
0
390
251
0
LAYER
5
240
330
244
100
AcDbSymbolTableRecord
100
AcDbLayerTableRecord
2
Rahmen
70
0
 62
   7
6
Continuous
370
0
390
251
0
LAYER
5
241
330
244
100
AcDbSymbolTableRecord
100
AcDbLayerTableRecord
2
Geo
70
0
 62
   7
6
Continuous
370
0
390
251
0
LAYER
5
33A
330
244
100
AcDbSymbolTableRecord
100
AcDbLayerTableRecord
2
Defpoints
70
0
62
7
6
Continuous
290
0
370
-3
390
251
0
LAYER
5
57E
330
244
100
AcDbSymbolTableRecord
100
AcDbLayerTableRecord
2
Text
70
0
 62
   7
6
Continuous
370
0
390
251
1001
AcAecLayerStandard
1000

1000

0
ENDTAB
0
TABLE
2
STYLE
5
245
330
0
100
AcDbSymbolTable
70
2
0
STYLE
5
253
330
245
100
AcDbSymbolTableRecord
100
AcDbTextStyleTableRecord
2
Standard
70
0
40
0.0
41
1.0
50
0.0
71
0
42
0.2
3
Arial
4

1001
ACAD
1000
Arial
1071
0
0
STYLE
5
132
330
245
100
AcDbSymbolTableRecord
100
AcDbTextStyleTableRecord
2
Beschriftung
70
0
40
0.0
41
1.0
50
0.0
71
0
42
0.2
3
Arial
4

1001
ACAD
1000
Arial
1071
0
1001
AcadAnnotative
1000
AnnotativeData
1070
1
1070
1
0
ENDTAB
0
TABLE
2
VIEW
5
248
330
0
100
AcDbSymbolTable
70
0
0
ENDTAB
0
TABLE
2
UCS
5
249
330
0
100
AcDbSymbolTable
70
0
0
ENDTAB
0
TABLE
2
APPID
5
24B
330
0
100
AcDbSymbolTable
70
13
0
APPID
5
254
330
24B
100
AcDbSymbolTableRecord
100
AcDbRegAppTableRecord
2
ACAD
70
0
0
APPID
5
26C
330
24B
100
AcDbSymbolTableRecord
100
AcDbRegAppTableRecord
2
VD_INVISIBLE_NOT_FOR_READ
70
0
0
APPID
5
26D
330
24B
100
AcDbSymbolTableRecord
100
AcDbRegAppTableRecord
2
VD_TEMPHATCH
70
0
0
APPID
5
26E
330
24B
100
AcDbSymbolTableRecord
100
AcDbRegAppTableRecord
2
VDEXTRAPARAM
70
0
0
APPID
5
26F
330
24B
100
AcDbSymbolTableRecord
100
AcDbRegAppTableRecord
2
PE_URL
70
0
0
APPID
5
270
330
24B
100
AcDbSymbolTableRecord
100
AcDbRegAppTableRecord
2
VD_UNKNOWN
70
0
0
APPID
5
28F
330
24B
100
AcDbSymbolTableRecord
100
AcDbRegAppTableRecord
2
AcadAnnotative
70
0
0
APPID
5
290
330
24B
100
AcDbSymbolTableRecord
100
AcDbRegAppTableRecord
2
ACAD_DSTYLE_DIMJAG
70
0
0
APPID
5
291
330
24B
100
AcDbSymbolTableRecord
100
AcDbRegAppTableRecord
2
ACAD_DSTYLE_DIMTALN
70
0
0
APPID
5
293
330
24B
100
AcDbSymbolTableRecord
100
AcDbRegAppTableRecord
2
ACAD_PSEXT
70
0
0
APPID
5
42A
330
24B
100
AcDbSymbolTableRecord
100
AcDbRegAppTableRecord
2
ACAD_MLEADERVER
70
0
0
APPID
5
532
330
24B
100
AcDbSymbolTableRecord
100
AcDbRegAppTableRecord
2
ACAD_EXEMPT_FROM_CAD_STANDARDS
70
0
0
APPID
5
57F
330
24B
100
AcDbSymbolTableRecord
100
AcDbRegAppTableRecord
2
AcAecLayerStandard
70
0
0
ENDTAB
0
TABLE
2
DIMSTYLE
5
24C
330
0
100
AcDbSymbolTable
70
3
100
AcDbDimStyleTable
71
2
340
27
340
269
0
DIMSTYLE
105
269
330
24C
100
AcDbSymbolTableRecord
100
AcDbDimStyleTableRecord
2
Standard
70
0
172
1
174
1
288
1
340
253
342
23C
0
DIMSTYLE
105
137
330
24C
100
AcDbSymbolTableRecord
100
AcDbDimStyleTableRecord
2
Beschriftung
70
0
41
2.5
42
0.625
44
1.25
73
0
74
0
77
1
140
2.5
147
0.625
172
1
174
1
271
2
288
1
340
253
342
23C
1001
AcadAnnotative
1000
AnnotativeData
1070
1
1070
1
1001
ACAD_DSTYLE_DIMJAG
1070
388
1040
1.5
1001
ACAD_DSTYLE_DIMTALN
1070
392
1070
0
0
DIMSTYLE
105
27
102
{ACAD_REACTORS
330
F10012
330
F10017
330
F10008
330
F10003
330
F1000D
102
}
330
24C
100
AcDbSymbolTableRecord
100
AcDbDimStyleTableRecord
2
BEM-ISBE
70
0
41
2.5
42
0.625
44
1.25
48
0.000000001
71
1
73
0
74
0
77
1
140
2.5
144
1.00000000000000
146
0.5
147
0.625
171
 3
172
 1
179
 3
271
 3
272
 3
274
 3
340
253
342
23C
1001
ACAD_DSTYLE_DIMJAG
1070
388
1040
1.5
1001
ACAD_DSTYLE_DIMTALN
1070
392
1070
1
0
ENDTAB
0
TABLE
2
BLOCK_RECORD
5
243
330
0
100
AcDbSymbolTable
70
5
0
BLOCK_RECORD
5
261
330
243
100
AcDbSymbolTableRecord
100
AcDbBlockTableRecord
2
*Model_Space
340
FD0
0
BLOCK_RECORD
5
25D
330
243
100
AcDbSymbolTableRecord
100
AcDbBlockTableRecord
2
*Paper_Space
340
FD1
0
BLOCK_RECORD
5
265
330
243
100
AcDbSymbolTableRecord
100
AcDbBlockTableRecord
2
*Paper_Space0
340
0
0
BLOCK_RECORD
5
23C
330
243
100
AcDbSymbolTableRecord
100
AcDbBlockTableRecord
2
VDDIM_DEFAULT
340
0
102
{BLKREFS
102
}
0
BLOCK_RECORD
5
23E
330
243
100
AcDbSymbolTableRecord
100
AcDbBlockTableRecord
2
VDDIM_NONE
340
0
0
BLOCK_RECORD
5
F10011
330
243
100
AcDbSymbolTableRecord
100
AcDbBlockTableRecord
2
*D6
340
0
0
BLOCK_RECORD
5
F10016
330
243
100
AcDbSymbolTableRecord
100
AcDbBlockTableRecord
2
*D7
340
0
0
BLOCK_RECORD
5
F10007
330
243
100
AcDbSymbolTableRecord
100
AcDbBlockTableRecord
2
*D4
340
0
0
BLOCK_RECORD
5
F10002
330
243
100
AcDbSymbolTableRecord
100
AcDbBlockTableRecord
2
*D3
340
0
0
BLOCK_RECORD
5
F1000C
330
243
100
AcDbSymbolTableRecord
100
AcDbBlockTableRecord
2
*D5
340
0
0
ENDTAB
0
ENDSEC
0
SECTION
2
BLOCKS
0
BLOCK
5
262
330
261
100
AcDbEntity
8
0
100
AcDbBlockBegin
2
*Model_Space
70
0
10
0.0
20
0.0
30
0.0
3
*Model_Space
1

0
ENDBLK
5
263
330
261
100
AcDbEntity
8
0
100
AcDbBlockEnd
0
BLOCK
5
25E
330
25D
100
AcDbEntity
67
1
8
0
100
AcDbBlockBegin
2
*Paper_Space
70
0
10
0.0
20
0.0
30
0.0
3
*Paper_Space
1

0
ENDBLK
5
25F
330
25D
100
AcDbEntity
67
1
8
0
100
AcDbBlockEnd
0
BLOCK
5
266
330
265
100
AcDbEntity
8
0
100
AcDbBlockBegin
2
*Paper_Space0
70
0
10
0.0
20
0.0
30
0.0
3
*Paper_Space0
1

0
VIEWPORT
5
296
102
{ACAD_XDICTIONARY
360
58E
102
}
330
265
100
AcDbEntity
8
0
60
1
100
AcDbViewport
10
0.0
20
0.0
30
0.0
40
10.0
41
10.0
69
0
12
0.0
22
0.0
13
0.0
23
0.0
14
1.0
24
1.0
15
0.0
25
0.0
16
0.0
26
0.0
36
1.0
17
0.0
27
0.0
37
0.0
42
0.0
43
0.0
44
0.0
45
10.0
50
0.0
51
0.0000000000007958
72
100
90
163872
1

281
0
71
0
74
0
110
0.0
120
0.0
130
0.0
111
1.0
121
0.0
131
0.0
112
0.0
122
1.0
132
0.0
79
0
146
0.0
1001
VD_INVISIBLE_NOT_FOR_READ
1000
VD_INVISIBLE_NOT_FOR_READ
0
VIEWPORT
5
297
102
{ACAD_XDICTIONARY
360
590
102
}
330
265
100
AcDbEntity
8
0
60
1
100
AcDbViewport
10
0.0
20
0.0
30
0.0
40
10.0
41
10.0
69
0
12
0.0
22
0.0
13
0.0
23
0.0
14
1.0
24
1.0
15
0.0
25
0.0
16
0.0
26
0.0
36
1.0
17
0.0
27
0.0
37
0.0
42
0.0
43
0.0
44
0.0
45
10.0
50
0.0
51
0.0000000000007958
72
100
90
163872
1

281
0
71
0
74
0
110
0.0
120
0.0
130
0.0
111
1.0
121
0.0
131
0.0
112
0.0
122
1.0
132
0.0
79
0
146
0.0
1001
VD_INVISIBLE_NOT_FOR_READ
1000
VD_INVISIBLE_NOT_FOR_READ
0
ENDBLK
5
267
330
265
100
AcDbEntity
8
0
100
AcDbBlockEnd
0
BLOCK
5
28B
330
23C
100
AcDbEntity
8
0
100
AcDbBlockBegin
2
VDDIM_DEFAULT
70
0
10
0.0
20
0.0
30
0.0
3
VDDIM_DEFAULT
1

0
LWPOLYLINE
5
23D
330
23C
100
AcDbEntity
8
0
6
Continuous
62
0
100
AcDbPolyline
90
4
70
0
43
0.0
10
0.0
20
0.0
10
-1.0
20
-0.1665
10
-1.0
20
0.1665
10
0.0
20
0.0
1001
VDEXTRAPARAM
1071
1
1071
0
1071
0
1040
1.0
1000

1000

1040
0.0
1040
0.0
0
HATCH
5
292
330
23C
100
AcDbEntity
8
0
6
Continuous
62
0
100
AcDbHatch
10
0.0
20
0.0
30
0.0
210
0.0
220
0.0
230
1.0
2
SOLID
70
1
71
0
91
1
92
2
72
0
73
1
93
3
10
0.0
20
0.0
10
-1.0
20
-0.1665
10
-1.0
20
0.1665
97
0
75
0
76
1
98
1
10
0.0
20
0.0
1001
VDEXTRAPARAM
1071
1
1071
0
1071
0
1040
1.0
1000

1000

1040
0.0
1040
0.0
1001
VD_TEMPHATCH
1000
VD_TEMPHATCH
0
ENDBLK
5
28C
330
23C
100
AcDbEntity
8
0
100
AcDbBlockEnd
0
BLOCK
5
28D
330
23E
100
AcDbEntity
8
0
100
AcDbBlockBegin
2
VDDIM_NONE
70
0
10
0.0
20
0.0
30
0.0
3
VDDIM_NONE
1

0
ENDBLK
5
28E
330
23E
100
AcDbEntity
8
0
100
AcDbBlockEnd
  0
BLOCK
  5
F1001B
330
F10011
100
AcDbEntity
  8
0
100
AcDbBlockBegin
  2
*D6
 70
     1
 10
0.0
 20
0.0
 30
0.0
  3
*D6
  1

  0
LINE
  5
F1001C
330
F10011
100
AcDbEntity
  8
Bemassung
 62
     0
370
    -2
100
AcDbLine
10
-46.3681699913270
20
6.75281873373810
30
0.000000000000000
11
-46.3681699913270
21
-4.24718126626190
31
0.000000000000000
  0
LINE
  5
F1001D
330
F10011
100
AcDbEntity
  8
Bemassung
 62
     0
370
    -2
100
AcDbLine
10
-72.3681699913270
20
-4.24718126626190
30
0.000000000000000
11
-72.3681699913270
21
34.7528187337381
31
0.000000000000000
  0
LINE
  5
F1001E
330
F10011
100
AcDbEntity
  8
Bemassung
 62
     0
370
    -2
100
AcDbLine
10
-46.3681699913270
20
-2.24718126626190
30
0.000000000000000
11
-72.3681699913270
21
-2.24718126626190
31
0.000000000000000
  0
INSERT
  5
F1001F
330
F10011
100
AcDbEntity
  8
Bemassung
 62
     0
370
    -2
100
AcDbBlockReference
  2
VDDIM_DEFAULT
10
-46.3681699913270
20
-2.24718126626190
30
0.000000000000000
 41
2.50000000000000
 42
2.50000000000000
 43
2.50000000000000
  0
INSERT
  5
F10020
330
F10011
100
AcDbEntity
  8
Bemassung
 62
     0
370
    -2
100
AcDbBlockReference
  2
VDDIM_DEFAULT
10
-72.3681699913270
20
-2.24718126626190
30
0.000000000000000
 41
2.50000000000000
 42
2.50000000000000
 43
2.50000000000000
 50
180.000000000000
  0
MTEXT
  5
F10021
330
F10011
100
AcDbEntity
  8
Bemassung
 62
     0
100
AcDbMText
10
-58.9202081526457
20
-1.58051459959524
30
0.000000000000000
 40
2.50000000000000
 41
0.0
 71
     8
 72
     1
  1
26
 11
1.00000000000000
 21
0.000000000000000
 31
0.0
 73
     1
 44
1.0
1001
ACAD
1000
MTEXTBEGIN
1070
73
1070
1
1070
44
1040
1.0
1070
74
1070
0
1000
MTEXTEND
  0
POINT
  5
F10022
330
F10011
100
AcDbEntity
  8
Bemassung
 62
     0
100
AcDbPoint
10
-46.3681699913270
20
6.75281873373810
30
0.000000000000000
  0
POINT
  5
F10023
330
F10011
100
AcDbEntity
  8
Bemassung
 62
     0
100
AcDbPoint
10
-72.3681699913270
20
-4.24718126626190
30
0.000000000000000
  0
ENDBLK
  5
F10024
330
F10011
100
AcDbEntity
  8
0
100
AcDbBlockEnd
  0
BLOCK
  5
F10025
330
F10016
100
AcDbEntity
  8
0
100
AcDbBlockBegin
  2
*D7
 70
     1
 10
0.0
 20
0.0
 30
0.0
  3
*D7
  1

  0
LINE
  5
F10026
330
F10016
100
AcDbEntity
  8
Bemassung
 62
     0
370
    -2
100
AcDbLine
10
77.6318300086730
20
22.2528187337381
30
0.000000000000000
11
77.6318300086730
21
34.7528187337381
31
0.000000000000000
  0
LINE
  5
F10027
330
F10016
100
AcDbEntity
  8
Bemassung
 62
     0
370
    -2
100
AcDbLine
10
-72.3681699913270
20
-4.24718126626190
30
0.000000000000000
11
-72.3681699913270
21
34.7528187337381
31
0.000000000000000
  0
LINE
  5
F10028
330
F10016
100
AcDbEntity
  8
Bemassung
 62
     0
370
    -2
100
AcDbLine
10
77.6318300086730
20
32.7528187337381
30
0.000000000000000
11
-72.3681699913270
21
32.7528187337381
31
0.000000000000000
  0
INSERT
  5
F10029
330
F10016
100
AcDbEntity
  8
Bemassung
 62
     0
370
    -2
100
AcDbBlockReference
  2
VDDIM_DEFAULT
10
77.6318300086730
20
32.7528187337381
30
0.000000000000000
 41
2.50000000000000
 42
2.50000000000000
 43
2.50000000000000
  0
INSERT
  5
F1002A
330
F10016
100
AcDbEntity
  8
Bemassung
 62
     0
370
    -2
100
AcDbBlockReference
  2
VDDIM_DEFAULT
10
-72.3681699913270
20
32.7528187337381
30
0.000000000000000
 41
2.50000000000000
 42
2.50000000000000
 43
2.50000000000000
 50
180.000000000000
  0
MTEXT
  5
F1002B
330
F10016
100
AcDbEntity
  8
Bemassung
 62
     0
100
AcDbMText
10
2.63183000867299
20
33.4194854004048
30
0.000000000000000
 40
2.50000000000000
 41
0.0
 71
     8
 72
     1
  1
150
 11
1.00000000000000
 21
0.000000000000000
 31
0.0
 73
     1
 44
1.0
1001
ACAD
1000
MTEXTBEGIN
1070
73
1070
1
1070
44
1040
1.0
1070
74
1070
0
1000
MTEXTEND
  0
POINT
  5
F1002C
330
F10016
100
AcDbEntity
  8
Bemassung
 62
     0
100
AcDbPoint
10
77.6318300086730
20
22.2528187337381
30
0.000000000000000
  0
POINT
  5
F1002D
330
F10016
100
AcDbEntity
  8
Bemassung
 62
     0
100
AcDbPoint
10
-72.3681699913270
20
-4.24718126626190
30
0.000000000000000
  0
ENDBLK
  5
F1002E
330
F10016
100
AcDbEntity
  8
0
100
AcDbBlockEnd
  0
BLOCK
  5
F1002F
330
F10007
100
AcDbEntity
  8
0
100
AcDbBlockBegin
  2
*D4
 70
     1
 10
0.0
 20
0.0
 30
0.0
  3
*D4
  1

  0
LINE
  5
F10030
330
F10007
100
AcDbEntity
  8
Bemassung
 62
     0
370
    -2
100
AcDbLine
10
-70.0250242408194
20
20.4096729832305
30
0.000000000000000
11
-78.7647441457069
21
29.1493928881180
31
0.000000000000000
  0
INSERT
  5
F10031
330
F10007
100
AcDbEntity
  8
Bemassung
 62
     0
370
    -2
100
AcDbBlockReference
  2
VDDIM_DEFAULT
10
-70.0250242408194
20
20.4096729832305
30
0.000000000000000
 41
2.50000000000000
 42
2.50000000000000
 43
2.50000000000000
 50
315.000000000000
  0
MTEXT
  5
F10032
330
F10007
100
AcDbEntity
  8
Bemassung
 62
     0
100
AcDbMText
10
-77.0960920526849
20
27.4807407950959
30
0.000000000000000
 40
2.50000000000000
 41
0.0
 71
     8
 72
     1
  1
R8
 11
0.707106781186547
 21
-0.707106781186548
 31
0.0
 73
     1
 44
1.0
1001
ACAD
1000
MTEXTBEGIN
1070
73
1070
1
1070
44
1040
1.0
1070
74
1070
0
1000
MTEXTEND
  0
POINT
  5
F10033
330
F10007
100
AcDbEntity
  8
Bemassung
 62
     0
100
AcDbPoint
10
-70.0250242408194
20
20.4096729832305
30
0.000000000000000
  0
POINT
  5
F10034
330
F10007
100
AcDbEntity
  8
Bemassung
 62
     0
100
AcDbPoint
10
-64.3681699913270
20
14.7528187337381
30
0.000000000000000
  0
ENDBLK
  5
F10035
330
F10007
100
AcDbEntity
  8
0
100
AcDbBlockEnd
  0
BLOCK
  5
F10036
330
F10002
100
AcDbEntity
  8
0
100
AcDbBlockBegin
  2
*D3
 70
     1
 10
0.0
 20
0.0
 30
0.0
  3
*D3
  1

  0
LINE
  5
F10037
330
F10002
100
AcDbEntity
  8
Bemassung
 62
     0
370
    -2
100
AcDbLine
10
-64.3681699913270
20
6.75281873373810
30
0.000000000000000
11
-84.3681699913270
21
6.75281873373810
31
0.000000000000000
  0
LINE
  5
F10038
330
F10002
100
AcDbEntity
  8
Bemassung
 62
     0
370
    -2
100
AcDbLine
10
-64.3681699913270
20
22.7528187337381
30
0.000000000000000
11
-84.3681699913270
21
22.7528187337381
31
0.000000000000000
  0
LINE
  5
F10039
330
F10002
100
AcDbEntity
  8
Bemassung
 62
     0
370
    -2
100
AcDbLine
10
-82.3681699913270
20
6.75281873373810
30
0.000000000000000
11
-82.3681699913270
21
22.7528187337381
31
0.000000000000000
  0
INSERT
  5
F1003A
330
F10002
100
AcDbEntity
  8
Bemassung
 62
     0
370
    -2
100
AcDbBlockReference
  2
VDDIM_DEFAULT
10
-82.3681699913270
20
6.75281873373810
30
0.000000000000000
 41
2.50000000000000
 42
2.50000000000000
 43
2.50000000000000
 50
270.000000000000
  0
INSERT
  5
F1003B
330
F10002
100
AcDbEntity
  8
Bemassung
 62
     0
370
    -2
100
AcDbBlockReference
  2
VDDIM_DEFAULT
10
-82.3681699913270
20
22.7528187337381
30
0.000000000000000
 41
2.50000000000000
 42
2.50000000000000
 43
2.50000000000000
 50
90.0000000000000
  0
MTEXT
  5
F1003C
330
F10002
100
AcDbEntity
  8
Bemassung
 62
     0
100
AcDbMText
10
-83.0348366579937
20
14.7528187337381
30
0.000000000000000
 40
2.50000000000000
 41
0.0
 71
     8
 72
     1
  1
Ø16
 11
6.12323399573677e-17
 21
1.00000000000000
 31
0.0
 73
     1
 44
1.0
1001
ACAD
1000
MTEXTBEGIN
1070
73
1070
1
1070
44
1040
1.0
1070
74
1070
0
1000
MTEXTEND
  0
POINT
  5
F1003D
330
F10002
100
AcDbEntity
  8
Bemassung
 62
     0
100
AcDbPoint
10
-64.3681699913270
20
6.75281873373810
30
0.000000000000000
  0
POINT
  5
F1003E
330
F10002
100
AcDbEntity
  8
Bemassung
 62
     0
100
AcDbPoint
10
-64.3681699913270
20
22.7528187337381
30
0.000000000000000
  0
ENDBLK
  5
F1003F
330
F10002
100
AcDbEntity
  8
0
100
AcDbBlockEnd
  0
BLOCK
  5
F10040
330
F1000C
100
AcDbEntity
  8
0
100
AcDbBlockBegin
  2
*D5
 70
     1
 10
0.0
 20
0.0
 30
0.0
  3
*D5
  1

  0
LINE
  5
F10041
330
F1000C
100
AcDbEntity
  8
Bemassung
 62
     0
370
    -2
100
AcDbLine
10
77.1318300086730
20
6.75281873373810
30
0.000000000000000
11
92.1318300086730
21
6.75281873373810
31
0.000000000000000
  0
LINE
  5
F10042
330
F1000C
100
AcDbEntity
  8
Bemassung
 62
     0
370
    -2
100
AcDbLine
10
77.1318300086730
20
22.7528187337381
30
0.000000000000000
11
92.1318300086730
21
22.7528187337381
31
0.000000000000000
  0
LINE
  5
F10043
330
F1000C
100
AcDbEntity
  8
Bemassung
 62
     0
370
    -2
100
AcDbLine
10
90.1318300086730
20
6.75281873373810
30
0.000000000000000
11
90.1318300086730
21
22.7528187337381
31
0.000000000000000
  0
INSERT
  5
F10044
330
F1000C
100
AcDbEntity
  8
Bemassung
 62
     0
370
    -2
100
AcDbBlockReference
  2
VDDIM_DEFAULT
10
90.1318300086730
20
6.75281873373810
30
0.000000000000000
 41
2.50000000000000
 42
2.50000000000000
 43
2.50000000000000
 50
270.000000000000
  0
INSERT
  5
F10045
330
F1000C
100
AcDbEntity
  8
Bemassung
 62
     0
370
    -2
100
AcDbBlockReference
  2
VDDIM_DEFAULT
10
90.1318300086730
20
22.7528187337381
30
0.000000000000000
 41
2.50000000000000
 42
2.50000000000000
 43
2.50000000000000
 50
90.0000000000000
  0
MTEXT
  5
F10046
330
F1000C
100
AcDbEntity
  8
Bemassung
 62
     0
100
AcDbMText
10
89.4651633420063
20
14.8438855160451
30
0.000000000000000
 40
2.50000000000000
 41
0.0
 71
     8
 72
     1
  1
Ø16h6
 11
6.12323399573677e-17
 21
1.00000000000000
 31
0.0
 73
     1
 44
1.0
  0
POINT
  5
F10047
330
F1000C
100
AcDbEntity
  8
Bemassung
 62
     0
100
AcDbPoint
10
77.1318300086730
20
6.75281873373810
30
0.000000000000000
  0
POINT
  5
F10048
330
F1000C
100
AcDbEntity
  8
Bemassung
 62
     0
100
AcDbPoint
10
77.1318300086730
20
22.7528187337381
30
0.000000000000000
  0
ENDBLK
  5
F10049
330
F1000C
100
AcDbEntity
  8
0
100
AcDbBlockEnd
0
ENDSEC
0
SECTION
2
ENTITIES
  0
DIMENSION
  5
F10012
330
261
100
AcDbEntity
  8
Bemassung
100
AcDbDimension
  2
*D6
10
-72.3681699913270
20
-2.24718126626190
30
0.000000000000000
11
-58.9202081526457
21
-1.58051459959524
31
0.000000000000000
 70
32
 1
26
 71
     8
  3
BEM-ISBE
100
AcDbAlignedDimension
13
-46.3681699913270
23
6.75281873373810
33
0.000000000000000
14
-72.3681699913270
24
-4.24718126626190
34
0.000000000000000
100
AcDbRotatedDimension
1001
ACAD
1000
DSTYLE
1002
{
1070
284
1070
8
1070
78
1070
8
1070
144
1040
1.00000000000000
1070
147
1040
0.625
1070
 72
1070
 0
1070
 71
1070
 0
1002
}
  0
DIMENSION
  5
F10017
330
261
100
AcDbEntity
  8
Bemassung
100
AcDbDimension
  2
*D7
10
-72.3681699913270
20
32.7528187337381
30
0.000000000000000
11
2.63183000867299
21
33.4194854004048
31
0.000000000000000
 70
32
 1
150
 71
     8
  3
BEM-ISBE
100
AcDbAlignedDimension
13
77.6318300086730
23
22.2528187337381
33
0.000000000000000
14
-72.3681699913270
24
-4.24718126626190
34
0.000000000000000
100
AcDbRotatedDimension
1001
ACAD
1000
DSTYLE
1002
{
1070
284
1070
8
1070
78
1070
8
1070
144
1040
1.00000000000000
1070
147
1040
0.625
1070
 72
1070
 0
1070
 71
1070
 0
1002
}
  0
DIMENSION
  5
F10008
330
261
100
AcDbEntity
  8
Bemassung
100
AcDbDimension
  2
*D4
10
-64.3681699913270
20
14.7528187337381
30
0.000000000000000
11
-77.0960920526849
21
27.4807407950959
31
0.000000000000000
 70
164
 1
R8
 71
     8
  3
BEM-ISBE
100
AcDbRadialDimension
15
-70.0250242408194
25
20.4096729832305
35
0.000000000000000
40
0.0
1001
ACAD
1000
DSTYLE
1002
{
1070
284
1070
8
1070
78
1070
8
1070
144
1040
1.00000000000000
1070
147
1040
0.625
1070
 72
1070
 0
1070
 71
1070
 0
1002
}
  0
DIMENSION
  5
F10003
330
261
100
AcDbEntity
  8
Bemassung
100
AcDbDimension
  2
*D3
10
-82.3681699913270
20
22.7528187337381
30
0.000000000000000
11
-83.0348366579937
21
14.7528187337381
31
0.000000000000000
 70
32
 1
Ø16
 71
     8
  3
BEM-ISBE
100
AcDbAlignedDimension
13
-64.3681699913270
23
6.75281873373810
33
0.000000000000000
14
-64.3681699913270
24
22.7528187337381
34
0.000000000000000
50
90.0000000000000
100
AcDbRotatedDimension
1001
ACAD
1000
DSTYLE
1002
{
1070
284
1070
8
1070
78
1070
8
1070
144
1040
1.00000000000000
1070
147
1040
0.625
1070
 72
1070
 0
1070
 71
1070
 0
1002
}
  0
DIMENSION
  5
F1000D
330
261
100
AcDbEntity
  8
Bemassung
100
AcDbDimension
  2
*D5
10
90.1318300086730
20
22.7528187337381
30
0.000000000000000
11
89.4651633420063
21
14.8438855160451
31
0.000000000000000
 70
32
 1
Ø16h6
 71
     8
  3
BEM-ISBE
100
AcDbAlignedDimension
13
77.1318300086730
23
6.75281873373810
33
0.000000000000000
14
77.1318300086730
24
22.7528187337381
34
0.000000000000000
50
90.0000000000000
100
AcDbRotatedDimension
1001
ACAD
1000
DSTYLE
1002
{
1070
284
1070
8
1070
78
1070
8
1070
144
1040
1.00000000000000
1070
147
1040
0.625
1070
 72
1070
 0
1070
 71
1070
 0
1002
}
  0
ARC
  5
F1004A
330
F1004B
100
AcDbEntity
8
Geo
100
AcDbCircle
10
-64.3681699913270
20
14.7528187337381
30
0.000000000000000
 40
8.00000000000000
100
AcDbArc
 50
90.0000000000000
 51
180.000000000000
  0
LINE
  5
F1004C
330
F1004D
100
AcDbEntity
8
Geo
100
AcDbLine
10
-64.3681699913270
20
22.7528187337381
30
0.000000000000000
11
-46.3681699913270
21
22.7528187337381
31
0.000000000000000
  0
LINE
  5
F1004E
330
F1004F
100
AcDbEntity
8
Geo
100
AcDbLine
10
-46.3681699913270
20
22.7528187337381
30
0.000000000000000
11
77.1318300086730
21
22.7528187337381
31
0.000000000000000
  0
LINE
  5
F10050
330
F10051
100
AcDbEntity
8
Geo
100
AcDbLine
10
77.1318300086730
20
22.7528187337381
30
0.000000000000000
11
77.6318300086730
21
22.2528187337381
31
0.000000000000000
  0
LINE
  5
F10052
330
F10053
100
AcDbEntity
8
Geo
100
AcDbLine
10
-71.1965338260270
20
18.9209654851088
30
0.000000000000000
11
-71.1681699913270
21
18.9657862320696
31
0.000000000000000
  0
LINE
  5
F10054
330
F10055
100
AcDbEntity
8
Geo
100
AcDbLine
10
-71.1681699913270
20
18.9657862320696
30
0.000000000000000
11
-71.0681699913270
21
19.1121349620176
31
0.000000000000000
  0
LINE
  5
F10056
330
F10057
100
AcDbEntity
8
Geo
100
AcDbLine
10
-71.0681699913270
20
19.1121349620176
30
0.000000000000000
11
-70.9681699913270
21
19.2466939824271
31
0.000000000000000
  0
LINE
  5
F10058
330
F10059
100
AcDbEntity
8
Geo
100
AcDbLine
10
-70.9681699913270
20
19.2466939824271
30
0.000000000000000
11
-70.8681699913270
21
19.3733420235342
31
0.000000000000000
  0
LINE
  5
F1005A
330
F1005B
100
AcDbEntity
8
Geo
100
AcDbLine
10
-70.8681699913270
20
19.3733420235342
30
0.000000000000000
11
-70.7681699913270
21
19.4938945591710
31
0.000000000000000
  0
LINE
  5
F1005C
330
F1005D
100
AcDbEntity
8
Geo
100
AcDbLine
10
-70.7681699913270
20
19.4938945591710
30
0.000000000000000
11
-70.6681699913270
21
19.6093284073698
31
0.000000000000000
  0
LINE
  5
F1005E
330
F1005F
100
AcDbEntity
8
Geo
100
AcDbLine
10
-70.6681699913270
20
19.6093284073698
30
0.000000000000000
11
-70.5681699913270
21
19.7204246890160
31
0.000000000000000
  0
LINE
  5
F10060
330
F10061
100
AcDbEntity
8
Geo
100
AcDbLine
10
-70.5681699913270
20
19.7204246890160
30
0.000000000000000
11
-70.4681699913270
21
19.8276009814678
31
0.000000000000000
  0
LINE
  5
F10062
330
F10063
100
AcDbEntity
8
Geo
100
AcDbLine
10
-70.4681699913270
20
19.8276009814678
30
0.000000000000000
11
-70.3681699913270
21
19.9312574491420
31
0.000000000000000
  0
LINE
  5
F10064
330
F10065
100
AcDbEntity
8
Geo
100
AcDbLine
10
-70.3681699913270
20
19.9312574491420
30
0.000000000000000
11
-70.2681699913270
21
20.0317013557200
31
0.000000000000000
  0
LINE
  5
F10066
330
F10067
100
AcDbEntity
8
Geo
100
AcDbLine
10
-70.2681699913270
20
20.0317013557200
30
0.000000000000000
11
-70.1681699913270
21
20.1291764505539
31
0.000000000000000
  0
LINE
  5
F10068
330
F10069
100
AcDbEntity
8
Geo
100
AcDbLine
10
-70.1681699913270
20
20.1291764505539
30
0.000000000000000
11
-70.0681699913270
21
20.2238817815334
31
0.000000000000000
  0
LINE
  5
F1006A
330
F1006B
100
AcDbEntity
8
Geo
100
AcDbLine
10
-70.0681699913270
20
20.2238817815334
30
0.000000000000000
11
-69.9681699913270
21
20.3158845614776
31
0.000000000000000
  0
LINE
  5
F1006C
330
F1006D
100
AcDbEntity
8
Geo
100
AcDbLine
10
-69.9681699913270
20
20.3158845614776
30
0.000000000000000
11
-69.8681699913270
21
20.4044530116655
31
0.000000000000000
  0
LINE
  5
F1006E
330
F1006F
100
AcDbEntity
8
Geo
100
AcDbLine
10
-69.8681699913270
20
20.4044530116655
30
0.000000000000000
11
-69.7681699913270
21
20.4892860085475
31
0.000000000000000
  0
LINE
  5
F10070
330
F10071
100
AcDbEntity
8
Geo
100
AcDbLine
10
-69.7681699913270
20
20.4892860085475
30
0.000000000000000
11
-69.6681699913270
21
20.5705358734541
31
0.000000000000000
  0
LINE
  5
F10072
330
F10073
100
AcDbEntity
8
Geo
100
AcDbLine
10
-69.6681699913270
20
20.5705358734541
30
0.000000000000000
11
-69.5681699913270
21
20.6483403361174
31
0.000000000000000
  0
LINE
  5
F10074
330
F10075
100
AcDbEntity
8
Geo
100
AcDbLine
10
-69.5681699913270
20
20.6483403361174
30
0.000000000000000
11
-69.4681699913270
21
20.7228244188209
31
0.000000000000000
  0
LINE
  5
F10076
330
F10077
100
AcDbEntity
8
Geo
100
AcDbLine
10
-69.4681699913270
20
20.7228244188209
30
0.000000000000000
11
-69.3681699913270
21
20.7941020226437
31
0.000000000000000
  0
LINE
  5
F10078
330
F10079
100
AcDbEntity
8
Geo
100
AcDbLine
10
-69.3681699913270
20
20.7941020226437
30
0.000000000000000
11
-69.2681699913270
21
20.8622772713839
31
0.000000000000000
  0
LINE
  5
F1007A
330
F1007B
100
AcDbEntity
8
Geo
100
AcDbLine
10
-69.2681699913270
20
20.8622772713839
30
0.000000000000000
11
-69.1681699913270
21
20.9274456568856
31
0.000000000000000
  0
LINE
  5
F1007C
330
F1007D
100
AcDbEntity
8
Geo
100
AcDbLine
10
-69.1681699913270
20
20.9274456568856
30
0.000000000000000
11
-69.0681699913270
21
20.9896950204652
31
0.000000000000000
  0
LINE
  5
F1007E
330
F1007F
100
AcDbEntity
8
Geo
100
AcDbLine
10
-69.0681699913270
20
20.9896950204652
30
0.000000000000000
11
-68.9681699913270
21
21.0491063981888
31
0.000000000000000
  0
LINE
  5
F10080
330
F10081
100
AcDbEntity
8
Geo
100
AcDbLine
10
-68.9681699913270
20
21.0491063981888
30
0.000000000000000
11
-68.8681699913270
21
21.1057547523617
31
0.000000000000000
  0
LINE
  5
F10082
330
F10083
100
AcDbEntity
8
Geo
100
AcDbLine
10
-68.8681699913270
20
21.1057547523617
30
0.000000000000000
11
-68.7681699913270
21
21.1597096073771
31
0.000000000000000
  0
LINE
  5
F10084
330
F10085
100
AcDbEntity
8
Geo
100
AcDbLine
10
-68.7681699913270
20
21.1597096073771
30
0.000000000000000
11
-68.6681699913270
21
21.2110356047462
31
0.000000000000000
  0
LINE
  5
F10086
330
F10087
100
AcDbEntity
8
Geo
100
AcDbLine
10
-68.6681699913270
20
21.2110356047462
30
0.000000000000000
11
-68.5681699913270
21
21.2597929894904
31
0.000000000000000
  0
LINE
  5
F10088
330
F10089
100
AcDbEntity
8
Geo
100
AcDbLine
10
-68.5681699913270
20
21.2597929894904
30
0.000000000000000
11
-68.4681699913270
21
21.3060380379641
31
0.000000000000000
  0
LINE
  5
F1008A
330
F1008B
100
AcDbEntity
8
Geo
100
AcDbLine
10
-68.4681699913270
20
21.3060380379641
30
0.000000000000000
11
-68.3681699913270
21
21.3498234354754
31
0.000000000000000
  0
LINE
  5
F1008C
330
F1008D
100
AcDbEntity
8
Geo
100
AcDbLine
10
-68.3681699913270
20
21.3498234354754
30
0.000000000000000
11
-68.2681699913270
21
21.3911986106960
31
0.000000000000000
  0
LINE
  5
F1008E
330
F1008F
100
AcDbEntity
8
Geo
100
AcDbLine
10
-68.2681699913270
20
21.3911986106960
30
0.000000000000000
11
-68.1681699913270
21
21.4302100327266
31
0.000000000000000
  0
LINE
  5
F10090
330
F10091
100
AcDbEntity
8
Geo
100
AcDbLine
10
-68.1681699913270
20
21.4302100327266
30
0.000000000000000
11
-68.0681699913270
21
21.4669014757662
31
0.000000000000000
  0
LINE
  5
F10092
330
F10093
100
AcDbEntity
8
Geo
100
AcDbLine
10
-68.0681699913270
20
21.4669014757662
30
0.000000000000000
11
-67.9681699913270
21
21.5013142555769
31
0.000000000000000
  0
LINE
  5
F10094
330
F10095
100
AcDbEntity
8
Geo
100
AcDbLine
10
-67.9681699913270
20
21.5013142555769
30
0.000000000000000
11
-67.8681699913270
21
21.5334874413070
31
0.000000000000000
  0
LINE
  5
F10096
330
F10097
100
AcDbEntity
8
Geo
100
AcDbLine
10
-67.8681699913270
20
21.5334874413070
30
0.000000000000000
11
-67.7681699913270
21
21.5634580457172
31
0.000000000000000
  0
LINE
  5
F10098
330
F10099
100
AcDbEntity
8
Geo
100
AcDbLine
10
-67.7681699913270
20
21.5634580457172
30
0.000000000000000
11
-67.6681699913270
21
21.5912611964162
31
0.000000000000000
  0
LINE
  5
F1009A
330
F1009B
100
AcDbEntity
8
Geo
100
AcDbLine
10
-67.6681699913270
20
21.5912611964162
30
0.000000000000000
11
-67.5681699913270
21
21.6169302903505
31
0.000000000000000
  0
LINE
  5
F1009C
330
F1009D
100
AcDbEntity
8
Geo
100
AcDbLine
10
-67.5681699913270
20
21.6169302903505
30
0.000000000000000
11
-67.4681699913270
21
21.6404971334823
31
0.000000000000000
  0
LINE
  5
F1009E
330
F1009F
100
AcDbEntity
8
Geo
100
AcDbLine
10
-67.4681699913270
20
21.6404971334823
30
0.000000000000000
11
-67.3681699913270
21
21.6619920673336
31
0.000000000000000
  0
LINE
  5
F100A0
330
F100A1
100
AcDbEntity
8
Geo
100
AcDbLine
10
-67.3681699913270
20
21.6619920673336
30
0.000000000000000
11
-67.2681699913270
21
21.6814440838496
31
0.000000000000000
  0
LINE
  5
F100A2
330
F100A3
100
AcDbEntity
8
Geo
100
AcDbLine
10
-67.2681699913270
20
21.6814440838496
30
0.000000000000000
11
-67.1681699913270
21
21.6988809298505
31
0.000000000000000
  0
LINE
  5
F100A4
330
F100A5
100
AcDbEntity
8
Geo
100
AcDbLine
10
-67.1681699913270
20
21.6988809298505
30
0.000000000000000
11
-67.0681699913270
21
21.7143292021793
31
0.000000000000000
  0
LINE
  5
F100A6
330
F100A7
100
AcDbEntity
8
Geo
100
AcDbLine
10
-67.0681699913270
20
21.7143292021793
30
0.000000000000000
11
-66.9681699913270
21
21.7278144345138
31
0.000000000000000
  0
LINE
  5
F100A8
330
F100A9
100
AcDbEntity
8
Geo
100
AcDbLine
10
-66.9681699913270
20
21.7278144345138
30
0.000000000000000
11
-66.8681699913270
21
21.7393611766957
31
0.000000000000000
  0
LINE
  5
F100AA
330
F100AB
100
AcDbEntity
8
Geo
100
AcDbLine
10
-66.8681699913270
20
21.7393611766957
30
0.000000000000000
11
-66.7681699913270
21
21.7489930673253
31
0.000000000000000
  0
LINE
  5
F100AC
330
F100AD
100
AcDbEntity
8
Geo
100
AcDbLine
10
-66.7681699913270
20
21.7489930673253
30
0.000000000000000
11
-66.6681699913270
21
21.7567329002839
31
0.000000000000000
  0
LINE
  5
F100AE
330
F100AF
100
AcDbEntity
8
Geo
100
AcDbLine
10
-66.6681699913270
20
21.7567329002839
30
0.000000000000000
11
-66.5681699913270
21
21.7626026857671
31
0.000000000000000
  0
LINE
  5
F100B0
330
F100B1
100
AcDbEntity
8
Geo
100
AcDbLine
10
-66.5681699913270
20
21.7626026857671
30
0.000000000000000
11
-66.4681699913270
21
21.7666237063483
31
0.000000000000000
  0
LINE
  5
F100B2
330
F100B3
100
AcDbEntity
8
Geo
100
AcDbLine
10
-66.4681699913270
20
21.7666237063483
30
0.000000000000000
11
-66.3681699913270
21
21.7688165685317
31
0.000000000000000
  0
LINE
  5
F100B4
330
F100B5
100
AcDbEntity
8
Geo
100
AcDbLine
10
-66.3681699913270
20
21.7688165685317
30
0.000000000000000
11
-66.2681699913270
21
21.7692012502032
31
0.000000000000000
  0
LINE
  5
F100B6
330
F100B7
100
AcDbEntity
8
Geo
100
AcDbLine
10
-66.2681699913270
20
21.7692012502032
30
0.000000000000000
11
-66.1681699913270
21
21.7677971443445
31
0.000000000000000
  0
LINE
  5
F100B8
330
F100B9
100
AcDbEntity
8
Geo
100
AcDbLine
10
-66.1681699913270
20
21.7677971443445
30
0.000000000000000
11
-66.0681699913270
21
21.7646230993355
31
0.000000000000000
  0
LINE
  5
F100BA
330
F100BB
100
AcDbEntity
8
Geo
100
AcDbLine
10
-66.0681699913270
20
21.7646230993355
30
0.000000000000000
11
-65.9681699913270
21
21.7596974561347
31
0.000000000000000
  0
LINE
  5
F100BC
330
F100BD
100
AcDbEntity
8
Geo
100
AcDbLine
10
-65.9681699913270
20
21.7596974561347
30
0.000000000000000
11
-65.8681699913270
21
21.7530380825990
31
0.000000000000000
  0
LINE
  5
F100BE
330
F100BF
100
AcDbEntity
8
Geo
100
AcDbLine
10
-65.8681699913270
20
21.7530380825990
30
0.000000000000000
11
-65.7681699913270
21
21.7446624051751
31
0.000000000000000
  0
LINE
  5
F100C0
330
F100C1
100
AcDbEntity
8
Geo
100
AcDbLine
10
-65.7681699913270
20
21.7446624051751
30
0.000000000000000
11
-65.6681699913270
21
21.7345874381724
31
0.000000000000000
  0
LINE
  5
F100C2
330
F100C3
100
AcDbEntity
8
Geo
100
AcDbLine
10
-65.6681699913270
20
21.7345874381724
30
0.000000000000000
11
-65.5681699913270
21
21.7228298108043
31
0.000000000000000
  0
LINE
  5
F100C4
330
F100C5
100
AcDbEntity
8
Geo
100
AcDbLine
10
-65.5681699913270
20
21.7228298108043
30
0.000000000000000
11
-65.4681699913270
21
21.7094057921677
31
0.000000000000000
  0
LINE
  5
F100C6
330
F100C7
100
AcDbEntity
8
Geo
100
AcDbLine
10
-65.4681699913270
20
21.7094057921677
30
0.000000000000000
11
-65.3681699913270
21
21.6943313143106
31
0.000000000000000
  0
LINE
  5
F100C8
330
F100C9
100
AcDbEntity
8
Geo
100
AcDbLine
10
-65.3681699913270
20
21.6943313143106
30
0.000000000000000
11
-65.2681699913270
21
21.6776219935267
31
0.000000000000000
  0
LINE
  5
F100CA
330
F100CB
100
AcDbEntity
8
Geo
100
AcDbLine
10
-65.2681699913270
20
21.6776219935267
30
0.000000000000000
11
-65.1681699913270
21
21.6592931499968
31
0.000000000000000
  0
LINE
  5
F100CC
330
F100CD
100
AcDbEntity
8
Geo
100
AcDbLine
10
-65.1681699913270
20
21.6592931499968
30
0.000000000000000
11
-65.0681699913270
21
21.6393598258894
31
0.000000000000000
  0
LINE
  5
F100CE
330
F100CF
100
AcDbEntity
8
Geo
100
AcDbLine
10
-65.0681699913270
20
21.6393598258894
30
0.000000000000000
11
-64.9681699913270
21
21.6178368020178
31
0.000000000000000
  0
LINE
  5
F100D0
330
F100D1
100
AcDbEntity
8
Geo
100
AcDbLine
10
-64.9681699913270
20
21.6178368020178
30
0.000000000000000
11
-64.8681699913270
21
21.5947386131432
31
0.000000000000000
  0
LINE
  5
F100D2
330
F100D3
100
AcDbEntity
8
Geo
100
AcDbLine
10
-64.8681699913270
20
21.5947386131432
30
0.000000000000000
11
-64.7681699913270
21
21.5700795620030
31
0.000000000000000
  0
LINE
  5
F100D4
330
F100D5
100
AcDbEntity
8
Geo
100
AcDbLine
10
-64.7681699913270
20
21.5700795620030
30
0.000000000000000
11
-64.6681699913270
21
21.5438737321340
31
0.000000000000000
  0
LINE
  5
F100D6
330
F100D7
100
AcDbEntity
8
Geo
100
AcDbLine
10
-64.6681699913270
20
21.5438737321340
30
0.000000000000000
11
-64.5681699913270
21
21.5161349995555
31
0.000000000000000
  0
LINE
  5
F100D8
330
F100D9
100
AcDbEntity
8
Geo
100
AcDbLine
10
-64.5681699913270
20
21.5161349995555
30
0.000000000000000
11
-64.4681699913270
21
21.4868770433651
31
0.000000000000000
  0
LINE
  5
F100DA
330
F100DB
100
AcDbEntity
8
Geo
100
AcDbLine
10
-64.4681699913270
20
21.4868770433651
30
0.000000000000000
11
-64.3681699913270
21
21.4561133552980
31
0.000000000000000
  0
LINE
  5
F100DC
330
F100DD
100
AcDbEntity
8
Geo
100
AcDbLine
10
-64.3681699913270
20
21.4561133552980
30
0.000000000000000
11
-64.2681699913270
21
21.4244269627778
31
0.000000000000000
  0
LINE
  5
F100DE
330
F100DF
100
AcDbEntity
8
Geo
100
AcDbLine
10
-64.2681699913270
20
21.4244269627778
30
0.000000000000000
11
-64.1681699913270
21
21.3923930921704
31
0.000000000000000
  0
LINE
  5
F100E0
330
F100E1
100
AcDbEntity
8
Geo
100
AcDbLine
10
-64.1681699913270
20
21.3923930921704
30
0.000000000000000
11
-64.0681699913270
21
21.3600134118994
31
0.000000000000000
  0
LINE
  5
F100E2
330
F100E3
100
AcDbEntity
8
Geo
100
AcDbLine
10
-64.0681699913270
20
21.3600134118994
30
0.000000000000000
11
-63.9681699913270
21
21.3272896083992
31
0.000000000000000
  0
LINE
  5
F100E4
330
F100E5
100
AcDbEntity
8
Geo
100
AcDbLine
10
-63.9681699913270
20
21.3272896083992
30
0.000000000000000
11
-63.8681699913270
21
21.2942233860271
31
0.000000000000000
  0
LINE
  5
F100E6
330
F100E7
100
AcDbEntity
8
Geo
100
AcDbLine
10
-63.8681699913270
20
21.2942233860271
30
0.000000000000000
11
-63.7681699913270
21
21.2608164669748
31
0.000000000000000
  0
LINE
  5
F100E8
330
F100E9
100
AcDbEntity
8
Geo
100
AcDbLine
10
-63.7681699913270
20
21.2608164669748
30
0.000000000000000
11
-63.6681699913270
21
21.2270705911784
31
0.000000000000000
  0
LINE
  5
F100EA
330
F100EB
100
AcDbEntity
8
Geo
100
AcDbLine
10
-63.6681699913270
20
21.2270705911784
30
0.000000000000000
11
-63.5681699913270
21
21.1929875162279
31
0.000000000000000
  0
LINE
  5
F100EC
330
F100ED
100
AcDbEntity
8
Geo
100
AcDbLine
10
-63.5681699913270
20
21.1929875162279
30
0.000000000000000
11
-63.4681699913270
21
21.1585690172759
31
0.000000000000000
  0
LINE
  5
F100EE
330
F100EF
100
AcDbEntity
8
Geo
100
AcDbLine
10
-63.4681699913270
20
21.1585690172759
30
0.000000000000000
11
-63.3681699913270
21
21.1238168869446
31
0.000000000000000
  0
LINE
  5
F100F0
330
F100F1
100
AcDbEntity
8
Geo
100
AcDbLine
10
-63.3681699913270
20
21.1238168869446
30
0.000000000000000
11
-63.2681699913270
21
21.0887329352331
31
0.000000000000000
  0
LINE
  5
F100F2
330
F100F3
100
AcDbEntity
8
Geo
100
AcDbLine
10
-63.2681699913270
20
21.0887329352331
30
0.000000000000000
11
-63.1681699913270
21
21.0533189894225
31
0.000000000000000
  0
LINE
  5
F100F4
330
F100F5
100
AcDbEntity
8
Geo
100
AcDbLine
10
-63.1681699913270
20
21.0533189894225
30
0.000000000000000
11
-63.0681699913270
21
21.0175768939812
31
0.000000000000000
  0
LINE
  5
F100F6
330
F100F7
100
AcDbEntity
8
Geo
100
AcDbLine
10
-63.0681699913270
20
21.0175768939812
30
0.000000000000000
11
-62.9681699913270
21
20.9815085104686
31
0.000000000000000
  0
LINE
  5
F100F8
330
F100F9
100
AcDbEntity
8
Geo
100
AcDbLine
10
-62.9681699913270
20
20.9815085104686
30
0.000000000000000
11
-62.8681699913270
21
20.9451157174381
31
0.000000000000000
  0
LINE
  5
F100FA
330
F100FB
100
AcDbEntity
8
Geo
100
AcDbLine
10
-62.8681699913270
20
20.9451157174381
30
0.000000000000000
11
-62.7681699913270
21
20.9084004103395
31
0.000000000000000
  0
LINE
  5
F100FC
330
F100FD
100
AcDbEntity
8
Geo
100
AcDbLine
10
-62.7681699913270
20
20.9084004103395
30
0.000000000000000
11
-62.6681699913270
21
20.8713645014202
31
0.000000000000000
  0
LINE
  5
F100FE
330
F100FF
100
AcDbEntity
8
Geo
100
AcDbLine
10
-62.6681699913270
20
20.8713645014202
30
0.000000000000000
11
-62.5681699913270
21
20.8340099196252
31
0.000000000000000
  0
LINE
  5
F10100
330
F10101
100
AcDbEntity
8
Geo
100
AcDbLine
10
-62.5681699913270
20
20.8340099196252
30
0.000000000000000
11
-62.4681699913270
21
20.7963386104973
31
0.000000000000000
  0
LINE
  5
F10102
330
F10103
100
AcDbEntity
8
Geo
100
AcDbLine
10
-62.4681699913270
20
20.7963386104973
30
0.000000000000000
11
-62.3681699913270
21
20.7583525360753
31
0.000000000000000
  0
LINE
  5
F10104
330
F10105
100
AcDbEntity
8
Geo
100
AcDbLine
10
-62.3681699913270
20
20.7583525360753
30
0.000000000000000
11
-62.2681699913270
21
20.7200536747920
31
0.000000000000000
  0
LINE
  5
F10106
330
F10107
100
AcDbEntity
8
Geo
100
AcDbLine
10
-62.2681699913270
20
20.7200536747920
30
0.000000000000000
11
-62.1681699913270
21
20.6814440213712
31
0.000000000000000
  0
LINE
  5
F10108
330
F10109
100
AcDbEntity
8
Geo
100
AcDbLine
10
-62.1681699913270
20
20.6814440213712
30
0.000000000000000
11
-62.0681699913270
21
20.6425255867235
31
0.000000000000000
  0
LINE
  5
F1010A
330
F1010B
100
AcDbEntity
8
Geo
100
AcDbLine
10
-62.0681699913270
20
20.6425255867235
30
0.000000000000000
11
-61.9681699913270
21
20.6033003978419
31
0.000000000000000
  0
LINE
  5
F1010C
330
F1010D
100
AcDbEntity
8
Geo
100
AcDbLine
10
-61.9681699913270
20
20.6033003978419
30
0.000000000000000
11
-61.8681699913270
21
20.5637704976962
31
0.000000000000000
  0
LINE
  5
F1010E
330
F1010F
100
AcDbEntity
8
Geo
100
AcDbLine
10
-61.8681699913270
20
20.5637704976962
30
0.000000000000000
11
-61.7681699913270
21
20.5239379451264
31
0.000000000000000
  0
LINE
  5
F10110
330
F10111
100
AcDbEntity
8
Geo
100
AcDbLine
10
-61.7681699913270
20
20.5239379451264
30
0.000000000000000
11
-61.6681699913270
21
20.4838048147356
31
0.000000000000000
  0
LINE
  5
F10112
330
F10113
100
AcDbEntity
8
Geo
100
AcDbLine
10
-61.6681699913270
20
20.4838048147356
30
0.000000000000000
11
-61.5681699913270
21
20.4433731967819
31
0.000000000000000
  0
LINE
  5
F10114
330
F10115
100
AcDbEntity
8
Geo
100
AcDbLine
10
-61.5681699913270
20
20.4433731967819
30
0.000000000000000
11
-61.4681699913270
21
20.4026451970697
31
0.000000000000000
  0
LINE
  5
F10116
330
F10117
100
AcDbEntity
8
Geo
100
AcDbLine
10
-61.4681699913270
20
20.4026451970697
30
0.000000000000000
11
-61.3681699913270
21
20.3616229368396
31
0.000000000000000
  0
LINE
  5
F10118
330
F10119
100
AcDbEntity
8
Geo
100
AcDbLine
10
-61.3681699913270
20
20.3616229368396
30
0.000000000000000
11
-61.2681699913270
21
20.3203085526586
31
0.000000000000000
  0
LINE
  5
F1011A
330
F1011B
100
AcDbEntity
8
Geo
100
AcDbLine
10
-61.2681699913270
20
20.3203085526586
30
0.000000000000000
11
-61.1681699913270
21
20.2787041963081
31
0.000000000000000
  0
LINE
  5
F1011C
330
F1011D
100
AcDbEntity
8
Geo
100
AcDbLine
10
-61.1681699913270
20
20.2787041963081
30
0.000000000000000
11
-61.0681699913270
21
20.2368120346722
31
0.000000000000000
  0
LINE
  5
F1011E
330
F1011F
100
AcDbEntity
8
Geo
100
AcDbLine
10
-61.0681699913270
20
20.2368120346722
30
0.000000000000000
11
-60.9681699913270
21
20.1946342496249
31
0.000000000000000
  0
LINE
  5
F10120
330
F10121
100
AcDbEntity
8
Geo
100
AcDbLine
10
-60.9681699913270
20
20.1946342496249
30
0.000000000000000
11
-60.8681699913270
21
20.1521730379163
31
0.000000000000000
  0
LINE
  5
F10122
330
F10123
100
AcDbEntity
8
Geo
100
AcDbLine
10
-60.8681699913270
20
20.1521730379163
30
0.000000000000000
11
-60.7681699913270
21
20.1094306110582
31
0.000000000000000
  0
LINE
  5
F10124
330
F10125
100
AcDbEntity
8
Geo
100
AcDbLine
10
-60.7681699913270
20
20.1094306110582
30
0.000000000000000
11
-60.6681699913270
21
20.0664091952091
31
0.000000000000000
  0
LINE
  5
F10126
330
F10127
100
AcDbEntity
8
Geo
100
AcDbLine
10
-60.6681699913270
20
20.0664091952091
30
0.000000000000000
11
-60.5681699913270
21
20.0231110310580
31
0.000000000000000
  0
LINE
  5
F10128
330
F10129
100
AcDbEntity
8
Geo
100
AcDbLine
10
-60.5681699913270
20
20.0231110310580
30
0.000000000000000
11
-60.4681699913270
21
19.9795383737077
31
0.000000000000000
  0
LINE
  5
F1012A
330
F1012B
100
AcDbEntity
8
Geo
100
AcDbLine
10
-60.4681699913270
20
19.9795383737077
30
0.000000000000000
11
-60.3681699913270
21
19.9356934925578
31
0.000000000000000
  0
LINE
  5
F1012C
330
F1012D
100
AcDbEntity
8
Geo
100
AcDbLine
10
-60.3681699913270
20
19.9356934925578
30
0.000000000000000
11
-60.2681699913270
21
19.8915786711857
31
0.000000000000000
  0
LINE
  5
F1012E
330
F1012F
100
AcDbEntity
8
Geo
100
AcDbLine
10
-60.2681699913270
20
19.8915786711857
30
0.000000000000000
11
-60.1681699913270
21
19.8471962072286
31
0.000000000000000
  0
LINE
  5
F10130
330
F10131
100
AcDbEntity
8
Geo
100
AcDbLine
10
-60.1681699913270
20
19.8471962072286
30
0.000000000000000
11
-60.0681699913270
21
19.8025484122630
31
0.000000000000000
  0
LINE
  5
F10132
330
F10133
100
AcDbEntity
8
Geo
100
AcDbLine
10
-60.0681699913270
20
19.8025484122630
30
0.000000000000000
11
-59.9681699913270
21
19.7576376116849
31
0.000000000000000
  0
LINE
  5
F10134
330
F10135
100
AcDbEntity
8
Geo
100
AcDbLine
10
-59.9681699913270
20
19.7576376116849
30
0.000000000000000
11
-59.8681699913270
21
19.7124661445882
31
0.000000000000000
  0
LINE
  5
F10136
330
F10137
100
AcDbEntity
8
Geo
100
AcDbLine
10
-59.8681699913270
20
19.7124661445882
30
0.000000000000000
11
-59.7681699913270
21
19.6670363636433
31
0.000000000000000
  0
LINE
  5
F10138
330
F10139
100
AcDbEntity
8
Geo
100
AcDbLine
10
-59.7681699913270
20
19.6670363636433
30
0.000000000000000
11
-59.6681699913270
21
19.6213506349745
31
0.000000000000000
  0
LINE
  5
F1013A
330
F1013B
100
AcDbEntity
8
Geo
100
AcDbLine
10
-59.6681699913270
20
19.6213506349745
30
0.000000000000000
11
-59.5681699913270
21
19.5754113380363
31
0.000000000000000
  0
LINE
  5
F1013C
330
F1013D
100
AcDbEntity
8
Geo
100
AcDbLine
10
-59.5681699913270
20
19.5754113380363
30
0.000000000000000
11
-59.4681699913270
21
19.5292208654902
31
0.000000000000000
  0
LINE
  5
F1013E
330
F1013F
100
AcDbEntity
8
Geo
100
AcDbLine
10
-59.4681699913270
20
19.5292208654902
30
0.000000000000000
11
-59.3681699913270
21
19.4827816230795
31
0.000000000000000
  0
LINE
  5
F10140
330
F10141
100
AcDbEntity
8
Geo
100
AcDbLine
10
-59.3681699913270
20
19.4827816230795
30
0.000000000000000
11
-59.2681699913270
21
19.4360960295042
31
0.000000000000000
  0
LINE
  5
F10142
330
F10143
100
AcDbEntity
8
Geo
100
AcDbLine
10
-59.2681699913270
20
19.4360960295042
30
0.000000000000000
11
-59.1681699913270
21
19.3891665162950
31
0.000000000000000
  0
LINE
  5
F10144
330
F10145
100
AcDbEntity
8
Geo
100
AcDbLine
10
-59.1681699913270
20
19.3891665162950
30
0.000000000000000
11
-59.0681699913270
21
19.3419955276870
31
0.000000000000000
  0
LINE
  5
F10146
330
F10147
100
AcDbEntity
8
Geo
100
AcDbLine
10
-59.0681699913270
20
19.3419955276870
30
0.000000000000000
11
-58.9681699913270
21
19.2945855204916
31
0.000000000000000
  0
LINE
  5
F10148
330
F10149
100
AcDbEntity
8
Geo
100
AcDbLine
10
-58.9681699913270
20
19.2945855204916
30
0.000000000000000
11
-58.8681699913270
21
19.2469389639695
31
0.000000000000000
  0
LINE
  5
F1014A
330
F1014B
100
AcDbEntity
8
Geo
100
AcDbLine
10
-58.8681699913270
20
19.2469389639695
30
0.000000000000000
11
-58.7681699913270
21
19.1990583397013
31
0.000000000000000
  0
LINE
  5
F1014C
330
F1014D
100
AcDbEntity
8
Geo
100
AcDbLine
10
-58.7681699913270
20
19.1990583397013
30
0.000000000000000
11
-58.6681699913270
21
19.1509461414587
31
0.000000000000000
  0
LINE
  5
F1014E
330
F1014F
100
AcDbEntity
8
Geo
100
AcDbLine
10
-58.6681699913270
20
19.1509461414587
30
0.000000000000000
11
-58.5681699913270
21
19.1026048750746
31
0.000000000000000
  0
LINE
  5
F10150
330
F10151
100
AcDbEntity
8
Geo
100
AcDbLine
10
-58.5681699913270
20
19.1026048750746
30
0.000000000000000
11
-58.4681699913270
21
19.0540370583122
31
0.000000000000000
  0
LINE
  5
F10152
330
F10153
100
AcDbEntity
8
Geo
100
AcDbLine
10
-58.4681699913270
20
19.0540370583122
30
0.000000000000000
11
-58.3681699913270
21
19.0052452207343
31
0.000000000000000
  0
LINE
  5
F10154
330
F10155
100
AcDbEntity
8
Geo
100
AcDbLine
10
-58.3681699913270
20
19.0052452207343
30
0.000000000000000
11
-58.2681699913270
21
18.9562319035716
31
0.000000000000000
  0
LINE
  5
F10156
330
F10157
100
AcDbEntity
8
Geo
100
AcDbLine
10
-58.2681699913270
20
18.9562319035716
30
0.000000000000000
11
-58.1681699913270
21
18.9069996595898
31
0.000000000000000
  0
LINE
  5
F10158
330
F10159
100
AcDbEntity
8
Geo
100
AcDbLine
10
-58.1681699913270
20
18.9069996595898
30
0.000000000000000
11
-58.0681699913270
21
18.8575510529572
31
0.000000000000000
  0
LINE
  5
F1015A
330
F1015B
100
AcDbEntity
8
Geo
100
AcDbLine
10
-58.0681699913270
20
18.8575510529572
30
0.000000000000000
11
-57.9681699913270
21
18.8078886591109
31
0.000000000000000
  0
LINE
  5
F1015C
330
F1015D
100
AcDbEntity
8
Geo
100
AcDbLine
10
-57.9681699913270
20
18.8078886591109
30
0.000000000000000
11
-57.8681699913270
21
18.7580150646226
31
0.000000000000000
  0
LINE
  5
F1015E
330
F1015F
100
AcDbEntity
8
Geo
100
AcDbLine
10
-57.8681699913270
20
18.7580150646226
30
0.000000000000000
11
-57.7681699913270
21
18.7079328670642
31
0.000000000000000
  0
LINE
  5
F10160
330
F10161
100
AcDbEntity
8
Geo
100
AcDbLine
10
-57.7681699913270
20
18.7079328670642
30
0.000000000000000
11
-57.6681699913270
21
18.6576446748720
31
0.000000000000000
  0
LINE
  5
F10162
330
F10163
100
AcDbEntity
8
Geo
100
AcDbLine
10
-57.6681699913270
20
18.6576446748720
30
0.000000000000000
11
-57.5681699913270
21
18.6071531072115
31
0.000000000000000
  0
LINE
  5
F10164
330
F10165
100
AcDbEntity
8
Geo
100
AcDbLine
10
-57.5681699913270
20
18.6071531072115
30
0.000000000000000
11
-57.4681699913270
21
18.5564607938403
31
0.000000000000000
  0
LINE
  5
F10166
330
F10167
100
AcDbEntity
8
Geo
100
AcDbLine
10
-57.4681699913270
20
18.5564607938403
30
0.000000000000000
11
-57.3681699913270
21
18.5055703749716
31
0.000000000000000
  0
LINE
  5
F10168
330
F10169
100
AcDbEntity
8
Geo
100
AcDbLine
10
-57.3681699913270
20
18.5055703749716
30
0.000000000000000
11
-57.2681699913270
21
18.4544845011366
31
0.000000000000000
  0
LINE
  5
F1016A
330
F1016B
100
AcDbEntity
8
Geo
100
AcDbLine
10
-57.2681699913270
20
18.4544845011366
30
0.000000000000000
11
-57.1681699913270
21
18.4032058330464
31
0.000000000000000
  0
LINE
  5
F1016C
330
F1016D
100
AcDbEntity
8
Geo
100
AcDbLine
10
-57.1681699913270
20
18.4032058330464
30
0.000000000000000
11
-57.0681699913270
21
18.3517370414533
31
0.000000000000000
  0
LINE
  5
F1016E
330
F1016F
100
AcDbEntity
8
Geo
100
AcDbLine
10
-57.0681699913270
20
18.3517370414533
30
0.000000000000000
11
-56.9681699913270
21
18.3000808070118
31
0.000000000000000
  0
LINE
  5
F10170
330
F10171
100
AcDbEntity
8
Geo
100
AcDbLine
10
-56.9681699913270
20
18.3000808070118
30
0.000000000000000
11
-56.8681699913271
21
18.2482398201393
31
0.000000000000000
  0
LINE
  5
F10172
330
F10173
100
AcDbEntity
8
Geo
100
AcDbLine
10
-56.8681699913271
20
18.2482398201393
30
0.000000000000000
11
-56.7681699913270
21
18.1962167808753
31
0.000000000000000
  0
LINE
  5
F10174
330
F10175
100
AcDbEntity
8
Geo
100
AcDbLine
10
-56.7681699913270
20
18.1962167808753
30
0.000000000000000
11
-56.6681699913270
21
18.1440143987414
31
0.000000000000000
  0
LINE
  5
F10176
330
F10177
100
AcDbEntity
8
Geo
100
AcDbLine
10
-56.6681699913270
20
18.1440143987414
30
0.000000000000000
11
-56.5681699913270
21
18.0916353925999
31
0.000000000000000
  0
LINE
  5
F10178
330
F10179
100
AcDbEntity
8
Geo
100
AcDbLine
10
-56.5681699913270
20
18.0916353925999
30
0.000000000000000
11
-56.4681699913270
21
18.0390824905122
31
0.000000000000000
  0
LINE
  5
F1017A
330
F1017B
100
AcDbEntity
8
Geo
100
AcDbLine
10
-56.4681699913270
20
18.0390824905122
30
0.000000000000000
11
-56.3681699913271
21
17.9863584295967
31
0.000000000000000
  0
LINE
  5
F1017C
330
F1017D
100
AcDbEntity
8
Geo
100
AcDbLine
10
-56.3681699913271
20
17.9863584295967
30
0.000000000000000
11
-56.2681699913270
21
17.9334659558864
31
0.000000000000000
  0
LINE
  5
F1017E
330
F1017F
100
AcDbEntity
8
Geo
100
AcDbLine
10
-56.2681699913270
20
17.9334659558864
30
0.000000000000000
11
-56.1681699913270
21
17.8804078241855
31
0.000000000000000
  0
LINE
  5
F10180
330
F10181
100
AcDbEntity
8
Geo
100
AcDbLine
10
-56.1681699913270
20
17.8804078241855
30
0.000000000000000
11
-56.0681699913270
21
17.8271867979266
31
0.000000000000000
  0
LINE
  5
F10182
330
F10183
100
AcDbEntity
8
Geo
100
AcDbLine
10
-56.0681699913270
20
17.8271867979266
30
0.000000000000000
11
-55.9681699913270
21
17.7738056490259
31
0.000000000000000
  0
LINE
  5
F10184
330
F10185
100
AcDbEntity
8
Geo
100
AcDbLine
10
-55.9681699913270
20
17.7738056490259
30
0.000000000000000
11
-55.8681699913270
21
17.7202671577397
31
0.000000000000000
  0
LINE
  5
F10186
330
F10187
100
AcDbEntity
8
Geo
100
AcDbLine
10
-55.8681699913270
20
17.7202671577397
30
0.000000000000000
11
-55.7681699913270
21
17.6665741125188
31
0.000000000000000
  0
LINE
  5
F10188
330
F10189
100
AcDbEntity
8
Geo
100
AcDbLine
10
-55.7681699913270
20
17.6665741125188
30
0.000000000000000
11
-55.6681699913270
21
17.6127293098640
31
0.000000000000000
  0
LINE
  5
F1018A
330
F1018B
100
AcDbEntity
8
Geo
100
AcDbLine
10
-55.6681699913270
20
17.6127293098640
30
0.000000000000000
11
-55.5681699913270
21
17.5587355541798
31
0.000000000000000
  0
LINE
  5
F1018C
330
F1018D
100
AcDbEntity
8
Geo
100
AcDbLine
10
-55.5681699913270
20
17.5587355541798
30
0.000000000000000
11
-55.4681699913270
21
17.5045956576289
31
0.000000000000000
  0
LINE
  5
F1018E
330
F1018F
100
AcDbEntity
8
Geo
100
AcDbLine
10
-55.4681699913270
20
17.5045956576289
30
0.000000000000000
11
-55.3681699913270
21
17.4503124399852
31
0.000000000000000
  0
LINE
  5
F10190
330
F10191
100
AcDbEntity
8
Geo
100
AcDbLine
10
-55.3681699913270
20
17.4503124399852
30
0.000000000000000
11
-55.2681699913270
21
17.3958887284874
31
0.000000000000000
  0
LINE
  5
F10192
330
F10193
100
AcDbEntity
8
Geo
100
AcDbLine
10
-55.2681699913270
20
17.3958887284874
30
0.000000000000000
11
-55.1681699913270
21
17.3413273576916
31
0.000000000000000
  0
LINE
  5
F10194
330
F10195
100
AcDbEntity
8
Geo
100
AcDbLine
10
-55.1681699913270
20
17.3413273576916
30
0.000000000000000
11
-55.0681699913270
21
17.2866311693234
31
0.000000000000000
  0
LINE
  5
F10196
330
F10197
100
AcDbEntity
8
Geo
100
AcDbLine
10
-55.0681699913270
20
17.2866311693234
30
0.000000000000000
11
-54.9681699913270
21
17.2318030121303
31
0.000000000000000
  0
LINE
  5
F10198
330
F10199
100
AcDbEntity
8
Geo
100
AcDbLine
10
-54.9681699913270
20
17.2318030121303
30
0.000000000000000
11
-54.8681699913270
21
17.1768457417331
31
0.000000000000000
  0
LINE
  5
F1019A
330
F1019B
100
AcDbEntity
8
Geo
100
AcDbLine
10
-54.8681699913270
20
17.1768457417331
30
0.000000000000000
11
-54.7681699913270
21
17.1217622204772
31
0.000000000000000
  0
LINE
  5
F1019C
330
F1019D
100
AcDbEntity
8
Geo
100
AcDbLine
10
-54.7681699913270
20
17.1217622204772
30
0.000000000000000
11
-54.6681699913270
21
17.0665553172836
31
0.000000000000000
  0
LINE
  5
F1019E
330
F1019F
100
AcDbEntity
8
Geo
100
AcDbLine
10
-54.6681699913270
20
17.0665553172836
30
0.000000000000000
11
-54.5681699913270
21
17.0112279074992
31
0.000000000000000
  0
LINE
  5
F101A0
330
F101A1
100
AcDbEntity
8
Geo
100
AcDbLine
10
-54.5681699913270
20
17.0112279074992
30
0.000000000000000
11
-54.4681699913270
21
16.9557828727476
31
0.000000000000000
  0
LINE
  5
F101A2
330
F101A3
100
AcDbEntity
8
Geo
100
AcDbLine
10
-54.4681699913270
20
16.9557828727476
30
0.000000000000000
11
-54.3681699913270
21
16.9002231007784
31
0.000000000000000
  0
LINE
  5
F101A4
330
F101A5
100
AcDbEntity
8
Geo
100
AcDbLine
10
-54.3681699913270
20
16.9002231007784
30
0.000000000000000
11
-54.2681699913270
21
16.8445514853172
31
0.000000000000000
  0
LINE
  5
F101A6
330
F101A7
100
AcDbEntity
8
Geo
100
AcDbLine
10
-54.2681699913270
20
16.8445514853172
30
0.000000000000000
11
-54.1681699913270
21
16.7887709259146
31
0.000000000000000
  0
LINE
  5
F101A8
330
F101A9
100
AcDbEntity
8
Geo
100
AcDbLine
10
-54.1681699913270
20
16.7887709259146
30
0.000000000000000
11
-54.0681699913270
21
16.7328843277957
31
0.000000000000000
  0
LINE
  5
F101AA
330
F101AB
100
AcDbEntity
8
Geo
100
AcDbLine
10
-54.0681699913270
20
16.7328843277957
30
0.000000000000000
11
-53.9681699913270
21
16.6768946017080
31
0.000000000000000
  0
LINE
  5
F101AC
330
F101AD
100
AcDbEntity
8
Geo
100
AcDbLine
10
-53.9681699913270
20
16.6768946017080
30
0.000000000000000
11
-53.8681699913270
21
16.6208046637704
31
0.000000000000000
  0
LINE
  5
F101AE
330
F101AF
100
AcDbEntity
8
Geo
100
AcDbLine
10
-53.8681699913270
20
16.6208046637704
30
0.000000000000000
11
-53.7681699913270
21
16.5646174353213
31
0.000000000000000
  0
LINE
  5
F101B0
330
F101B1
100
AcDbEntity
8
Geo
100
AcDbLine
10
-53.7681699913270
20
16.5646174353213
30
0.000000000000000
11
-53.6681699913270
21
16.5083358427660
31
0.000000000000000
  0
LINE
  5
F101B2
330
F101B3
100
AcDbEntity
8
Geo
100
AcDbLine
10
-53.6681699913270
20
16.5083358427660
30
0.000000000000000
11
-53.5681699913270
21
16.4519628174248
31
0.000000000000000
  0
LINE
  5
F101B4
330
F101B5
100
AcDbEntity
8
Geo
100
AcDbLine
10
-53.5681699913270
20
16.4519628174248
30
0.000000000000000
11
-53.4681699913270
21
16.3955012953800
31
0.000000000000000
  0
LINE
  5
F101B6
330
F101B7
100
AcDbEntity
8
Geo
100
AcDbLine
10
-53.4681699913270
20
16.3955012953800
30
0.000000000000000
11
-53.3681699913270
21
16.3389542173232
31
0.000000000000000
  0
LINE
  5
F101B8
330
F101B9
100
AcDbEntity
8
Geo
100
AcDbLine
10
-53.3681699913270
20
16.3389542173232
30
0.000000000000000
11
-53.2681699913270
21
16.2823245284017
31
0.000000000000000
  0
LINE
  5
F101BA
330
F101BB
100
AcDbEntity
8
Geo
100
AcDbLine
10
-53.2681699913270
20
16.2823245284017
30
0.000000000000000
11
-53.1681699913270
21
16.2256151780659
31
0.000000000000000
  0
LINE
  5
F101BC
330
F101BD
100
AcDbEntity
8
Geo
100
AcDbLine
10
-53.1681699913270
20
16.2256151780659
30
0.000000000000000
11
-53.0681699913270
21
16.1688291199149
31
0.000000000000000
  0
LINE
  5
F101BE
330
F101BF
100
AcDbEntity
8
Geo
100
AcDbLine
10
-53.0681699913270
20
16.1688291199149
30
0.000000000000000
11
-52.9681699913270
21
16.1119693115431
31
0.000000000000000
  0
LINE
  5
F101C0
330
F101C1
100
AcDbEntity
8
Geo
100
AcDbLine
10
-52.9681699913270
20
16.1119693115431
30
0.000000000000000
11
-52.8681699913270
21
16.0550387143859
31
0.000000000000000
  0
LINE
  5
F101C2
330
F101C3
100
AcDbEntity
8
Geo
100
AcDbLine
10
-52.8681699913270
20
16.0550387143859
30
0.000000000000000
11
-52.7681699913270
21
15.9980402935657
31
0.000000000000000
  0
LINE
  5
F101C4
330
F101C5
100
AcDbEntity
8
Geo
100
AcDbLine
10
-52.7681699913270
20
15.9980402935657
30
0.000000000000000
11
-52.6681699913270
21
15.9409770177375
31
0.000000000000000
  0
LINE
  5
F101C6
330
F101C7
100
AcDbEntity
8
Geo
100
AcDbLine
10
-52.6681699913270
20
15.9409770177375
30
0.000000000000000
11
-52.5681699913270
21
15.8838518589339
31
0.000000000000000
  0
LINE
  5
F101C8
330
F101C9
100
AcDbEntity
8
Geo
100
AcDbLine
10
-52.5681699913270
20
15.8838518589339
30
0.000000000000000
11
-52.4681699913270
21
15.8266677924107
31
0.000000000000000
  0
LINE
  5
F101CA
330
F101CB
100
AcDbEntity
8
Geo
100
AcDbLine
10
-52.4681699913270
20
15.8266677924107
30
0.000000000000000
11
-52.3681699913270
21
15.7694277964917
31
0.000000000000000
  0
LINE
  5
F101CC
330
F101CD
100
AcDbEntity
8
Geo
100
AcDbLine
10
-52.3681699913270
20
15.7694277964917
30
0.000000000000000
11
-52.2681699913270
21
15.7121348524139
31
0.000000000000000
  0
LINE
  5
F101CE
330
F101CF
100
AcDbEntity
8
Geo
100
AcDbLine
10
-52.2681699913270
20
15.7121348524139
30
0.000000000000000
11
-52.1681699913270
21
15.6547919441718
31
0.000000000000000
  0
LINE
  5
F101D0
330
F101D1
100
AcDbEntity
8
Geo
100
AcDbLine
10
-52.1681699913270
20
15.6547919441718
30
0.000000000000000
11
-52.0681699913270
21
15.5974020583622
31
0.000000000000000
  0
LINE
  5
F101D2
330
F101D3
100
AcDbEntity
8
Geo
100
AcDbLine
10
-52.0681699913270
20
15.5974020583622
30
0.000000000000000
11
-51.9681699913270
21
15.5399681840287
31
0.000000000000000
  0
LINE
  5
F101D4
330
F101D5
100
AcDbEntity
8
Geo
100
AcDbLine
10
-51.9681699913270
20
15.5399681840287
30
0.000000000000000
11
-51.8681699913270
21
15.4824933125059
31
0.000000000000000
  0
LINE
  5
F101D6
330
F101D7
100
AcDbEntity
8
Geo
100
AcDbLine
10
-51.8681699913270
20
15.4824933125059
30
0.000000000000000
11
-51.7681699913270
21
15.4249804372638
31
0.000000000000000
  0
LINE
  5
F101D8
330
F101D9
100
AcDbEntity
8
Geo
100
AcDbLine
10
-51.7681699913270
20
15.4249804372638
30
0.000000000000000
11
-51.6681699913270
21
15.3674325537515
31
0.000000000000000
  0
LINE
  5
F101DA
330
F101DB
100
AcDbEntity
8
Geo
100
AcDbLine
10
-51.6681699913270
20
15.3674325537515
30
0.000000000000000
11
-51.5681699913270
21
15.3098526592418
31
0.000000000000000
  0
LINE
  5
F101DC
330
F101DD
100
AcDbEntity
8
Geo
100
AcDbLine
10
-51.5681699913270
20
15.3098526592418
30
0.000000000000000
11
-51.4681699913270
21
15.2522437526743
31
0.000000000000000
  0
LINE
  5
F101DE
330
F101DF
100
AcDbEntity
8
Geo
100
AcDbLine
10
-71.2681699913270
20
15.8955223922123
30
0.000000000000000
11
-71.2681699913270
21
15.0165595777076
31
0.000000000000000
  0
LINE
  5
F101E0
330
F101E1
100
AcDbEntity
8
Geo
100
AcDbLine
10
-71.2681699913270
20
15.0165595777076
30
0.000000000000000
11
-71.1681699913270
21
14.6483924056307
31
0.000000000000000
  0
LINE
  5
F101E2
330
F101E3
100
AcDbEntity
8
Geo
100
AcDbLine
10
-71.1681699913270
20
14.6483924056307
30
0.000000000000000
11
-71.0681699913270
21
14.4266868250590
31
0.000000000000000
  0
LINE
  5
F101E4
330
F101E5
100
AcDbEntity
8
Geo
100
AcDbLine
10
-71.0681699913270
20
14.4266868250590
30
0.000000000000000
11
-70.9681699913270
21
14.2577578796801
31
0.000000000000000
  0
LINE
  5
F101E6
330
F101E7
100
AcDbEntity
8
Geo
100
AcDbLine
10
-70.9681699913270
20
14.2577578796801
30
0.000000000000000
11
-70.8681699913270
21
14.1197590774245
31
0.000000000000000
  0
LINE
  5
F101E8
330
F101E9
100
AcDbEntity
8
Geo
100
AcDbLine
10
-70.8681699913270
20
14.1197590774245
30
0.000000000000000
11
-70.7681699913270
21
14.0030187487447
31
0.000000000000000
  0
LINE
  5
F101EA
330
F101EB
100
AcDbEntity
8
Geo
100
AcDbLine
10
-70.7681699913270
20
14.0030187487447
30
0.000000000000000
11
-70.6681699913270
21
13.9017524672687
31
0.000000000000000
  0
LINE
  5
F101EC
330
F101ED
100
AcDbEntity
8
Geo
100
AcDbLine
10
-70.6681699913270
20
13.9017524672687
30
0.000000000000000
11
-70.5681699913270
21
13.8131958981876
31
0.000000000000000
  0
LINE
  5
F101EE
330
F101EF
100
AcDbEntity
8
Geo
100
AcDbLine
10
-70.5681699913270
20
13.8131958981876
30
0.000000000000000
11
-70.4681699913270
21
13.7346904814401
31
0.000000000000000
  0
LINE
  5
F101F0
330
F101F1
100
AcDbEntity
8
Geo
100
AcDbLine
10
-70.4681699913270
20
13.7346904814401
30
0.000000000000000
11
-70.3681699913270
21
13.6648056498066
31
0.000000000000000
  0
LINE
  5
F101F2
330
F101F3
100
AcDbEntity
8
Geo
100
AcDbLine
10
-70.3681699913270
20
13.6648056498066
30
0.000000000000000
11
-70.2681699913270
21
13.6024282507554
31
0.000000000000000
  0
LINE
  5
F101F4
330
F101F5
100
AcDbEntity
8
Geo
100
AcDbLine
10
-70.2681699913270
20
13.6024282507554
30
0.000000000000000
11
-70.1681699913270
21
13.5466770750449
31
0.000000000000000
  0
LINE
  5
F101F6
330
F101F7
100
AcDbEntity
8
Geo
100
AcDbLine
10
-70.1681699913270
20
13.5466770750449
30
0.000000000000000
11
-70.0681699913270
21
13.4968453554181
31
0.000000000000000
  0
LINE
  5
F101F8
330
F101F9
100
AcDbEntity
8
Geo
100
AcDbLine
10
-70.0681699913270
20
13.4968453554181
30
0.000000000000000
11
-69.9681699913270
21
13.4519349586693
31
0.000000000000000
  0
LINE
  5
F101FA
330
F101FB
100
AcDbEntity
8
Geo
100
AcDbLine
10
-69.9681699913270
20
13.4519349586693
30
0.000000000000000
11
-69.8681699913270
21
13.4078168792575
31
0.000000000000000
  0
LINE
  5
F101FC
330
F101FD
100
AcDbEntity
8
Geo
100
AcDbLine
10
-69.8681699913270
20
13.4078168792575
30
0.000000000000000
11
-69.7681699913270
21
13.3625154556579
31
0.000000000000000
  0
LINE
  5
F101FE
330
F101FF
100
AcDbEntity
8
Geo
100
AcDbLine
10
-69.7681699913270
20
13.3625154556579
30
0.000000000000000
11
-69.6681699913270
21
13.3160977161935
31
0.000000000000000
  0
LINE
  5
F10200
330
F10201
100
AcDbEntity
8
Geo
100
AcDbLine
10
-69.6681699913270
20
13.3160977161935
30
0.000000000000000
11
-69.5681699913270
21
13.2686270224424
31
0.000000000000000
  0
LINE
  5
F10202
330
F10203
100
AcDbEntity
8
Geo
100
AcDbLine
10
-69.5681699913270
20
13.2686270224424
30
0.000000000000000
11
-69.4681699913270
21
13.2201634821960
31
0.000000000000000
  0
LINE
  5
F10204
330
F10205
100
AcDbEntity
8
Geo
100
AcDbLine
10
-69.4681699913270
20
13.2201634821960
30
0.000000000000000
11
-69.3681699913270
21
13.1707643025663
31
0.000000000000000
  0
LINE
  5
F10206
330
F10207
100
AcDbEntity
8
Geo
100
AcDbLine
10
-69.3681699913270
20
13.1707643025663
30
0.000000000000000
11
-69.2681699913270
21
13.1204840937864
31
0.000000000000000
  0
LINE
  5
F10208
330
F10209
100
AcDbEntity
8
Geo
100
AcDbLine
10
-69.2681699913270
20
13.1204840937864
30
0.000000000000000
11
-69.1681699913270
21
13.0693751320864
31
0.000000000000000
  0
LINE
  5
F1020A
330
F1020B
100
AcDbEntity
8
Geo
100
AcDbLine
10
-69.1681699913270
20
13.0693751320864
30
0.000000000000000
11
-69.0681699913270
21
13.0174875883767
31
0.000000000000000
  0
LINE
  5
F1020C
330
F1020D
100
AcDbEntity
8
Geo
100
AcDbLine
10
-69.0681699913270
20
13.0174875883767
30
0.000000000000000
11
-68.9681699913270
21
12.9648697281774
31
0.000000000000000
  0
LINE
  5
F1020E
330
F1020F
100
AcDbEntity
8
Geo
100
AcDbLine
10
-68.9681699913270
20
12.9648697281774
30
0.000000000000000
11
-68.8681699913270
21
12.9115680872277
31
0.000000000000000
  0
LINE
  5
F10210
330
F10211
100
AcDbEntity
8
Geo
100
AcDbLine
10
-68.8681699913270
20
12.9115680872277
30
0.000000000000000
11
-68.7681699913270
21
12.8576276264137
31
0.000000000000000
  0
LINE
  5
F10212
330
F10213
100
AcDbEntity
8
Geo
100
AcDbLine
10
-68.7681699913270
20
12.8576276264137
30
0.000000000000000
11
-68.6681699913270
21
12.8030918690141
31
0.000000000000000
  0
LINE
  5
F10214
330
F10215
100
AcDbEntity
8
Geo
100
AcDbLine
10
-68.6681699913270
20
12.8030918690141
30
0.000000000000000
11
-68.5681699913270
21
12.7480030227621
31
0.000000000000000
  0
LINE
  5
F10216
330
F10217
100
AcDbEntity
8
Geo
100
AcDbLine
10
-68.5681699913270
20
12.7480030227621
30
0.000000000000000
11
-68.4681699913270
21
12.6924020888044
31
0.000000000000000
  0
LINE
  5
F10218
330
F10219
100
AcDbEntity
8
Geo
100
AcDbLine
10
-68.4681699913270
20
12.6924020888044
30
0.000000000000000
11
-68.3681699913270
21
12.6363289593105
31
0.000000000000000
  0
LINE
  5
F1021A
330
F1021B
100
AcDbEntity
8
Geo
100
AcDbLine
10
-68.3681699913270
20
12.6363289593105
30
0.000000000000000
11
-68.2681699913270
21
12.5798225052093
31
0.000000000000000
  0
LINE
  5
F1021C
330
F1021D
100
AcDbEntity
8
Geo
100
AcDbLine
10
-68.2681699913270
20
12.5798225052093
30
0.000000000000000
11
-68.1681699913270
21
12.5229206553065
31
0.000000000000000
  0
LINE
  5
F1021E
330
F1021F
100
AcDbEntity
8
Geo
100
AcDbLine
10
-68.1681699913270
20
12.5229206553065
30
0.000000000000000
11
-68.0681699913270
21
12.4656604678544
31
0.000000000000000
  0
LINE
  5
F10220
330
F10221
100
AcDbEntity
8
Geo
100
AcDbLine
10
-68.0681699913270
20
12.4656604678544
30
0.000000000000000
11
-67.9681699913270
21
12.4080781954862
31
0.000000000000000
  0
LINE
  5
F10222
330
F10223
100
AcDbEntity
8
Geo
100
AcDbLine
10
-67.9681699913270
20
12.4080781954862
30
0.000000000000000
11
-67.8681699913270
21
12.3502093443042
31
0.000000000000000
  0
LINE
  5
F10224
330
F10225
100
AcDbEntity
8
Geo
100
AcDbLine
10
-67.8681699913270
20
12.3502093443042
30
0.000000000000000
11
-67.7681699913270
21
12.2920887277998
31
0.000000000000000
  0
LINE
  5
F10226
330
F10227
100
AcDbEntity
8
Geo
100
AcDbLine
10
-67.7681699913270
20
12.2920887277998
30
0.000000000000000
11
-67.6681699913270
21
12.2337505161940
31
0.000000000000000
  0
LINE
  5
F10228
330
F10229
100
AcDbEntity
8
Geo
100
AcDbLine
10
-67.6681699913270
20
12.2337505161940
30
0.000000000000000
11
-67.5681699913270
21
12.1752282817111
31
0.000000000000000
  0
LINE
  5
F1022A
330
F1022B
100
AcDbEntity
8
Geo
100
AcDbLine
10
-67.5681699913270
20
12.1752282817111
30
0.000000000000000
11
-67.4681699913270
21
12.1165550402323
31
0.000000000000000
  0
LINE
  5
F1022C
330
F1022D
100
AcDbEntity
8
Geo
100
AcDbLine
10
-67.4681699913270
20
12.1165550402323
30
0.000000000000000
11
-67.3681699913270
21
12.0577632897199
31
0.000000000000000
  0
LINE
  5
F1022E
330
F1022F
100
AcDbEntity
8
Geo
100
AcDbLine
10
-67.3681699913270
20
12.0577632897199
30
0.000000000000000
11
-67.2681699913270
21
11.9988850457579
31
0.000000000000000
  0
LINE
  5
F10230
330
F10231
100
AcDbEntity
8
Geo
100
AcDbLine
10
-67.2681699913270
20
11.9988850457579
30
0.000000000000000
11
-67.1681699913270
21
11.9399518745110
31
0.000000000000000
  0
LINE
  5
F10232
330
F10233
100
AcDbEntity
8
Geo
100
AcDbLine
10
-67.1681699913270
20
11.9399518745110
30
0.000000000000000
11
-67.0681699913270
21
11.8809949233724
31
0.000000000000000
  0
LINE
  5
F10234
330
F10235
100
AcDbEntity
8
Geo
100
AcDbLine
10
-67.0681699913270
20
11.8809949233724
30
0.000000000000000
11
-66.9681699913270
21
11.8220449495371
31
0.000000000000000
  0
LINE
  5
F10236
330
F10237
100
AcDbEntity
8
Geo
100
AcDbLine
10
-66.9681699913270
20
11.8220449495371
30
0.000000000000000
11
-66.8681699913270
21
11.7631323467149
31
0.000000000000000
  0
LINE
  5
F10238
330
F10239
100
AcDbEntity
8
Geo
100
AcDbLine
10
-66.8681699913270
20
11.7631323467149
30
0.000000000000000
11
-66.7681699913270
21
11.7042871701726
31
0.000000000000000
  0
LINE
  5
F1023A
330
F1023B
100
AcDbEntity
8
Geo
100
AcDbLine
10
-66.7681699913270
20
11.7042871701726
30
0.000000000000000
11
-66.6681699913270
21
11.6455391602754
31
0.000000000000000
  0
LINE
  5
F1023C
330
F1023D
100
AcDbEntity
8
Geo
100
AcDbLine
10
-66.6681699913270
20
11.6455391602754
30
0.000000000000000
11
-66.5681699913270
21
11.5869177646810
31
0.000000000000000
  0
LINE
  5
F1023E
330
F1023F
100
AcDbEntity
8
Geo
100
AcDbLine
10
-66.5681699913270
20
11.5869177646810
30
0.000000000000000
11
-66.4681699913270
21
11.5284521593257
31
0.000000000000000
  0
LINE
  5
F10240
330
F10241
100
AcDbEntity
8
Geo
100
AcDbLine
10
-66.4681699913270
20
11.5284521593257
30
0.000000000000000
11
-66.3681699913270
21
11.4701712683268
31
0.000000000000000
  0
LINE
  5
F10242
330
F10243
100
AcDbEntity
8
Geo
100
AcDbLine
10
-66.3681699913270
20
11.4701712683268
30
0.000000000000000
11
-66.2681699913270
21
11.4121037829164
31
0.000000000000000
  0
LINE
  5
F10244
330
F10245
100
AcDbEntity
8
Geo
100
AcDbLine
10
-66.2681699913270
20
11.4121037829164
30
0.000000000000000
11
-66.1681699913270
21
11.3542781795110
31
0.000000000000000
  0
LINE
  5
F10246
330
F10247
100
AcDbEntity
8
Geo
100
AcDbLine
10
-66.1681699913270
20
11.3542781795110
30
0.000000000000000
11
-66.0681699913270
21
11.2967227370116
31
0.000000000000000
  0
LINE
  5
F10248
330
F10249
100
AcDbEntity
8
Geo
100
AcDbLine
10
-66.0681699913270
20
11.2967227370116
30
0.000000000000000
11
-65.9681699913270
21
11.2394655534237
31
0.000000000000000
  0
LINE
  5
F1024A
330
F1024B
100
AcDbEntity
8
Geo
100
AcDbLine
10
-65.9681699913270
20
11.2394655534237
30
0.000000000000000
11
-65.8681699913270
21
11.1825345618781
31
0.000000000000000
  0
LINE
  5
F1024C
330
F1024D
100
AcDbEntity
8
Geo
100
AcDbLine
10
-65.8681699913270
20
11.1825345618781
30
0.000000000000000
11
-65.7681699913270
21
11.1259575461288
31
0.000000000000000
  0
LINE
  5
F1024E
330
F1024F
100
AcDbEntity
8
Geo
100
AcDbLine
10
-65.7681699913270
20
11.1259575461288
30
0.000000000000000
11
-65.6681699913270
21
11.0697621555978
31
0.000000000000000
  0
LINE
  5
F10250
330
F10251
100
AcDbEntity
8
Geo
100
AcDbLine
10
-65.6681699913270
20
11.0697621555978
30
0.000000000000000
11
-65.5681699913270
21
11.0139759200357
31
0.000000000000000
  0
LINE
  5
F10252
330
F10253
100
AcDbEntity
8
Geo
100
AcDbLine
10
-65.5681699913270
20
11.0139759200357
30
0.000000000000000
11
-65.4681699913270
21
10.9586262638586
31
0.000000000000000
  0
LINE
  5
F10254
330
F10255
100
AcDbEntity
8
Geo
100
AcDbLine
10
-65.4681699913270
20
10.9586262638586
30
0.000000000000000
11
-65.3681699913270
21
10.9037405202234
31
0.000000000000000
  0
LINE
  5
F10256
330
F10257
100
AcDbEntity
8
Geo
100
AcDbLine
10
-65.3681699913270
20
10.9037405202234
30
0.000000000000000
11
-65.2681699913270
21
10.8493459448972
31
0.000000000000000
  0
LINE
  5
F10258
330
F10259
100
AcDbEntity
8
Geo
100
AcDbLine
10
-65.2681699913270
20
10.8493459448972
30
0.000000000000000
11
-65.1681699913270
21
10.7954697299776
31
0.000000000000000
  0
LINE
  5
F1025A
330
F1025B
100
AcDbEntity
8
Geo
100
AcDbLine
10
-65.1681699913270
20
10.7954697299776
30
0.000000000000000
11
-65.0681699913270
21
10.7421390175164
31
0.000000000000000
  0
LINE
  5
F1025C
330
F1025D
100
AcDbEntity
8
Geo
100
AcDbLine
10
-65.0681699913270
20
10.7421390175164
30
0.000000000000000
11
-64.9681699913270
21
10.6893809130998
31
0.000000000000000
  0
LINE
  5
F1025E
330
F1025F
100
AcDbEntity
8
Geo
100
AcDbLine
10
-64.9681699913270
20
10.6893809130998
30
0.000000000000000
11
-64.8681699913270
21
10.6372224994361
31
0.000000000000000
  0
LINE
  5
F10260
330
F10261
100
AcDbEntity
8
Geo
100
AcDbLine
10
-64.8681699913270
20
10.6372224994361
30
0.000000000000000
11
-64.7681699913270
21
10.5856908500026
31
0.000000000000000
  0
LINE
  5
F10262
330
F10263
100
AcDbEntity
8
Geo
100
AcDbLine
10
-64.7681699913270
20
10.5856908500026
30
0.000000000000000
11
-64.6681699913270
21
10.5348130428028
31
0.000000000000000
  0
LINE
  5
F10264
330
F10265
100
AcDbEntity
8
Geo
100
AcDbLine
10
-64.6681699913270
20
10.5348130428028
30
0.000000000000000
11
-64.5681699913270
21
10.4846161742840
31
0.000000000000000
  0
LINE
  5
F10266
330
F10267
100
AcDbEntity
8
Geo
100
AcDbLine
10
-64.5681699913270
20
10.4846161742840
30
0.000000000000000
11
-64.4681699913270
21
10.4351273734688
31
0.000000000000000
  0
LINE
  5
F10268
330
F10269
100
AcDbEntity
8
Geo
100
AcDbLine
10
-64.4681699913270
20
10.4351273734688
30
0.000000000000000
11
-64.3681699913270
21
10.3863738163521
31
0.000000000000000
  0
LINE
  5
F1026A
330
F1026B
100
AcDbEntity
8
Geo
100
AcDbLine
10
-64.3681699913270
20
10.3863738163521
30
0.000000000000000
11
-64.2681699913270
21
10.3381110833709
31
0.000000000000000
  0
LINE
  5
F1026C
330
F1026D
100
AcDbEntity
8
Geo
100
AcDbLine
10
-64.2681699913270
20
10.3381110833709
30
0.000000000000000
11
-64.1681699913270
21
10.2900782820819
31
0.000000000000000
  0
LINE
  5
F1026E
330
F1026F
100
AcDbEntity
8
Geo
100
AcDbLine
10
-64.1681699913270
20
10.2900782820819
30
0.000000000000000
11
-64.0681699913270
21
10.2422779141825
31
0.000000000000000
  0
LINE
  5
F10270
330
F10271
100
AcDbEntity
8
Geo
100
AcDbLine
10
-64.0681699913270
20
10.2422779141825
30
0.000000000000000
11
-63.9681699913270
21
10.1947124692645
31
0.000000000000000
  0
LINE
  5
F10272
330
F10273
100
AcDbEntity
8
Geo
100
AcDbLine
10
-63.9681699913270
20
10.1947124692645
30
0.000000000000000
11
-63.8681699913270
21
10.1473844246841
31
0.000000000000000
  0
LINE
  5
F10274
330
F10275
100
AcDbEntity
8
Geo
100
AcDbLine
10
-63.8681699913270
20
10.1473844246841
30
0.000000000000000
11
-63.7681699913270
21
10.1002962454328
31
0.000000000000000
  0
LINE
  5
F10276
330
F10277
100
AcDbEntity
8
Geo
100
AcDbLine
10
-63.7681699913270
20
10.1002962454328
30
0.000000000000000
11
-63.6681699913270
21
10.0534503840095
31
0.000000000000000
  0
LINE
  5
F10278
330
F10279
100
AcDbEntity
8
Geo
100
AcDbLine
10
-63.6681699913270
20
10.0534503840095
30
0.000000000000000
11
-63.5681699913270
21
10.0068492802920
31
0.000000000000000
  0
LINE
  5
F1027A
330
F1027B
100
AcDbEntity
8
Geo
100
AcDbLine
10
-63.5681699913270
20
10.0068492802920
30
0.000000000000000
11
-63.4681699913270
21
9.96049536141067
31
0.000000000000000
  0
LINE
  5
F1027C
330
F1027D
100
AcDbEntity
8
Geo
100
AcDbLine
10
-63.4681699913270
20
9.96049536141067
30
0.000000000000000
11
-63.3681699913270
21
9.91439104162168
31
0.000000000000000
  0
LINE
  5
F1027E
330
F1027F
100
AcDbEntity
8
Geo
100
AcDbLine
10
-63.3681699913270
20
9.91439104162168
30
0.000000000000000
11
-63.2681699913270
21
9.86853872218122
31
0.000000000000000
  0
LINE
  5
F10280
330
F10281
100
AcDbEntity
8
Geo
100
AcDbLine
10
-63.2681699913270
20
9.86853872218122
30
0.000000000000000
11
-63.1681699913270
21
9.82294079122059
31
0.000000000000000
  0
LINE
  5
F10282
330
F10283
100
AcDbEntity
8
Geo
100
AcDbLine
10
-63.1681699913270
20
9.82294079122059
30
0.000000000000000
11
-63.0681699913270
21
9.77759962362170
31
0.000000000000000
  0
LINE
  5
F10284
330
F10285
100
AcDbEntity
8
Geo
100
AcDbLine
10
-63.0681699913270
20
9.77759962362170
30
0.000000000000000
11
-62.9681699913270
21
9.73251758089346
31
0.000000000000000
  0
LINE
  5
F10286
330
F10287
100
AcDbEntity
8
Geo
100
AcDbLine
10
-62.9681699913270
20
9.73251758089346
30
0.000000000000000
11
-62.8681699913270
21
9.68769701104872
31
0.000000000000000
  0
LINE
  5
F10288
330
F10289
100
AcDbEntity
8
Geo
100
AcDbLine
10
-62.8681699913270
20
9.68769701104872
30
0.000000000000000
11
-62.7681699913270
21
9.64314024848204
31
0.000000000000000
  0
LINE
  5
F1028A
330
F1028B
100
AcDbEntity
8
Geo
100
AcDbLine
10
-62.7681699913270
20
9.64314024848204
30
0.000000000000000
11
-62.6681699913270
21
9.59884961384806
31
0.000000000000000
  0
LINE
  5
F1028C
330
F1028D
100
AcDbEntity
8
Geo
100
AcDbLine
10
-62.6681699913270
20
9.59884961384806
30
0.000000000000000
11
-62.5681699913270
21
9.55482741394065
31
0.000000000000000
  0
LINE
  5
F1028E
330
F1028F
100
AcDbEntity
8
Geo
100
AcDbLine
10
-62.5681699913270
20
9.55482741394065
30
0.000000000000000
11
-62.4681699913270
21
9.51107594157279
31
0.000000000000000
  0
LINE
  5
F10290
330
F10291
100
AcDbEntity
8
Geo
100
AcDbLine
10
-62.4681699913270
20
9.51107594157279
30
0.000000000000000
11
-62.3681699913270
21
9.46759747545709
31
0.000000000000000
  0
LINE
  5
F10292
330
F10293
100
AcDbEntity
8
Geo
100
AcDbLine
10
-62.3681699913270
20
9.46759747545709
30
0.000000000000000
11
-62.2681699913270
21
9.42439428008717
31
0.000000000000000
  0
LINE
  5
F10294
330
F10295
100
AcDbEntity
8
Geo
100
AcDbLine
10
-62.2681699913270
20
9.42439428008717
30
0.000000000000000
11
-62.1681699913270
21
9.38146860561969
31
0.000000000000000
  0
LINE
  5
F10296
330
F10297
100
AcDbEntity
8
Geo
100
AcDbLine
10
-62.1681699913270
20
9.38146860561969
30
0.000000000000000
11
-62.0681699913270
21
9.33882268775716
31
0.000000000000000
  0
LINE
  5
F10298
330
F10299
100
AcDbEntity
8
Geo
100
AcDbLine
10
-62.0681699913270
20
9.33882268775716
30
0.000000000000000
11
-61.9681699913270
21
9.29645874763149
31
0.000000000000000
  0
LINE
  5
F1029A
330
F1029B
100
AcDbEntity
8
Geo
100
AcDbLine
10
-61.9681699913270
20
9.29645874763149
30
0.000000000000000
11
-61.8681699913270
21
9.25437899168833
31
0.000000000000000
  0
LINE
  5
F1029C
330
F1029D
100
AcDbEntity
8
Geo
100
AcDbLine
10
-61.8681699913270
20
9.25437899168833
30
0.000000000000000
11
-61.7681699913270
21
9.21258561157211
31
0.000000000000000
  0
LINE
  5
F1029E
330
F1029F
100
AcDbEntity
8
Geo
100
AcDbLine
10
-61.7681699913270
20
9.21258561157211
30
0.000000000000000
11
-61.6681699913270
21
9.17108078401193
31
0.000000000000000
  0
LINE
  5
F102A0
330
F102A1
100
AcDbEntity
8
Geo
100
AcDbLine
10
-61.6681699913270
20
9.17108078401193
30
0.000000000000000
11
-61.5681699913270
21
9.12986667070819
31
0.000000000000000
  0
LINE
  5
F102A2
330
F102A3
100
AcDbEntity
8
Geo
100
AcDbLine
10
-61.5681699913270
20
9.12986667070819
30
0.000000000000000
11
-61.4681699913270
21
9.08894541821996
31
0.000000000000000
  0
LINE
  5
F102A4
330
F102A5
100
AcDbEntity
8
Geo
100
AcDbLine
10
-61.4681699913270
20
9.08894541821996
30
0.000000000000000
11
-61.3681699913270
21
9.04831915785322
31
0.000000000000000
  0
LINE
  5
F102A6
330
F102A7
100
AcDbEntity
8
Geo
100
AcDbLine
10
-61.3681699913270
20
9.04831915785322
30
0.000000000000000
11
-61.2681699913270
21
9.00799000554987
31
0.000000000000000
  0
LINE
  5
F102A8
330
F102A9
100
AcDbEntity
8
Geo
100
AcDbLine
10
-61.2681699913270
20
9.00799000554987
30
0.000000000000000
11
-61.1681699913270
21
8.96796006177745
31
0.000000000000000
  0
LINE
  5
F102AA
330
F102AB
100
AcDbEntity
8
Geo
100
AcDbLine
10
-61.1681699913270
20
8.96796006177745
30
0.000000000000000
11
-61.0681699913270
21
8.92823141141984
31
0.000000000000000
  0
LINE
  5
F102AC
330
F102AD
100
AcDbEntity
8
Geo
100
AcDbLine
10
-61.0681699913270
20
8.92823141141984
30
0.000000000000000
11
-60.9681699913270
21
8.88880612366858
31
0.000000000000000
  0
LINE
  5
F102AE
330
F102AF
100
AcDbEntity
8
Geo
100
AcDbLine
10
-60.9681699913270
20
8.88880612366858
30
0.000000000000000
11
-60.8681699913270
21
8.84968625191517
31
0.000000000000000
  0
LINE
  5
F102B0
330
F102B1
100
AcDbEntity
8
Geo
100
AcDbLine
10
-60.8681699913270
20
8.84968625191517
30
0.000000000000000
11
-60.7681699913270
21
8.81087383364408
31
0.000000000000000
  0
LINE
  5
F102B2
330
F102B3
100
AcDbEntity
8
Geo
100
AcDbLine
10
-60.7681699913270
20
8.81087383364408
30
0.000000000000000
11
-60.6681699913270
21
8.77237089032666
31
0.000000000000000
  0
LINE
  5
F102B4
330
F102B5
100
AcDbEntity
8
Geo
100
AcDbLine
10
-60.6681699913270
20
8.77237089032666
30
0.000000000000000
11
-60.5681699913270
21
8.73417942731584
31
0.000000000000000
  0
LINE
  5
F102B6
330
F102B7
100
AcDbEntity
8
Geo
100
AcDbLine
10
-60.5681699913270
20
8.73417942731584
30
0.000000000000000
11
-60.4681699913270
21
8.69630143374167
31
0.000000000000000
  0
LINE
  5
F102B8
330
F102B9
100
AcDbEntity
8
Geo
100
AcDbLine
10
-60.4681699913270
20
8.69630143374167
30
0.000000000000000
11
-60.3681699913270
21
8.65873888240778
31
0.000000000000000
  0
LINE
  5
F102BA
330
F102BB
100
AcDbEntity
8
Geo
100
AcDbLine
10
-60.3681699913270
20
8.65873888240778
30
0.000000000000000
11
-60.2681699913270
21
8.62149372968854
31
0.000000000000000
  0
LINE
  5
F102BC
330
F102BD
100
AcDbEntity
8
Geo
100
AcDbLine
10
-60.2681699913270
20
8.62149372968854
30
0.000000000000000
11
-60.1681699913270
21
8.58456791542723
31
0.000000000000000
  0
LINE
  5
F102BE
330
F102BF
100
AcDbEntity
8
Geo
100
AcDbLine
10
-60.1681699913270
20
8.58456791542723
30
0.000000000000000
11
-60.0681699913270
21
8.54796336283502
31
0.000000000000000
  0
LINE
  5
F102C0
330
F102C1
100
AcDbEntity
8
Geo
100
AcDbLine
10
-60.0681699913270
20
8.54796336283502
30
0.000000000000000
11
-59.9681699913270
21
8.51168197839072
31
0.000000000000000
  0
LINE
  5
F102C2
330
F102C3
100
AcDbEntity
8
Geo
100
AcDbLine
10
-59.9681699913270
20
8.51168197839072
30
0.000000000000000
11
-59.8681699913270
21
8.47572565174159
31
0.000000000000000
  0
LINE
  5
F102C4
330
F102C5
100
AcDbEntity
8
Geo
100
AcDbLine
10
-59.8681699913270
20
8.47572565174159
30
0.000000000000000
11
-59.7681699913270
21
8.44009625560485
31
0.000000000000000
  0
LINE
  5
F102C6
330
F102C7
100
AcDbEntity
8
Geo
100
AcDbLine
10
-59.7681699913270
20
8.44009625560485
30
0.000000000000000
11
-59.6681699913270
21
8.40479564567014
31
0.000000000000000
  0
LINE
  5
F102C8
330
F102C9
100
AcDbEntity
8
Geo
100
AcDbLine
10
-59.6681699913270
20
8.40479564567014
30
0.000000000000000
11
-59.5681699913270
21
8.36982566050293
31
0.000000000000000
  0
LINE
  5
F102CA
330
F102CB
100
AcDbEntity
8
Geo
100
AcDbLine
10
-59.5681699913270
20
8.36982566050293
30
0.000000000000000
11
-59.4681699913270
21
8.33518812144871
31
0.000000000000000
  0
LINE
  5
F102CC
330
F102CD
100
AcDbEntity
8
Geo
100
AcDbLine
10
-59.4681699913270
20
8.33518812144871
30
0.000000000000000
11
-59.3681699913270
21
8.30088483253813
31
0.000000000000000
  0
LINE
  5
F102CE
330
F102CF
100
AcDbEntity
8
Geo
100
AcDbLine
10
-59.3681699913270
20
8.30088483253813
30
0.000000000000000
11
-59.2681699913270
21
8.26691758039308
31
0.000000000000000
  0
LINE
  5
F102D0
330
F102D1
100
AcDbEntity
8
Geo
100
AcDbLine
10
-59.2681699913270
20
8.26691758039308
30
0.000000000000000
11
-59.1681699913270
21
8.23328813413359
31
0.000000000000000
  0
LINE
  5
F102D2
330
F102D3
100
AcDbEntity
8
Geo
100
AcDbLine
10
-59.1681699913270
20
8.23328813413359
30
0.000000000000000
11
-59.0681699913270
21
8.19999824528572
31
0.000000000000000
  0
LINE
  5
F102D4
330
F102D5
100
AcDbEntity
8
Geo
100
AcDbLine
10
-59.0681699913270
20
8.19999824528572
30
0.000000000000000
11
-58.9681699913270
21
8.16704964769031
31
0.000000000000000
  0
LINE
  5
F102D6
330
F102D7
100
AcDbEntity
8
Geo
100
AcDbLine
10
-58.9681699913270
20
8.16704964769031
30
0.000000000000000
11
-58.8681699913270
21
8.13444405741273
31
0.000000000000000
  0
LINE
  5
F102D8
330
F102D9
100
AcDbEntity
8
Geo
100
AcDbLine
10
-58.8681699913270
20
8.13444405741273
30
0.000000000000000
11
-58.7681699913270
21
8.10218317265341
31
0.000000000000000
  0
LINE
  5
F102DA
330
F102DB
100
AcDbEntity
8
Geo
100
AcDbLine
10
-58.7681699913270
20
8.10218317265341
30
0.000000000000000
11
-58.6681699913270
21
8.07026867365949
31
0.000000000000000
  0
LINE
  5
F102DC
330
F102DD
100
AcDbEntity
8
Geo
100
AcDbLine
10
-58.6681699913270
20
8.07026867365949
30
0.000000000000000
11
-58.5681699913270
21
8.03870222263723
31
0.000000000000000
  0
LINE
  5
F102DE
330
F102DF
100
AcDbEntity
8
Geo
100
AcDbLine
10
-58.5681699913270
20
8.03870222263723
30
0.000000000000000
11
-58.4681699913270
21
8.00748546366549
31
0.000000000000000
  0
LINE
  5
F102E0
330
F102E1
100
AcDbEntity
8
Geo
100
AcDbLine
10
-58.4681699913270
20
8.00748546366549
30
0.000000000000000
11
-58.3681699913270
21
7.97662002261008
31
0.000000000000000
  0
LINE
  5
F102E2
330
F102E3
100
AcDbEntity
8
Geo
100
AcDbLine
10
-58.3681699913270
20
7.97662002261008
30
0.000000000000000
11
-58.2681699913270
21
7.94610750703908
31
0.000000000000000
  0
LINE
  5
F102E4
330
F102E5
100
AcDbEntity
8
Geo
100
AcDbLine
10
-58.2681699913270
20
7.94610750703908
30
0.000000000000000
11
-58.1681699913270
21
7.91594950613911
31
0.000000000000000
  0
LINE
  5
F102E6
330
F102E7
100
AcDbEntity
8
Geo
100
AcDbLine
10
-58.1681699913270
20
7.91594950613911
30
0.000000000000000
11
-58.0681699913270
21
7.88614759063256
31
0.000000000000000
  0
LINE
  5
F102E8
330
F102E9
100
AcDbEntity
8
Geo
100
AcDbLine
10
-58.0681699913270
20
7.88614759063256
30
0.000000000000000
11
-57.9681699913270
21
7.85670331269580
31
0.000000000000000
  0
LINE
  5
F102EA
330
F102EB
100
AcDbEntity
8
Geo
100
AcDbLine
10
-57.9681699913270
20
7.85670331269580
30
0.000000000000000
11
-57.8681699913270
21
7.82761820587830
31
0.000000000000000
  0
LINE
  5
F102EC
330
F102ED
100
AcDbEntity
8
Geo
100
AcDbLine
10
-57.8681699913270
20
7.82761820587830
30
0.000000000000000
11
-57.7681699913270
21
7.79889378502283
31
0.000000000000000
  0
LINE
  5
F102EE
330
F102EF
100
AcDbEntity
8
Geo
100
AcDbLine
10
-57.7681699913270
20
7.79889378502283
30
0.000000000000000
11
-57.6681699913270
21
7.77053154618645
31
0.000000000000000
  0
LINE
  5
F102F0
330
F102F1
100
AcDbEntity
8
Geo
100
AcDbLine
10
-57.6681699913270
20
7.77053154618645
30
0.000000000000000
11
-57.5681699913270
21
7.74253296656271
31
0.000000000000000
  0
LINE
  5
F102F2
330
F102F3
100
AcDbEntity
8
Geo
100
AcDbLine
10
-57.5681699913270
20
7.74253296656271
30
0.000000000000000
11
-57.4681699913270
21
7.71489950440462
31
0.000000000000000
  0
LINE
  5
F102F4
330
F102F5
100
AcDbEntity
8
Geo
100
AcDbLine
10
-57.4681699913270
20
7.71489950440462
30
0.000000000000000
11
-57.3681699913270
21
7.68763259894877
31
0.000000000000000
  0
LINE
  5
F102F6
330
F102F7
100
AcDbEntity
8
Geo
100
AcDbLine
10
-57.3681699913270
20
7.68763259894877
30
0.000000000000000
11
-57.2681699913270
21
7.66073367034031
31
0.000000000000000
  0
LINE
  5
F102F8
330
F102F9
100
AcDbEntity
8
Geo
100
AcDbLine
10
-57.2681699913270
20
7.66073367034031
30
0.000000000000000
11
-57.1681699913270
21
7.63420411955903
31
0.000000000000000
  0
LINE
  5
F102FA
330
F102FB
100
AcDbEntity
8
Geo
100
AcDbLine
10
-57.1681699913270
20
7.63420411955903
30
0.000000000000000
11
-57.0681699913270
21
7.60804532834637
31
0.000000000000000
  0
LINE
  5
F102FC
330
F102FD
100
AcDbEntity
8
Geo
100
AcDbLine
10
-57.0681699913270
20
7.60804532834637
30
0.000000000000000
11
-56.9681699913270
21
7.58225865913346
31
0.000000000000000
  0
LINE
  5
F102FE
330
F102FF
100
AcDbEntity
8
Geo
100
AcDbLine
10
-56.9681699913270
20
7.58225865913346
30
0.000000000000000
11
-56.8681699913271
21
7.55684545497015
31
0.000000000000000
  0
LINE
  5
F10300
330
F10301
100
AcDbEntity
8
Geo
100
AcDbLine
10
-56.8681699913271
20
7.55684545497015
30
0.000000000000000
11
-56.7681699913270
21
7.53180703945509
31
0.000000000000000
  0
LINE
  5
F10302
330
F10303
100
AcDbEntity
8
Geo
100
AcDbLine
10
-56.7681699913270
20
7.53180703945509
30
0.000000000000000
11
-56.6681699913270
21
7.50714471666675
31
0.000000000000000
  0
LINE
  5
F10304
330
F10305
100
AcDbEntity
8
Geo
100
AcDbLine
10
-56.6681699913270
20
7.50714471666675
30
0.000000000000000
11
-56.5681699913270
21
7.48285977109554
31
0.000000000000000
  0
LINE
  5
F10306
330
F10307
100
AcDbEntity
8
Geo
100
AcDbLine
10
-56.5681699913270
20
7.48285977109554
30
0.000000000000000
11
-56.4681699913270
21
7.45895346757689
31
0.000000000000000
  0
LINE
  5
F10308
330
F10309
100
AcDbEntity
8
Geo
100
AcDbLine
10
-56.4681699913270
20
7.45895346757689
30
0.000000000000000
11
-56.3681699913271
21
7.43542705122536
31
0.000000000000000
  0
LINE
  5
F1030A
330
F1030B
100
AcDbEntity
8
Geo
100
AcDbLine
10
-56.3681699913271
20
7.43542705122536
30
0.000000000000000
11
-56.2681699913270
21
7.41228174736983
31
0.000000000000000
  0
LINE
  5
F1030C
330
F1030D
100
AcDbEntity
8
Geo
100
AcDbLine
10
-56.2681699913270
20
7.41228174736983
30
0.000000000000000
11
-56.1681699913270
21
7.38951876148963
31
0.000000000000000
  0
LINE
  5
F1030E
330
F1030F
100
AcDbEntity
8
Geo
100
AcDbLine
10
-56.1681699913270
20
7.38951876148963
30
0.000000000000000
11
-56.0681699913270
21
7.36713927915180
31
0.000000000000000
  0
LINE
  5
F10310
330
F10311
100
AcDbEntity
8
Geo
100
AcDbLine
10
-56.0681699913270
20
7.36713927915180
30
0.000000000000000
11
-55.9681699913270
21
7.34514446594933
31
0.000000000000000
  0
LINE
  5
F10312
330
F10313
100
AcDbEntity
8
Geo
100
AcDbLine
10
-55.9681699913270
20
7.34514446594933
30
0.000000000000000
11
-55.8681699913270
21
7.32353546744042
31
0.000000000000000
  0
LINE
  5
F10314
330
F10315
100
AcDbEntity
8
Geo
100
AcDbLine
10
-55.8681699913270
20
7.32353546744042
30
0.000000000000000
11
-55.7681699913270
21
7.30231340908886
31
0.000000000000000
  0
LINE
  5
F10316
330
F10317
100
AcDbEntity
8
Geo
100
AcDbLine
10
-55.7681699913270
20
7.30231340908886
30
0.000000000000000
11
-55.6681699913270
21
7.28147939620541
31
0.000000000000000
  0
LINE
  5
F10318
330
F10319
100
AcDbEntity
8
Geo
100
AcDbLine
10
-55.6681699913270
20
7.28147939620541
30
0.000000000000000
11
-55.5681699913270
21
7.26103451389017
31
0.000000000000000
  0
LINE
  5
F1031A
330
F1031B
100
AcDbEntity
8
Geo
100
AcDbLine
10
-55.5681699913270
20
7.26103451389017
30
0.000000000000000
11
-55.4681699913270
21
7.24097982697616
31
0.000000000000000
  0
LINE
  5
F1031C
330
F1031D
100
AcDbEntity
8
Geo
100
AcDbLine
10
-55.4681699913270
20
7.24097982697616
30
0.000000000000000
11
-55.3681699913270
21
7.22131637997378
31
0.000000000000000
  0
LINE
  5
F1031E
330
F1031F
100
AcDbEntity
8
Geo
100
AcDbLine
10
-55.3681699913270
20
7.22131637997378
30
0.000000000000000
11
-55.2681699913270
21
7.20204519701645
31
0.000000000000000
  0
LINE
  5
F10320
330
F10321
100
AcDbEntity
8
Geo
100
AcDbLine
10
-55.2681699913270
20
7.20204519701645
30
0.000000000000000
11
-55.1681699913270
21
7.18316728180727
31
0.000000000000000
  0
LINE
  5
F10322
330
F10323
100
AcDbEntity
8
Geo
100
AcDbLine
10
-55.1681699913270
20
7.18316728180727
30
0.000000000000000
11
-55.0681699913270
21
7.16468361756671
31
0.000000000000000
  0
LINE
  5
F10324
330
F10325
100
AcDbEntity
8
Geo
100
AcDbLine
10
-55.0681699913270
20
7.16468361756671
30
0.000000000000000
11
-54.9681699913270
21
7.14659516698144
31
0.000000000000000
  0
LINE
  5
F10326
330
F10327
100
AcDbEntity
8
Geo
100
AcDbLine
10
-54.9681699913270
20
7.14659516698144
30
0.000000000000000
11
-54.8681699913270
21
7.12890287215418
31
0.000000000000000
  0
LINE
  5
F10328
330
F10329
100
AcDbEntity
8
Geo
100
AcDbLine
10
-54.8681699913270
20
7.12890287215418
30
0.000000000000000
11
-54.7681699913270
21
7.11160765455461
31
0.000000000000000
  0
LINE
  5
F1032A
330
F1032B
100
AcDbEntity
8
Geo
100
AcDbLine
10
-54.7681699913270
20
7.11160765455461
30
0.000000000000000
11
-54.6681699913270
21
7.09471041497141
31
0.000000000000000
  0
LINE
  5
F1032C
330
F1032D
100
AcDbEntity
8
Geo
100
AcDbLine
10
-54.6681699913270
20
7.09471041497141
30
0.000000000000000
11
-54.5681699913270
21
7.07821203346532
31
0.000000000000000
  0
LINE
  5
F1032E
330
F1032F
100
AcDbEntity
8
Geo
100
AcDbLine
10
-54.5681699913270
20
7.07821203346532
30
0.000000000000000
11
-54.4681699913270
21
7.06211336932331
31
0.000000000000000
  0
LINE
  5
F10330
330
F10331
100
AcDbEntity
8
Geo
100
AcDbLine
10
-54.4681699913270
20
7.06211336932331
30
0.000000000000000
11
-54.3681699913270
21
7.04641526101384
31
0.000000000000000
  0
LINE
  5
F10332
330
F10333
100
AcDbEntity
8
Geo
100
AcDbLine
10
-54.3681699913270
20
7.04641526101384
30
0.000000000000000
11
-54.2681699913270
21
7.03111852614316
31
0.000000000000000
  0
LINE
  5
F10334
330
F10335
100
AcDbEntity
8
Geo
100
AcDbLine
10
-54.2681699913270
20
7.03111852614316
30
0.000000000000000
11
-54.1681699913270
21
7.01622396141276
31
0.000000000000000
  0
LINE
  5
F10336
330
F10337
100
AcDbEntity
8
Geo
100
AcDbLine
10
-54.1681699913270
20
7.01622396141276
30
0.000000000000000
11
-54.0681699913270
21
7.00173234257785
31
0.000000000000000
  0
LINE
  5
F10338
330
F10339
100
AcDbEntity
8
Geo
100
AcDbLine
10
-54.0681699913270
20
7.00173234257785
30
0.000000000000000
11
-53.9681699913270
21
6.98764442440697
31
0.000000000000000
  0
LINE
  5
F1033A
330
F1033B
100
AcDbEntity
8
Geo
100
AcDbLine
10
-53.9681699913270
20
6.98764442440697
30
0.000000000000000
11
-53.8681699913270
21
6.97396094064267
31
0.000000000000000
  0
LINE
  5
F1033C
330
F1033D
100
AcDbEntity
8
Geo
100
AcDbLine
10
-53.8681699913270
20
6.97396094064267
30
0.000000000000000
11
-53.7681699913270
21
6.96068260396331
31
0.000000000000000
  0
LINE
  5
F1033E
330
F1033F
100
AcDbEntity
8
Geo
100
AcDbLine
10
-53.7681699913270
20
6.96068260396331
30
0.000000000000000
11
-53.6681699913270
21
6.94781010594591
31
0.000000000000000
  0
LINE
  5
F10340
330
F10341
100
AcDbEntity
8
Geo
100
AcDbLine
10
-53.6681699913270
20
6.94781010594591
30
0.000000000000000
11
-53.5681699913270
21
6.93534411703018
31
0.000000000000000
  0
LINE
  5
F10342
330
F10343
100
AcDbEntity
8
Geo
100
AcDbLine
10
-53.5681699913270
20
6.93534411703018
30
0.000000000000000
11
-53.4681699913270
21
6.92328528648355
31
0.000000000000000
  0
LINE
  5
F10344
330
F10345
100
AcDbEntity
8
Geo
100
AcDbLine
10
-53.4681699913270
20
6.92328528648355
30
0.000000000000000
11
-53.3681699913270
21
6.91163424236739
31
0.000000000000000
  0
LINE
  5
F10346
330
F10347
100
AcDbEntity
8
Geo
100
AcDbLine
10
-53.3681699913270
20
6.91163424236739
30
0.000000000000000
11
-53.2681699913270
21
6.90039159150428
31
0.000000000000000
  0
LINE
  5
F10348
330
F10349
100
AcDbEntity
8
Geo
100
AcDbLine
10
-53.2681699913270
20
6.90039159150428
30
0.000000000000000
11
-53.1681699913270
21
6.88955791944640
31
0.000000000000000
  0
LINE
  5
F1034A
330
F1034B
100
AcDbEntity
8
Geo
100
AcDbLine
10
-53.1681699913270
20
6.88955791944640
30
0.000000000000000
11
-53.0681699913270
21
6.87913379044506
31
0.000000000000000
  0
LINE
  5
F1034C
330
F1034D
100
AcDbEntity
8
Geo
100
AcDbLine
10
-53.0681699913270
20
6.87913379044506
30
0.000000000000000
11
-52.9681699913270
21
6.86911974742130
31
0.000000000000000
  0
LINE
  5
F1034E
330
F1034F
100
AcDbEntity
8
Geo
100
AcDbLine
10
-52.9681699913270
20
6.86911974742130
30
0.000000000000000
11
-52.8681699913270
21
6.85951631193759
31
0.000000000000000
  0
LINE
  5
F10350
330
F10351
100
AcDbEntity
8
Geo
100
AcDbLine
10
-52.8681699913270
20
6.85951631193759
30
0.000000000000000
11
-52.7681699913270
21
6.85032398417068
31
0.000000000000000
  0
LINE
  5
F10352
330
F10353
100
AcDbEntity
8
Geo
100
AcDbLine
10
-52.7681699913270
20
6.85032398417068
30
0.000000000000000
11
-52.6681699913270
21
6.84154324288558
31
0.000000000000000
  0
LINE
  5
F10354
330
F10355
100
AcDbEntity
8
Geo
100
AcDbLine
10
-52.6681699913270
20
6.84154324288558
30
0.000000000000000
11
-52.5681699913270
21
6.83317454541057
31
0.000000000000000
  0
LINE
  5
F10356
330
F10357
100
AcDbEntity
8
Geo
100
AcDbLine
10
-52.5681699913270
20
6.83317454541057
30
0.000000000000000
11
-52.4681699913270
21
6.82521832761342
31
0.000000000000000
  0
LINE
  5
F10358
330
F10359
100
AcDbEntity
8
Geo
100
AcDbLine
10
-52.4681699913270
20
6.82521832761342
30
0.000000000000000
11
-52.3681699913270
21
6.81767500387868
31
0.000000000000000
  0
LINE
  5
F1035A
330
F1035B
100
AcDbEntity
8
Geo
100
AcDbLine
10
-52.3681699913270
20
6.81767500387868
30
0.000000000000000
11
-52.2681699913270
21
6.81054496708608
31
0.000000000000000
  0
LINE
  5
F1035C
330
F1035D
100
AcDbEntity
8
Geo
100
AcDbLine
10
-52.2681699913270
20
6.81054496708608
30
0.000000000000000
11
-52.1681699913270
21
6.80382858859010
31
0.000000000000000
  0
LINE
  5
F1035E
330
F1035F
100
AcDbEntity
8
Geo
100
AcDbLine
10
-52.1681699913270
20
6.80382858859010
30
0.000000000000000
11
-52.0681699913270
21
6.79752621820060
31
0.000000000000000
  0
LINE
  5
F10360
330
F10361
100
AcDbEntity
8
Geo
100
AcDbLine
10
-52.0681699913270
20
6.79752621820060
30
0.000000000000000
11
-51.9681699913270
21
6.79163818416461
31
0.000000000000000
  0
LINE
  5
F10362
330
F10363
100
AcDbEntity
8
Geo
100
AcDbLine
10
-51.9681699913270
20
6.79163818416461
30
0.000000000000000
11
-51.8681699913270
21
6.78616479314923
31
0.000000000000000
  0
LINE
  5
F10364
330
F10365
100
AcDbEntity
8
Geo
100
AcDbLine
10
-51.8681699913270
20
6.78616479314923
30
0.000000000000000
11
-51.7681699913270
21
6.78110633022569
31
0.000000000000000
  0
LINE
  5
F10366
330
F10367
100
AcDbEntity
8
Geo
100
AcDbLine
10
-51.7681699913270
20
6.78110633022569
30
0.000000000000000
11
-51.6681699913270
21
6.77646305885445
31
0.000000000000000
  0
LINE
  5
F10368
330
F10369
100
AcDbEntity
8
Geo
100
AcDbLine
10
-51.6681699913270
20
6.77646305885445
30
0.000000000000000
11
-51.5681699913270
21
6.77223522087151
31
0.000000000000000
  0
LINE
  5
F1036A
330
F1036B
100
AcDbEntity
8
Geo
100
AcDbLine
10
-51.5681699913270
20
6.77223522087151
30
0.000000000000000
11
-51.4681699913270
21
6.76842303647580
31
0.000000000000000
  0
LINE
  5
F1036C
330
F1036D
100
AcDbEntity
8
Geo
100
AcDbLine
10
-71.2681699913270
20
10.8689767764863
30
0.000000000000000
11
-71.2681699913270
21
10.7129622056888
31
0.000000000000000
  0
LINE
  5
F1036E
330
F1036F
100
AcDbEntity
8
Geo
100
AcDbLine
10
-71.2681699913270
20
10.7129622056888
30
0.000000000000000
11
-71.1965338260270
21
10.5846719823674
31
0.000000000000000
  0
LINE
  5
F10370
330
F10371
100
AcDbEntity
8
Geo
100
AcDbLine
10
-54.9556960235486
20
22.7528187337381
30
0.000000000000000
11
-54.8681699913270
21
22.7526591338778
31
0.000000000000000
  0
LINE
  5
F10372
330
F10373
100
AcDbEntity
8
Geo
100
AcDbLine
10
-54.8681699913270
20
22.7526591338778
30
0.000000000000000
11
-54.7681699913270
21
22.7520861190985
31
0.000000000000000
  0
LINE
  5
F10374
330
F10375
100
AcDbEntity
8
Geo
100
AcDbLine
10
-54.7681699913270
20
22.7520861190985
30
0.000000000000000
11
-54.6681699913270
21
22.7510964776178
31
0.000000000000000
  0
LINE
  5
F10376
330
F10377
100
AcDbEntity
8
Geo
100
AcDbLine
10
-54.6681699913270
20
22.7510964776178
30
0.000000000000000
11
-54.5681699913270
21
22.7496902609794
31
0.000000000000000
  0
LINE
  5
F10378
330
F10379
100
AcDbEntity
8
Geo
100
AcDbLine
10
-54.5681699913270
20
22.7496902609794
30
0.000000000000000
11
-54.4681699913270
21
22.7478675424234
31
0.000000000000000
  0
LINE
  5
F1037A
330
F1037B
100
AcDbEntity
8
Geo
100
AcDbLine
10
-54.4681699913270
20
22.7478675424234
30
0.000000000000000
11
-54.3681699913270
21
22.7456284168825
31
0.000000000000000
  0
LINE
  5
F1037C
330
F1037D
100
AcDbEntity
8
Geo
100
AcDbLine
10
-54.3681699913270
20
22.7456284168825
30
0.000000000000000
11
-54.2681699913270
21
22.7429730009775
31
0.000000000000000
  0
LINE
  5
F1037E
330
F1037F
100
AcDbEntity
8
Geo
100
AcDbLine
10
-54.2681699913270
20
22.7429730009775
30
0.000000000000000
11
-54.1681699913270
21
22.7399014330106
31
0.000000000000000
  0
LINE
  5
F10380
330
F10381
100
AcDbEntity
8
Geo
100
AcDbLine
10
-54.1681699913270
20
22.7399014330106
30
0.000000000000000
11
-54.0681699913270
21
22.7364138729586
31
0.000000000000000
  0
LINE
  5
F10382
330
F10383
100
AcDbEntity
8
Geo
100
AcDbLine
10
-54.0681699913270
20
22.7364138729586
30
0.000000000000000
11
-53.9681699913270
21
22.7325105024646
31
0.000000000000000
  0
LINE
  5
F10384
330
F10385
100
AcDbEntity
8
Geo
100
AcDbLine
10
-53.9681699913270
20
22.7325105024646
30
0.000000000000000
11
-53.8681699913270
21
22.7281915248281
31
0.000000000000000
  0
LINE
  5
F10386
330
F10387
100
AcDbEntity
8
Geo
100
AcDbLine
10
-53.8681699913270
20
22.7281915248281
30
0.000000000000000
11
-53.7681699913270
21
22.7234571649950
31
0.000000000000000
  0
LINE
  5
F10388
330
F10389
100
AcDbEntity
8
Geo
100
AcDbLine
10
-53.7681699913270
20
22.7234571649950
30
0.000000000000000
11
-53.6681699913270
21
22.7183076695453
31
0.000000000000000
  0
LINE
  5
F1038A
330
F1038B
100
AcDbEntity
8
Geo
100
AcDbLine
10
-53.6681699913270
20
22.7183076695453
30
0.000000000000000
11
-53.5681699913270
21
22.7127433066810
31
0.000000000000000
  0
LINE
  5
F1038C
330
F1038D
100
AcDbEntity
8
Geo
100
AcDbLine
10
-53.5681699913270
20
22.7127433066810
30
0.000000000000000
11
-53.4681699913270
21
22.7067643662111
31
0.000000000000000
  0
LINE
  5
F1038E
330
F1038F
100
AcDbEntity
8
Geo
100
AcDbLine
10
-53.4681699913270
20
22.7067643662111
30
0.000000000000000
11
-53.3681699913270
21
22.7003711595376
31
0.000000000000000
  0
LINE
  5
F10390
330
F10391
100
AcDbEntity
8
Geo
100
AcDbLine
10
-53.3681699913270
20
22.7003711595376
30
0.000000000000000
11
-53.2681699913270
21
22.6935640196385
31
0.000000000000000
  0
LINE
  5
F10392
330
F10393
100
AcDbEntity
8
Geo
100
AcDbLine
10
-53.2681699913270
20
22.6935640196385
30
0.000000000000000
11
-53.1681699913270
21
22.6863433010508
31
0.000000000000000
  0
LINE
  5
F10394
330
F10395
100
AcDbEntity
8
Geo
100
AcDbLine
10
-53.1681699913270
20
22.6863433010508
30
0.000000000000000
11
-53.0681699913270
21
22.6787093798520
31
0.000000000000000
  0
LINE
  5
F10396
330
F10397
100
AcDbEntity
8
Geo
100
AcDbLine
10
-53.0681699913270
20
22.6787093798520
30
0.000000000000000
11
-52.9681699913270
21
22.6706626536404
31
0.000000000000000
  0
LINE
  5
F10398
330
F10399
100
AcDbEntity
8
Geo
100
AcDbLine
10
-52.9681699913270
20
22.6706626536404
30
0.000000000000000
11
-52.8681699913270
21
22.6622035415146
31
0.000000000000000
  0
LINE
  5
F1039A
330
F1039B
100
AcDbEntity
8
Geo
100
AcDbLine
10
-52.8681699913270
20
22.6622035415146
30
0.000000000000000
11
-52.7681699913270
21
22.6533324840512
31
0.000000000000000
  0
LINE
  5
F1039C
330
F1039D
100
AcDbEntity
8
Geo
100
AcDbLine
10
-52.7681699913270
20
22.6533324840512
30
0.000000000000000
11
-52.6681699913270
21
22.6440499432827
31
0.000000000000000
  0
LINE
  5
F1039E
330
F1039F
100
AcDbEntity
8
Geo
100
AcDbLine
10
-52.6681699913270
20
22.6440499432827
30
0.000000000000000
11
-52.5681699913270
21
22.6343564026725
31
0.000000000000000
  0
LINE
  5
F103A0
330
F103A1
100
AcDbEntity
8
Geo
100
AcDbLine
10
-52.5681699913270
20
22.6343564026725
30
0.000000000000000
11
-52.4681699913270
21
22.6242523670904
31
0.000000000000000
  0
LINE
  5
F103A2
330
F103A3
100
AcDbEntity
8
Geo
100
AcDbLine
10
-52.4681699913270
20
22.6242523670904
30
0.000000000000000
11
-52.3681699913270
21
22.6137383627860
31
0.000000000000000
  0
LINE
  5
F103A4
330
F103A5
100
AcDbEntity
8
Geo
100
AcDbLine
10
-52.3681699913270
20
22.6137383627860
30
0.000000000000000
11
-52.2681699913270
21
22.6028149373612
31
0.000000000000000
  0
LINE
  5
F103A6
330
F103A7
100
AcDbEntity
8
Geo
100
AcDbLine
10
-52.2681699913270
20
22.6028149373612
30
0.000000000000000
11
-52.1681699913270
21
22.5914826597420
31
0.000000000000000
  0
LINE
  5
F103A8
330
F103A9
100
AcDbEntity
8
Geo
100
AcDbLine
10
-52.1681699913270
20
22.5914826597420
30
0.000000000000000
11
-52.0681699913270
21
22.5797421201486
31
0.000000000000000
  0
LINE
  5
F103AA
330
F103AB
100
AcDbEntity
8
Geo
100
AcDbLine
10
-52.0681699913270
20
22.5797421201486
30
0.000000000000000
11
-51.9681699913270
21
22.5675939300649
31
0.000000000000000
  0
LINE
  5
F103AC
330
F103AD
100
AcDbEntity
8
Geo
100
AcDbLine
10
-51.9681699913270
20
22.5675939300649
30
0.000000000000000
11
-51.8681699913270
21
22.5550387222062
31
0.000000000000000
  0
LINE
  5
F103AE
330
F103AF
100
AcDbEntity
8
Geo
100
AcDbLine
10
-51.8681699913270
20
22.5550387222062
30
0.000000000000000
11
-51.7681699913270
21
22.5420771504869
31
0.000000000000000
  0
LINE
  5
F103B0
330
F103B1
100
AcDbEntity
8
Geo
100
AcDbLine
10
-51.7681699913270
20
22.5420771504869
30
0.000000000000000
11
-51.6681699913270
21
22.5287098899859
31
0.000000000000000
  0
LINE
  5
F103B2
330
F103B3
100
AcDbEntity
8
Geo
100
AcDbLine
10
-51.6681699913270
20
22.5287098899859
30
0.000000000000000
11
-51.5681699913270
21
22.5149376369116
31
0.000000000000000
  0
LINE
  5
F103B4
330
F103B5
100
AcDbEntity
8
Geo
100
AcDbLine
10
-51.5681699913270
20
22.5149376369116
30
0.000000000000000
11
-51.4681699913270
21
22.5007611085657
31
0.000000000000000
  0
LINE
  5
F103B6
330
F103B7
100
AcDbEntity
8
Geo
100
AcDbLine
10
-71.2681699913270
20
15.0165595777076
30
0.000000000000000
11
-71.2681699913270
21
15.8955223922123
31
0.000000000000000
  0
LINE
  5
F103B8
330
F103B9
100
AcDbEntity
8
Geo
100
AcDbLine
10
-71.2681699913270
20
15.8955223922123
30
0.000000000000000
11
-71.1681699913270
21
16.5615304156858
31
0.000000000000000
  0
LINE
  5
F103BA
330
F103BB
100
AcDbEntity
8
Geo
100
AcDbLine
10
-71.1681699913270
20
16.5615304156858
30
0.000000000000000
11
-71.0681699913270
21
16.9673506910279
31
0.000000000000000
  0
LINE
  5
F103BC
330
F103BD
100
AcDbEntity
8
Geo
100
AcDbLine
10
-71.0681699913270
20
16.9673506910279
30
0.000000000000000
11
-70.9681699913270
21
17.2813833055857
31
0.000000000000000
  0
LINE
  5
F103BE
330
F103BF
100
AcDbEntity
8
Geo
100
AcDbLine
10
-70.9681699913270
20
17.2813833055857
30
0.000000000000000
11
-70.8681699913270
21
17.5433791394275
31
0.000000000000000
  0
LINE
  5
F103C0
330
F103C1
100
AcDbEntity
8
Geo
100
AcDbLine
10
-70.8681699913270
20
17.5433791394275
30
0.000000000000000
11
-70.7681699913270
21
17.7704657502870
31
0.000000000000000
  0
LINE
  5
F103C2
330
F103C3
100
AcDbEntity
8
Geo
100
AcDbLine
10
-70.7681699913270
20
17.7704657502870
30
0.000000000000000
11
-70.6681699913270
21
17.9718949061897
31
0.000000000000000
  0
LINE
  5
F103C4
330
F103C5
100
AcDbEntity
8
Geo
100
AcDbLine
10
-70.6681699913270
20
17.9718949061897
30
0.000000000000000
11
-70.5681699913270
21
18.1533388729232
31
0.000000000000000
  0
LINE
  5
F103C6
330
F103C7
100
AcDbEntity
8
Geo
100
AcDbLine
10
-70.5681699913270
20
18.1533388729232
30
0.000000000000000
11
-70.4681699913270
21
18.3185734007313
31
0.000000000000000
  0
LINE
  5
F103C8
330
F103C9
100
AcDbEntity
8
Geo
100
AcDbLine
10
-70.4681699913270
20
18.3185734007313
30
0.000000000000000
11
-70.3681699913270
21
18.4702620102452
31
0.000000000000000
  0
LINE
  5
F103CA
330
F103CB
100
AcDbEntity
8
Geo
100
AcDbLine
10
-70.3681699913270
20
18.4702620102452
30
0.000000000000000
11
-70.2681699913270
21
18.6103667109622
31
0.000000000000000
  0
LINE
  5
F103CC
330
F103CD
100
AcDbEntity
8
Geo
100
AcDbLine
10
-70.2681699913270
20
18.6103667109622
30
0.000000000000000
11
-70.1681699913270
21
18.7403820778667
31
0.000000000000000
  0
LINE
  5
F103CE
330
F103CF
100
AcDbEntity
8
Geo
100
AcDbLine
10
-70.1681699913270
20
18.7403820778667
30
0.000000000000000
11
-70.0681699913270
21
18.8614775400549
31
0.000000000000000
  0
LINE
  5
F103D0
330
F103D1
100
AcDbEntity
8
Geo
100
AcDbLine
10
-70.0681699913270
20
18.8614775400549
30
0.000000000000000
11
-69.9681699913270
21
18.9745883901800
31
0.000000000000000
  0
LINE
  5
F103D2
330
F103D3
100
AcDbEntity
8
Geo
100
AcDbLine
10
-69.9681699913270
20
18.9745883901800
30
0.000000000000000
11
-69.8681699913270
21
19.0804764479121
31
0.000000000000000
  0
LINE
  5
F103D4
330
F103D5
100
AcDbEntity
8
Geo
100
AcDbLine
10
-69.8681699913270
20
19.0804764479121
30
0.000000000000000
11
-69.7681699913270
21
19.1797719018974
31
0.000000000000000
  0
LINE
  5
F103D6
330
F103D7
100
AcDbEntity
8
Geo
100
AcDbLine
10
-69.7681699913270
20
19.1797719018974
30
0.000000000000000
11
-69.6681699913270
21
19.2730030128132
31
0.000000000000000
  0
LINE
  5
F103D8
330
F103D9
100
AcDbEntity
8
Geo
100
AcDbLine
10
-69.6681699913270
20
19.2730030128132
30
0.000000000000000
11
-69.5681699913270
21
19.3606177242673
31
0.000000000000000
  0
LINE
  5
F103DA
330
F103DB
100
AcDbEntity
8
Geo
100
AcDbLine
10
-69.5681699913270
20
19.3606177242673
30
0.000000000000000
11
-69.4681699913270
21
19.4429997240656
31
0.000000000000000
  0
LINE
  5
F103DC
330
F103DD
100
AcDbEntity
8
Geo
100
AcDbLine
10
-69.4681699913270
20
19.4429997240656
30
0.000000000000000
11
-69.3681699913270
21
19.5204806047359
31
0.000000000000000
  0
LINE
  5
F103DE
330
F103DF
100
AcDbEntity
8
Geo
100
AcDbLine
10
-69.3681699913270
20
19.5204806047359
30
0.000000000000000
11
-69.2681699913270
21
19.5933492225479
31
0.000000000000000
  0
LINE
  5
F103E0
330
F103E1
100
AcDbEntity
8
Geo
100
AcDbLine
10
-69.2681699913270
20
19.5933492225479
30
0.000000000000000
11
-69.1681699913270
21
19.6618590058242
31
0.000000000000000
  0
LINE
  5
F103E2
330
F103E3
100
AcDbEntity
8
Geo
100
AcDbLine
10
-69.1681699913270
20
19.6618590058242
30
0.000000000000000
11
-69.0681699913270
21
19.7262337364616
31
0.000000000000000
  0
LINE
  5
F103E4
330
F103E5
100
AcDbEntity
8
Geo
100
AcDbLine
10
-69.0681699913270
20
19.7262337364616
30
0.000000000000000
11
-68.9681699913270
21
19.7866721773342
31
0.000000000000000
  0
LINE
  5
F103E6
330
F103E7
100
AcDbEntity
8
Geo
100
AcDbLine
10
-68.9681699913270
20
19.7866721773342
30
0.000000000000000
11
-68.8681699913270
21
19.8433518152592
31
0.000000000000000
  0
LINE
  5
F103E8
330
F103E9
100
AcDbEntity
8
Geo
100
AcDbLine
10
-68.8681699913270
20
19.8433518152592
30
0.000000000000000
11
-68.7681699913270
21
19.8964319177312
31
0.000000000000000
  0
LINE
  5
F103EA
330
F103EB
100
AcDbEntity
8
Geo
100
AcDbLine
10
-68.7681699913270
20
19.8964319177312
30
0.000000000000000
11
-68.6681699913270
21
19.9460560511656
31
0.000000000000000
  0
LINE
  5
F103EC
330
F103ED
100
AcDbEntity
8
Geo
100
AcDbLine
10
-68.6681699913270
20
19.9460560511656
30
0.000000000000000
11
-68.5681699913270
21
19.9923541721986
31
0.000000000000000
  0
LINE
  5
F103EE
330
F103EF
100
AcDbEntity
8
Geo
100
AcDbLine
10
-68.5681699913270
20
19.9923541721986
30
0.000000000000000
11
-68.4681699913270
21
20.0354443772604
31
0.000000000000000
  0
LINE
  5
F103F0
330
F103F1
100
AcDbEntity
8
Geo
100
AcDbLine
10
-68.4681699913270
20
20.0354443772604
30
0.000000000000000
11
-68.3681699913270
21
20.0754343762320
31
0.000000000000000
  0
LINE
  5
F103F2
330
F103F3
100
AcDbEntity
8
Geo
100
AcDbLine
10
-68.3681699913270
20
20.0754343762320
30
0.000000000000000
11
-68.2681699913270
21
20.1124227415140
31
0.000000000000000
  0
LINE
  5
F103F4
330
F103F5
100
AcDbEntity
8
Geo
100
AcDbLine
10
-68.2681699913270
20
20.1124227415140
30
0.000000000000000
11
-68.1681699913270
21
20.1464999729176
31
0.000000000000000
  0
LINE
  5
F103F6
330
F103F7
100
AcDbEntity
8
Geo
100
AcDbLine
10
-68.1681699913270
20
20.1464999729176
30
0.000000000000000
11
-68.0681699913270
21
20.1777494104578
31
0.000000000000000
  0
LINE
  5
F103F8
330
F103F9
100
AcDbEntity
8
Geo
100
AcDbLine
10
-68.0681699913270
20
20.1777494104578
30
0.000000000000000
11
-67.9681699913270
21
20.2062480207275
31
0.000000000000000
  0
LINE
  5
F103FA
330
F103FB
100
AcDbEntity
8
Geo
100
AcDbLine
10
-67.9681699913270
20
20.2062480207275
30
0.000000000000000
11
-67.8681699913270
21
20.2320670775523
31
0.000000000000000
  0
LINE
  5
F103FC
330
F103FD
100
AcDbEntity
8
Geo
100
AcDbLine
10
-67.8681699913270
20
20.2320670775523
30
0.000000000000000
11
-67.7681699913270
21
20.2552727537363
31
0.000000000000000
  0
LINE
  5
F103FE
330
F103FF
100
AcDbEntity
8
Geo
100
AcDbLine
10
-67.7681699913270
20
20.2552727537363
30
0.000000000000000
11
-67.6681699913270
21
20.2759266376313
31
0.000000000000000
  0
LINE
  5
F10400
330
F10401
100
AcDbEntity
8
Geo
100
AcDbLine
10
-67.6681699913270
20
20.2759266376313
30
0.000000000000000
11
-67.5681699913270
21
20.2940861858237
31
0.000000000000000
  0
LINE
  5
F10402
330
F10403
100
AcDbEntity
8
Geo
100
AcDbLine
10
-67.5681699913270
20
20.2940861858237
30
0.000000000000000
11
-67.4681699913270
21
20.3098051212774
31
0.000000000000000
  0
LINE
  5
F10404
330
F10405
100
AcDbEntity
8
Geo
100
AcDbLine
10
-67.4681699913270
20
20.3098051212774
30
0.000000000000000
11
-67.3681699913270
21
20.3231337846937
31
0.000000000000000
  0
LINE
  5
F10406
330
F10407
100
AcDbEntity
8
Geo
100
AcDbLine
10
-67.3681699913270
20
20.3231337846937
30
0.000000000000000
11
-67.2681699913270
21
20.3341194455781
31
0.000000000000000
  0
LINE
  5
F10408
330
F10409
100
AcDbEntity
8
Geo
100
AcDbLine
10
-67.2681699913270
20
20.3341194455781
30
0.000000000000000
11
-67.1681699913270
21
20.3428065784590
31
0.000000000000000
  0
LINE
  5
F1040A
330
F1040B
100
AcDbEntity
8
Geo
100
AcDbLine
10
-67.1681699913270
20
20.3428065784590
30
0.000000000000000
11
-67.0681699913270
21
20.3492371088536
31
0.000000000000000
  0
LINE
  5
F1040C
330
F1040D
100
AcDbEntity
8
Geo
100
AcDbLine
10
-67.0681699913270
20
20.3492371088536
30
0.000000000000000
11
-66.9681699913270
21
20.3534506328720
31
0.000000000000000
  0
LINE
  5
F1040E
330
F1040F
100
AcDbEntity
8
Geo
100
AcDbLine
10
-66.9681699913270
20
20.3534506328720
30
0.000000000000000
11
-66.8681699913270
21
20.3554846137706
31
0.000000000000000
  0
LINE
  5
F10410
330
F10411
100
AcDbEntity
8
Geo
100
AcDbLine
10
-66.8681699913270
20
20.3554846137706
30
0.000000000000000
11
-66.7681699913270
21
20.3553745582796
31
0.000000000000000
  0
LINE
  5
F10412
330
F10413
100
AcDbEntity
8
Geo
100
AcDbLine
10
-66.7681699913270
20
20.3553745582796
30
0.000000000000000
11
-66.6681699913270
21
20.3531541751278
31
0.000000000000000
  0
LINE
  5
F10414
330
F10415
100
AcDbEntity
8
Geo
100
AcDbLine
10
-66.6681699913270
20
20.3531541751278
30
0.000000000000000
11
-66.5681699913270
21
20.3488555178463
31
0.000000000000000
  0
LINE
  5
F10416
330
F10417
100
AcDbEntity
8
Geo
100
AcDbLine
10
-66.5681699913270
20
20.3488555178463
30
0.000000000000000
11
-66.4681699913270
21
20.3425091136479
31
0.000000000000000
  0
LINE
  5
F10418
330
F10419
100
AcDbEntity
8
Geo
100
AcDbLine
10
-66.4681699913270
20
20.3425091136479
30
0.000000000000000
11
-66.3681699913270
21
20.3341440799366
31
0.000000000000000
  0
LINE
  5
F1041A
330
F1041B
100
AcDbEntity
8
Geo
100
AcDbLine
10
-66.3681699913270
20
20.3341440799366
30
0.000000000000000
11
-66.2681699913270
21
20.3237882297963
31
0.000000000000000
  0
LINE
  5
F1041C
330
F1041D
100
AcDbEntity
8
Geo
100
AcDbLine
10
-66.2681699913270
20
20.3237882297963
30
0.000000000000000
11
-66.1681699913270
21
20.3114681676326
31
0.000000000000000
  0
LINE
  5
F1041E
330
F1041F
100
AcDbEntity
8
Geo
100
AcDbLine
10
-66.1681699913270
20
20.3114681676326
30
0.000000000000000
11
-66.0681699913270
21
20.2972093759915
31
0.000000000000000
  0
LINE
  5
F10420
330
F10421
100
AcDbEntity
8
Geo
100
AcDbLine
10
-66.0681699913270
20
20.2972093759915
30
0.000000000000000
11
-65.9681699913270
21
20.2810362944507
31
0.000000000000000
  0
LINE
  5
F10422
330
F10423
100
AcDbEntity
8
Geo
100
AcDbLine
10
-65.9681699913270
20
20.2810362944507
30
0.000000000000000
11
-65.8681699913270
21
20.2629723913677
31
0.000000000000000
  0
LINE
  5
F10424
330
F10425
100
AcDbEntity
8
Geo
100
AcDbLine
10
-65.8681699913270
20
20.2629723913677
30
0.000000000000000
11
-65.7681699913270
21
20.2430402291734
31
0.000000000000000
  0
LINE
  5
F10426
330
F10427
100
AcDbEntity
8
Geo
100
AcDbLine
10
-65.7681699913270
20
20.2430402291734
30
0.000000000000000
11
-65.6681699913270
21
20.2212615238171
31
0.000000000000000
  0
LINE
  5
F10428
330
F10429
100
AcDbEntity
8
Geo
100
AcDbLine
10
-65.6681699913270
20
20.2212615238171
30
0.000000000000000
11
-65.5681699913270
21
20.1976571988956
31
0.000000000000000
  0
LINE
  5
F1042A
330
F1042B
100
AcDbEntity
8
Geo
100
AcDbLine
10
-65.5681699913270
20
20.1976571988956
30
0.000000000000000
11
-65.4681699913270
21
20.1722474349377
31
0.000000000000000
  0
LINE
  5
F1042C
330
F1042D
100
AcDbEntity
8
Geo
100
AcDbLine
10
-65.4681699913270
20
20.1722474349377
30
0.000000000000000
11
-65.3681699913270
21
20.1450517142571
31
0.000000000000000
  0
LINE
  5
F1042E
330
F1042F
100
AcDbEntity
8
Geo
100
AcDbLine
10
-65.3681699913270
20
20.1450517142571
30
0.000000000000000
11
-65.2681699913270
21
20.1160888617417
31
0.000000000000000
  0
LINE
  5
F10430
330
F10431
100
AcDbEntity
8
Geo
100
AcDbLine
10
-65.2681699913270
20
20.1160888617417
30
0.000000000000000
11
-65.1681699913270
21
20.0853770819010
31
0.000000000000000
  0
LINE
  5
F10432
330
F10433
100
AcDbEntity
8
Geo
100
AcDbLine
10
-65.1681699913270
20
20.0853770819010
30
0.000000000000000
11
-65.0681699913270
21
20.0529339924572
31
0.000000000000000
  0
LINE
  5
F10434
330
F10435
100
AcDbEntity
8
Geo
100
AcDbLine
10
-65.0681699913270
20
20.0529339924572
30
0.000000000000000
11
-64.9681699913270
21
20.0187766547307
31
0.000000000000000
  0
LINE
  5
F10436
330
F10437
100
AcDbEntity
8
Geo
100
AcDbLine
10
-64.9681699913270
20
20.0187766547307
30
0.000000000000000
11
-64.8681699913270
21
19.9829216010409
31
0.000000000000000
  0
LINE
  5
F10438
330
F10439
100
AcDbEntity
8
Geo
100
AcDbLine
10
-64.8681699913270
20
19.9829216010409
30
0.000000000000000
11
-64.7681699913270
21
19.9453848593155
31
0.000000000000000
  0
LINE
  5
F1043A
330
F1043B
100
AcDbEntity
8
Geo
100
AcDbLine
10
-64.7681699913270
20
19.9453848593155
30
0.000000000000000
11
-64.6681699913270
21
19.9061819750767
31
0.000000000000000
  0
LINE
  5
F1043C
330
F1043D
100
AcDbEntity
8
Geo
100
AcDbLine
10
-64.6681699913270
20
19.9061819750767
30
0.000000000000000
11
-64.5681699913270
21
19.8653280309496
31
0.000000000000000
  0
LINE
  5
F1043E
330
F1043F
100
AcDbEntity
8
Geo
100
AcDbLine
10
-64.5681699913270
20
19.8653280309496
30
0.000000000000000
11
-64.4681699913270
21
19.8228376638199
31
0.000000000000000
  0
LINE
  5
F10440
330
F10441
100
AcDbEntity
8
Geo
100
AcDbLine
10
-64.4681699913270
20
19.8228376638199
30
0.000000000000000
11
-64.3681699913270
21
19.7787250797446
31
0.000000000000000
  0
LINE
  5
F10442
330
F10443
100
AcDbEntity
8
Geo
100
AcDbLine
10
-64.3681699913270
20
19.7787250797446
30
0.000000000000000
11
-64.2681699913270
21
19.7336755249741
31
0.000000000000000
  0
LINE
  5
F10444
330
F10445
100
AcDbEntity
8
Geo
100
AcDbLine
10
-64.2681699913270
20
19.7336755249741
30
0.000000000000000
11
-64.1681699913270
21
19.6883665517050
31
0.000000000000000
  0
LINE
  5
F10446
330
F10447
100
AcDbEntity
8
Geo
100
AcDbLine
10
-64.1681699913270
20
19.6883665517050
30
0.000000000000000
11
-64.0681699913270
21
19.6428005197695
31
0.000000000000000
  0
LINE
  5
F10448
330
F10449
100
AcDbEntity
8
Geo
100
AcDbLine
10
-64.0681699913270
20
19.6428005197695
30
0.000000000000000
11
-63.9681699913270
21
19.5969798023880
31
0.000000000000000
  0
LINE
  5
F1044A
330
F1044B
100
AcDbEntity
8
Geo
100
AcDbLine
10
-63.9681699913270
20
19.5969798023880
30
0.000000000000000
11
-63.8681699913270
21
19.5509067860459
31
0.000000000000000
  0
LINE
  5
F1044C
330
F1044D
100
AcDbEntity
8
Geo
100
AcDbLine
10
-63.8681699913270
20
19.5509067860459
30
0.000000000000000
11
-63.7681699913270
21
19.5045838703690
31
0.000000000000000
  0
LINE
  5
F1044E
330
F1044F
100
AcDbEntity
8
Geo
100
AcDbLine
10
-63.7681699913270
20
19.5045838703690
30
0.000000000000000
11
-63.6681699913270
21
19.4580134679988
31
0.000000000000000
  0
LINE
  5
F10450
330
F10451
100
AcDbEntity
8
Geo
100
AcDbLine
10
-63.6681699913270
20
19.4580134679988
30
0.000000000000000
11
-63.5681699913270
21
19.4111980044664
31
0.000000000000000
  0
LINE
  5
F10452
330
F10453
100
AcDbEntity
8
Geo
100
AcDbLine
10
-63.5681699913270
20
19.4111980044664
30
0.000000000000000
11
-63.4681699913270
21
19.3641399180668
31
0.000000000000000
  0
LINE
  5
F10454
330
F10455
100
AcDbEntity
8
Geo
100
AcDbLine
10
-63.4681699913270
20
19.3641399180668
30
0.000000000000000
11
-63.3681699913270
21
19.3168416597312
31
0.000000000000000
  0
LINE
  5
F10456
330
F10457
100
AcDbEntity
8
Geo
100
AcDbLine
10
-63.3681699913270
20
19.3168416597312
30
0.000000000000000
11
-63.2681699913270
21
19.2693056929000
31
0.000000000000000
  0
LINE
  5
F10458
330
F10459
100
AcDbEntity
8
Geo
100
AcDbLine
10
-63.2681699913270
20
19.2693056929000
30
0.000000000000000
11
-63.1681699913270
21
19.2215344933939
31
0.000000000000000
  0
LINE
  5
F1045A
330
F1045B
100
AcDbEntity
8
Geo
100
AcDbLine
10
-63.1681699913270
20
19.2215344933939
30
0.000000000000000
11
-63.0681699913270
21
19.1735305492856
31
0.000000000000000
  0
LINE
  5
F1045C
330
F1045D
100
AcDbEntity
8
Geo
100
AcDbLine
10
-63.0681699913270
20
19.1735305492856
30
0.000000000000000
11
-62.9681699913270
21
19.1252963607695
31
0.000000000000000
  0
LINE
  5
F1045E
330
F1045F
100
AcDbEntity
8
Geo
100
AcDbLine
10
-62.9681699913270
20
19.1252963607695
30
0.000000000000000
11
-62.8681699913270
21
19.0768344400321
31
0.000000000000000
  0
LINE
  5
F10460
330
F10461
100
AcDbEntity
8
Geo
100
AcDbLine
10
-62.8681699913270
20
19.0768344400321
30
0.000000000000000
11
-62.7681699913270
21
19.0281473111208
31
0.000000000000000
  0
LINE
  5
F10462
330
F10463
100
AcDbEntity
8
Geo
100
AcDbLine
10
-62.7681699913270
20
19.0281473111208
30
0.000000000000000
11
-62.6681699913270
21
18.9792375098125
31
0.000000000000000
  0
LINE
  5
F10464
330
F10465
100
AcDbEntity
8
Geo
100
AcDbLine
10
-62.6681699913270
20
18.9792375098125
30
0.000000000000000
11
-62.5681699913270
21
18.9301075834818
31
0.000000000000000
  0
LINE
  5
F10466
330
F10467
100
AcDbEntity
8
Geo
100
AcDbLine
10
-62.5681699913270
20
18.9301075834818
30
0.000000000000000
11
-62.4681699913270
21
18.8807600909677
31
0.000000000000000
  0
LINE
  5
F10468
330
F10469
100
AcDbEntity
8
Geo
100
AcDbLine
10
-62.4681699913270
20
18.8807600909677
30
0.000000000000000
11
-62.3681699913270
21
18.8311976024411
31
0.000000000000000
  0
LINE
  5
F1046A
330
F1046B
100
AcDbEntity
8
Geo
100
AcDbLine
10
-62.3681699913270
20
18.8311976024411
30
0.000000000000000
11
-62.2681699913270
21
18.7814226992704
31
0.000000000000000
  0
LINE
  5
F1046C
330
F1046D
100
AcDbEntity
8
Geo
100
AcDbLine
10
-62.2681699913270
20
18.7814226992704
30
0.000000000000000
11
-62.1681699913270
21
18.7314379738871
31
0.000000000000000
  0
LINE
  5
F1046E
330
F1046F
100
AcDbEntity
8
Geo
100
AcDbLine
10
-62.1681699913270
20
18.7314379738871
30
0.000000000000000
11
-62.0681699913270
21
18.6812460296512
31
0.000000000000000
  0
LINE
  5
F10470
330
F10471
100
AcDbEntity
8
Geo
100
AcDbLine
10
-62.0681699913270
20
18.6812460296512
30
0.000000000000000
11
-61.9681699913270
21
18.6308494807149
31
0.000000000000000
  0
LINE
  5
F10472
330
F10473
100
AcDbEntity
8
Geo
100
AcDbLine
10
-61.9681699913270
20
18.6308494807149
30
0.000000000000000
11
-61.8681699913270
21
18.5802509518873
31
0.000000000000000
  0
LINE
  5
F10474
330
F10475
100
AcDbEntity
8
Geo
100
AcDbLine
10
-61.8681699913270
20
18.5802509518873
30
0.000000000000000
11
-61.7681699913270
21
18.5294530784968
31
0.000000000000000
  0
LINE
  5
F10476
330
F10477
100
AcDbEntity
8
Geo
100
AcDbLine
10
-61.7681699913270
20
18.5294530784968
30
0.000000000000000
11
-61.6681699913270
21
18.4784585062546
31
0.000000000000000
  0
LINE
  5
F10478
330
F10479
100
AcDbEntity
8
Geo
100
AcDbLine
10
-61.6681699913270
20
18.4784585062546
30
0.000000000000000
11
-61.5681699913270
21
18.4272698911165
31
0.000000000000000
  0
LINE
  5
F1047A
330
F1047B
100
AcDbEntity
8
Geo
100
AcDbLine
10
-61.5681699913270
20
18.4272698911165
30
0.000000000000000
11
-61.4681699913270
21
18.3758898991445
31
0.000000000000000
  0
LINE
  5
F1047C
330
F1047D
100
AcDbEntity
8
Geo
100
AcDbLine
10
-61.4681699913270
20
18.3758898991445
30
0.000000000000000
11
-61.3681699913270
21
18.3243212063683
31
0.000000000000000
  0
LINE
  5
F1047E
330
F1047F
100
AcDbEntity
8
Geo
100
AcDbLine
10
-61.3681699913270
20
18.3243212063683
30
0.000000000000000
11
-61.2681699913270
21
18.2725664986458
31
0.000000000000000
  0
LINE
  5
F10480
330
F10481
100
AcDbEntity
8
Geo
100
AcDbLine
10
-61.2681699913270
20
18.2725664986458
30
0.000000000000000
11
-61.1681699913270
21
18.2206284715228
31
0.000000000000000
  0
LINE
  5
F10482
330
F10483
100
AcDbEntity
8
Geo
100
AcDbLine
10
-61.1681699913270
20
18.2206284715228
30
0.000000000000000
11
-61.0681699913270
21
18.1685098300932
31
0.000000000000000
  0
LINE
  5
F10484
330
F10485
100
AcDbEntity
8
Geo
100
AcDbLine
10
-61.0681699913270
20
18.1685098300932
30
0.000000000000000
11
-60.9681699913270
21
18.1162132888578
31
0.000000000000000
  0
LINE
  5
F10486
330
F10487
100
AcDbEntity
8
Geo
100
AcDbLine
10
-60.9681699913270
20
18.1162132888578
30
0.000000000000000
11
-60.8681699913270
21
18.0637415715830
31
0.000000000000000
  0
LINE
  5
F10488
330
F10489
100
AcDbEntity
8
Geo
100
AcDbLine
10
-60.8681699913270
20
18.0637415715830
30
0.000000000000000
11
-60.7681699913270
21
18.0110974111588
31
0.000000000000000
  0
LINE
  5
F1048A
330
F1048B
100
AcDbEntity
8
Geo
100
AcDbLine
10
-60.7681699913270
20
18.0110974111588
30
0.000000000000000
11
-60.6681699913270
21
17.9582835494567
31
0.000000000000000
  0
LINE
  5
F1048C
330
F1048D
100
AcDbEntity
8
Geo
100
AcDbLine
10
-60.6681699913270
20
17.9582835494567
30
0.000000000000000
11
-60.5681699913270
21
17.9053027371868
31
0.000000000000000
  0
LINE
  5
F1048E
330
F1048F
100
AcDbEntity
8
Geo
100
AcDbLine
10
-60.5681699913270
20
17.9053027371868
30
0.000000000000000
11
-60.4681699913270
21
17.8521577337543
31
0.000000000000000
  0
LINE
  5
F10490
330
F10491
100
AcDbEntity
8
Geo
100
AcDbLine
10
-60.4681699913270
20
17.8521577337543
30
0.000000000000000
11
-60.3681699913270
21
17.7988513071162
31
0.000000000000000
  0
LINE
  5
F10492
330
F10493
100
AcDbEntity
8
Geo
100
AcDbLine
10
-60.3681699913270
20
17.7988513071162
30
0.000000000000000
11
-60.2681699913270
21
17.7453862336368
31
0.000000000000000
  0
LINE
  5
F10494
330
F10495
100
AcDbEntity
8
Geo
100
AcDbLine
10
-60.2681699913270
20
17.7453862336368
30
0.000000000000000
11
-60.1681699913270
21
17.6917652979432
31
0.000000000000000
  0
LINE
  5
F10496
330
F10497
100
AcDbEntity
8
Geo
100
AcDbLine
10
-60.1681699913270
20
17.6917652979432
30
0.000000000000000
11
-60.0681699913270
21
17.6379912927805
31
0.000000000000000
  0
LINE
  5
F10498
330
F10499
100
AcDbEntity
8
Geo
100
AcDbLine
10
-60.0681699913270
20
17.6379912927805
30
0.000000000000000
11
-59.9681699913270
21
17.5840670188659
31
0.000000000000000
  0
LINE
  5
F1049A
330
F1049B
100
AcDbEntity
8
Geo
100
AcDbLine
10
-59.9681699913270
20
17.5840670188659
30
0.000000000000000
11
-59.8681699913270
21
17.5299952847431
31
0.000000000000000
  0
LINE
  5
F1049C
330
F1049D
100
AcDbEntity
8
Geo
100
AcDbLine
10
-59.8681699913270
20
17.5299952847431
30
0.000000000000000
11
-59.7681699913270
21
17.4757789066361
31
0.000000000000000
  0
LINE
  5
F1049E
330
F1049F
100
AcDbEntity
8
Geo
100
AcDbLine
10
-59.7681699913270
20
17.4757789066361
30
0.000000000000000
11
-59.6681699913270
21
17.4214207083022
31
0.000000000000000
  0
LINE
  5
F104A0
330
F104A1
100
AcDbEntity
8
Geo
100
AcDbLine
10
-59.6681699913270
20
17.4214207083022
30
0.000000000000000
11
-59.5681699913270
21
17.3669235208855
31
0.000000000000000
  0
LINE
  5
F104A2
330
F104A3
100
AcDbEntity
8
Geo
100
AcDbLine
10
-59.5681699913270
20
17.3669235208855
30
0.000000000000000
11
-59.4681699913270
21
17.3122901827687
31
0.000000000000000
  0
LINE
  5
F104A4
330
F104A5
100
AcDbEntity
8
Geo
100
AcDbLine
10
-59.4681699913270
20
17.3122901827687
30
0.000000000000000
11
-59.3681699913270
21
17.2575235394258
31
0.000000000000000
  0
LINE
  5
F104A6
330
F104A7
100
AcDbEntity
8
Geo
100
AcDbLine
10
-59.3681699913270
20
17.2575235394258
30
0.000000000000000
11
-59.2681699913270
21
17.2026264432739
31
0.000000000000000
  0
LINE
  5
F104A8
330
F104A9
100
AcDbEntity
8
Geo
100
AcDbLine
10
-59.2681699913270
20
17.2026264432739
30
0.000000000000000
11
-59.1681699913270
21
17.1476017535242
31
0.000000000000000
  0
LINE
  5
F104AA
330
F104AB
100
AcDbEntity
8
Geo
100
AcDbLine
10
-59.1681699913270
20
17.1476017535242
30
0.000000000000000
11
-59.0681699913270
21
17.0924523360335
31
0.000000000000000
  0
LINE
  5
F104AC
330
F104AD
100
AcDbEntity
8
Geo
100
AcDbLine
10
-59.0681699913270
20
17.0924523360335
30
0.000000000000000
11
-58.9681699913270
21
17.0371810631550
31
0.000000000000000
  0
LINE
  5
F104AE
330
F104AF
100
AcDbEntity
8
Geo
100
AcDbLine
10
-58.9681699913270
20
17.0371810631550
30
0.000000000000000
11
-58.8681699913270
21
16.9817908135882
31
0.000000000000000
  0
LINE
  5
F104B0
330
F104B1
100
AcDbEntity
8
Geo
100
AcDbLine
10
-58.8681699913270
20
16.9817908135882
30
0.000000000000000
11
-58.7681699913270
21
16.9262844722295
31
0.000000000000000
  0
LINE
  5
F104B2
330
F104B3
100
AcDbEntity
8
Geo
100
AcDbLine
10
-58.7681699913270
20
16.9262844722295
30
0.000000000000000
11
-58.6681699913270
21
16.8706649300215
31
0.000000000000000
  0
LINE
  5
F104B4
330
F104B5
100
AcDbEntity
8
Geo
100
AcDbLine
10
-58.6681699913270
20
16.8706649300215
30
0.000000000000000
11
-58.5681699913270
21
16.8149350838029
31
0.000000000000000
  0
LINE
  5
F104B6
330
F104B7
100
AcDbEntity
8
Geo
100
AcDbLine
10
-58.5681699913270
20
16.8149350838029
30
0.000000000000000
11
-58.4681699913270
21
16.7590978361572
31
0.000000000000000
  0
LINE
  5
F104B8
330
F104B9
100
AcDbEntity
8
Geo
100
AcDbLine
10
-58.4681699913270
20
16.7590978361572
30
0.000000000000000
11
-58.3681699913270
21
16.7031560952618
31
0.000000000000000
  0
LINE
  5
F104BA
330
F104BB
100
AcDbEntity
8
Geo
100
AcDbLine
10
-58.3681699913270
20
16.7031560952618
30
0.000000000000000
11
-58.2681699913270
21
16.6471127747364
31
0.000000000000000
  0
LINE
  5
F104BC
330
F104BD
100
AcDbEntity
8
Geo
100
AcDbLine
10
-58.2681699913270
20
16.6471127747364
30
0.000000000000000
11
-58.1681699913270
21
16.5909707934912
31
0.000000000000000
  0
LINE
  5
F104BE
330
F104BF
100
AcDbEntity
8
Geo
100
AcDbLine
10
-58.1681699913270
20
16.5909707934912
30
0.000000000000000
11
-58.0681699913270
21
16.5347330755751
31
0.000000000000000
  0
LINE
  5
F104C0
330
F104C1
100
AcDbEntity
8
Geo
100
AcDbLine
10
-58.0681699913270
20
16.5347330755751
30
0.000000000000000
11
-57.9681699913270
21
16.4784025500231
31
0.000000000000000
  0
LINE
  5
F104C2
330
F104C3
100
AcDbEntity
8
Geo
100
AcDbLine
10
-57.9681699913270
20
16.4784025500231
30
0.000000000000000
11
-57.8681699913270
21
16.4219821507042
31
0.000000000000000
  0
LINE
  5
F104C4
330
F104C5
100
AcDbEntity
8
Geo
100
AcDbLine
10
-57.8681699913270
20
16.4219821507042
30
0.000000000000000
11
-57.7681699913270
21
16.3654748161679
31
0.000000000000000
  0
LINE
  5
F104C6
330
F104C7
100
AcDbEntity
8
Geo
100
AcDbLine
10
-57.7681699913270
20
16.3654748161679
30
0.000000000000000
11
-57.6681699913270
21
16.3088834894919
31
0.000000000000000
  0
LINE
  5
F104C8
330
F104C9
100
AcDbEntity
8
Geo
100
AcDbLine
10
-57.6681699913270
20
16.3088834894919
30
0.000000000000000
11
-57.5681699913270
21
16.2522111181283
31
0.000000000000000
  0
LINE
  5
F104CA
330
F104CB
100
AcDbEntity
8
Geo
100
AcDbLine
10
-57.5681699913270
20
16.2522111181283
30
0.000000000000000
11
-57.4681699913270
21
16.1954606537503
31
0.000000000000000
  0
LINE
  5
F104CC
330
F104CD
100
AcDbEntity
8
Geo
100
AcDbLine
10
-57.4681699913270
20
16.1954606537503
30
0.000000000000000
11
-57.3681699913270
21
16.1386350520984
31
0.000000000000000
  0
LINE
  5
F104CE
330
F104CF
100
AcDbEntity
8
Geo
100
AcDbLine
10
-57.3681699913270
20
16.1386350520984
30
0.000000000000000
11
-57.2681699913270
21
16.0817372728265
31
0.000000000000000
  0
LINE
  5
F104D0
330
F104D1
100
AcDbEntity
8
Geo
100
AcDbLine
10
-57.2681699913270
20
16.0817372728265
30
0.000000000000000
11
-57.1681699913270
21
16.0247702793478
31
0.000000000000000
  0
LINE
  5
F104D2
330
F104D3
100
AcDbEntity
8
Geo
100
AcDbLine
10
-57.1681699913270
20
16.0247702793478
30
0.000000000000000
11
-57.0681699913270
21
15.9677370386803
31
0.000000000000000
  0
LINE
  5
F104D4
330
F104D5
100
AcDbEntity
8
Geo
100
AcDbLine
10
-57.0681699913270
20
15.9677370386803
30
0.000000000000000
11
-56.9681699913270
21
15.9106405212924
31
0.000000000000000
  0
LINE
  5
F104D6
330
F104D7
100
AcDbEntity
8
Geo
100
AcDbLine
10
-56.9681699913270
20
15.9106405212924
30
0.000000000000000
11
-56.8681699913271
21
15.8534837009481
31
0.000000000000000
  0
LINE
  5
F104D8
330
F104D9
100
AcDbEntity
8
Geo
100
AcDbLine
10
-56.8681699913271
20
15.8534837009481
30
0.000000000000000
11
-56.7681699913270
21
15.7962695545522
31
0.000000000000000
  0
LINE
  5
F104DA
330
F104DB
100
AcDbEntity
8
Geo
100
AcDbLine
10
-56.7681699913270
20
15.7962695545522
30
0.000000000000000
11
-56.6681699913270
21
15.7390010619953
31
0.000000000000000
  0
LINE
  5
F104DC
330
F104DD
100
AcDbEntity
8
Geo
100
AcDbLine
10
-56.6681699913270
20
15.7390010619953
30
0.000000000000000
11
-56.5681699913270
21
15.6816812059984
31
0.000000000000000
  0
LINE
  5
F104DE
330
F104DF
100
AcDbEntity
8
Geo
100
AcDbLine
10
-56.5681699913270
20
15.6816812059984
30
0.000000000000000
11
-56.4681699913270
21
15.6243129719578
31
0.000000000000000
  0
LINE
  5
F104E0
330
F104E1
100
AcDbEntity
8
Geo
100
AcDbLine
10
-56.4681699913270
20
15.6243129719578
30
0.000000000000000
11
-56.3681699913271
21
15.5668993477892
31
0.000000000000000
  0
LINE
  5
F104E2
330
F104E3
100
AcDbEntity
8
Geo
100
AcDbLine
10
-56.3681699913271
20
15.5668993477892
30
0.000000000000000
11
-56.2681699913270
21
15.5094433237726
31
0.000000000000000
  0
LINE
  5
F104E4
330
F104E5
100
AcDbEntity
8
Geo
100
AcDbLine
10
-56.2681699913270
20
15.5094433237726
30
0.000000000000000
11
-56.1681699913270
21
15.4519478923964
31
0.000000000000000
  0
LINE
  5
F104E6
330
F104E7
100
AcDbEntity
8
Geo
100
AcDbLine
10
-56.1681699913270
20
15.4519478923964
30
0.000000000000000
11
-56.0681699913270
21
15.3944160482012
31
0.000000000000000
  0
LINE
  5
F104E8
330
F104E9
100
AcDbEntity
8
Geo
100
AcDbLine
10
-56.0681699913270
20
15.3944160482012
30
0.000000000000000
11
-55.9681699913270
21
15.3368507876242
31
0.000000000000000
  0
LINE
  5
F104EA
330
F104EB
100
AcDbEntity
8
Geo
100
AcDbLine
10
-55.9681699913270
20
15.3368507876242
30
0.000000000000000
11
-55.8681699913270
21
15.2792551088432
31
0.000000000000000
  0
LINE
  5
F104EC
330
F104ED
100
AcDbEntity
8
Geo
100
AcDbLine
10
-55.8681699913270
20
15.2792551088432
30
0.000000000000000
11
-55.7681699913270
21
15.2216320116199
31
0.000000000000000
  0
LINE
  5
F104EE
330
F104EF
100
AcDbEntity
8
Geo
100
AcDbLine
10
-55.7681699913270
20
15.2216320116199
30
0.000000000000000
11
-55.6681699913270
21
15.1639844971444
31
0.000000000000000
  0
LINE
  5
F104F0
330
F104F1
100
AcDbEntity
8
Geo
100
AcDbLine
10
-55.6681699913270
20
15.1639844971444
30
0.000000000000000
11
-55.5681699913270
21
15.1063155678783
31
0.000000000000000
  0
LINE
  5
F104F2
330
F104F3
100
AcDbEntity
8
Geo
100
AcDbLine
10
-55.5681699913270
20
15.1063155678783
30
0.000000000000000
11
-55.4681699913270
21
15.0486282273987
31
0.000000000000000
  0
LINE
  5
F104F4
330
F104F5
100
AcDbEntity
8
Geo
100
AcDbLine
10
-55.4681699913270
20
15.0486282273987
30
0.000000000000000
11
-55.3681699913270
21
14.9909254802414
31
0.000000000000000
  0
LINE
  5
F104F6
330
F104F7
100
AcDbEntity
8
Geo
100
AcDbLine
10
-55.3681699913270
20
14.9909254802414
30
0.000000000000000
11
-55.2681699913270
21
14.9332103317450
31
0.000000000000000
  0
LINE
  5
F104F8
330
F104F9
100
AcDbEntity
8
Geo
100
AcDbLine
10
-55.2681699913270
20
14.9332103317450
30
0.000000000000000
11
-55.1681699913270
21
14.8754857878936
31
0.000000000000000
  0
LINE
  5
F104FA
330
F104FB
100
AcDbEntity
8
Geo
100
AcDbLine
10
-55.1681699913270
20
14.8754857878936
30
0.000000000000000
11
-55.0681699913270
21
14.8177548551609
31
0.000000000000000
  0
LINE
  5
F104FC
330
F104FD
100
AcDbEntity
8
Geo
100
AcDbLine
10
-55.0681699913270
20
14.8177548551609
30
0.000000000000000
11
-54.9681699913270
21
14.7600205403532
31
0.000000000000000
  0
LINE
  5
F104FE
330
F104FF
100
AcDbEntity
8
Geo
100
AcDbLine
10
-54.9681699913270
20
14.7600205403532
30
0.000000000000000
11
-54.8681699913270
21
14.7022858504530
31
0.000000000000000
  0
LINE
  5
F10500
330
F10501
100
AcDbEntity
8
Geo
100
AcDbLine
10
-54.8681699913270
20
14.7022858504530
30
0.000000000000000
11
-54.7681699913270
21
14.6445537924624
31
0.000000000000000
  0
LINE
  5
F10502
330
F10503
100
AcDbEntity
8
Geo
100
AcDbLine
10
-54.7681699913270
20
14.6445537924624
30
0.000000000000000
11
-54.6681699913270
21
14.5868273732464
31
0.000000000000000
  0
LINE
  5
F10504
330
F10505
100
AcDbEntity
8
Geo
100
AcDbLine
10
-54.6681699913270
20
14.5868273732464
30
0.000000000000000
11
-54.5681699913270
21
14.5291095993762
31
0.000000000000000
  0
LINE
  5
F10506
330
F10507
100
AcDbEntity
8
Geo
100
AcDbLine
10
-54.5681699913270
20
14.5291095993762
30
0.000000000000000
11
-54.4681699913270
21
14.4714034769728
31
0.000000000000000
  0
LINE
  5
F10508
330
F10509
100
AcDbEntity
8
Geo
100
AcDbLine
10
-54.4681699913270
20
14.4714034769728
30
0.000000000000000
11
-54.3681699913270
21
14.4137120115505
31
0.000000000000000
  0
LINE
  5
F1050A
330
F1050B
100
AcDbEntity
8
Geo
100
AcDbLine
10
-54.3681699913270
20
14.4137120115505
30
0.000000000000000
11
-54.2681699913270
21
14.3560382078599
31
0.000000000000000
  0
LINE
  5
F1050C
330
F1050D
100
AcDbEntity
8
Geo
100
AcDbLine
10
-54.2681699913270
20
14.3560382078599
30
0.000000000000000
11
-54.1681699913270
21
14.2983850697321
31
0.000000000000000
  0
LINE
  5
F1050E
330
F1050F
100
AcDbEntity
8
Geo
100
AcDbLine
10
-54.1681699913270
20
14.2983850697321
30
0.000000000000000
11
-54.0681699913270
21
14.2407555999215
31
0.000000000000000
  0
LINE
  5
F10510
330
F10511
100
AcDbEntity
8
Geo
100
AcDbLine
10
-54.0681699913270
20
14.2407555999215
30
0.000000000000000
11
-53.9681699913270
21
14.1831527999500
31
0.000000000000000
  0
LINE
  5
F10512
330
F10513
100
AcDbEntity
8
Geo
100
AcDbLine
10
-53.9681699913270
20
14.1831527999500
30
0.000000000000000
11
-53.8681699913270
21
14.1255796699505
31
0.000000000000000
  0
LINE
  5
F10514
330
F10515
100
AcDbEntity
8
Geo
100
AcDbLine
10
-53.8681699913270
20
14.1255796699505
30
0.000000000000000
11
-53.7681699913270
21
14.0680392085104
31
0.000000000000000
  0
LINE
  5
F10516
330
F10517
100
AcDbEntity
8
Geo
100
AcDbLine
10
-53.7681699913270
20
14.0680392085104
30
0.000000000000000
11
-53.6681699913270
21
14.0105344125158
31
0.000000000000000
  0
LINE
  5
F10518
330
F10519
100
AcDbEntity
8
Geo
100
AcDbLine
10
-53.6681699913270
20
14.0105344125158
30
0.000000000000000
11
-53.5681699913270
21
13.9530682769952
31
0.000000000000000
  0
LINE
  5
F1051A
330
F1051B
100
AcDbEntity
8
Geo
100
AcDbLine
10
-53.5681699913270
20
13.9530682769952
30
0.000000000000000
11
-53.4681699913270
21
13.8956437949633
31
0.000000000000000
  0
LINE
  5
F1051C
330
F1051D
100
AcDbEntity
8
Geo
100
AcDbLine
10
-53.4681699913270
20
13.8956437949633
30
0.000000000000000
11
-53.3681699913270
21
13.8382639572658
31
0.000000000000000
  0
LINE
  5
F1051E
330
F1051F
100
AcDbEntity
8
Geo
100
AcDbLine
10
-53.3681699913270
20
13.8382639572658
30
0.000000000000000
11
-53.2681699913270
21
13.7809317524228
31
0.000000000000000
  0
LINE
  5
F10520
330
F10521
100
AcDbEntity
8
Geo
100
AcDbLine
10
-53.2681699913270
20
13.7809317524228
30
0.000000000000000
11
-53.1681699913270
21
13.7236501664737
31
0.000000000000000
  0
LINE
  5
F10522
330
F10523
100
AcDbEntity
8
Geo
100
AcDbLine
10
-53.1681699913270
20
13.7236501664737
30
0.000000000000000
11
-53.0681699913270
21
13.6664221828215
31
0.000000000000000
  0
LINE
  5
F10524
330
F10525
100
AcDbEntity
8
Geo
100
AcDbLine
10
-53.0681699913270
20
13.6664221828215
30
0.000000000000000
11
-52.9681699913270
21
13.6092507820774
31
0.000000000000000
  0
LINE
  5
F10526
330
F10527
100
AcDbEntity
8
Geo
100
AcDbLine
10
-52.9681699913270
20
13.6092507820774
30
0.000000000000000
11
-52.8681699913270
21
13.5521389419056
31
0.000000000000000
  0
LINE
  5
F10528
330
F10529
100
AcDbEntity
8
Geo
100
AcDbLine
10
-52.8681699913270
20
13.5521389419056
30
0.000000000000000
11
-52.7681699913270
21
13.4950896368682
31
0.000000000000000
  0
LINE
  5
F1052A
330
F1052B
100
AcDbEntity
8
Geo
100
AcDbLine
10
-52.7681699913270
20
13.4950896368682
30
0.000000000000000
11
-52.6681699913270
21
13.4381058382703
31
0.000000000000000
  0
LINE
  5
F1052C
330
F1052D
100
AcDbEntity
8
Geo
100
AcDbLine
10
-52.6681699913270
20
13.4381058382703
30
0.000000000000000
11
-52.5681699913270
21
13.3811905140052
31
0.000000000000000
  0
LINE
  5
F1052E
330
F1052F
100
AcDbEntity
8
Geo
100
AcDbLine
10
-52.5681699913270
20
13.3811905140052
30
0.000000000000000
11
-52.4681699913270
21
13.3243466283998
31
0.000000000000000
  0
LINE
  5
F10530
330
F10531
100
AcDbEntity
8
Geo
100
AcDbLine
10
-52.4681699913270
20
13.3243466283998
30
0.000000000000000
11
-52.3681699913270
21
13.2675771420603
31
0.000000000000000
  0
LINE
  5
F10532
330
F10533
100
AcDbEntity
8
Geo
100
AcDbLine
10
-52.3681699913270
20
13.2675771420603
30
0.000000000000000
11
-52.2681699913270
21
13.2108850117179
31
0.000000000000000
  0
LINE
  5
F10534
330
F10535
100
AcDbEntity
8
Geo
100
AcDbLine
10
-52.2681699913270
20
13.2108850117179
30
0.000000000000000
11
-52.1681699913270
21
13.1542731900750
31
0.000000000000000
  0
LINE
  5
F10536
330
F10537
100
AcDbEntity
8
Geo
100
AcDbLine
10
-52.1681699913270
20
13.1542731900750
30
0.000000000000000
11
-52.0681699913270
21
13.0977446256511
31
0.000000000000000
  0
LINE
  5
F10538
330
F10539
100
AcDbEntity
8
Geo
100
AcDbLine
10
-52.0681699913270
20
13.0977446256511
30
0.000000000000000
11
-51.9681699913270
21
13.0413022626296
31
0.000000000000000
  0
LINE
  5
F1053A
330
F1053B
100
AcDbEntity
8
Geo
100
AcDbLine
10
-51.9681699913270
20
13.0413022626296
30
0.000000000000000
11
-51.8681699913270
21
12.9849490407040
31
0.000000000000000
  0
LINE
  5
F1053C
330
F1053D
100
AcDbEntity
8
Geo
100
AcDbLine
10
-51.8681699913270
20
12.9849490407040
30
0.000000000000000
11
-51.7681699913270
21
12.9286878949253
31
0.000000000000000
  0
LINE
  5
F1053E
330
F1053F
100
AcDbEntity
8
Geo
100
AcDbLine
10
-51.7681699913270
20
12.9286878949253
30
0.000000000000000
11
-51.6681699913270
21
12.8725217555488
31
0.000000000000000
  0
LINE
  5
F10540
330
F10541
100
AcDbEntity
8
Geo
100
AcDbLine
10
-51.6681699913270
20
12.8725217555488
30
0.000000000000000
11
-51.5681699913270
21
12.8164535478815
31
0.000000000000000
  0
LINE
  5
F10542
330
F10543
100
AcDbEntity
8
Geo
100
AcDbLine
10
-51.5681699913270
20
12.8164535478815
30
0.000000000000000
11
-51.4681699913270
21
12.7604861921299
31
0.000000000000000
  0
LINE
  5
F10544
330
F10545
100
AcDbEntity
8
Geo
100
AcDbLine
10
-71.2681699913270
20
10.7129622056888
30
0.000000000000000
11
-71.2681699913270
21
10.8689767764863
31
0.000000000000000
  0
LINE
  5
F10546
330
F10547
100
AcDbEntity
8
Geo
100
AcDbLine
10
-71.2681699913270
20
10.8689767764863
30
0.000000000000000
11
-71.1681699913270
21
10.9464343533075
31
0.000000000000000
  0
LINE
  5
F10548
330
F10549
100
AcDbEntity
8
Geo
100
AcDbLine
10
-71.1681699913270
20
10.9464343533075
30
0.000000000000000
11
-71.0681699913270
21
10.9837541004183
31
0.000000000000000
  0
LINE
  5
F1054A
330
F1054B
100
AcDbEntity
8
Geo
100
AcDbLine
10
-71.0681699913270
20
10.9837541004183
30
0.000000000000000
11
-70.9681699913270
21
11.0049711906813
31
0.000000000000000
  0
LINE
  5
F1054C
330
F1054D
100
AcDbEntity
8
Geo
100
AcDbLine
10
-70.9681699913270
20
11.0049711906813
30
0.000000000000000
11
-70.8681699913270
21
11.0161393760465
31
0.000000000000000
  0
LINE
  5
F1054E
330
F1054F
100
AcDbEntity
8
Geo
100
AcDbLine
10
-70.8681699913270
20
11.0161393760465
30
0.000000000000000
11
-70.7681699913270
21
11.0200173080642
31
0.000000000000000
  0
LINE
  5
F10550
330
F10551
100
AcDbEntity
8
Geo
100
AcDbLine
10
-70.7681699913270
20
11.0200173080642
30
0.000000000000000
11
-70.6681699913270
21
11.0181770379453
31
0.000000000000000
  0
LINE
  5
F10552
330
F10553
100
AcDbEntity
8
Geo
100
AcDbLine
10
-70.6681699913270
20
11.0181770379453
30
0.000000000000000
11
-70.5681699913270
21
11.0116340573292
31
0.000000000000000
  0
LINE
  5
F10554
330
F10555
100
AcDbEntity
8
Geo
100
AcDbLine
10
-70.5681699913270
20
11.0116340573292
30
0.000000000000000
11
-70.4681699913270
21
11.0010999736474
31
0.000000000000000
  0
LINE
  5
F10556
330
F10557
100
AcDbEntity
8
Geo
100
AcDbLine
10
-70.4681699913270
20
11.0010999736474
30
0.000000000000000
11
-70.3681699913270
21
10.9871029337936
31
0.000000000000000
  0
LINE
  5
F10558
330
F10559
100
AcDbEntity
8
Geo
100
AcDbLine
10
-70.3681699913270
20
10.9871029337936
30
0.000000000000000
11
-70.2681699913270
21
10.9700520738165
31
0.000000000000000
  0
LINE
  5
F1055A
330
F1055B
100
AcDbEntity
8
Geo
100
AcDbLine
10
-70.2681699913270
20
10.9700520738165
30
0.000000000000000
11
-70.1681699913270
21
10.9502750355590
31
0.000000000000000
  0
LINE
  5
F1055C
330
F1055D
100
AcDbEntity
8
Geo
100
AcDbLine
10
-70.1681699913270
20
10.9502750355590
30
0.000000000000000
11
-70.0681699913270
21
10.9280412482790
31
0.000000000000000
  0
LINE
  5
F1055E
330
F1055F
100
AcDbEntity
8
Geo
100
AcDbLine
10
-70.0681699913270
20
10.9280412482790
30
0.000000000000000
11
-69.9681699913270
21
10.9035771242849
31
0.000000000000000
  0
LINE
  5
F10560
330
F10561
100
AcDbEntity
8
Geo
100
AcDbLine
10
-69.9681699913270
20
10.9035771242849
30
0.000000000000000
11
-69.8681699913270
21
10.8770763907862
31
0.000000000000000
  0
LINE
  5
F10562
330
F10563
100
AcDbEntity
8
Geo
100
AcDbLine
10
-69.8681699913270
20
10.8770763907862
30
0.000000000000000
11
-69.7681699913270
21
10.8487073563662
31
0.000000000000000
  0
LINE
  5
F10564
330
F10565
100
AcDbEntity
8
Geo
100
AcDbLine
10
-69.7681699913270
20
10.8487073563662
30
0.000000000000000
11
-69.6681699913270
21
10.8186181690488
31
0.000000000000000
  0
LINE
  5
F10566
330
F10567
100
AcDbEntity
8
Geo
100
AcDbLine
10
-69.6681699913270
20
10.8186181690488
30
0.000000000000000
11
-69.5681699913270
21
10.7869407145754
31
0.000000000000000
  0
LINE
  5
F10568
330
F10569
100
AcDbEntity
8
Geo
100
AcDbLine
10
-69.5681699913270
20
10.7869407145754
30
0.000000000000000
11
-69.4681699913270
21
10.7537935677795
31
0.000000000000000
  0
LINE
  5
F1056A
330
F1056B
100
AcDbEntity
8
Geo
100
AcDbLine
10
-69.4681699913270
20
10.7537935677795
30
0.000000000000000
11
-69.3681699913270
21
10.7192842683054
31
0.000000000000000
  0
LINE
  5
F1056C
330
F1056D
100
AcDbEntity
8
Geo
100
AcDbLine
10
-69.3681699913270
20
10.7192842683054
30
0.000000000000000
11
-69.2681699913270
21
10.6835111038209
31
0.000000000000000
  0
LINE
  5
F1056E
330
F1056F
100
AcDbEntity
8
Geo
100
AcDbLine
10
-69.2681699913270
20
10.6835111038209
30
0.000000000000000
11
-69.1681699913270
21
10.6465645274040
31
0.000000000000000
  0
LINE
  5
F10570
330
F10571
100
AcDbEntity
8
Geo
100
AcDbLine
10
-69.1681699913270
20
10.6465645274040
30
0.000000000000000
11
-69.0681699913270
21
10.6085282986112
31
0.000000000000000
  0
LINE
  5
F10572
330
F10573
100
AcDbEntity
8
Geo
100
AcDbLine
10
-69.0681699913270
20
10.6085282986112
30
0.000000000000000
11
-68.9681699913270
21
10.5694804126846
31
0.000000000000000
  0
LINE
  5
F10574
330
F10575
100
AcDbEntity
8
Geo
100
AcDbLine
10
-68.9681699913270
20
10.5694804126846
30
0.000000000000000
11
-68.8681699913270
21
10.5294938651140
31
0.000000000000000
  0
LINE
  5
F10576
330
F10577
100
AcDbEntity
8
Geo
100
AcDbLine
10
-68.8681699913270
20
10.5294938651140
30
0.000000000000000
11
-68.7681699913270
21
10.4886372866780
31
0.000000000000000
  0
LINE
  5
F10578
330
F10579
100
AcDbEntity
8
Geo
100
AcDbLine
10
-68.7681699913270
20
10.4886372866780
30
0.000000000000000
11
-68.6681699913270
21
10.4469754754578
31
0.000000000000000
  0
LINE
  5
F1057A
330
F1057B
100
AcDbEntity
8
Geo
100
AcDbLine
10
-68.6681699913270
20
10.4469754754578
30
0.000000000000000
11
-68.5681699913270
21
10.4045698460689
31
0.000000000000000
  0
LINE
  5
F1057C
330
F1057D
100
AcDbEntity
8
Geo
100
AcDbLine
10
-68.5681699913270
20
10.4045698460689
30
0.000000000000000
11
-68.4681699913270
21
10.3614788117553
31
0.000000000000000
  0
LINE
  5
F1057E
330
F1057F
100
AcDbEntity
8
Geo
100
AcDbLine
10
-68.4681699913270
20
10.3614788117553
30
0.000000000000000
11
-68.3681699913270
21
10.3177581115730
31
0.000000000000000
  0
LINE
  5
F10580
330
F10581
100
AcDbEntity
8
Geo
100
AcDbLine
10
-68.3681699913270
20
10.3177581115730
30
0.000000000000000
11
-68.2681699913270
21
10.2734610923087
31
0.000000000000000
  0
LINE
  5
F10582
330
F10583
100
AcDbEntity
8
Geo
100
AcDbLine
10
-68.2681699913270
20
10.2734610923087
30
0.000000000000000
11
-68.1681699913270
21
10.2286389528139
31
0.000000000000000
  0
LINE
  5
F10584
330
F10585
100
AcDbEntity
8
Geo
100
AcDbLine
10
-68.1681699913270
20
10.2286389528139
30
0.000000000000000
11
-68.0681699913270
21
10.1833409569254
31
0.000000000000000
  0
LINE
  5
F10586
330
F10587
100
AcDbEntity
8
Geo
100
AcDbLine
10
-68.0681699913270
20
10.1833409569254
30
0.000000000000000
11
-67.9681699913270
21
10.1376146199630
31
0.000000000000000
  0
LINE
  5
F10588
330
F10589
100
AcDbEntity
8
Geo
100
AcDbLine
10
-67.9681699913270
20
10.1376146199630
30
0.000000000000000
11
-67.8681699913270
21
10.0915058728792
31
0.000000000000000
  0
LINE
  5
F1058A
330
F1058B
100
AcDbEntity
8
Geo
100
AcDbLine
10
-67.8681699913270
20
10.0915058728792
30
0.000000000000000
11
-67.7681699913270
21
10.0450592074024
31
0.000000000000000
  0
LINE
  5
F1058C
330
F1058D
100
AcDbEntity
8
Geo
100
AcDbLine
10
-67.7681699913270
20
10.0450592074024
30
0.000000000000000
11
-67.6681699913270
21
9.99831780493888
31
0.000000000000000
  0
LINE
  5
F1058E
330
F1058F
100
AcDbEntity
8
Geo
100
AcDbLine
10
-67.6681699913270
20
9.99831780493888
30
0.000000000000000
11
-67.5681699913270
21
9.95132365153126
31
0.000000000000000
  0
LINE
  5
F10590
330
F10591
100
AcDbEntity
8
Geo
100
AcDbLine
10
-67.5681699913270
20
9.95132365153126
30
0.000000000000000
11
-67.4681699913270
21
9.90411764079549
31
0.000000000000000
  0
LINE
  5
F10592
330
F10593
100
AcDbEntity
8
Geo
100
AcDbLine
10
-67.4681699913270
20
9.90411764079549
30
0.000000000000000
11
-67.3681699913270
21
9.85673966645401
31
0.000000000000000
  0
LINE
  5
F10594
330
F10595
100
AcDbEntity
8
Geo
100
AcDbLine
10
-67.3681699913270
20
9.85673966645401
30
0.000000000000000
11
-67.2681699913270
21
9.80922870583184
31
0.000000000000000
  0
LINE
  5
F10596
330
F10597
100
AcDbEntity
8
Geo
100
AcDbLine
10
-67.2681699913270
20
9.80922870583184
30
0.000000000000000
11
-67.1681699913270
21
9.76162289547727
31
0.000000000000000
  0
LINE
  5
F10598
330
F10599
100
AcDbEntity
8
Geo
100
AcDbLine
10
-67.1681699913270
20
9.76162289547727
30
0.000000000000000
11
-67.0681699913270
21
9.71395959989943
31
0.000000000000000
  0
LINE
  5
F1059A
330
F1059B
100
AcDbEntity
8
Geo
100
AcDbLine
10
-67.0681699913270
20
9.71395959989943
30
0.000000000000000
11
-66.9681699913270
21
9.66627547427365
31
0.000000000000000
  0
LINE
  5
F1059C
330
F1059D
100
AcDbEntity
8
Geo
100
AcDbLine
10
-66.9681699913270
20
9.66627547427365
30
0.000000000000000
11
-66.8681699913270
21
9.61860652184820
31
0.000000000000000
  0
LINE
  5
F1059E
330
F1059F
100
AcDbEntity
8
Geo
100
AcDbLine
10
-66.8681699913270
20
9.61860652184820
30
0.000000000000000
11
-66.7681699913270
21
9.57098814668722
31
0.000000000000000
  0
LINE
  5
F105A0
330
F105A1
100
AcDbEntity
8
Geo
100
AcDbLine
10
-66.7681699913270
20
9.57098814668722
30
0.000000000000000
11
-66.6681699913270
21
9.52345520230194
31
0.000000000000000
  0
LINE
  5
F105A2
330
F105A3
100
AcDbEntity
8
Geo
100
AcDbLine
10
-66.6681699913270
20
9.52345520230194
30
0.000000000000000
11
-66.5681699913270
21
9.47604203665229
31
0.000000000000000
  0
LINE
  5
F105A4
330
F105A5
100
AcDbEntity
8
Geo
100
AcDbLine
10
-66.5681699913270
20
9.47604203665229
30
0.000000000000000
11
-66.4681699913270
21
9.42878253394161
31
0.000000000000000
  0
LINE
  5
F105A6
330
F105A7
100
AcDbEntity
8
Geo
100
AcDbLine
10
-66.4681699913270
20
9.42878253394161
30
0.000000000000000
11
-66.3681699913270
21
9.38171015357686
31
0.000000000000000
  0
LINE
  5
F105A8
330
F105A9
100
AcDbEntity
8
Geo
100
AcDbLine
10
-66.3681699913270
20
9.38171015357686
30
0.000000000000000
11
-66.2681699913270
21
9.33485796662392
31
0.000000000000000
  0
LINE
  5
F105AA
330
F105AB
100
AcDbEntity
8
Geo
100
AcDbLine
10
-66.2681699913270
20
9.33485796662392
30
0.000000000000000
11
-66.1681699913270
21
9.28825869005077
31
0.000000000000000
  0
LINE
  5
F105AC
330
F105AD
100
AcDbEntity
8
Geo
100
AcDbLine
10
-66.1681699913270
20
9.28825869005077
30
0.000000000000000
11
-66.0681699913270
21
9.24194471902021
31
0.000000000000000
  0
LINE
  5
F105AE
330
F105AF
100
AcDbEntity
8
Geo
100
AcDbLine
10
-66.0681699913270
20
9.24194471902021
30
0.000000000000000
11
-65.9681699913270
21
9.19594815746690
31
0.000000000000000
  0
LINE
  5
F105B0
330
F105B1
100
AcDbEntity
8
Geo
100
AcDbLine
10
-65.9681699913270
20
9.19594815746690
30
0.000000000000000
11
-65.8681699913270
21
9.15030084717042
31
0.000000000000000
  0
LINE
  5
F105B2
330
F105B3
100
AcDbEntity
8
Geo
100
AcDbLine
10
-65.8681699913270
20
9.15030084717042
30
0.000000000000000
11
-65.7681699913270
21
9.10503439551665
31
0.000000000000000
  0
LINE
  5
F105B4
330
F105B5
100
AcDbEntity
8
Geo
100
AcDbLine
10
-65.7681699913270
20
9.10503439551665
30
0.000000000000000
11
-65.6681699913270
21
9.06018020212266
31
0.000000000000000
  0
LINE
  5
F105B6
330
F105B7
100
AcDbEntity
8
Geo
100
AcDbLine
10
-65.6681699913270
20
9.06018020212266
30
0.000000000000000
11
-65.5681699913270
21
9.01576948448628
31
0.000000000000000
  0
LINE
  5
F105B8
330
F105B9
100
AcDbEntity
8
Geo
100
AcDbLine
10
-65.5681699913270
20
9.01576948448628
30
0.000000000000000
11
-65.4681699913270
21
8.97183330280904
31
0.000000000000000
  0
LINE
  5
F105BA
330
F105BB
100
AcDbEntity
8
Geo
100
AcDbLine
10
-65.4681699913270
20
8.97183330280904
30
0.000000000000000
11
-65.3681699913270
21
8.92840258413106
31
0.000000000000000
  0
LINE
  5
F105BC
330
F105BD
100
AcDbEntity
8
Geo
100
AcDbLine
10
-65.3681699913270
20
8.92840258413106
30
0.000000000000000
11
-65.2681699913270
21
8.88550814590793
31
0.000000000000000
  0
LINE
  5
F105BE
330
F105BF
100
AcDbEntity
8
Geo
100
AcDbLine
10
-65.2681699913270
20
8.88550814590793
30
0.000000000000000
11
-65.1681699913270
21
8.84318071915232
31
0.000000000000000
  0
LINE
  5
F105C0
330
F105C1
100
AcDbEntity
8
Geo
100
AcDbLine
10
-65.1681699913270
20
8.84318071915232
30
0.000000000000000
11
-65.0681699913270
21
8.80145097125760
31
0.000000000000000
  0
LINE
  5
F105C2
330
F105C3
100
AcDbEntity
8
Geo
100
AcDbLine
10
-65.0681699913270
20
8.80145097125760
30
0.000000000000000
11
-64.9681699913270
21
8.76034952861615
31
0.000000000000000
  0
LINE
  5
F105C4
330
F105C5
100
AcDbEntity
8
Geo
100
AcDbLine
10
-64.9681699913270
20
8.76034952861615
30
0.000000000000000
11
-64.8681699913270
21
8.71990699914173
31
0.000000000000000
  0
LINE
  5
F105C6
330
F105C7
100
AcDbEntity
8
Geo
100
AcDbLine
10
-64.8681699913270
20
8.71990699914173
30
0.000000000000000
11
-64.7681699913270
21
8.68015399480303
31
0.000000000000000
  0
LINE
  5
F105C8
330
F105C9
100
AcDbEntity
8
Geo
100
AcDbLine
10
-64.7681699913270
20
8.68015399480303
30
0.000000000000000
11
-64.6681699913270
21
8.64112115427459
31
0.000000000000000
  0
LINE
  5
F105CA
330
F105CB
100
AcDbEntity
8
Geo
100
AcDbLine
10
-64.6681699913270
20
8.64112115427459
30
0.000000000000000
11
-64.5681699913270
21
8.60283916581059
31
0.000000000000000
  0
LINE
  5
F105CC
330
F105CD
100
AcDbEntity
8
Geo
100
AcDbLine
10
-64.5681699913270
20
8.60283916581059
30
0.000000000000000
11
-64.4681699913270
21
8.56533879044843
31
0.000000000000000
  0
LINE
  5
F105CE
330
F105CF
100
AcDbEntity
8
Geo
100
AcDbLine
10
-64.4681699913270
20
8.56533879044843
30
0.000000000000000
11
-64.3681699913270
21
8.52865088565016
31
0.000000000000000
  0
LINE
  5
F105D0
330
F105D1
100
AcDbEntity
8
Geo
100
AcDbLine
10
-64.3681699913270
20
8.52865088565016
30
0.000000000000000
11
-64.2681699913270
21
8.49254193273337
31
0.000000000000000
  0
LINE
  5
F105D2
330
F105D3
100
AcDbEntity
8
Geo
100
AcDbLine
10
-64.2681699913270
20
8.49254193273337
30
0.000000000000000
11
-64.1681699913270
21
8.45675903448478
31
0.000000000000000
  0
LINE
  5
F105D4
330
F105D5
100
AcDbEntity
8
Geo
100
AcDbLine
10
-64.1681699913270
20
8.45675903448478
30
0.000000000000000
11
-64.0681699913270
21
8.42130405458894
31
0.000000000000000
  0
LINE
  5
F105D6
330
F105D7
100
AcDbEntity
8
Geo
100
AcDbLine
10
-64.0681699913270
20
8.42130405458894
30
0.000000000000000
11
-63.9681699913270
21
8.38617883965137
31
0.000000000000000
  0
LINE
  5
F105D8
330
F105D9
100
AcDbEntity
8
Geo
100
AcDbLine
10
-63.9681699913270
20
8.38617883965137
30
0.000000000000000
11
-63.8681699913270
21
8.35138521910239
31
0.000000000000000
  0
LINE
  5
F105DA
330
F105DB
100
AcDbEntity
8
Geo
100
AcDbLine
10
-63.8681699913270
20
8.35138521910239
30
0.000000000000000
11
-63.7681699913270
21
8.31692500510189
31
0.000000000000000
  0
LINE
  5
F105DC
330
F105DD
100
AcDbEntity
8
Geo
100
AcDbLine
10
-63.7681699913270
20
8.31692500510189
30
0.000000000000000
11
-63.6681699913270
21
8.28279999244489
31
0.000000000000000
  0
LINE
  5
F105DE
330
F105DF
100
AcDbEntity
8
Geo
100
AcDbLine
10
-63.6681699913270
20
8.28279999244489
30
0.000000000000000
11
-63.5681699913270
21
8.24901195846808
31
0.000000000000000
  0
LINE
  5
F105E0
330
F105E1
100
AcDbEntity
8
Geo
100
AcDbLine
10
-63.5681699913270
20
8.24901195846808
30
0.000000000000000
11
-63.4681699913270
21
8.21556266295725
31
0.000000000000000
  0
LINE
  5
F105E2
330
F105E3
100
AcDbEntity
8
Geo
100
AcDbLine
10
-63.4681699913270
20
8.21556266295725
30
0.000000000000000
11
-63.3681699913270
21
8.18245384805566
31
0.000000000000000
  0
LINE
  5
F105E4
330
F105E5
100
AcDbEntity
8
Geo
100
AcDbLine
10
-63.3681699913270
20
8.18245384805566
30
0.000000000000000
11
-63.2681699913270
21
8.14968723817327
31
0.000000000000000
  0
LINE
  5
F105E6
330
F105E7
100
AcDbEntity
8
Geo
100
AcDbLine
10
-63.2681699913270
20
8.14968723817327
30
0.000000000000000
11
-63.1681699913270
21
8.11726453989692
31
0.000000000000000
  0
LINE
  5
F105E8
330
F105E9
100
AcDbEntity
8
Geo
100
AcDbLine
10
-63.1681699913270
20
8.11726453989692
30
0.000000000000000
11
-63.0681699913270
21
8.08518744190150
31
0.000000000000000
  0
LINE
  5
F105EA
330
F105EB
100
AcDbEntity
8
Geo
100
AcDbLine
10
-63.0681699913270
20
8.08518744190150
30
0.000000000000000
11
-62.9681699913270
21
8.05345761486194
31
0.000000000000000
  0
LINE
  5
F105EC
330
F105ED
100
AcDbEntity
8
Geo
100
AcDbLine
10
-62.9681699913270
20
8.05345761486194
30
0.000000000000000
11
-62.8681699913270
21
8.02207671136623
31
0.000000000000000
  0
LINE
  5
F105EE
330
F105EF
100
AcDbEntity
8
Geo
100
AcDbLine
10
-62.8681699913270
20
8.02207671136623
30
0.000000000000000
11
-62.7681699913270
21
7.99104636582932
31
0.000000000000000
  0
LINE
  5
F105F0
330
F105F1
100
AcDbEntity
8
Geo
100
AcDbLine
10
-62.7681699913270
20
7.99104636582932
30
0.000000000000000
11
-62.6681699913270
21
7.96036819440804
31
0.000000000000000
  0
LINE
  5
F105F2
330
F105F3
100
AcDbEntity
8
Geo
100
AcDbLine
10
-62.6681699913270
20
7.96036819440804
30
0.000000000000000
11
-62.5681699913270
21
7.93004379491688
31
0.000000000000000
  0
LINE
  5
F105F4
330
F105F5
100
AcDbEntity
8
Geo
100
AcDbLine
10
-62.5681699913270
20
7.93004379491688
30
0.000000000000000
11
-62.4681699913270
21
7.90007474674479
31
0.000000000000000
  0
LINE
  5
F105F6
330
F105F7
100
AcDbEntity
8
Geo
100
AcDbLine
10
-62.4681699913270
20
7.90007474674479
30
0.000000000000000
11
-62.3681699913270
21
7.87046261077291
31
0.000000000000000
  0
LINE
  5
F105F8
330
F105F9
100
AcDbEntity
8
Geo
100
AcDbLine
10
-62.3681699913270
20
7.87046261077291
30
0.000000000000000
11
-62.2681699913270
21
7.84120892929332
31
0.000000000000000
  0
LINE
  5
F105FA
330
F105FB
100
AcDbEntity
8
Geo
100
AcDbLine
10
-62.2681699913270
20
7.84120892929332
30
0.000000000000000
11
-62.1681699913270
21
7.81231522592862
31
0.000000000000000
  0
LINE
  5
F105FC
330
F105FD
100
AcDbEntity
8
Geo
100
AcDbLine
10
-62.1681699913270
20
7.81231522592862
30
0.000000000000000
11
-62.0681699913270
21
7.78378300555269
31
0.000000000000000
  0
LINE
  5
F105FE
330
F105FF
100
AcDbEntity
8
Geo
100
AcDbLine
10
-62.0681699913270
20
7.78378300555269
30
0.000000000000000
11
-61.9681699913270
21
7.75561375421221
31
0.000000000000000
  0
LINE
  5
F10600
330
F10601
100
AcDbEntity
8
Geo
100
AcDbLine
10
-61.9681699913270
20
7.75561375421221
30
0.000000000000000
11
-61.8681699913270
21
7.72780893904932
31
0.000000000000000
  0
LINE
  5
F10602
330
F10603
100
AcDbEntity
8
Geo
100
AcDbLine
10
-61.8681699913270
20
7.72780893904932
30
0.000000000000000
11
-61.7681699913270
21
7.70037000822519
31
0.000000000000000
  0
LINE
  5
F10604
330
F10605
100
AcDbEntity
8
Geo
100
AcDbLine
10
-61.7681699913270
20
7.70037000822519
30
0.000000000000000
11
-61.6681699913270
21
7.67329839084460
31
0.000000000000000
  0
LINE
  5
F10606
330
F10607
100
AcDbEntity
8
Geo
100
AcDbLine
10
-61.6681699913270
20
7.67329839084460
30
0.000000000000000
11
-61.5681699913270
21
7.64659549688151
31
0.000000000000000
  0
LINE
  5
F10608
330
F10609
100
AcDbEntity
8
Geo
100
AcDbLine
10
-61.5681699913270
20
7.64659549688151
30
0.000000000000000
11
-61.4681699913270
21
7.62026271710560
31
0.000000000000000
  0
LINE
  5
F1060A
330
F1060B
100
AcDbEntity
8
Geo
100
AcDbLine
10
-61.4681699913270
20
7.62026271710560
30
0.000000000000000
11
-61.3681699913270
21
7.59430142300987
31
0.000000000000000
  0
LINE
  5
F1060C
330
F1060D
100
AcDbEntity
8
Geo
100
AcDbLine
10
-61.3681699913270
20
7.59430142300987
30
0.000000000000000
11
-61.2681699913270
21
7.56871296673918
31
0.000000000000000
  0
LINE
  5
F1060E
330
F1060F
100
AcDbEntity
8
Geo
100
AcDbLine
10
-61.2681699913270
20
7.56871296673918
30
0.000000000000000
11
-61.1681699913270
21
7.54349868101985
31
0.000000000000000
  0
LINE
  5
F10610
330
F10611
100
AcDbEntity
8
Geo
100
AcDbLine
10
-61.1681699913270
20
7.54349868101985
30
0.000000000000000
11
-61.0681699913270
21
7.51865987909022
31
0.000000000000000
  0
LINE
  5
F10612
330
F10613
100
AcDbEntity
8
Geo
100
AcDbLine
10
-61.0681699913270
20
7.51865987909022
30
0.000000000000000
11
-60.9681699913270
21
7.49419785463228
31
0.000000000000000
  0
LINE
  5
F10614
330
F10615
100
AcDbEntity
8
Geo
100
AcDbLine
10
-60.9681699913270
20
7.49419785463228
30
0.000000000000000
11
-60.8681699913270
21
7.47011388170427
31
0.000000000000000
  0
LINE
  5
F10616
330
F10617
100
AcDbEntity
8
Geo
100
AcDbLine
10
-60.8681699913270
20
7.47011388170427
30
0.000000000000000
11
-60.7681699913270
21
7.44640921467435
31
0.000000000000000
  0
LINE
  5
F10618
330
F10619
100
AcDbEntity
8
Geo
100
AcDbLine
10
-60.7681699913270
20
7.44640921467435
30
0.000000000000000
11
-60.6681699913270
21
7.42308508815522
31
0.000000000000000
  0
LINE
  5
F1061A
330
F1061B
100
AcDbEntity
8
Geo
100
AcDbLine
10
-60.6681699913270
20
7.42308508815522
30
0.000000000000000
11
-60.5681699913270
21
7.40014271693986
31
0.000000000000000
  0
LINE
  5
F1061C
330
F1061D
100
AcDbEntity
8
Geo
100
AcDbLine
10
-60.5681699913270
20
7.40014271693986
30
0.000000000000000
11
-60.4681699913270
21
7.37758329593827
31
0.000000000000000
  0
LINE
  5
F1061E
330
F1061F
100
AcDbEntity
8
Geo
100
AcDbLine
10
-60.4681699913270
20
7.37758329593827
30
0.000000000000000
11
-60.3681699913270
21
7.35540800011519
31
0.000000000000000
  0
LINE
  5
F10620
330
F10621
100
AcDbEntity
8
Geo
100
AcDbLine
10
-60.3681699913270
20
7.35540800011519
30
0.000000000000000
11
-60.2681699913270
21
7.33361798442892
31
0.000000000000000
  0
LINE
  5
F10622
330
F10623
100
AcDbEntity
8
Geo
100
AcDbLine
10
-60.2681699913270
20
7.33361798442892
30
0.000000000000000
11
-60.1681699913270
21
7.31221438377119
31
0.000000000000000
  0
LINE
  5
F10624
330
F10625
100
AcDbEntity
8
Geo
100
AcDbLine
10
-60.1681699913270
20
7.31221438377119
30
0.000000000000000
11
-60.0681699913270
21
7.29119831290802
31
0.000000000000000
  0
LINE
  5
F10626
330
F10627
100
AcDbEntity
8
Geo
100
AcDbLine
10
-60.0681699913270
20
7.29119831290802
30
0.000000000000000
11
-59.9681699913270
21
7.27057086642171
31
0.000000000000000
  0
LINE
  5
F10628
330
F10629
100
AcDbEntity
8
Geo
100
AcDbLine
10
-59.9681699913270
20
7.27057086642171
30
0.000000000000000
11
-59.8681699913270
21
7.25033311865374
31
0.000000000000000
  0
LINE
  5
F1062A
330
F1062B
100
AcDbEntity
8
Geo
100
AcDbLine
10
-59.8681699913270
20
7.25033311865374
30
0.000000000000000
11
-59.7681699913270
21
7.23048612364891
31
0.000000000000000
  0
LINE
  5
F1062C
330
F1062D
100
AcDbEntity
8
Geo
100
AcDbLine
10
-59.7681699913270
20
7.23048612364891
30
0.000000000000000
11
-59.6681699913270
21
7.21103091510039
31
0.000000000000000
  0
LINE
  5
F1062E
330
F1062F
100
AcDbEntity
8
Geo
100
AcDbLine
10
-59.6681699913270
20
7.21103091510039
30
0.000000000000000
11
-59.5681699913270
21
7.19196850629590
31
0.000000000000000
  0
LINE
  5
F10630
330
F10631
100
AcDbEntity
8
Geo
100
AcDbLine
10
-59.5681699913270
20
7.19196850629590
30
0.000000000000000
11
-59.4681699913270
21
7.17329989006490
31
0.000000000000000
  0
LINE
  5
F10632
330
F10633
100
AcDbEntity
8
Geo
100
AcDbLine
10
-59.4681699913270
20
7.17329989006490
30
0.000000000000000
11
-59.3681699913270
21
7.15502603872696
31
0.000000000000000
  0
LINE
  5
F10634
330
F10635
100
AcDbEntity
8
Geo
100
AcDbLine
10
-59.3681699913270
20
7.15502603872696
30
0.000000000000000
11
-59.2681699913270
21
7.13714790404102
31
0.000000000000000
  0
LINE
  5
F10636
330
F10637
100
AcDbEntity
8
Geo
100
AcDbLine
10
-59.2681699913270
20
7.13714790404102
30
0.000000000000000
11
-59.1681699913270
21
7.11966641715590
31
0.000000000000000
  0
LINE
  5
F10638
330
F10639
100
AcDbEntity
8
Geo
100
AcDbLine
10
-59.1681699913270
20
7.11966641715590
30
0.000000000000000
11
-59.0681699913270
21
7.10258248856175
31
0.000000000000000
  0
LINE
  5
F1063A
330
F1063B
100
AcDbEntity
8
Geo
100
AcDbLine
10
-59.0681699913270
20
7.10258248856175
30
0.000000000000000
11
-58.9681699913270
21
7.08589700804265
31
0.000000000000000
  0
LINE
  5
F1063C
330
F1063D
100
AcDbEntity
8
Geo
100
AcDbLine
10
-58.9681699913270
20
7.08589700804265
30
0.000000000000000
11
-58.8681699913270
21
7.06961084463029
31
0.000000000000000
  0
LINE
  5
F1063E
330
F1063F
100
AcDbEntity
8
Geo
100
AcDbLine
10
-58.8681699913270
20
7.06961084463029
30
0.000000000000000
11
-58.7681699913270
21
7.05372484655865
31
0.000000000000000
  0
LINE
  5
F10640
330
F10641
100
AcDbEntity
8
Geo
100
AcDbLine
10
-58.7681699913270
20
7.05372484655865
30
0.000000000000000
11
-58.6681699913270
21
7.03823984121987
31
0.000000000000000
  0
LINE
  5
F10642
330
F10643
100
AcDbEntity
8
Geo
100
AcDbLine
10
-58.6681699913270
20
7.03823984121987
30
0.000000000000000
11
-58.5681699913270
21
7.02315663512115
31
0.000000000000000
  0
LINE
  5
F10644
330
F10645
100
AcDbEntity
8
Geo
100
AcDbLine
10
-58.5681699913270
20
7.02315663512115
30
0.000000000000000
11
-58.4681699913270
21
7.00847601384274
31
0.000000000000000
  0
LINE
  5
F10646
330
F10647
100
AcDbEntity
8
Geo
100
AcDbLine
10
-58.4681699913270
20
7.00847601384274
30
0.000000000000000
11
-58.3681699913270
21
6.99419874199700
31
0.000000000000000
  0
LINE
  5
F10648
330
F10649
100
AcDbEntity
8
Geo
100
AcDbLine
10
-58.3681699913270
20
6.99419874199700
30
0.000000000000000
11
-58.2681699913270
21
6.98032556318862
31
0.000000000000000
  0
LINE
  5
F1064A
330
F1064B
100
AcDbEntity
8
Geo
100
AcDbLine
10
-58.2681699913270
20
6.98032556318862
30
0.000000000000000
11
-58.1681699913270
21
6.96685719997585
31
0.000000000000000
  0
LINE
  5
F1064C
330
F1064D
100
AcDbEntity
8
Geo
100
AcDbLine
10
-58.1681699913270
20
6.96685719997585
30
0.000000000000000
11
-58.0681699913270
21
6.95379435383291
31
0.000000000000000
  0
LINE
  5
F1064E
330
F1064F
100
AcDbEntity
8
Geo
100
AcDbLine
10
-58.0681699913270
20
6.95379435383291
30
0.000000000000000
11
-57.9681699913270
21
6.94113770511340
31
0.000000000000000
  0
LINE
  5
F10650
330
F10651
100
AcDbEntity
8
Geo
100
AcDbLine
10
-57.9681699913270
20
6.94113770511340
30
0.000000000000000
11
-57.8681699913270
21
6.92888791301493
31
0.000000000000000
  0
LINE
  5
F10652
330
F10653
100
AcDbEntity
8
Geo
100
AcDbLine
10
-57.8681699913270
20
6.92888791301493
30
0.000000000000000
11
-57.7681699913270
21
6.91704561554472
31
0.000000000000000
  0
LINE
  5
F10654
330
F10655
100
AcDbEntity
8
Geo
100
AcDbLine
10
-57.7681699913270
20
6.91704561554472
30
0.000000000000000
11
-57.6681699913270
21
6.90561142948643
31
0.000000000000000
  0
LINE
  5
F10656
330
F10657
100
AcDbEntity
8
Geo
100
AcDbLine
10
-57.6681699913270
20
6.90561142948643
30
0.000000000000000
11
-57.5681699913270
21
6.89458595036800
31
0.000000000000000
  0
LINE
  5
F10658
330
F10659
100
AcDbEntity
8
Geo
100
AcDbLine
10
-57.5681699913270
20
6.89458595036800
30
0.000000000000000
11
-57.4681699913270
21
6.88396975243064
31
0.000000000000000
  0
LINE
  5
F1065A
330
F1065B
100
AcDbEntity
8
Geo
100
AcDbLine
10
-57.4681699913270
20
6.88396975243064
30
0.000000000000000
11
-57.3681699913270
21
6.87376338859892
31
0.000000000000000
  0
LINE
  5
F1065C
330
F1065D
100
AcDbEntity
8
Geo
100
AcDbLine
10
-57.3681699913270
20
6.87376338859892
30
0.000000000000000
11
-57.2681699913270
21
6.86396739045199
31
0.000000000000000
  0
LINE
  5
F1065E
330
F1065F
100
AcDbEntity
8
Geo
100
AcDbLine
10
-57.2681699913270
20
6.86396739045199
30
0.000000000000000
11
-57.1681699913270
21
6.85458226819587
31
0.000000000000000
  0
LINE
  5
F10660
330
F10661
100
AcDbEntity
8
Geo
100
AcDbLine
10
-57.1681699913270
20
6.85458226819587
30
0.000000000000000
11
-57.0681699913270
21
6.84560851063689
31
0.000000000000000
  0
LINE
  5
F10662
330
F10663
100
AcDbEntity
8
Geo
100
AcDbLine
10
-57.0681699913270
20
6.84560851063689
30
0.000000000000000
11
-56.9681699913270
21
6.83704658515622
31
0.000000000000000
  0
LINE
  5
F10664
330
F10665
100
AcDbEntity
8
Geo
100
AcDbLine
10
-56.9681699913270
20
6.83704658515622
30
0.000000000000000
11
-56.8681699913271
21
6.82889693768556
31
0.000000000000000
  0
LINE
  5
F10666
330
F10667
100
AcDbEntity
8
Geo
100
AcDbLine
10
-56.8681699913271
20
6.82889693768556
30
0.000000000000000
11
-56.7681699913270
21
6.82115999268385
31
0.000000000000000
  0
LINE
  5
F10668
330
F10669
100
AcDbEntity
8
Geo
100
AcDbLine
10
-56.7681699913270
20
6.82115999268385
30
0.000000000000000
11
-56.6681699913270
21
6.81383615311525
31
0.000000000000000
  0
LINE
  5
F1066A
330
F1066B
100
AcDbEntity
8
Geo
100
AcDbLine
10
-56.6681699913270
20
6.81383615311525
30
0.000000000000000
11
-56.5681699913270
21
6.80692580042806
31
0.000000000000000
  0
LINE
  5
F1066C
330
F1066D
100
AcDbEntity
8
Geo
100
AcDbLine
10
-56.5681699913270
20
6.80692580042806
30
0.000000000000000
11
-56.4681699913270
21
6.80042929453494
31
0.000000000000000
  0
LINE
  5
F1066E
330
F1066F
100
AcDbEntity
8
Geo
100
AcDbLine
10
-56.4681699913270
20
6.80042929453494
30
0.000000000000000
11
-56.3681699913271
21
6.79434697379410
31
0.000000000000000
  0
LINE
  5
F10670
330
F10671
100
AcDbEntity
8
Geo
100
AcDbLine
10
-56.3681699913271
20
6.79434697379410
30
0.000000000000000
11
-56.2681699913270
21
6.78867915499169
31
0.000000000000000
  0
LINE
  5
F10672
330
F10673
100
AcDbEntity
8
Geo
100
AcDbLine
10
-56.2681699913270
20
6.78867915499169
30
0.000000000000000
11
-56.1681699913270
21
6.78342613332534
31
0.000000000000000
  0
LINE
  5
F10674
330
F10675
100
AcDbEntity
8
Geo
100
AcDbLine
10
-56.1681699913270
20
6.78342613332534
30
0.000000000000000
11
-56.0681699913270
21
6.77858818238873
31
0.000000000000000
  0
LINE
  5
F10676
330
F10677
100
AcDbEntity
8
Geo
100
AcDbLine
10
-56.0681699913270
20
6.77858818238873
30
0.000000000000000
11
-55.9681699913270
21
6.77416555415738
31
0.000000000000000
  0
LINE
  5
F10678
330
F10679
100
AcDbEntity
8
Geo
100
AcDbLine
10
-55.9681699913270
20
6.77416555415738
30
0.000000000000000
11
-55.8681699913270
21
6.77015847897552
31
0.000000000000000
  0
LINE
  5
F1067A
330
F1067B
100
AcDbEntity
8
Geo
100
AcDbLine
10
-55.8681699913270
20
6.77015847897552
30
0.000000000000000
11
-55.7681699913270
21
6.76656716554406
31
0.000000000000000
  0
LINE
  5
F1067C
330
F1067D
100
AcDbEntity
8
Geo
100
AcDbLine
10
-55.7681699913270
20
6.76656716554406
30
0.000000000000000
11
-55.6681699913270
21
6.76339180090978
31
0.000000000000000
  0
LINE
  5
F1067E
330
F1067F
100
AcDbEntity
8
Geo
100
AcDbLine
10
-55.6681699913270
20
6.76339180090978
30
0.000000000000000
11
-55.5681699913270
21
6.76063255045552
31
0.000000000000000
  0
LINE
  5
F10680
330
F10681
100
AcDbEntity
8
Geo
100
AcDbLine
10
-55.5681699913270
20
6.76063255045552
30
0.000000000000000
11
-55.4681699913270
21
6.75828955789164
31
0.000000000000000
  0
LINE
  5
F10682
330
F10683
100
AcDbEntity
8
Geo
100
AcDbLine
10
-55.4681699913270
20
6.75828955789164
30
0.000000000000000
11
-55.3681699913270
21
6.75636294524845
31
0.000000000000000
  0
LINE
  5
F10684
330
F10685
100
AcDbEntity
8
Geo
100
AcDbLine
10
-55.3681699913270
20
6.75636294524845
30
0.000000000000000
11
-55.2681699913270
21
6.75485281286993
31
0.000000000000000
  0
LINE
  5
F10686
330
F10687
100
AcDbEntity
8
Geo
100
AcDbLine
10
-55.2681699913270
20
6.75485281286993
30
0.000000000000000
11
-55.1681699913270
21
6.75375923940848
31
0.000000000000000
  0
LINE
  5
F10688
330
F10689
100
AcDbEntity
8
Geo
100
AcDbLine
10
-55.1681699913270
20
6.75375923940848
30
0.000000000000000
11
-55.0681699913270
21
6.75308228182079
31
0.000000000000000
  0
LINE
  5
F1068A
330
F1068B
100
AcDbEntity
8
Geo
100
AcDbLine
10
-55.0681699913270
20
6.75308228182079
30
0.000000000000000
11
-54.9681699913270
21
6.75282197536491
31
0.000000000000000
  0
LINE
  5
F1068C
330
F1068D
100
AcDbEntity
8
Geo
100
AcDbLine
10
-54.9681699913270
20
6.75282197536491
30
0.000000000000000
11
-54.9556960235485
21
6.75281873373810
31
0.000000000000000
  0
LINE
  5
F1068E
330
F1068F
100
AcDbEntity
8
Geo
100
AcDbLine
10
-51.4681699913270
20
15.2522437526743
30
0.000000000000000
11
-51.2681699913270
21
15.1369509065245
31
0.000000000000000
  0
LINE
  5
F10690
330
F10691
100
AcDbEntity
8
Geo
100
AcDbLine
10
-51.2681699913270
20
15.1369509065245
30
0.000000000000000
11
-51.1681699913270
21
15.0792729717518
31
0.000000000000000
  0
LINE
  5
F10692
330
F10693
100
AcDbEntity
8
Geo
100
AcDbLine
10
-51.1681699913270
20
15.0792729717518
30
0.000000000000000
11
-51.0681699913270
21
15.0215780342280
31
0.000000000000000
  0
LINE
  5
F10694
330
F10695
100
AcDbEntity
8
Geo
100
AcDbLine
10
-51.0681699913270
20
15.0215780342280
30
0.000000000000000
11
-50.9681699913270
21
14.9638690988850
31
0.000000000000000
  0
LINE
  5
F10696
330
F10697
100
AcDbEntity
8
Geo
100
AcDbLine
10
-50.9681699913270
20
14.9638690988850
30
0.000000000000000
11
-50.8681699913270
21
14.9061491713866
31
0.000000000000000
  0
LINE
  5
F10698
330
F10699
100
AcDbEntity
8
Geo
100
AcDbLine
10
-50.8681699913270
20
14.9061491713866
30
0.000000000000000
11
-50.7681699913270
21
14.8484212579899
31
0.000000000000000
  0
LINE
  5
F1069A
330
F1069B
100
AcDbEntity
8
Geo
100
AcDbLine
10
-50.7681699913270
20
14.8484212579899
30
0.000000000000000
11
-50.6681699913270
21
14.7906883654730
31
0.000000000000000
  0
LINE
  5
F1069C
330
F1069D
100
AcDbEntity
8
Geo
100
AcDbLine
10
-50.6681699913270
20
14.7906883654730
30
0.000000000000000
11
-50.5681699913270
21
14.7329535012820
31
0.000000000000000
  0
LINE
  5
F1069E
330
F1069F
100
AcDbEntity
8
Geo
100
AcDbLine
10
-50.5681699913270
20
14.7329535012820
30
0.000000000000000
11
-50.4681699913270
21
14.6752196742846
31
0.000000000000000
  0
LINE
  5
F106A0
330
F106A1
100
AcDbEntity
8
Geo
100
AcDbLine
10
-50.4681699913270
20
14.6752196742846
30
0.000000000000000
11
-50.3681699913270
21
14.6174898969773
31
0.000000000000000
  0
LINE
  5
F106A2
330
F106A3
100
AcDbEntity
8
Geo
100
AcDbLine
10
-50.3681699913270
20
14.6174898969773
30
0.000000000000000
11
-50.2681699913270
21
14.5597671908247
31
0.000000000000000
  0
LINE
  5
F106A4
330
F106A5
100
AcDbEntity
8
Geo
100
AcDbLine
10
-50.2681699913270
20
14.5597671908247
30
0.000000000000000
11
-50.1681699913270
21
14.5020545977991
31
0.000000000000000
  0
LINE
  5
F106A6
330
F106A7
100
AcDbEntity
8
Geo
100
AcDbLine
10
-50.1681699913270
20
14.5020545977991
30
0.000000000000000
11
-50.0681699913270
21
14.4443552033827
31
0.000000000000000
  0
LINE
  5
F106A8
330
F106A9
100
AcDbEntity
8
Geo
100
AcDbLine
10
-50.0681699913270
20
14.4443552033827
30
0.000000000000000
11
-49.9681699913270
21
14.3866721796043
31
0.000000000000000
  0
LINE
  5
F106AA
330
F106AB
100
AcDbEntity
8
Geo
100
AcDbLine
10
-49.9681699913270
20
14.3866721796043
30
0.000000000000000
11
-49.8681699913270
21
14.3290088614816
31
0.000000000000000
  0
LINE
  5
F106AC
330
F106AD
100
AcDbEntity
8
Geo
100
AcDbLine
10
-49.8681699913270
20
14.3290088614816
30
0.000000000000000
11
-49.7681699913270
21
14.2713688769853
31
0.000000000000000
  0
LINE
  5
F106AE
330
F106AF
100
AcDbEntity
8
Geo
100
AcDbLine
10
-49.7681699913270
20
14.2713688769853
30
0.000000000000000
11
-49.6681699913270
21
14.2137563598696
31
0.000000000000000
  0
LINE
  5
F106B0
330
F106B1
100
AcDbEntity
8
Geo
100
AcDbLine
10
-49.6681699913270
20
14.2137563598696
30
0.000000000000000
11
-49.5681699913270
21
14.1561762870417
31
0.000000000000000
  0
LINE
  5
F106B2
330
F106B3
100
AcDbEntity
8
Geo
100
AcDbLine
10
-49.5681699913270
20
14.1561762870417
30
0.000000000000000
11
-49.4681699913270
21
14.0986349982923
31
0.000000000000000
  0
LINE
  5
F106B4
330
F106B5
100
AcDbEntity
8
Geo
100
AcDbLine
10
-49.4681699913270
20
14.0986349982923
30
0.000000000000000
11
-49.3681699913270
21
14.0411409769873
31
0.000000000000000
  0
LINE
  5
F106B6
330
F106B7
100
AcDbEntity
8
Geo
100
AcDbLine
10
-49.3681699913270
20
14.0411409769873
30
0.000000000000000
11
-49.2681699913269
21
13.9837059966458
31
0.000000000000000
  0
LINE
  5
F106B8
330
F106B9
100
AcDbEntity
8
Geo
100
AcDbLine
10
-49.2681699913269
20
13.9837059966458
30
0.000000000000000
11
-49.1681699913269
21
13.9263467712169
31
0.000000000000000
  0
LINE
  5
F106BA
330
F106BB
100
AcDbEntity
8
Geo
100
AcDbLine
10
-49.1681699913269
20
13.9263467712169
30
0.000000000000000
11
-49.0681699913269
21
13.8690872874627
31
0.000000000000000
  0
LINE
  5
F106BC
330
F106BD
100
AcDbEntity
8
Geo
100
AcDbLine
10
-49.0681699913269
20
13.8690872874627
30
0.000000000000000
11
-48.9681699913269
21
13.8119620473984
31
0.000000000000000
  0
LINE
  5
F106BE
330
F106BF
100
AcDbEntity
8
Geo
100
AcDbLine
10
-48.9681699913269
20
13.8119620473984
30
0.000000000000000
11
-48.8681699913269
21
13.7550205086401
31
0.000000000000000
  0
LINE
  5
F106C0
330
F106C1
100
AcDbEntity
8
Geo
100
AcDbLine
10
-48.8681699913269
20
13.7550205086401
30
0.000000000000000
11
-48.7681699913269
21
13.6983330823062
31
0.000000000000000
  0
LINE
  5
F106C2
330
F106C3
100
AcDbEntity
8
Geo
100
AcDbLine
10
-48.7681699913269
20
13.6983330823062
30
0.000000000000000
11
-48.6681699913269
21
13.6419991335676
31
0.000000000000000
  0
LINE
  5
F106C4
330
F106C5
100
AcDbEntity
8
Geo
100
AcDbLine
10
-48.6681699913269
20
13.6419991335676
30
0.000000000000000
11
-48.5681699913269
21
13.5861575310794
31
0.000000000000000
  0
LINE
  5
F106C6
330
F106C7
100
AcDbEntity
8
Geo
100
AcDbLine
10
-48.5681699913269
20
13.5861575310794
30
0.000000000000000
11
-48.4681699913269
21
13.5310004107931
31
0.000000000000000
  0
LINE
  5
F106C8
330
F106C9
100
AcDbEntity
8
Geo
100
AcDbLine
10
-48.4681699913269
20
13.5310004107931
30
0.000000000000000
11
-48.3681699913269
21
13.4767909601248
31
0.000000000000000
  0
LINE
  5
F106CA
330
F106CB
100
AcDbEntity
8
Geo
100
AcDbLine
10
-48.3681699913269
20
13.4767909601248
30
0.000000000000000
11
-48.2681699913269
21
13.4238861942385
31
0.000000000000000
  0
LINE
  5
F106CC
330
F106CD
100
AcDbEntity
8
Geo
100
AcDbLine
10
-48.2681699913269
20
13.4238861942385
30
0.000000000000000
11
-48.1681699913269
21
13.3727658929582
31
0.000000000000000
  0
LINE
  5
F106CE
330
F106CF
100
AcDbEntity
8
Geo
100
AcDbLine
10
-48.1681699913269
20
13.3727658929582
30
0.000000000000000
11
-48.0681699913269
21
13.3240691027321
31
0.000000000000000
  0
LINE
  5
F106D0
330
F106D1
100
AcDbEntity
8
Geo
100
AcDbLine
10
-48.0681699913269
20
13.3240691027321
30
0.000000000000000
11
-47.9681699913269
21
13.2786398950446
31
0.000000000000000
  0
LINE
  5
F106D2
330
F106D3
100
AcDbEntity
8
Geo
100
AcDbLine
10
-47.9681699913269
20
13.2786398950446
30
0.000000000000000
11
-47.8681699913269
21
13.2375844280778
31
0.000000000000000
  0
LINE
  5
F106D4
330
F106D5
100
AcDbEntity
8
Geo
100
AcDbLine
10
-47.8681699913269
20
13.2375844280778
30
0.000000000000000
11
-47.7681699913269
21
13.2023418069633
31
0.000000000000000
  0
LINE
  5
F106D6
330
F106D7
100
AcDbEntity
8
Geo
100
AcDbLine
10
-47.7681699913269
20
13.2023418069633
30
0.000000000000000
11
-47.6681699913269
21
13.1747718130847
31
0.000000000000000
  0
LINE
  5
F106D8
330
F106D9
100
AcDbEntity
8
Geo
100
AcDbLine
10
-47.6681699913269
20
13.1747718130847
30
0.000000000000000
11
-47.5681699913269
21
13.1572633158231
31
0.000000000000000
  0
LINE
  5
F106DA
330
F106DB
100
AcDbEntity
8
Geo
100
AcDbLine
10
-47.5681699913269
20
13.1572633158231
30
0.000000000000000
11
-47.4681699913269
21
13.1528681322554
31
0.000000000000000
  0
LINE
  5
F106DC
330
F106DD
100
AcDbEntity
8
Geo
100
AcDbLine
10
-47.4681699913269
20
13.1528681322554
30
0.000000000000000
11
-47.3681699913269
21
13.1654662794565
31
0.000000000000000
  0
LINE
  5
F106DE
330
F106DF
100
AcDbEntity
8
Geo
100
AcDbLine
10
-47.3681699913269
20
13.1654662794565
30
0.000000000000000
11
-47.2681699913269
21
13.1999699059169
31
0.000000000000000
  0
LINE
  5
F106E0
330
F106E1
100
AcDbEntity
8
Geo
100
AcDbLine
10
-47.2681699913269
20
13.1999699059169
30
0.000000000000000
11
-47.1681699913269
21
13.2625744155751
31
0.000000000000000
  0
LINE
  5
F106E2
330
F106E3
100
AcDbEntity
8
Geo
100
AcDbLine
10
-47.1681699913269
20
13.2625744155751
30
0.000000000000000
11
-47.0681699913269
21
13.3610656437821
31
0.000000000000000
  0
LINE
  5
F106E4
330
F106E5
100
AcDbEntity
8
Geo
100
AcDbLine
10
-47.0681699913269
20
13.3610656437821
30
0.000000000000000
11
-46.9681699913269
21
13.5051896001480
31
0.000000000000000
  0
LINE
  5
F106E6
330
F106E7
100
AcDbEntity
8
Geo
100
AcDbLine
10
-46.9681699913269
20
13.5051896001480
30
0.000000000000000
11
-46.8681699913269
21
13.7070823310734
31
0.000000000000000
  0
LINE
  5
F106E8
330
F106E9
100
AcDbEntity
8
Geo
100
AcDbLine
10
-46.8681699913269
20
13.7070823310734
30
0.000000000000000
11
-46.7681699913269
21
13.9817338084088
31
0.000000000000000
  0
LINE
  5
F106EA
330
F106EB
100
AcDbEntity
8
Geo
100
AcDbLine
10
-46.7681699913269
20
13.9817338084088
30
0.000000000000000
11
-46.6681699913269
21
14.3474055662394
31
0.000000000000000
  0
LINE
  5
F106EC
330
F106ED
100
AcDbEntity
8
Geo
100
AcDbLine
10
-46.6681699913269
20
14.3474055662394
30
0.000000000000000
11
-46.5681699913269
21
14.8258072119496
31
0.000000000000000
  0
LINE
  5
F106EE
330
F106EF
100
AcDbEntity
8
Geo
100
AcDbLine
10
-46.5681699913269
20
14.8258072119496
30
0.000000000000000
11
-46.4681699913269
21
15.4416083740445
31
0.000000000000000
  0
LINE
  5
F106F0
330
F106F1
100
AcDbEntity
8
Geo
100
AcDbLine
10
-46.4681699913269
20
15.4416083740445
30
0.000000000000000
11
-46.3681699913270
21
16.2204308082678
31
0.000000000000000
  0
LINE
  5
F106F2
330
F106F3
100
AcDbEntity
8
Geo
100
AcDbLine
10
-46.3681699913270
20
16.2204308082678
30
0.000000000000000
11
-46.3681699913270
21
16.4175961732214
31
0.000000000000000
  0
LINE
  5
F106F4
330
F106F5
100
AcDbEntity
8
Geo
100
AcDbLine
10
-46.3681699913270
20
16.4175961732214
30
0.000000000000000
11
-46.4681699913269
21
17.1283217922747
31
0.000000000000000
  0
LINE
  5
F106F6
330
F106F7
100
AcDbEntity
8
Geo
100
AcDbLine
10
-46.4681699913269
20
17.1283217922747
30
0.000000000000000
11
-46.5681699913269
21
17.7582536367027
31
0.000000000000000
  0
LINE
  5
F106F8
330
F106F9
100
AcDbEntity
8
Geo
100
AcDbLine
10
-46.5681699913269
20
17.7582536367027
30
0.000000000000000
11
-46.6681699913269
21
18.3131123666595
31
0.000000000000000
  0
LINE
  5
F106FA
330
F106FB
100
AcDbEntity
8
Geo
100
AcDbLine
10
-46.6681699913269
20
18.3131123666595
30
0.000000000000000
11
-46.7681699913269
21
18.7995101036909
31
0.000000000000000
  0
LINE
  5
F106FC
330
F106FD
100
AcDbEntity
8
Geo
100
AcDbLine
10
-46.7681699913269
20
18.7995101036909
30
0.000000000000000
11
-46.8681699913269
21
19.2243632482074
31
0.000000000000000
  0
LINE
  5
F106FE
330
F106FF
100
AcDbEntity
8
Geo
100
AcDbLine
10
-46.8681699913269
20
19.2243632482074
30
0.000000000000000
11
-46.9681699913269
21
19.5944992878833
31
0.000000000000000
  0
LINE
  5
F10700
330
F10701
100
AcDbEntity
8
Geo
100
AcDbLine
10
-46.9681699913269
20
19.5944992878833
30
0.000000000000000
11
-47.0681699913269
21
19.9164083498875
31
0.000000000000000
  0
LINE
  5
F10702
330
F10703
100
AcDbEntity
8
Geo
100
AcDbLine
10
-47.0681699913269
20
19.9164083498875
30
0.000000000000000
11
-47.1681699913269
21
20.1960995706746
31
0.000000000000000
  0
LINE
  5
F10704
330
F10705
100
AcDbEntity
8
Geo
100
AcDbLine
10
-47.1681699913269
20
20.1960995706746
30
0.000000000000000
11
-47.2681699913269
21
20.4390310642977
31
0.000000000000000
  0
LINE
  5
F10706
330
F10707
100
AcDbEntity
8
Geo
100
AcDbLine
10
-47.2681699913269
20
20.4390310642977
30
0.000000000000000
11
-47.3681699913269
21
20.6500897897454
31
0.000000000000000
  0
LINE
  5
F10708
330
F10709
100
AcDbEntity
8
Geo
100
AcDbLine
10
-47.3681699913269
20
20.6500897897454
30
0.000000000000000
11
-47.4681699913269
21
20.8336037887922
31
0.000000000000000
  0
LINE
  5
F1070A
330
F1070B
100
AcDbEntity
8
Geo
100
AcDbLine
10
-47.4681699913269
20
20.8336037887922
30
0.000000000000000
11
-47.5681699913269
21
20.9933741474267
31
0.000000000000000
  0
LINE
  5
F1070C
330
F1070D
100
AcDbEntity
8
Geo
100
AcDbLine
10
-47.5681699913269
20
20.9933741474267
30
0.000000000000000
11
-47.6681699913269
21
21.1327177864949
31
0.000000000000000
  0
LINE
  5
F1070E
330
F1070F
100
AcDbEntity
8
Geo
100
AcDbLine
10
-47.6681699913269
20
21.1327177864949
30
0.000000000000000
11
-47.7681699913269
21
21.2545150037393
31
0.000000000000000
  0
LINE
  5
F10710
330
F10711
100
AcDbEntity
8
Geo
100
AcDbLine
10
-47.7681699913269
20
21.2545150037393
30
0.000000000000000
11
-47.8681699913269
21
21.3612577587487
31
0.000000000000000
  0
LINE
  5
F10712
330
F10713
100
AcDbEntity
8
Geo
100
AcDbLine
10
-47.8681699913269
20
21.3612577587487
30
0.000000000000000
11
-47.9681699913269
21
21.4550961818509
31
0.000000000000000
  0
LINE
  5
F10714
330
F10715
100
AcDbEntity
8
Geo
100
AcDbLine
10
-47.9681699913269
20
21.4550961818509
30
0.000000000000000
11
-48.0681699913269
21
21.5378818376672
31
0.000000000000000
  0
LINE
  5
F10716
330
F10717
100
AcDbEntity
8
Geo
100
AcDbLine
10
-48.0681699913269
20
21.5378818376672
30
0.000000000000000
11
-48.1681699913269
21
21.6112069963957
31
0.000000000000000
  0
LINE
  5
F10718
330
F10719
100
AcDbEntity
8
Geo
100
AcDbLine
10
-48.1681699913269
20
21.6112069963957
30
0.000000000000000
11
-48.2681699913269
21
21.6764396488206
31
0.000000000000000
  0
LINE
  5
F1071A
330
F1071B
100
AcDbEntity
8
Geo
100
AcDbLine
10
-48.2681699913269
20
21.6764396488206
30
0.000000000000000
11
-48.3681699913269
21
21.7347543117164
31
0.000000000000000
  0
LINE
  5
F1071C
330
F1071D
100
AcDbEntity
8
Geo
100
AcDbLine
10
-48.3681699913269
20
21.7347543117164
30
0.000000000000000
11
-48.4681699913269
21
21.7871588591772
31
0.000000000000000
  0
LINE
  5
F1071E
330
F1071F
100
AcDbEntity
8
Geo
100
AcDbLine
10
-48.4681699913269
20
21.7871588591772
30
0.000000000000000
11
-48.5681699913269
21
21.8345177197541
31
0.000000000000000
  0
LINE
  5
F10720
330
F10721
100
AcDbEntity
8
Geo
100
AcDbLine
10
-48.5681699913269
20
21.8345177197541
30
0.000000000000000
11
-48.6681699913269
21
21.8775718263414
31
0.000000000000000
  0
LINE
  5
F10722
330
F10723
100
AcDbEntity
8
Geo
100
AcDbLine
10
-48.6681699913269
20
21.8775718263414
30
0.000000000000000
11
-48.7681699913269
21
21.9169557151243
31
0.000000000000000
  0
LINE
  5
F10724
330
F10725
100
AcDbEntity
8
Geo
100
AcDbLine
10
-48.7681699913269
20
21.9169557151243
30
0.000000000000000
11
-48.8681699913269
21
21.9532121555200
31
0.000000000000000
  0
LINE
  5
F10726
330
F10727
100
AcDbEntity
8
Geo
100
AcDbLine
10
-48.8681699913269
20
21.9532121555200
30
0.000000000000000
11
-48.9681699913269
21
21.9868046646673
31
0.000000000000000
  0
LINE
  5
F10728
330
F10729
100
AcDbEntity
8
Geo
100
AcDbLine
10
-48.9681699913269
20
21.9868046646673
30
0.000000000000000
11
-49.0681699913269
21
22.0181282243717
31
0.000000000000000
  0
LINE
  5
F1072A
330
F1072B
100
AcDbEntity
8
Geo
100
AcDbLine
10
-49.0681699913269
20
22.0181282243717
30
0.000000000000000
11
-49.1681699913269
21
22.0475184800107
31
0.000000000000000
  0
LINE
  5
F1072C
330
F1072D
100
AcDbEntity
8
Geo
100
AcDbLine
10
-49.1681699913269
20
22.0475184800107
30
0.000000000000000
11
-49.2681699913269
21
22.0752596627036
31
0.000000000000000
  0
LINE
  5
F1072E
330
F1072F
100
AcDbEntity
8
Geo
100
AcDbLine
10
-49.2681699913269
20
22.0752596627036
30
0.000000000000000
11
-49.3681699913270
21
22.1015914398931
31
0.000000000000000
  0
LINE
  5
F10730
330
F10731
100
AcDbEntity
8
Geo
100
AcDbLine
10
-49.3681699913270
20
22.1015914398931
30
0.000000000000000
11
-49.4681699913270
21
22.1267148664334
31
0.000000000000000
  0
LINE
  5
F10732
330
F10733
100
AcDbEntity
8
Geo
100
AcDbLine
10
-49.4681699913270
20
22.1267148664334
30
0.000000000000000
11
-49.5681699913270
21
22.1507975788648
31
0.000000000000000
  0
LINE
  5
F10734
330
F10735
100
AcDbEntity
8
Geo
100
AcDbLine
10
-49.5681699913270
20
22.1507975788648
30
0.000000000000000
11
-49.6681699913270
21
22.1739783499416
31
0.000000000000000
  0
LINE
  5
F10736
330
F10737
100
AcDbEntity
8
Geo
100
AcDbLine
10
-49.6681699913270
20
22.1739783499416
30
0.000000000000000
11
-49.7681699913270
21
22.1963710986004
31
0.000000000000000
  0
LINE
  5
F10738
330
F10739
100
AcDbEntity
8
Geo
100
AcDbLine
10
-49.7681699913270
20
22.1963710986004
30
0.000000000000000
11
-49.8681699913270
21
22.2180684321913
31
0.000000000000000
  0
LINE
  5
F1073A
330
F1073B
100
AcDbEntity
8
Geo
100
AcDbLine
10
-49.8681699913270
20
22.2180684321913
30
0.000000000000000
11
-49.9681699913270
21
22.2391447826373
31
0.000000000000000
  0
LINE
  5
F1073C
330
F1073D
100
AcDbEntity
8
Geo
100
AcDbLine
10
-49.9681699913270
20
22.2391447826373
30
0.000000000000000
11
-50.0681699913270
21
22.2596591858915
31
0.000000000000000
  0
LINE
  5
F1073E
330
F1073F
100
AcDbEntity
8
Geo
100
AcDbLine
10
-50.0681699913270
20
22.2596591858915
30
0.000000000000000
11
-50.1681699913270
21
22.2796577442566
31
0.000000000000000
  0
LINE
  5
F10740
330
F10741
100
AcDbEntity
8
Geo
100
AcDbLine
10
-50.1681699913270
20
22.2796577442566
30
0.000000000000000
11
-50.2681699913270
21
22.2991758034695
31
0.000000000000000
  0
LINE
  5
F10742
330
F10743
100
AcDbEntity
8
Geo
100
AcDbLine
10
-50.2681699913270
20
22.2991758034695
30
0.000000000000000
11
-50.3681699913270
21
22.3182398705808
31
0.000000000000000
  0
LINE
  5
F10744
330
F10745
100
AcDbEntity
8
Geo
100
AcDbLine
10
-50.3681699913270
20
22.3182398705808
30
0.000000000000000
11
-50.4681699913270
21
22.3368692942752
31
0.000000000000000
  0
LINE
  5
F10746
330
F10747
100
AcDbEntity
8
Geo
100
AcDbLine
10
-50.4681699913270
20
22.3368692942752
30
0.000000000000000
11
-50.5681699913270
21
22.3550777260915
31
0.000000000000000
  0
LINE
  5
F10748
330
F10749
100
AcDbEntity
8
Geo
100
AcDbLine
10
-50.5681699913270
20
22.3550777260915
30
0.000000000000000
11
-50.6681699913270
21
22.3728743787657
31
0.000000000000000
  0
LINE
  5
F1074A
330
F1074B
100
AcDbEntity
8
Geo
100
AcDbLine
10
-50.6681699913270
20
22.3728743787657
30
0.000000000000000
11
-50.7681699913270
21
22.3902650964191
31
0.000000000000000
  0
LINE
  5
F1074C
330
F1074D
100
AcDbEntity
8
Geo
100
AcDbLine
10
-50.7681699913270
20
22.3902650964191
30
0.000000000000000
11
-50.8681699913270
21
22.4072532503645
31
0.000000000000000
  0
LINE
  5
F1074E
330
F1074F
100
AcDbEntity
8
Geo
100
AcDbLine
10
-50.8681699913270
20
22.4072532503645
30
0.000000000000000
11
-50.9681699913270
21
22.4238404737538
31
0.000000000000000
  0
LINE
  5
F10750
330
F10751
100
AcDbEntity
8
Geo
100
AcDbLine
10
-50.9681699913270
20
22.4238404737538
30
0.000000000000000
11
-51.0681699913270
21
22.4400272480185
31
0.000000000000000
  0
LINE
  5
F10752
330
F10753
100
AcDbEntity
8
Geo
100
AcDbLine
10
-51.0681699913270
20
22.4400272480185
30
0.000000000000000
11
-51.1681699913270
21
22.4558133539648
31
0.000000000000000
  0
LINE
  5
F10754
330
F10755
100
AcDbEntity
8
Geo
100
AcDbLine
10
-51.1681699913270
20
22.4558133539648
30
0.000000000000000
11
-51.2681699913270
21
22.4711982004076
31
0.000000000000000
  0
LINE
  5
F10756
330
F10757
100
AcDbEntity
8
Geo
100
AcDbLine
10
-51.2681699913270
20
22.4711982004076
30
0.000000000000000
11
-51.4681699913270
21
22.5007611085657
31
0.000000000000000
  0
LINE
  5
F10758
330
F10759
100
AcDbEntity
8
Geo
100
AcDbLine
10
-51.4681699913270
20
6.76842303647580
30
0.000000000000000
11
-51.2681699913270
21
6.76204640098887
31
0.000000000000000
  0
LINE
  5
F1075A
330
F1075B
100
AcDbEntity
8
Geo
100
AcDbLine
10
-51.2681699913270
20
6.76204640098887
30
0.000000000000000
11
-51.1681699913270
21
6.75948228201264
31
0.000000000000000
  0
LINE
  5
F1075C
330
F1075D
100
AcDbEntity
8
Geo
100
AcDbLine
10
-51.1681699913270
20
6.75948228201264
30
0.000000000000000
11
-51.0681699913270
21
6.75733448083633
31
0.000000000000000
  0
LINE
  5
F1075E
330
F1075F
100
AcDbEntity
8
Geo
100
AcDbLine
10
-51.0681699913270
20
6.75733448083633
30
0.000000000000000
11
-50.9681699913270
21
6.75560310932410
31
0.000000000000000
  0
LINE
  5
F10760
330
F10761
100
AcDbEntity
8
Geo
100
AcDbLine
10
-50.9681699913270
20
6.75560310932410
30
0.000000000000000
11
-50.8681699913270
21
6.75428825765122
31
0.000000000000000
  0
LINE
  5
F10762
330
F10763
100
AcDbEntity
8
Geo
100
AcDbLine
10
-50.8681699913270
20
6.75428825765122
30
0.000000000000000
11
-50.7681699913270
21
6.75338999429947
31
0.000000000000000
  0
LINE
  5
F10764
330
F10765
100
AcDbEntity
8
Geo
100
AcDbLine
10
-50.7681699913270
20
6.75338999429947
30
0.000000000000000
11
-50.6681699913270
21
6.75290836605320
31
0.000000000000000
  0
LINE
  5
F10766
330
F10767
100
AcDbEntity
8
Geo
100
AcDbLine
10
-50.6681699913270
20
6.75290836605320
30
0.000000000000000
11
-50.6025776802242
21
6.75281873373810
31
0.000000000000000
  0
LINE
  5
F10768
330
F10769
100
AcDbEntity
8
Geo
100
AcDbLine
10
-46.5834267277671
20
6.75281873373810
30
0.000000000000000
11
-46.5681699913269
21
6.75315169803915
31
0.000000000000000
  0
LINE
  5
F1076A
330
F1076B
100
AcDbEntity
8
Geo
100
AcDbLine
10
-46.5681699913269
20
6.75315169803915
30
0.000000000000000
11
-46.4681699913269
21
6.78252583878081
31
0.000000000000000
  0
LINE
  5
F1076C
330
F1076D
100
AcDbEntity
8
Geo
100
AcDbLine
10
-46.4681699913269
20
6.78252583878081
30
0.000000000000000
11
-46.3681699913270
21
6.88858865071695
31
0.000000000000000
  0
LINE
  5
F1076E
330
F1076F
100
AcDbEntity
8
Geo
100
AcDbLine
10
-46.3681699913270
20
6.88858865071695
30
0.000000000000000
11
-46.3681699913270
21
6.92795349036249
31
0.000000000000000
  0
LINE
  5
F10770
330
F10771
100
AcDbEntity
8
Geo
100
AcDbLine
10
-46.3681699913270
20
6.92795349036249
30
0.000000000000000
11
-46.4681699913269
21
7.11364435302891
31
0.000000000000000
  0
LINE
  5
F10772
330
F10773
100
AcDbEntity
8
Geo
100
AcDbLine
10
-46.4681699913269
20
7.11364435302891
30
0.000000000000000
11
-46.5681699913269
21
7.33882109116749
31
0.000000000000000
  0
LINE
  5
F10774
330
F10775
100
AcDbEntity
8
Geo
100
AcDbLine
10
-46.5681699913269
20
7.33882109116749
30
0.000000000000000
11
-46.6681699913269
21
7.58872009906121
31
0.000000000000000
  0
LINE
  5
F10776
330
F10777
100
AcDbEntity
8
Geo
100
AcDbLine
10
-46.6681699913269
20
7.58872009906121
30
0.000000000000000
11
-46.7681699913269
21
7.85178337979663
31
0.000000000000000
  0
LINE
  5
F10778
330
F10779
100
AcDbEntity
8
Geo
100
AcDbLine
10
-46.7681699913269
20
7.85178337979663
30
0.000000000000000
11
-46.8681699913269
21
8.11917044225325
31
0.000000000000000
  0
LINE
  5
F1077A
330
F1077B
100
AcDbEntity
8
Geo
100
AcDbLine
10
-46.8681699913269
20
8.11917044225325
30
0.000000000000000
11
-46.9681699913269
21
8.38429226275503
31
0.000000000000000
  0
LINE
  5
F1077C
330
F1077D
100
AcDbEntity
8
Geo
100
AcDbLine
10
-46.9681699913269
20
8.38429226275503
30
0.000000000000000
11
-47.0681699913269
21
8.64238975730818
31
0.000000000000000
  0
LINE
  5
F1077E
330
F1077F
100
AcDbEntity
8
Geo
100
AcDbLine
10
-47.0681699913269
20
8.64238975730818
30
0.000000000000000
11
-47.1681699913269
21
8.89016628537988
31
0.000000000000000
  0
LINE
  5
F10780
330
F10781
100
AcDbEntity
8
Geo
100
AcDbLine
10
-47.1681699913269
20
8.89016628537988
30
0.000000000000000
11
-47.2681699913269
21
9.12547572555101
31
0.000000000000000
  0
LINE
  5
F10782
330
F10783
100
AcDbEntity
8
Geo
100
AcDbLine
10
-47.2681699913269
20
9.12547572555101
30
0.000000000000000
11
-47.3681699913269
21
9.34706308887417
31
0.000000000000000
  0
LINE
  5
F10784
330
F10785
100
AcDbEntity
8
Geo
100
AcDbLine
10
-47.3681699913269
20
9.34706308887417
30
0.000000000000000
11
-47.4681699913269
21
9.55435231428024
31
0.000000000000000
  0
LINE
  5
F10786
330
F10787
100
AcDbEntity
8
Geo
100
AcDbLine
10
-47.4681699913269
20
9.55435231428024
30
0.000000000000000
11
-47.5681699913269
21
9.74727499417471
31
0.000000000000000
  0
LINE
  5
F10788
330
F10789
100
AcDbEntity
8
Geo
100
AcDbLine
10
-47.5681699913269
20
9.74727499417471
30
0.000000000000000
11
-47.6681699913269
21
9.92613373504246
31
0.000000000000000
  0
LINE
  5
F1078A
330
F1078B
100
AcDbEntity
8
Geo
100
AcDbLine
10
-47.6681699913269
20
9.92613373504246
30
0.000000000000000
11
-47.7681699913269
21
10.0914942854024
31
0.000000000000000
  0
LINE
  5
F1078C
330
F1078D
100
AcDbEntity
8
Geo
100
AcDbLine
10
-47.7681699913269
20
10.0914942854024
30
0.000000000000000
11
-47.8681699913269
21
10.2441012162263
31
0.000000000000000
  0
LINE
  5
F1078E
330
F1078F
100
AcDbEntity
8
Geo
100
AcDbLine
10
-47.8681699913269
20
10.2441012162263
30
0.000000000000000
11
-47.9681699913269
21
10.3848126659174
31
0.000000000000000
  0
LINE
  5
F10790
330
F10791
100
AcDbEntity
8
Geo
100
AcDbLine
10
-47.9681699913269
20
10.3848126659174
30
0.000000000000000
11
-48.0681699913269
21
10.5145503755875
31
0.000000000000000
  0
LINE
  5
F10792
330
F10793
100
AcDbEntity
8
Geo
100
AcDbLine
10
-48.0681699913269
20
10.5145503755875
30
0.000000000000000
11
-48.1681699913269
21
10.6342618944265
31
0.000000000000000
  0
LINE
  5
F10794
330
F10795
100
AcDbEntity
8
Geo
100
AcDbLine
10
-48.1681699913269
20
10.6342618944265
30
0.000000000000000
11
-48.2681699913269
21
10.7448924090370
31
0.000000000000000
  0
LINE
  5
F10796
330
F10797
100
AcDbEntity
8
Geo
100
AcDbLine
10
-48.2681699913269
20
10.7448924090370
30
0.000000000000000
11
-48.3681699913269
21
10.8473641398449
31
0.000000000000000
  0
LINE
  5
F10798
330
F10799
100
AcDbEntity
8
Geo
100
AcDbLine
10
-48.3681699913269
20
10.8473641398449
30
0.000000000000000
11
-48.4681699913269
21
10.9425616558445
31
0.000000000000000
  0
LINE
  5
F1079A
330
F1079B
100
AcDbEntity
8
Geo
100
AcDbLine
10
-48.4681699913269
20
10.9425616558445
30
0.000000000000000
11
-48.5681699913269
21
11.0313217941370
31
0.000000000000000
  0
LINE
  5
F1079C
330
F1079D
100
AcDbEntity
8
Geo
100
AcDbLine
10
-48.5681699913269
20
11.0313217941370
30
0.000000000000000
11
-48.6681699913269
21
11.1144271427408
31
0.000000000000000
  0
LINE
  5
F1079E
330
F1079F
100
AcDbEntity
8
Geo
100
AcDbLine
10
-48.6681699913269
20
11.1144271427408
30
0.000000000000000
11
-48.7681699913269
21
11.1926022639241
31
0.000000000000000
  0
LINE
  5
F107A0
330
F107A1
100
AcDbEntity
8
Geo
100
AcDbLine
10
-48.7681699913269
20
11.1926022639241
30
0.000000000000000
11
-48.8681699913269
21
11.2665120100604
31
0.000000000000000
  0
LINE
  5
F107A2
330
F107A3
100
AcDbEntity
8
Geo
100
AcDbLine
10
-48.8681699913269
20
11.2665120100604
30
0.000000000000000
11
-48.9681699913269
21
11.3367614228724
31
0.000000000000000
  0
LINE
  5
F107A4
330
F107A5
100
AcDbEntity
8
Geo
100
AcDbLine
10
-48.9681699913269
20
11.3367614228724
30
0.000000000000000
11
-49.0681699913269
21
11.4038968168654
31
0.000000000000000
  0
LINE
  5
F107A6
330
F107A7
100
AcDbEntity
8
Geo
100
AcDbLine
10
-49.0681699913269
20
11.4038968168654
30
0.000000000000000
11
-49.1681699913269
21
11.4684077345282
31
0.000000000000000
  0
LINE
  5
F107A8
330
F107A9
100
AcDbEntity
8
Geo
100
AcDbLine
10
-49.1681699913269
20
11.4684077345282
30
0.000000000000000
11
-49.2681699913269
21
11.5307295292295
31
0.000000000000000
  0
LINE
  5
F107AA
330
F107AB
100
AcDbEntity
8
Geo
100
AcDbLine
10
-49.2681699913269
20
11.5307295292295
30
0.000000000000000
11
-49.3681699913270
21
11.5912463854799
31
0.000000000000000
  0
LINE
  5
F107AC
330
F107AD
100
AcDbEntity
8
Geo
100
AcDbLine
10
-49.3681699913270
20
11.5912463854799
30
0.000000000000000
11
-49.4681699913270
21
11.6502946283973
31
0.000000000000000
  0
LINE
  5
F107AE
330
F107AF
100
AcDbEntity
8
Geo
100
AcDbLine
10
-49.4681699913270
20
11.6502946283973
30
0.000000000000000
11
-49.5681699913270
21
11.7081662072488
31
0.000000000000000
  0
LINE
  5
F107B0
330
F107B1
100
AcDbEntity
8
Geo
100
AcDbLine
10
-49.5681699913270
20
11.7081662072488
30
0.000000000000000
11
-49.6681699913270
21
11.7651122637464
31
0.000000000000000
  0
LINE
  5
F107B2
330
F107B3
100
AcDbEntity
8
Geo
100
AcDbLine
10
-49.6681699913270
20
11.7651122637464
30
0.000000000000000
11
-49.7681699913270
21
11.8213467158684
31
0.000000000000000
  0
LINE
  5
F107B4
330
F107B5
100
AcDbEntity
8
Geo
100
AcDbLine
10
-49.7681699913270
20
11.8213467158684
30
0.000000000000000
11
-49.8681699913270
21
11.8770498035657
31
0.000000000000000
  0
LINE
  5
F107B6
330
F107B7
100
AcDbEntity
8
Geo
100
AcDbLine
10
-49.8681699913270
20
11.8770498035657
30
0.000000000000000
11
-49.9681699913270
21
11.9323715547304
31
0.000000000000000
  0
LINE
  5
F107B8
330
F107B9
100
AcDbEntity
8
Geo
100
AcDbLine
10
-49.9681699913270
20
11.9323715547304
30
0.000000000000000
11
-50.0681699913270
21
11.9874351390241
31
0.000000000000000
  0
LINE
  5
F107BA
330
F107BB
100
AcDbEntity
8
Geo
100
AcDbLine
10
-50.0681699913270
20
11.9874351390241
30
0.000000000000000
11
-50.1681699913270
21
12.0423400841750
31
0.000000000000000
  0
LINE
  5
F107BC
330
F107BD
100
AcDbEntity
8
Geo
100
AcDbLine
10
-50.1681699913270
20
12.0423400841750
30
0.000000000000000
11
-50.2681699913270
21
12.0971653346448
31
0.000000000000000
  0
LINE
  5
F107BE
330
F107BF
100
AcDbEntity
8
Geo
100
AcDbLine
10
-50.2681699913270
20
12.0971653346448
30
0.000000000000000
11
-50.3681699913270
21
12.1519721365290
31
0.000000000000000
  0
LINE
  5
F107C0
330
F107C1
100
AcDbEntity
8
Geo
100
AcDbLine
10
-50.3681699913270
20
12.1519721365290
30
0.000000000000000
11
-50.4681699913270
21
12.2068067354911
31
0.000000000000000
  0
LINE
  5
F107C2
330
F107C3
100
AcDbEntity
8
Geo
100
AcDbLine
10
-50.4681699913270
20
12.2068067354911
30
0.000000000000000
11
-50.5681699913270
21
12.2617028767009
31
0.000000000000000
  0
LINE
  5
F107C4
330
F107C5
100
AcDbEntity
8
Geo
100
AcDbLine
10
-50.5681699913270
20
12.2617028767009
30
0.000000000000000
11
-50.6681699913270
21
12.3166840973350
31
0.000000000000000
  0
LINE
  5
F107C6
330
F107C7
100
AcDbEntity
8
Geo
100
AcDbLine
10
-50.6681699913270
20
12.3166840973350
30
0.000000000000000
11
-50.7681699913270
21
12.3717658033791
31
0.000000000000000
  0
LINE
  5
F107C8
330
F107C9
100
AcDbEntity
8
Geo
100
AcDbLine
10
-50.7681699913270
20
12.3717658033791
30
0.000000000000000
11
-50.8681699913270
21
12.4269571233497
31
0.000000000000000
  0
LINE
  5
F107CA
330
F107CB
100
AcDbEntity
8
Geo
100
AcDbLine
10
-50.8681699913270
20
12.4269571233497
30
0.000000000000000
11
-50.9681699913270
21
12.4822625322301
31
0.000000000000000
  0
LINE
  5
F107CC
330
F107CD
100
AcDbEntity
8
Geo
100
AcDbLine
10
-50.9681699913270
20
12.4822625322301
30
0.000000000000000
11
-51.0681699913270
21
12.5376832394680
31
0.000000000000000
  0
LINE
  5
F107CE
330
F107CF
100
AcDbEntity
8
Geo
100
AcDbLine
10
-51.0681699913270
20
12.5376832394680
30
0.000000000000000
11
-51.1681699913270
21
12.5932183353405
31
0.000000000000000
  0
LINE
  5
F107D0
330
F107D1
100
AcDbEntity
8
Geo
100
AcDbLine
10
-51.1681699913270
20
12.5932183353405
30
0.000000000000000
11
-51.2681699913270
21
12.6488656904183
31
0.000000000000000
  0
LINE
  5
F107D2
330
F107D3
100
AcDbEntity
8
Geo
100
AcDbLine
10
-51.2681699913270
20
12.6488656904183
30
0.000000000000000
11
-51.4681699913270
21
12.7604861921299
31
0.000000000000000
  0
LINE
  5
F107D4
330
F107D5
100
AcDbEntity
8
Geo
100
AcDbLine
10
-50.6025776802242
20
22.7528187337381
30
0.000000000000000
11
-50.5681699913270
21
22.7527940694838
31
0.000000000000000
  0
LINE
  5
F107D6
330
F107D7
100
AcDbEntity
8
Geo
100
AcDbLine
10
-50.5681699913270
20
22.7527940694838
30
0.000000000000000
11
-50.4681699913270
21
22.7524423740084
31
0.000000000000000
  0
LINE
  5
F107D8
330
F107D9
100
AcDbEntity
8
Geo
100
AcDbLine
10
-50.4681699913270
20
22.7524423740084
30
0.000000000000000
11
-50.3681699913270
21
22.7516740334632
31
0.000000000000000
  0
LINE
  5
F107DA
330
F107DB
100
AcDbEntity
8
Geo
100
AcDbLine
10
-50.3681699913270
20
22.7516740334632
30
0.000000000000000
11
-50.2681699913270
21
22.7504890883963
31
0.000000000000000
  0
LINE
  5
F107DC
330
F107DD
100
AcDbEntity
8
Geo
100
AcDbLine
10
-50.2681699913270
20
22.7504890883963
30
0.000000000000000
11
-50.1681699913270
21
22.7488876021338
31
0.000000000000000
  0
LINE
  5
F107DE
330
F107DF
100
AcDbEntity
8
Geo
100
AcDbLine
10
-50.1681699913270
20
22.7488876021338
30
0.000000000000000
11
-50.0681699913270
21
22.7468696624250
31
0.000000000000000
  0
LINE
  5
F107E0
330
F107E1
100
AcDbEntity
8
Geo
100
AcDbLine
10
-50.0681699913270
20
22.7468696624250
30
0.000000000000000
11
-49.9681699913270
21
22.7444353850106
31
0.000000000000000
  0
LINE
  5
F107E2
330
F107E3
100
AcDbEntity
8
Geo
100
AcDbLine
10
-49.9681699913270
20
22.7444353850106
30
0.000000000000000
11
-49.8681699913270
21
22.7415849208397
31
0.000000000000000
  0
LINE
  5
F107E4
330
F107E5
100
AcDbEntity
8
Geo
100
AcDbLine
10
-49.8681699913270
20
22.7415849208397
30
0.000000000000000
11
-49.7681699913270
21
22.7383184698493
31
0.000000000000000
  0
LINE
  5
F107E6
330
F107E7
100
AcDbEntity
8
Geo
100
AcDbLine
10
-49.7681699913270
20
22.7383184698493
30
0.000000000000000
11
-49.6681699913270
21
22.7346363060132
31
0.000000000000000
  0
LINE
  5
F107E8
330
F107E9
100
AcDbEntity
8
Geo
100
AcDbLine
10
-49.6681699913270
20
22.7346363060132
30
0.000000000000000
11
-49.5681699913270
21
22.7305388210061
31
0.000000000000000
  0
LINE
  5
F107EA
330
F107EB
100
AcDbEntity
8
Geo
100
AcDbLine
10
-49.5681699913270
20
22.7305388210061
30
0.000000000000000
11
-49.4681699913270
21
22.7260265975955
31
0.000000000000000
  0
LINE
  5
F107EC
330
F107ED
100
AcDbEntity
8
Geo
100
AcDbLine
10
-49.4681699913270
20
22.7260265975955
30
0.000000000000000
11
-49.3681699913270
21
22.7211005291157
31
0.000000000000000
  0
LINE
  5
F107EE
330
F107EF
100
AcDbEntity
8
Geo
100
AcDbLine
10
-49.3681699913270
20
22.7211005291157
30
0.000000000000000
11
-49.2681699913269
21
22.7157620085356
31
0.000000000000000
  0
LINE
  5
F107F0
330
F107F1
100
AcDbEntity
8
Geo
100
AcDbLine
10
-49.2681699913269
20
22.7157620085356
30
0.000000000000000
11
-49.1681699913269
21
22.7100132201866
31
0.000000000000000
  0
LINE
  5
F107F2
330
F107F3
100
AcDbEntity
8
Geo
100
AcDbLine
10
-49.1681699913269
20
22.7100132201866
30
0.000000000000000
11
-49.0681699913269
21
22.7038575797546
31
0.000000000000000
  0
LINE
  5
F107F4
330
F107F5
100
AcDbEntity
8
Geo
100
AcDbLine
10
-49.0681699913269
20
22.7038575797546
30
0.000000000000000
11
-48.9681699913269
21
22.6973003842783
31
0.000000000000000
  0
LINE
  5
F107F6
330
F107F7
100
AcDbEntity
8
Geo
100
AcDbLine
10
-48.9681699913269
20
22.6973003842783
30
0.000000000000000
11
-48.8681699913269
21
22.6903497542754
31
0.000000000000000
  0
LINE
  5
F107F8
330
F107F9
100
AcDbEntity
8
Geo
100
AcDbLine
10
-48.8681699913269
20
22.6903497542754
30
0.000000000000000
11
-48.7681699913269
21
22.6830179753035
31
0.000000000000000
  0
LINE
  5
F107FA
330
F107FB
100
AcDbEntity
8
Geo
100
AcDbLine
10
-48.7681699913269
20
22.6830179753035
30
0.000000000000000
11
-48.6681699913269
21
22.6753233765816
31
0.000000000000000
  0
LINE
  5
F107FC
330
F107FD
100
AcDbEntity
8
Geo
100
AcDbLine
10
-48.6681699913269
20
22.6753233765816
30
0.000000000000000
11
-48.5681699913269
21
22.6672929195707
31
0.000000000000000
  0
LINE
  5
F107FE
330
F107FF
100
AcDbEntity
8
Geo
100
AcDbLine
10
-48.5681699913269
20
22.6672929195707
30
0.000000000000000
11
-48.4681699913269
21
22.6589657084481
31
0.000000000000000
  0
LINE
  5
F10800
330
F10801
100
AcDbEntity
8
Geo
100
AcDbLine
10
-48.4681699913269
20
22.6589657084481
30
0.000000000000000
11
-48.3681699913269
21
22.6503976742089
31
0.000000000000000
  0
LINE
  5
F10802
330
F10803
100
AcDbEntity
8
Geo
100
AcDbLine
10
-48.3681699913269
20
22.6503976742089
30
0.000000000000000
11
-48.2681699913269
21
22.6416677185685
31
0.000000000000000
  0
LINE
  5
F10804
330
F10805
100
AcDbEntity
8
Geo
100
AcDbLine
10
-48.2681699913269
20
22.6416677185685
30
0.000000000000000
11
-48.1681699913269
21
22.6328856215669
31
0.000000000000000
  0
LINE
  5
F10806
330
F10807
100
AcDbEntity
8
Geo
100
AcDbLine
10
-48.1681699913269
20
22.6328856215669
30
0.000000000000000
11
-48.0681699913269
21
22.6242019979363
31
0.000000000000000
  0
LINE
  5
F10808
330
F10809
100
AcDbEntity
8
Geo
100
AcDbLine
10
-48.0681699913269
20
22.6242019979363
30
0.000000000000000
11
-47.9681699913269
21
22.6158204984300
31
0.000000000000000
  0
LINE
  5
F1080A
330
F1080B
100
AcDbEntity
8
Geo
100
AcDbLine
10
-47.9681699913269
20
22.6158204984300
30
0.000000000000000
11
-47.8681699913269
21
22.6080122386080
31
0.000000000000000
  0
LINE
  5
F1080C
330
F1080D
100
AcDbEntity
8
Geo
100
AcDbLine
10
-47.8681699913269
20
22.6080122386080
30
0.000000000000000
11
-47.7681699913269
21
22.6011320110952
31
0.000000000000000
  0
LINE
  5
F1080E
330
F1080F
100
AcDbEntity
8
Geo
100
AcDbLine
10
-47.7681699913269
20
22.6011320110952
30
0.000000000000000
11
-47.6681699913269
21
22.5956350592819
31
0.000000000000000
  0
LINE
  5
F10810
330
F10811
100
AcDbEntity
8
Geo
100
AcDbLine
10
-47.6681699913269
20
22.5956350592819
30
0.000000000000000
11
-47.5681699913269
21
22.5920918447071
31
0.000000000000000
  0
LINE
  5
F10812
330
F10813
100
AcDbEntity
8
Geo
100
AcDbLine
10
-47.5681699913269
20
22.5920918447071
30
0.000000000000000
11
-47.4681699913269
21
22.5911959939122
31
0.000000000000000
  0
LINE
  5
F10814
330
F10815
100
AcDbEntity
8
Geo
100
AcDbLine
10
-47.4681699913269
20
22.5911959939122
30
0.000000000000000
11
-47.3681699913269
21
22.5937569547603
31
0.000000000000000
  0
LINE
  5
F10816
330
F10817
100
AcDbEntity
8
Geo
100
AcDbLine
10
-47.3681699913269
20
22.5937569547603
30
0.000000000000000
11
-47.2681699913269
21
22.6006630567312
31
0.000000000000000
  0
LINE
  5
F10818
330
F10819
100
AcDbEntity
8
Geo
100
AcDbLine
10
-47.2681699913269
20
22.6006630567312
30
0.000000000000000
11
-47.1681699913269
21
22.6127914990970
31
0.000000000000000
  0
LINE
  5
F1081A
330
F1081B
100
AcDbEntity
8
Geo
100
AcDbLine
10
-47.1681699913269
20
22.6127914990970
30
0.000000000000000
11
-47.0681699913269
21
22.6308275771323
31
0.000000000000000
  0
LINE
  5
F1081C
330
F1081D
100
AcDbEntity
8
Geo
100
AcDbLine
10
-47.0681699913269
20
22.6308275771323
30
0.000000000000000
11
-46.9681699913269
21
22.6549337382807
31
0.000000000000000
  0
LINE
  5
F1081E
330
F1081F
100
AcDbEntity
8
Geo
100
AcDbLine
10
-46.9681699913269
20
22.6549337382807
30
0.000000000000000
11
-46.8681699913269
21
22.6841764596348
31
0.000000000000000
  0
LINE
  5
F10820
330
F10821
100
AcDbEntity
8
Geo
100
AcDbLine
10
-46.8681699913269
20
22.6841764596348
30
0.000000000000000
11
-46.7681699913269
21
22.7155712752861
31
0.000000000000000
  0
LINE
  5
F10822
330
F10823
100
AcDbEntity
8
Geo
100
AcDbLine
10
-46.7681699913269
20
22.7155712752861
30
0.000000000000000
11
-46.6681699913269
21
22.7425396402291
31
0.000000000000000
  0
LINE
  5
F10824
330
F10825
100
AcDbEntity
8
Geo
100
AcDbLine
10
-46.6681699913269
20
22.7425396402291
30
0.000000000000000
11
-46.5834267277671
21
22.7528187337381
31
0.000000000000000
  0
LINE
  5
F10826
330
F10827
100
AcDbEntity
8
Geo
100
AcDbLine
10
-71.2681699913270
20
15.1005001741677
30
0.000000000000000
11
-71.2681699913270
21
14.2213369735792
31
0.000000000000000
  0
LINE
  5
F10828
330
F10829
100
AcDbEntity
8
Geo
100
AcDbLine
10
-71.2681699913270
20
14.2213369735792
30
0.000000000000000
11
-71.1681699913270
21
13.8642304141927
31
0.000000000000000
  0
LINE
  5
F1082A
330
F1082B
100
AcDbEntity
8
Geo
100
AcDbLine
10
-71.1681699913270
20
13.8642304141927
30
0.000000000000000
11
-71.0681699913270
21
13.6514000693625
31
0.000000000000000
  0
LINE
  5
F1082C
330
F1082D
100
AcDbEntity
8
Geo
100
AcDbLine
10
-71.0681699913270
20
13.6514000693625
30
0.000000000000000
11
-70.9681699913270
21
13.4898609666949
31
0.000000000000000
  0
LINE
  5
F1082E
330
F1082F
100
AcDbEntity
8
Geo
100
AcDbLine
10
-70.9681699913270
20
13.4898609666949
30
0.000000000000000
11
-70.8681699913270
21
13.3580621457883
31
0.000000000000000
  0
LINE
  5
F10830
330
F10831
100
AcDbEntity
8
Geo
100
AcDbLine
10
-70.8681699913270
20
13.3580621457883
30
0.000000000000000
11
-70.7681699913270
21
13.2465442771620
31
0.000000000000000
  0
LINE
  5
F10832
330
F10833
100
AcDbEntity
8
Geo
100
AcDbLine
10
-70.7681699913270
20
13.2465442771620
30
0.000000000000000
11
-70.6681699913270
21
13.1497109151929
31
0.000000000000000
  0
LINE
  5
F10834
330
F10835
100
AcDbEntity
8
Geo
100
AcDbLine
10
-70.6681699913270
20
13.1497109151929
30
0.000000000000000
11
-70.5681699913270
21
13.0648947653446
31
0.000000000000000
  0
LINE
  5
F10836
330
F10837
100
AcDbEntity
8
Geo
100
AcDbLine
10
-70.5681699913270
20
13.0648947653446
30
0.000000000000000
11
-70.4681699913270
21
12.9895627222306
31
0.000000000000000
  0
LINE
  5
F10838
330
F10839
100
AcDbEntity
8
Geo
100
AcDbLine
10
-70.4681699913270
20
12.9895627222306
30
0.000000000000000
11
-70.3681699913270
21
12.9223571686378
31
0.000000000000000
  0
LINE
  5
F1083A
330
F1083B
100
AcDbEntity
8
Geo
100
AcDbLine
10
-70.3681699913270
20
12.9223571686378
30
0.000000000000000
11
-70.2681699913270
21
12.8622279776797
31
0.000000000000000
  0
LINE
  5
F1083C
330
F1083D
100
AcDbEntity
8
Geo
100
AcDbLine
10
-70.2681699913270
20
12.8622279776797
30
0.000000000000000
11
-70.1681699913270
21
12.8083478066119
31
0.000000000000000
  0
LINE
  5
F1083E
330
F1083F
100
AcDbEntity
8
Geo
100
AcDbLine
10
-70.1681699913270
20
12.8083478066119
30
0.000000000000000
11
-70.0681699913270
21
12.7600556577214
31
0.000000000000000
  0
LINE
  5
F10840
330
F10841
100
AcDbEntity
8
Geo
100
AcDbLine
10
-70.0681699913270
20
12.7600556577214
30
0.000000000000000
11
-69.9681699913270
21
12.7164162437041
31
0.000000000000000
  0
LINE
  5
F10842
330
F10843
100
AcDbEntity
8
Geo
100
AcDbLine
10
-69.9681699913270
20
12.7164162437041
30
0.000000000000000
11
-69.8681699913270
21
12.6735383270126
31
0.000000000000000
  0
LINE
  5
F10844
330
F10845
100
AcDbEntity
8
Geo
100
AcDbLine
10
-69.8681699913270
20
12.6735383270126
30
0.000000000000000
11
-69.7681699913270
21
12.6295574892082
31
0.000000000000000
  0
LINE
  5
F10846
330
F10847
100
AcDbEntity
8
Geo
100
AcDbLine
10
-69.7681699913270
20
12.6295574892082
30
0.000000000000000
11
-69.6681699913270
21
12.5845361643374
31
0.000000000000000
  0
LINE
  5
F10848
330
F10849
100
AcDbEntity
8
Geo
100
AcDbLine
10
-69.6681699913270
20
12.5845361643374
30
0.000000000000000
11
-69.5681699913270
21
12.5385337933130
31
0.000000000000000
  0
LINE
  5
F1084A
330
F1084B
100
AcDbEntity
8
Geo
100
AcDbLine
10
-69.5681699913270
20
12.5385337933130
30
0.000000000000000
11
-69.4681699913270
21
12.4916071184958
31
0.000000000000000
  0
LINE
  5
F1084C
330
F1084D
100
AcDbEntity
8
Geo
100
AcDbLine
10
-69.4681699913270
20
12.4916071184958
30
0.000000000000000
11
-69.3681699913270
21
12.4438104423960
31
0.000000000000000
  0
LINE
  5
F1084E
330
F1084F
100
AcDbEntity
8
Geo
100
AcDbLine
10
-69.3681699913270
20
12.4438104423960
30
0.000000000000000
11
-69.2681699913270
21
12.3951958555765
31
0.000000000000000
  0
LINE
  5
F10850
330
F10851
100
AcDbEntity
8
Geo
100
AcDbLine
10
-69.2681699913270
20
12.3951958555765
30
0.000000000000000
11
-69.1681699913270
21
12.3458134380562
31
0.000000000000000
  0
LINE
  5
F10852
330
F10853
100
AcDbEntity
8
Geo
100
AcDbLine
10
-69.1681699913270
20
12.3458134380562
30
0.000000000000000
11
-69.0681699913270
21
12.2957114378552
31
0.000000000000000
  0
LINE
  5
F10854
330
F10855
100
AcDbEntity
8
Geo
100
AcDbLine
10
-69.0681699913270
20
12.2957114378552
30
0.000000000000000
11
-68.9681699913270
21
12.2449364297676
31
0.000000000000000
  0
LINE
  5
F10856
330
F10857
100
AcDbEntity
8
Geo
100
AcDbLine
10
-68.9681699913270
20
12.2449364297676
30
0.000000000000000
11
-68.8681699913270
21
12.1935334569815
31
0.000000000000000
  0
LINE
  5
F10858
330
F10859
100
AcDbEntity
8
Geo
100
AcDbLine
10
-68.8681699913270
20
12.1935334569815
30
0.000000000000000
11
-68.7681699913270
21
12.1415461577761
31
0.000000000000000
  0
LINE
  5
F1085A
330
F1085B
100
AcDbEntity
8
Geo
100
AcDbLine
10
-68.7681699913270
20
12.1415461577761
30
0.000000000000000
11
-68.6681699913270
21
12.0890168791981
31
0.000000000000000
  0
LINE
  5
F1085C
330
F1085D
100
AcDbEntity
8
Geo
100
AcDbLine
10
-68.6681699913270
20
12.0890168791981
30
0.000000000000000
11
-68.5681699913270
21
12.0359867793466
31
0.000000000000000
  0
LINE
  5
F1085E
330
F1085F
100
AcDbEntity
8
Geo
100
AcDbLine
10
-68.5681699913270
20
12.0359867793466
30
0.000000000000000
11
-68.4681699913270
21
11.9824959196603
31
0.000000000000000
  0
LINE
  5
F10860
330
F10861
100
AcDbEntity
8
Geo
100
AcDbLine
10
-68.4681699913270
20
11.9824959196603
30
0.000000000000000
11
-68.3681699913270
21
11.9285833484122
31
0.000000000000000
  0
LINE
  5
F10862
330
F10863
100
AcDbEntity
8
Geo
100
AcDbLine
10
-68.3681699913270
20
11.9285833484122
30
0.000000000000000
11
-68.2681699913270
21
11.8742871764463
31
0.000000000000000
  0
LINE
  5
F10864
330
F10865
100
AcDbEntity
8
Geo
100
AcDbLine
10
-68.2681699913270
20
11.8742871764463
30
0.000000000000000
11
-68.1681699913270
21
11.8196446460560
31
0.000000000000000
  0
LINE
  5
F10866
330
F10867
100
AcDbEntity
8
Geo
100
AcDbLine
10
-68.1681699913270
20
11.8196446460560
30
0.000000000000000
11
-68.0681699913270
21
11.7646921937843
31
0.000000000000000
  0
LINE
  5
F10868
330
F10869
100
AcDbEntity
8
Geo
100
AcDbLine
10
-68.0681699913270
20
11.7646921937843
30
0.000000000000000
11
-67.9681699913270
21
11.7094655078232
31
0.000000000000000
  0
LINE
  5
F1086A
330
F1086B
100
AcDbEntity
8
Geo
100
AcDbLine
10
-67.9681699913270
20
11.7094655078232
30
0.000000000000000
11
-67.8681699913270
21
11.6539995806078
31
0.000000000000000
  0
LINE
  5
F1086C
330
F1086D
100
AcDbEntity
8
Geo
100
AcDbLine
10
-67.8681699913270
20
11.6539995806078
30
0.000000000000000
11
-67.7681699913270
21
11.5983287571224
31
0.000000000000000
  0
LINE
  5
F1086E
330
F1086F
100
AcDbEntity
8
Geo
100
AcDbLine
10
-67.7681699913270
20
11.5983287571224
30
0.000000000000000
11
-67.6681699913270
21
11.5424867793773
31
0.000000000000000
  0
LINE
  5
F10870
330
F10871
100
AcDbEntity
8
Geo
100
AcDbLine
10
-67.6681699913270
20
11.5424867793773
30
0.000000000000000
11
-67.5681699913270
21
11.4865068274562
31
0.000000000000000
  0
LINE
  5
F10872
330
F10873
100
AcDbEntity
8
Geo
100
AcDbLine
10
-67.5681699913270
20
11.4865068274562
30
0.000000000000000
11
-67.4681699913270
21
11.4304215574915
31
0.000000000000000
  0
LINE
  5
F10874
330
F10875
100
AcDbEntity
8
Geo
100
AcDbLine
10
-67.4681699913270
20
11.4304215574915
30
0.000000000000000
11
-67.3681699913270
21
11.3742631368812
31
0.000000000000000
  0
LINE
  5
F10876
330
F10877
100
AcDbEntity
8
Geo
100
AcDbLine
10
-67.3681699913270
20
11.3742631368812
30
0.000000000000000
11
-67.2681699913270
21
11.3180632770268
31
0.000000000000000
  0
LINE
  5
F10878
330
F10879
100
AcDbEntity
8
Geo
100
AcDbLine
10
-67.2681699913270
20
11.3180632770268
30
0.000000000000000
11
-67.1681699913270
21
11.2618532638426
31
0.000000000000000
  0
LINE
  5
F1087A
330
F1087B
100
AcDbEntity
8
Geo
100
AcDbLine
10
-67.1681699913270
20
11.2618532638426
30
0.000000000000000
11
-67.0681699913270
21
11.2056639862577
31
0.000000000000000
  0
LINE
  5
F1087C
330
F1087D
100
AcDbEntity
8
Geo
100
AcDbLine
10
-67.0681699913270
20
11.2056639862577
30
0.000000000000000
11
-66.9681699913270
21
11.1495259629115
31
0.000000000000000
  0
LINE
  5
F1087E
330
F1087F
100
AcDbEntity
8
Geo
100
AcDbLine
10
-66.9681699913270
20
11.1495259629115
30
0.000000000000000
11
-66.8681699913270
21
11.0934693672205
31
0.000000000000000
  0
LINE
  5
F10880
330
F10881
100
AcDbEntity
8
Geo
100
AcDbLine
10
-66.8681699913270
20
11.0934693672205
30
0.000000000000000
11
-66.7681699913270
21
11.0375240509800
31
0.000000000000000
  0
LINE
  5
F10882
330
F10883
100
AcDbEntity
8
Geo
100
AcDbLine
10
-66.7681699913270
20
11.0375240509800
30
0.000000000000000
11
-66.6681699913270
21
10.9817195666451
31
0.000000000000000
  0
LINE
  5
F10884
330
F10885
100
AcDbEntity
8
Geo
100
AcDbLine
10
-66.6681699913270
20
10.9817195666451
30
0.000000000000000
11
-66.5681699913270
21
10.9260851884243
31
0.000000000000000
  0
LINE
  5
F10886
330
F10887
100
AcDbEntity
8
Geo
100
AcDbLine
10
-66.5681699913270
20
10.9260851884243
30
0.000000000000000
11
-66.4681699913270
21
10.8706499323074
31
0.000000000000000
  0
LINE
  5
F10888
330
F10889
100
AcDbEntity
8
Geo
100
AcDbLine
10
-66.4681699913270
20
10.8706499323074
30
0.000000000000000
11
-66.3681699913270
21
10.8154425751360
31
0.000000000000000
  0
LINE
  5
F1088A
330
F1088B
100
AcDbEntity
8
Geo
100
AcDbLine
10
-66.3681699913270
20
10.8154425751360
30
0.000000000000000
11
-66.2681699913270
21
10.7604916728191
31
0.000000000000000
  0
LINE
  5
F1088C
330
F1088D
100
AcDbEntity
8
Geo
100
AcDbLine
10
-66.2681699913270
20
10.7604916728191
30
0.000000000000000
11
-66.1681699913270
21
10.7058255777871
31
0.000000000000000
  0
LINE
  5
F1088E
330
F1088F
100
AcDbEntity
8
Geo
100
AcDbLine
10
-66.1681699913270
20
10.7058255777871
30
0.000000000000000
11
-66.0681699913270
21
10.6514724557687
31
0.000000000000000
  0
LINE
  5
F10890
330
F10891
100
AcDbEntity
8
Geo
100
AcDbLine
10
-66.0681699913270
20
10.6514724557687
30
0.000000000000000
11
-65.9681699913270
21
10.5974603019725
31
0.000000000000000
  0
LINE
  5
F10892
330
F10893
100
AcDbEntity
8
Geo
100
AcDbLine
10
-65.9681699913270
20
10.5974603019725
30
0.000000000000000
11
-65.8681699913270
21
10.5438169567457
31
0.000000000000000
  0
LINE
  5
F10894
330
F10895
100
AcDbEntity
8
Geo
100
AcDbLine
10
-65.8681699913270
20
10.5438169567457
30
0.000000000000000
11
-65.7681699913270
21
10.4905701207822
31
0.000000000000000
  0
LINE
  5
F10896
330
F10897
100
AcDbEntity
8
Geo
100
AcDbLine
10
-65.7681699913270
20
10.4905701207822
30
0.000000000000000
11
-65.6681699913270
21
10.4377473699432
31
0.000000000000000
  0
LINE
  5
F10898
330
F10899
100
AcDbEntity
8
Geo
100
AcDbLine
10
-65.6681699913270
20
10.4377473699432
30
0.000000000000000
11
-65.5681699913270
21
10.3853761697549
31
0.000000000000000
  0
LINE
  5
F1089A
330
F1089B
100
AcDbEntity
8
Geo
100
AcDbLine
10
-65.5681699913270
20
10.3853761697549
30
0.000000000000000
11
-65.4681699913270
21
10.3334838896410
31
0.000000000000000
  0
LINE
  5
F1089C
330
F1089D
100
AcDbEntity
8
Geo
100
AcDbLine
10
-65.4681699913270
20
10.3334838896410
30
0.000000000000000
11
-65.3681699913270
21
10.2820978169492
31
0.000000000000000
  0
LINE
  5
F1089E
330
F1089F
100
AcDbEntity
8
Geo
100
AcDbLine
10
-65.3681699913270
20
10.2820978169492
30
0.000000000000000
11
-65.2681699913270
21
10.2312451708235
31
0.000000000000000
  0
LINE
  5
F108A0
330
F108A1
100
AcDbEntity
8
Geo
100
AcDbLine
10
-65.2681699913270
20
10.2312451708235
30
0.000000000000000
11
-65.1681699913270
21
10.1809531159792
31
0.000000000000000
  0
LINE
  5
F108A2
330
F108A3
100
AcDbEntity
8
Geo
100
AcDbLine
10
-65.1681699913270
20
10.1809531159792
30
0.000000000000000
11
-65.0681699913270
21
10.1312487764305
31
0.000000000000000
  0
LINE
  5
F108A4
330
F108A5
100
AcDbEntity
8
Geo
100
AcDbLine
10
-65.0681699913270
20
10.1312487764305
30
0.000000000000000
11
-64.9681699913270
21
10.0821592492233
31
0.000000000000000
  0
LINE
  5
F108A6
330
F108A7
100
AcDbEntity
8
Geo
100
AcDbLine
10
-64.9681699913270
20
10.0821592492233
30
0.000000000000000
11
-64.8681699913270
21
10.0337116182241
31
0.000000000000000
  0
LINE
  5
F108A8
330
F108A9
100
AcDbEntity
8
Geo
100
AcDbLine
10
-64.8681699913270
20
10.0337116182241
30
0.000000000000000
11
-64.7681699913270
21
9.98593296801607
31
0.000000000000000
  0
LINE
  5
F108AA
330
F108AB
100
AcDbEntity
8
Geo
100
AcDbLine
10
-64.7681699913270
20
9.98593296801607
30
0.000000000000000
11
-64.6681699913270
21
9.93885039795377
31
0.000000000000000
  0
LINE
  5
F108AC
330
F108AD
100
AcDbEntity
8
Geo
100
AcDbLine
10
-64.6681699913270
20
9.93885039795377
30
0.000000000000000
11
-64.5681699913270
21
9.89249103642824
31
0.000000000000000
  0
LINE
  5
F108AE
330
F108AF
100
AcDbEntity
8
Geo
100
AcDbLine
10
-64.5681699913270
20
9.89249103642824
30
0.000000000000000
11
-64.4681699913270
21
9.84688205539619
31
0.000000000000000
  0
LINE
  5
F108B0
330
F108B1
100
AcDbEntity
8
Geo
100
AcDbLine
10
-64.4681699913270
20
9.84688205539619
30
0.000000000000000
11
-64.3681699913270
21
9.80205068522713
31
0.000000000000000
  0
LINE
  5
F108B2
330
F108B3
100
AcDbEntity
8
Geo
100
AcDbLine
10
-64.3681699913270
20
9.80205068522713
30
0.000000000000000
11
-64.2681699913270
21
9.75774652631095
31
0.000000000000000
  0
LINE
  5
F108B4
330
F108B5
100
AcDbEntity
8
Geo
100
AcDbLine
10
-64.2681699913270
20
9.75774652631095
30
0.000000000000000
11
-64.1681699913270
21
9.71370252627641
31
0.000000000000000
  0
LINE
  5
F108B6
330
F108B7
100
AcDbEntity
8
Geo
100
AcDbLine
10
-64.1681699913270
20
9.71370252627641
30
0.000000000000000
11
-64.0681699913270
21
9.66992097907189
31
0.000000000000000
  0
LINE
  5
F108B8
330
F108B9
100
AcDbEntity
8
Geo
100
AcDbLine
10
-64.0681699913270
20
9.66992097907189
30
0.000000000000000
11
-63.9681699913270
21
9.62640416497640
31
0.000000000000000
  0
LINE
  5
F108BA
330
F108BB
100
AcDbEntity
8
Geo
100
AcDbLine
10
-63.9681699913270
20
9.62640416497640
30
0.000000000000000
11
-63.8681699913270
21
9.58315435048085
31
0.000000000000000
  0
LINE
  5
F108BC
330
F108BD
100
AcDbEntity
8
Geo
100
AcDbLine
10
-63.8681699913270
20
9.58315435048085
30
0.000000000000000
11
-63.7681699913270
21
9.54017378816996
31
0.000000000000000
  0
LINE
  5
F108BE
330
F108BF
100
AcDbEntity
8
Geo
100
AcDbLine
10
-63.7681699913270
20
9.54017378816996
30
0.000000000000000
11
-63.6681699913270
21
9.49746471660497
31
0.000000000000000
  0
LINE
  5
F108C0
330
F108C1
100
AcDbEntity
8
Geo
100
AcDbLine
10
-63.6681699913270
20
9.49746471660497
30
0.000000000000000
11
-63.5681699913270
21
9.45502936020704
31
0.000000000000000
  0
LINE
  5
F108C2
330
F108C3
100
AcDbEntity
8
Geo
100
AcDbLine
10
-63.5681699913270
20
9.45502936020704
30
0.000000000000000
11
-63.4681699913270
21
9.41286992914138
31
0.000000000000000
  0
LINE
  5
F108C4
330
F108C5
100
AcDbEntity
8
Geo
100
AcDbLine
10
-63.4681699913270
20
9.41286992914138
30
0.000000000000000
11
-63.3681699913270
21
9.37098861920217
31
0.000000000000000
  0
LINE
  5
F108C6
330
F108C7
100
AcDbEntity
8
Geo
100
AcDbLine
10
-63.3681699913270
20
9.37098861920217
30
0.000000000000000
11
-63.2681699913270
21
9.32938761169817
31
0.000000000000000
  0
LINE
  5
F108C8
330
F108C9
100
AcDbEntity
8
Geo
100
AcDbLine
10
-63.2681699913270
20
9.32938761169817
30
0.000000000000000
11
-63.1681699913270
21
9.28806907333911
31
0.000000000000000
  0
LINE
  5
F108CA
330
F108CB
100
AcDbEntity
8
Geo
100
AcDbLine
10
-63.1681699913270
20
9.28806907333911
30
0.000000000000000
11
-63.0681699913270
21
9.24703515612285
31
0.000000000000000
  0
LINE
  5
F108CC
330
F108CD
100
AcDbEntity
8
Geo
100
AcDbLine
10
-63.0681699913270
20
9.24703515612285
30
0.000000000000000
11
-62.9681699913270
21
9.20628799722332
31
0.000000000000000
  0
LINE
  5
F108CE
330
F108CF
100
AcDbEntity
8
Geo
100
AcDbLine
10
-62.9681699913270
20
9.20628799722332
30
0.000000000000000
11
-62.8681699913270
21
9.16582971887915
31
0.000000000000000
  0
LINE
  5
F108D0
330
F108D1
100
AcDbEntity
8
Geo
100
AcDbLine
10
-62.8681699913270
20
9.16582971887915
30
0.000000000000000
11
-62.7681699913270
21
9.12566242828320
31
0.000000000000000
  0
LINE
  5
F108D2
330
F108D3
100
AcDbEntity
8
Geo
100
AcDbLine
10
-62.7681699913270
20
9.12566242828320
30
0.000000000000000
11
-62.6681699913270
21
9.08578821747278
31
0.000000000000000
  0
LINE
  5
F108D4
330
F108D5
100
AcDbEntity
8
Geo
100
AcDbLine
10
-62.6681699913270
20
9.08578821747278
30
0.000000000000000
11
-62.5681699913270
21
9.04620916322068
31
0.000000000000000
  0
LINE
  5
F108D6
330
F108D7
100
AcDbEntity
8
Geo
100
AcDbLine
10
-62.5681699913270
20
9.04620916322068
30
0.000000000000000
11
-62.4681699913270
21
9.00692732692703
31
0.000000000000000
  0
LINE
  5
F108D8
330
F108D9
100
AcDbEntity
8
Geo
100
AcDbLine
10
-62.4681699913270
20
9.00692732692703
30
0.000000000000000
11
-62.3681699913270
21
8.96794475451194
31
0.000000000000000
  0
LINE
  5
F108DA
330
F108DB
100
AcDbEntity
8
Geo
100
AcDbLine
10
-62.3681699913270
20
8.96794475451194
30
0.000000000000000
11
-62.2681699913270
21
8.92926347630889
31
0.000000000000000
  0
LINE
  5
F108DC
330
F108DD
100
AcDbEntity
8
Geo
100
AcDbLine
10
-62.2681699913270
20
8.92926347630889
30
0.000000000000000
11
-62.1681699913270
21
8.89088550695904
31
0.000000000000000
  0
LINE
  5
F108DE
330
F108DF
100
AcDbEntity
8
Geo
100
AcDbLine
10
-62.1681699913270
20
8.89088550695904
30
0.000000000000000
11
-62.0681699913270
21
8.85281284530631
31
0.000000000000000
  0
LINE
  5
F108E0
330
F108E1
100
AcDbEntity
8
Geo
100
AcDbLine
10
-62.0681699913270
20
8.85281284530631
30
0.000000000000000
11
-61.9681699913270
21
8.81504747429319
31
0.000000000000000
  0
LINE
  5
F108E2
330
F108E3
100
AcDbEntity
8
Geo
100
AcDbLine
10
-61.9681699913270
20
8.81504747429319
30
0.000000000000000
11
-61.8681699913270
21
8.77759136085758
31
0.000000000000000
  0
LINE
  5
F108E4
330
F108E5
100
AcDbEntity
8
Geo
100
AcDbLine
10
-61.8681699913270
20
8.77759136085758
30
0.000000000000000
11
-61.7681699913270
21
8.74044645583023
31
0.000000000000000
  0
LINE
  5
F108E6
330
F108E7
100
AcDbEntity
8
Geo
100
AcDbLine
10
-61.7681699913270
20
8.74044645583023
30
0.000000000000000
11
-61.6681699913270
21
8.70361469383323
31
0.000000000000000
  0
LINE
  5
F108E8
330
F108E9
100
AcDbEntity
8
Geo
100
AcDbLine
10
-61.6681699913270
20
8.70361469383323
30
0.000000000000000
11
-61.5681699913270
21
8.66709799317918
31
0.000000000000000
  0
LINE
  5
F108EA
330
F108EB
100
AcDbEntity
8
Geo
100
AcDbLine
10
-61.5681699913270
20
8.66709799317918
30
0.000000000000000
11
-61.4681699913270
21
8.63089825577132
31
0.000000000000000
  0
LINE
  5
F108EC
330
F108ED
100
AcDbEntity
8
Geo
100
AcDbLine
10
-61.4681699913270
20
8.63089825577132
30
0.000000000000000
11
-61.3681699913270
21
8.59501736700446
31
0.000000000000000
  0
LINE
  5
F108EE
330
F108EF
100
AcDbEntity
8
Geo
100
AcDbLine
10
-61.3681699913270
20
8.59501736700446
30
0.000000000000000
11
-61.2681699913270
21
8.55945719566678
31
0.000000000000000
  0
LINE
  5
F108F0
330
F108F1
100
AcDbEntity
8
Geo
100
AcDbLine
10
-61.2681699913270
20
8.55945719566678
30
0.000000000000000
11
-61.1681699913270
21
8.52421959384249
31
0.000000000000000
  0
LINE
  5
F108F2
330
F108F3
100
AcDbEntity
8
Geo
100
AcDbLine
10
-61.1681699913270
20
8.52421959384249
30
0.000000000000000
11
-61.0681699913270
21
8.48930639681540
31
0.000000000000000
  0
LINE
  5
F108F4
330
F108F5
100
AcDbEntity
8
Geo
100
AcDbLine
10
-61.0681699913270
20
8.48930639681540
30
0.000000000000000
11
-60.9681699913270
21
8.45471942297329
31
0.000000000000000
  0
LINE
  5
F108F6
330
F108F7
100
AcDbEntity
8
Geo
100
AcDbLine
10
-60.9681699913270
20
8.45471942297329
30
0.000000000000000
11
-60.8681699913270
21
8.42046047371322
31
0.000000000000000
  0
LINE
  5
F108F8
330
F108F9
100
AcDbEntity
8
Geo
100
AcDbLine
10
-60.8681699913270
20
8.42046047371322
30
0.000000000000000
11
-60.7681699913270
21
8.38653133334773
31
0.000000000000000
  0
LINE
  5
F108FA
330
F108FB
100
AcDbEntity
8
Geo
100
AcDbLine
10
-60.7681699913270
20
8.38653133334773
30
0.000000000000000
11
-60.6681699913270
21
8.35293376901187
31
0.000000000000000
  0
LINE
  5
F108FC
330
F108FD
100
AcDbEntity
8
Geo
100
AcDbLine
10
-60.6681699913270
20
8.35293376901187
30
0.000000000000000
11
-60.5681699913270
21
8.31966953057120
31
0.000000000000000
  0
LINE
  5
F108FE
330
F108FF
100
AcDbEntity
8
Geo
100
AcDbLine
10
-60.5681699913270
20
8.31966953057120
30
0.000000000000000
11
-60.4681699913270
21
8.28674035053061
31
0.000000000000000
  0
LINE
  5
F10900
330
F10901
100
AcDbEntity
8
Geo
100
AcDbLine
10
-60.4681699913270
20
8.28674035053061
30
0.000000000000000
11
-60.3681699913270
21
8.25414794394412
31
0.000000000000000
  0
LINE
  5
F10902
330
F10903
100
AcDbEntity
8
Geo
100
AcDbLine
10
-60.3681699913270
20
8.25414794394412
30
0.000000000000000
11
-60.2681699913270
21
8.22189400832553
31
0.000000000000000
  0
LINE
  5
F10904
330
F10905
100
AcDbEntity
8
Geo
100
AcDbLine
10
-60.2681699913270
20
8.22189400832553
30
0.000000000000000
11
-60.1681699913270
21
8.18998022356004
31
0.000000000000000
  0
LINE
  5
F10906
330
F10907
100
AcDbEntity
8
Geo
100
AcDbLine
10
-60.1681699913270
20
8.18998022356004
30
0.000000000000000
11
-60.0681699913270
21
8.15840825181672
31
0.000000000000000
  0
LINE
  5
F10908
330
F10909
100
AcDbEntity
8
Geo
100
AcDbLine
10
-60.0681699913270
20
8.15840825181672
30
0.000000000000000
11
-59.9681699913270
21
8.12717973746196
31
0.000000000000000
  0
LINE
  5
F1090A
330
F1090B
100
AcDbEntity
8
Geo
100
AcDbLine
10
-59.9681699913270
20
8.12717973746196
30
0.000000000000000
11
-59.8681699913270
21
8.09629630697383
31
0.000000000000000
  0
LINE
  5
F1090C
330
F1090D
100
AcDbEntity
8
Geo
100
AcDbLine
10
-59.8681699913270
20
8.09629630697383
30
0.000000000000000
11
-59.7681699913270
21
8.06575956885734
31
0.000000000000000
  0
LINE
  5
F1090E
330
F1090F
100
AcDbEntity
8
Geo
100
AcDbLine
10
-59.7681699913270
20
8.06575956885734
30
0.000000000000000
11
-59.6681699913270
21
8.03557111356072
31
0.000000000000000
  0
LINE
  5
F10910
330
F10911
100
AcDbEntity
8
Geo
100
AcDbLine
10
-59.6681699913270
20
8.03557111356072
30
0.000000000000000
11
-59.5681699913270
21
8.00573251339250
31
0.000000000000000
  0
LINE
  5
F10912
330
F10913
100
AcDbEntity
8
Geo
100
AcDbLine
10
-59.5681699913270
20
8.00573251339250
30
0.000000000000000
11
-59.4681699913270
21
7.97624532243971
31
0.000000000000000
  0
LINE
  5
F10914
330
F10915
100
AcDbEntity
8
Geo
100
AcDbLine
10
-59.4681699913270
20
7.97624532243971
30
0.000000000000000
11
-59.3681699913270
21
7.94711107648688
31
0.000000000000000
  0
LINE
  5
F10916
330
F10917
100
AcDbEntity
8
Geo
100
AcDbLine
10
-59.3681699913270
20
7.94711107648688
30
0.000000000000000
11
-59.2681699913270
21
7.91833129293605
31
0.000000000000000
  0
LINE
  5
F10918
330
F10919
100
AcDbEntity
8
Geo
100
AcDbLine
10
-59.2681699913270
20
7.91833129293605
30
0.000000000000000
11
-59.1681699913270
21
7.88990747072780
31
0.000000000000000
  0
LINE
  5
F1091A
330
F1091B
100
AcDbEntity
8
Geo
100
AcDbLine
10
-59.1681699913270
20
7.88990747072780
30
0.000000000000000
11
-59.0681699913270
21
7.86184109026309
31
0.000000000000000
  0
LINE
  5
F1091C
330
F1091D
100
AcDbEntity
8
Geo
100
AcDbLine
10
-59.0681699913270
20
7.86184109026309
30
0.000000000000000
11
-58.9681699913270
21
7.83413361332623
31
0.000000000000000
  0
LINE
  5
F1091E
330
F1091F
100
AcDbEntity
8
Geo
100
AcDbLine
10
-58.9681699913270
20
7.83413361332623
30
0.000000000000000
11
-58.8681699913270
21
7.80678648300872
31
0.000000000000000
  0
LINE
  5
F10920
330
F10921
100
AcDbEntity
8
Geo
100
AcDbLine
10
-58.8681699913270
20
7.80678648300872
30
0.000000000000000
11
-58.7681699913270
21
7.77980112363408
31
0.000000000000000
  0
LINE
  5
F10922
330
F10923
100
AcDbEntity
8
Geo
100
AcDbLine
10
-58.7681699913270
20
7.77980112363408
30
0.000000000000000
11
-58.6681699913270
21
7.75317894068368
31
0.000000000000000
  0
LINE
  5
F10924
330
F10925
100
AcDbEntity
8
Geo
100
AcDbLine
10
-58.6681699913270
20
7.75317894068368
30
0.000000000000000
11
-58.5681699913270
21
7.72692132072352
31
0.000000000000000
  0
LINE
  5
F10926
330
F10927
100
AcDbEntity
8
Geo
100
AcDbLine
10
-58.5681699913270
20
7.72692132072352
30
0.000000000000000
11
-58.4681699913270
21
7.70102963133204
31
0.000000000000000
  0
LINE
  5
F10928
330
F10929
100
AcDbEntity
8
Geo
100
AcDbLine
10
-58.4681699913270
20
7.70102963133204
30
0.000000000000000
11
-58.3681699913270
21
7.67550522102889
31
0.000000000000000
  0
LINE
  5
F1092A
330
F1092B
100
AcDbEntity
8
Geo
100
AcDbLine
10
-58.3681699913270
20
7.67550522102889
30
0.000000000000000
11
-58.2681699913270
21
7.65034941920465
31
0.000000000000000
  0
LINE
  5
F1092C
330
F1092D
100
AcDbEntity
8
Geo
100
AcDbLine
10
-58.2681699913270
20
7.65034941920465
30
0.000000000000000
11
-58.1681699913270
21
7.62556353605166
31
0.000000000000000
  0
LINE
  5
F1092E
330
F1092F
100
AcDbEntity
8
Geo
100
AcDbLine
10
-58.1681699913270
20
7.62556353605166
30
0.000000000000000
11
-58.0681699913270
21
7.60114886249572
31
0.000000000000000
  0
LINE
  5
F10930
330
F10931
100
AcDbEntity
8
Geo
100
AcDbLine
10
-58.0681699913270
20
7.60114886249572
30
0.000000000000000
11
-57.9681699913270
21
7.57710667012891
31
0.000000000000000
  0
LINE
  5
F10932
330
F10933
100
AcDbEntity
8
Geo
100
AcDbLine
10
-57.9681699913270
20
7.57710667012891
30
0.000000000000000
11
-57.8681699913270
21
7.55343821114329
31
0.000000000000000
  0
LINE
  5
F10934
330
F10935
100
AcDbEntity
8
Geo
100
AcDbLine
10
-57.8681699913270
20
7.55343821114329
30
0.000000000000000
11
-57.7681699913270
21
7.53014471826576
31
0.000000000000000
  0
LINE
  5
F10936
330
F10937
100
AcDbEntity
8
Geo
100
AcDbLine
10
-57.7681699913270
20
7.53014471826576
30
0.000000000000000
11
-57.6681699913270
21
7.50722740469382
31
0.000000000000000
  0
LINE
  5
F10938
330
F10939
100
AcDbEntity
8
Geo
100
AcDbLine
10
-57.6681699913270
20
7.50722740469382
30
0.000000000000000
11
-57.5681699913270
21
7.48468746403235
31
0.000000000000000
  0
LINE
  5
F1093A
330
F1093B
100
AcDbEntity
8
Geo
100
AcDbLine
10
-57.5681699913270
20
7.48468746403235
30
0.000000000000000
11
-57.4681699913270
21
7.46252607023151
31
0.000000000000000
  0
LINE
  5
F1093C
330
F1093D
100
AcDbEntity
8
Geo
100
AcDbLine
10
-57.4681699913270
20
7.46252607023151
30
0.000000000000000
11
-57.3681699913270
21
7.44074437752555
31
0.000000000000000
  0
LINE
  5
F1093E
330
F1093F
100
AcDbEntity
8
Geo
100
AcDbLine
10
-57.3681699913270
20
7.44074437752555
30
0.000000000000000
11
-57.2681699913270
21
7.41934352037271
31
0.000000000000000
  0
LINE
  5
F10940
330
F10941
100
AcDbEntity
8
Geo
100
AcDbLine
10
-57.2681699913270
20
7.41934352037271
30
0.000000000000000
11
-57.1681699913270
21
7.39832461339612
31
0.000000000000000
  0
LINE
  5
F10942
330
F10943
100
AcDbEntity
8
Geo
100
AcDbLine
10
-57.1681699913270
20
7.39832461339612
30
0.000000000000000
11
-57.0681699913270
21
7.37768875132577
31
0.000000000000000
  0
LINE
  5
F10944
330
F10945
100
AcDbEntity
8
Geo
100
AcDbLine
10
-57.0681699913270
20
7.37768875132577
30
0.000000000000000
11
-56.9681699913270
21
7.35743700894148
31
0.000000000000000
  0
LINE
  5
F10946
330
F10947
100
AcDbEntity
8
Geo
100
AcDbLine
10
-56.9681699913270
20
7.35743700894148
30
0.000000000000000
11
-56.8681699913271
21
7.33757044101693
31
0.000000000000000
  0
LINE
  5
F10948
330
F10949
100
AcDbEntity
8
Geo
100
AcDbLine
10
-56.8681699913271
20
7.33757044101693
30
0.000000000000000
11
-56.7681699913270
21
7.31809008226469
31
0.000000000000000
  0
LINE
  5
F1094A
330
F1094B
100
AcDbEntity
8
Geo
100
AcDbLine
10
-56.7681699913270
20
7.31809008226469
30
0.000000000000000
11
-56.6681699913270
21
7.29899694728239
31
0.000000000000000
  0
LINE
  5
F1094C
330
F1094D
100
AcDbEntity
8
Geo
100
AcDbLine
10
-56.6681699913270
20
7.29899694728239
30
0.000000000000000
11
-56.5681699913270
21
7.28029203049982
31
0.000000000000000
  0
LINE
  5
F1094E
330
F1094F
100
AcDbEntity
8
Geo
100
AcDbLine
10
-56.5681699913270
20
7.28029203049982
30
0.000000000000000
11
-56.4681699913270
21
7.26197630612717
31
0.000000000000000
  0
LINE
  5
F10950
330
F10951
100
AcDbEntity
8
Geo
100
AcDbLine
10
-56.4681699913270
20
7.26197630612717
30
0.000000000000000
11
-56.3681699913271
21
7.24405072810428
31
0.000000000000000
  0
LINE
  5
F10952
330
F10953
100
AcDbEntity
8
Geo
100
AcDbLine
10
-56.3681699913271
20
7.24405072810428
30
0.000000000000000
11
-56.2681699913270
21
7.22651623005095
31
0.000000000000000
  0
LINE
  5
F10954
330
F10955
100
AcDbEntity
8
Geo
100
AcDbLine
10
-56.2681699913270
20
7.22651623005095
30
0.000000000000000
11
-56.1681699913270
21
7.20937372521832
31
0.000000000000000
  0
LINE
  5
F10956
330
F10957
100
AcDbEntity
8
Geo
100
AcDbLine
10
-56.1681699913270
20
7.20937372521832
30
0.000000000000000
11
-56.0681699913270
21
7.19262410644131
31
0.000000000000000
  0
LINE
  5
F10958
330
F10959
100
AcDbEntity
8
Geo
100
AcDbLine
10
-56.0681699913270
20
7.19262410644131
30
0.000000000000000
11
-55.9681699913270
21
7.17626824609212
31
0.000000000000000
  0
LINE
  5
F1095A
330
F1095B
100
AcDbEntity
8
Geo
100
AcDbLine
10
-55.9681699913270
20
7.17626824609212
30
0.000000000000000
11
-55.8681699913270
21
7.16030699603476
31
0.000000000000000
  0
LINE
  5
F1095C
330
F1095D
100
AcDbEntity
8
Geo
100
AcDbLine
10
-55.8681699913270
20
7.16030699603476
30
0.000000000000000
11
-55.7681699913270
21
7.14474118758075
31
0.000000000000000
  0
LINE
  5
F1095E
330
F1095F
100
AcDbEntity
8
Geo
100
AcDbLine
10
-55.7681699913270
20
7.14474118758075
30
0.000000000000000
11
-55.6681699913270
21
7.12957163144575
31
0.000000000000000
  0
LINE
  5
F10960
330
F10961
100
AcDbEntity
8
Geo
100
AcDbLine
10
-55.6681699913270
20
7.12957163144575
30
0.000000000000000
11
-55.5681699913270
21
7.11479911770738
31
0.000000000000000
  0
LINE
  5
F10962
330
F10963
100
AcDbEntity
8
Geo
100
AcDbLine
10
-55.5681699913270
20
7.11479911770738
30
0.000000000000000
11
-55.4681699913270
21
7.10042441576407
31
0.000000000000000
  0
LINE
  5
F10964
330
F10965
100
AcDbEntity
8
Geo
100
AcDbLine
10
-55.4681699913270
20
7.10042441576407
30
0.000000000000000
11
-55.3681699913270
21
7.08644827429494
31
0.000000000000000
  0
LINE
  5
F10966
330
F10967
100
AcDbEntity
8
Geo
100
AcDbLine
10
-55.3681699913270
20
7.08644827429494
30
0.000000000000000
11
-55.2681699913270
21
7.07287142122089
31
0.000000000000000
  0
LINE
  5
F10968
330
F10969
100
AcDbEntity
8
Geo
100
AcDbLine
10
-55.2681699913270
20
7.07287142122089
30
0.000000000000000
11
-55.1681699913270
21
7.05969456366660
31
0.000000000000000
  0
LINE
  5
F1096A
330
F1096B
100
AcDbEntity
8
Geo
100
AcDbLine
10
-55.1681699913270
20
7.05969456366660
30
0.000000000000000
11
-55.0681699913270
21
7.04691838792376
31
0.000000000000000
  0
LINE
  5
F1096C
330
F1096D
100
AcDbEntity
8
Geo
100
AcDbLine
10
-55.0681699913270
20
7.04691838792376
30
0.000000000000000
11
-54.9681699913270
21
7.03454355941530
31
0.000000000000000
  0
LINE
  5
F1096E
330
F1096F
100
AcDbEntity
8
Geo
100
AcDbLine
10
-54.9681699913270
20
7.03454355941530
30
0.000000000000000
11
-54.8681699913270
21
7.02257072266074
31
0.000000000000000
  0
LINE
  5
F10970
330
F10971
100
AcDbEntity
8
Geo
100
AcDbLine
10
-54.8681699913270
20
7.02257072266074
30
0.000000000000000
11
-54.7681699913270
21
7.01100050124263
31
0.000000000000000
  0
LINE
  5
F10972
330
F10973
100
AcDbEntity
8
Geo
100
AcDbLine
10
-54.7681699913270
20
7.01100050124263
30
0.000000000000000
11
-54.6681699913270
21
6.99983349777404
31
0.000000000000000
  0
LINE
  5
F10974
330
F10975
100
AcDbEntity
8
Geo
100
AcDbLine
10
-54.6681699913270
20
6.99983349777404
30
0.000000000000000
11
-54.5681699913270
21
6.98907029386722
31
0.000000000000000
  0
LINE
  5
F10976
330
F10977
100
AcDbEntity
8
Geo
100
AcDbLine
10
-54.5681699913270
20
6.98907029386722
30
0.000000000000000
11
-54.4681699913270
21
6.97871145010327
31
0.000000000000000
  0
LINE
  5
F10978
330
F10979
100
AcDbEntity
8
Geo
100
AcDbLine
10
-54.4681699913270
20
6.97871145010327
30
0.000000000000000
11
-54.3681699913270
21
6.96875750600296
31
0.000000000000000
  0
LINE
  5
F1097A
330
F1097B
100
AcDbEntity
8
Geo
100
AcDbLine
10
-54.3681699913270
20
6.96875750600296
30
0.000000000000000
11
-54.2681699913270
21
6.95920897999863
31
0.000000000000000
  0
LINE
  5
F1097C
330
F1097D
100
AcDbEntity
8
Geo
100
AcDbLine
10
-54.2681699913270
20
6.95920897999863
30
0.000000000000000
11
-54.1681699913270
21
6.95006636940718
31
0.000000000000000
  0
LINE
  5
F1097E
330
F1097F
100
AcDbEntity
8
Geo
100
AcDbLine
10
-54.1681699913270
20
6.95006636940718
30
0.000000000000000
11
-54.0681699913270
21
6.94133015040419
31
0.000000000000000
  0
LINE
  5
F10980
330
F10981
100
AcDbEntity
8
Geo
100
AcDbLine
10
-54.0681699913270
20
6.94133015040419
30
0.000000000000000
11
-53.9681699913270
21
6.93300077799907
31
0.000000000000000
  0
LINE
  5
F10982
330
F10983
100
AcDbEntity
8
Geo
100
AcDbLine
10
-53.9681699913270
20
6.93300077799907
30
0.000000000000000
11
-53.8681699913270
21
6.92507868601144
31
0.000000000000000
  0
LINE
  5
F10984
330
F10985
100
AcDbEntity
8
Geo
100
AcDbLine
10
-53.8681699913270
20
6.92507868601144
30
0.000000000000000
11
-53.7681699913270
21
6.91756428704846
31
0.000000000000000
  0
LINE
  5
F10986
330
F10987
100
AcDbEntity
8
Geo
100
AcDbLine
10
-53.7681699913270
20
6.91756428704846
30
0.000000000000000
11
-53.6681699913270
21
6.91045797248337
31
0.000000000000000
  0
LINE
  5
F10988
330
F10989
100
AcDbEntity
8
Geo
100
AcDbLine
10
-53.6681699913270
20
6.91045797248337
30
0.000000000000000
11
-53.5681699913270
21
6.90376011243512
31
0.000000000000000
  0
LINE
  5
F1098A
330
F1098B
100
AcDbEntity
8
Geo
100
AcDbLine
10
-53.5681699913270
20
6.90376011243512
30
0.000000000000000
11
-53.4681699913270
21
6.89747105574907
31
0.000000000000000
  0
LINE
  5
F1098C
330
F1098D
100
AcDbEntity
8
Geo
100
AcDbLine
10
-53.4681699913270
20
6.89747105574907
30
0.000000000000000
11
-53.3681699913270
21
6.89159112997883
31
0.000000000000000
  0
LINE
  5
F1098E
330
F1098F
100
AcDbEntity
8
Geo
100
AcDbLine
10
-53.3681699913270
20
6.89159112997883
30
0.000000000000000
11
-53.2681699913270
21
6.88612064136922
31
0.000000000000000
  0
LINE
  5
F10990
330
F10991
100
AcDbEntity
8
Geo
100
AcDbLine
10
-53.2681699913270
20
6.88612064136922
30
0.000000000000000
11
-53.1681699913270
21
6.88105987484027
31
0.000000000000000
  0
LINE
  5
F10992
330
F10993
100
AcDbEntity
8
Geo
100
AcDbLine
10
-53.1681699913270
20
6.88105987484027
30
0.000000000000000
11
-53.0681699913270
21
6.87640909397243
31
0.000000000000000
  0
LINE
  5
F10994
330
F10995
100
AcDbEntity
8
Geo
100
AcDbLine
10
-53.0681699913270
20
6.87640909397243
30
0.000000000000000
11
-52.9681699913270
21
6.87216854099282
31
0.000000000000000
  0
LINE
  5
F10996
330
F10997
100
AcDbEntity
8
Geo
100
AcDbLine
10
-52.9681699913270
20
6.87216854099282
30
0.000000000000000
11
-52.8681699913270
21
6.86833843676262
31
0.000000000000000
  0
LINE
  5
F10998
330
F10999
100
AcDbEntity
8
Geo
100
AcDbLine
10
-52.8681699913270
20
6.86833843676262
30
0.000000000000000
11
-52.7681699913270
21
6.86491898076555
31
0.000000000000000
  0
LINE
  5
F1099A
330
F1099B
100
AcDbEntity
8
Geo
100
AcDbLine
10
-52.7681699913270
20
6.86491898076555
30
0.000000000000000
11
-52.6681699913270
21
6.86191035109751
31
0.000000000000000
  0
LINE
  5
F1099C
330
F1099D
100
AcDbEntity
8
Geo
100
AcDbLine
10
-52.6681699913270
20
6.86191035109751
30
0.000000000000000
11
-52.5681699913270
21
6.85931270445729
31
0.000000000000000
  0
LINE
  5
F1099E
330
F1099F
100
AcDbEntity
8
Geo
100
AcDbLine
10
-52.5681699913270
20
6.85931270445729
30
0.000000000000000
11
-52.4681699913270
21
6.85712617613838
31
0.000000000000000
  0
LINE
  5
F109A0
330
F109A1
100
AcDbEntity
8
Geo
100
AcDbLine
10
-52.4681699913270
20
6.85712617613838
30
0.000000000000000
11
-52.3681699913270
21
6.85535088002198
31
0.000000000000000
  0
LINE
  5
F109A2
330
F109A3
100
AcDbEntity
8
Geo
100
AcDbLine
10
-52.3681699913270
20
6.85535088002198
30
0.000000000000000
11
-52.2681699913270
21
6.85398690857103
31
0.000000000000000
  0
LINE
  5
F109A4
330
F109A5
100
AcDbEntity
8
Geo
100
AcDbLine
10
-52.2681699913270
20
6.85398690857103
30
0.000000000000000
11
-52.1681699913270
21
6.85303433282539
31
0.000000000000000
  0
LINE
  5
F109A6
330
F109A7
100
AcDbEntity
8
Geo
100
AcDbLine
10
-52.1681699913270
20
6.85303433282539
30
0.000000000000000
11
-52.0681699913270
21
6.85249320239818
31
0.000000000000000
  0
LINE
  5
F109A8
330
F109A9
100
AcDbEntity
8
Geo
100
AcDbLine
10
-52.0681699913270
20
6.85249320239818
30
0.000000000000000
11
-51.9866602653786
21
6.75281873373810
31
0.000000000000000
  0
LINE
  5
F109AA
330
F109AB
100
AcDbEntity
8
Geo
100
AcDbLine
10
-71.2681699913270
20
10.7798719347802
30
0.000000000000000
11
-71.2681699913270
21
10.7043622377387
31
0.000000000000000
  0
LINE
  5
F109AC
330
F109AD
100
AcDbEntity
8
Geo
100
AcDbLine
10
-51.9866602653786
20
22.7528187337381
30
0.000000000000000
11
-51.9681699913270
21
22.6532739220030
31
0.000000000000000
  0
LINE
  5
F109AE
330
F109AF
100
AcDbEntity
8
Geo
100
AcDbLine
10
-51.9681699913270
20
22.6532739220030
30
0.000000000000000
11
-51.8681699913270
21
22.6529920986730
31
0.000000000000000
  0
LINE
  5
F109B0
330
F109B1
100
AcDbEntity
8
Geo
100
AcDbLine
10
-51.8681699913270
20
22.6529920986730
30
0.000000000000000
11
-51.7681699913270
21
22.6522988097660
31
0.000000000000000
  0
LINE
  5
F109B2
330
F109B3
100
AcDbEntity
8
Geo
100
AcDbLine
10
-51.7681699913270
20
22.6522988097660
30
0.000000000000000
11
-51.6681699913270
21
22.6511940913908
31
0.000000000000000
  0
LINE
  5
F109B4
330
F109B5
100
AcDbEntity
8
Geo
100
AcDbLine
10
-51.6681699913270
20
22.6511940913908
30
0.000000000000000
11
-51.5681699913270
21
22.6496780010846
31
0.000000000000000
  0
LINE
  5
F109B6
330
F109B7
100
AcDbEntity
8
Geo
100
AcDbLine
10
-51.5681699913270
20
22.6496780010846
30
0.000000000000000
11
-51.4681699913270
21
22.6477506178099
31
0.000000000000000
  0
LINE
  5
F109B8
330
F109B9
100
AcDbEntity
8
Geo
100
AcDbLine
10
-71.2681699913270
20
18.8012752297375
30
0.000000000000000
11
-71.2681699913270
21
18.7053768661364
31
0.000000000000000
  0
LINE
  5
F109BA
330
F109BB
100
AcDbEntity
8
Geo
100
AcDbLine
10
-71.2681699913270
20
18.7053768661364
30
0.000000000000000
11
-71.1681699913270
21
18.8073880907169
31
0.000000000000000
  0
LINE
  5
F109BC
330
F109BD
100
AcDbEntity
8
Geo
100
AcDbLine
10
-71.1681699913270
20
18.8073880907169
30
0.000000000000000
11
-71.0681699913270
21
18.9148269630878
31
0.000000000000000
  0
LINE
  5
F109BE
330
F109BF
100
AcDbEntity
8
Geo
100
AcDbLine
10
-71.0681699913270
20
18.9148269630878
30
0.000000000000000
11
-70.9681699913270
21
19.0223408433188
31
0.000000000000000
  0
LINE
  5
F109C0
330
F109C1
100
AcDbEntity
8
Geo
100
AcDbLine
10
-70.9681699913270
20
19.0223408433188
30
0.000000000000000
11
-70.8681699913270
21
19.1287652782458
31
0.000000000000000
  0
LINE
  5
F109C2
330
F109C3
100
AcDbEntity
8
Geo
100
AcDbLine
10
-70.8681699913270
20
19.1287652782458
30
0.000000000000000
11
-70.7681699913270
21
19.2336132232214
31
0.000000000000000
  0
LINE
  5
F109C4
330
F109C5
100
AcDbEntity
8
Geo
100
AcDbLine
10
-70.7681699913270
20
19.2336132232214
30
0.000000000000000
11
-70.6681699913270
21
19.3365033646201
31
0.000000000000000
  0
LINE
  5
F109C6
330
F109C7
100
AcDbEntity
8
Geo
100
AcDbLine
10
-70.6681699913270
20
19.3365033646201
30
0.000000000000000
11
-70.5681699913270
21
19.4375017055278
31
0.000000000000000
  0
LINE
  5
F109C8
330
F109C9
100
AcDbEntity
8
Geo
100
AcDbLine
10
-70.5681699913270
20
19.4375017055278
30
0.000000000000000
11
-70.4681699913270
21
19.5364229904462
31
0.000000000000000
  0
LINE
  5
F109CA
330
F109CB
100
AcDbEntity
8
Geo
100
AcDbLine
10
-70.4681699913270
20
19.5364229904462
30
0.000000000000000
11
-70.3681699913270
21
19.6333140773243
31
0.000000000000000
  0
LINE
  5
F109CC
330
F109CD
100
AcDbEntity
8
Geo
100
AcDbLine
10
-70.3681699913270
20
19.6333140773243
30
0.000000000000000
11
-70.2681699913270
21
19.7282156793882
31
0.000000000000000
  0
LINE
  5
F109CE
330
F109CF
100
AcDbEntity
8
Geo
100
AcDbLine
10
-70.2681699913270
20
19.7282156793882
30
0.000000000000000
11
-70.1681699913270
21
19.8211668867816
31
0.000000000000000
  0
LINE
  5
F109D0
330
F109D1
100
AcDbEntity
8
Geo
100
AcDbLine
10
-70.1681699913270
20
19.8211668867816
30
0.000000000000000
11
-70.0681699913270
21
19.9122073658879
31
0.000000000000000
  0
LINE
  5
F109D2
330
F109D3
100
AcDbEntity
8
Geo
100
AcDbLine
10
-70.0681699913270
20
19.9122073658879
30
0.000000000000000
11
-69.9681699913270
21
20.0012224888729
31
0.000000000000000
  0
LINE
  5
F109D4
330
F109D5
100
AcDbEntity
8
Geo
100
AcDbLine
10
-69.9681699913270
20
20.0012224888729
30
0.000000000000000
11
-69.8681699913270
21
20.0869077271576
31
0.000000000000000
  0
LINE
  5
F109D6
330
F109D7
100
AcDbEntity
8
Geo
100
AcDbLine
10
-69.8681699913270
20
20.0869077271576
30
0.000000000000000
11
-69.7681699913270
21
20.1687043193979
31
0.000000000000000
  0
LINE
  5
F109D8
330
F109D9
100
AcDbEntity
8
Geo
100
AcDbLine
10
-69.7681699913270
20
20.1687043193979
30
0.000000000000000
11
-69.6681699913270
21
20.2467802621577
31
0.000000000000000
  0
LINE
  5
F109DA
330
F109DB
100
AcDbEntity
8
Geo
100
AcDbLine
10
-69.6681699913270
20
20.2467802621577
30
0.000000000000000
11
-69.5681699913270
21
20.3212870120564
31
0.000000000000000
  0
LINE
  5
F109DC
330
F109DD
100
AcDbEntity
8
Geo
100
AcDbLine
10
-69.5681699913270
20
20.3212870120564
30
0.000000000000000
11
-69.4681699913270
21
20.3923616752143
31
0.000000000000000
  0
LINE
  5
F109DE
330
F109DF
100
AcDbEntity
8
Geo
100
AcDbLine
10
-69.4681699913270
20
20.3923616752143
30
0.000000000000000
11
-69.3681699913270
21
20.4601288423081
31
0.000000000000000
  0
LINE
  5
F109E0
330
F109E1
100
AcDbEntity
8
Geo
100
AcDbLine
10
-69.3681699913270
20
20.4601288423081
30
0.000000000000000
11
-69.2681699913270
21
20.5247021367628
31
0.000000000000000
  0
LINE
  5
F109E2
330
F109E3
100
AcDbEntity
8
Geo
100
AcDbLine
10
-69.2681699913270
20
20.5247021367628
30
0.000000000000000
11
-69.1681699913270
21
20.5861855289302
31
0.000000000000000
  0
LINE
  5
F109E4
330
F109E5
100
AcDbEntity
8
Geo
100
AcDbLine
10
-69.1681699913270
20
20.5861855289302
30
0.000000000000000
11
-69.0681699913270
21
20.6446744579791
31
0.000000000000000
  0
LINE
  5
F109E6
330
F109E7
100
AcDbEntity
8
Geo
100
AcDbLine
10
-69.0681699913270
20
20.6446744579791
30
0.000000000000000
11
-68.9681699913270
21
20.7002567947193
31
0.000000000000000
  0
LINE
  5
F109E8
330
F109E9
100
AcDbEntity
8
Geo
100
AcDbLine
10
-68.9681699913270
20
20.7002567947193
30
0.000000000000000
11
-68.8681699913270
21
20.7530136720107
31
0.000000000000000
  0
LINE
  5
F109EA
330
F109EB
100
AcDbEntity
8
Geo
100
AcDbLine
10
-68.8681699913270
20
20.7530136720107
30
0.000000000000000
11
-68.7681699913270
21
20.8030202042912
31
0.000000000000000
  0
LINE
  5
F109EC
330
F109ED
100
AcDbEntity
8
Geo
100
AcDbLine
10
-68.7681699913270
20
20.8030202042912
30
0.000000000000000
11
-68.6681699913270
21
20.8503461137443
31
0.000000000000000
  0
LINE
  5
F109EE
330
F109EF
100
AcDbEntity
8
Geo
100
AcDbLine
10
-68.6681699913270
20
20.8503461137443
30
0.000000000000000
11
-68.5681699913270
21
20.8950562774468
31
0.000000000000000
  0
LINE
  5
F109F0
330
F109F1
100
AcDbEntity
8
Geo
100
AcDbLine
10
-68.5681699913270
20
20.8950562774468
30
0.000000000000000
11
-68.4681699913270
21
20.9372112073088
31
0.000000000000000
  0
LINE
  5
F109F2
330
F109F3
100
AcDbEntity
8
Geo
100
AcDbLine
10
-68.4681699913270
20
20.9372112073088
30
0.000000000000000
11
-68.3681699913270
21
20.9768674725868
31
0.000000000000000
  0
LINE
  5
F109F4
330
F109F5
100
AcDbEntity
8
Geo
100
AcDbLine
10
-68.3681699913270
20
20.9768674725868
30
0.000000000000000
11
-68.2681699913270
21
21.0140780731124
31
0.000000000000000
  0
LINE
  5
F109F6
330
F109F7
100
AcDbEntity
8
Geo
100
AcDbLine
10
-68.2681699913270
20
21.0140780731124
30
0.000000000000000
11
-68.1681699913270
21
21.0488927700532
31
0.000000000000000
  0
LINE
  5
F109F8
330
F109F9
100
AcDbEntity
8
Geo
100
AcDbLine
10
-68.1681699913270
20
21.0488927700532
30
0.000000000000000
11
-68.0681699913270
21
21.0813583799297
31
0.000000000000000
  0
LINE
  5
F109FA
330
F109FB
100
AcDbEntity
8
Geo
100
AcDbLine
10
-68.0681699913270
20
21.0813583799297
30
0.000000000000000
11
-67.9681699913270
21
21.1115190367295
31
0.000000000000000
  0
LINE
  5
F109FC
330
F109FD
100
AcDbEntity
8
Geo
100
AcDbLine
10
-67.9681699913270
20
21.1115190367295
30
0.000000000000000
11
-67.8681699913270
21
21.1394164262175
31
0.000000000000000
  0
LINE
  5
F109FE
330
F109FF
100
AcDbEntity
8
Geo
100
AcDbLine
10
-67.8681699913270
20
21.1394164262175
30
0.000000000000000
11
-67.7681699913270
21
21.1650899959370
31
0.000000000000000
  0
LINE
  5
F10A00
330
F10A01
100
AcDbEntity
8
Geo
100
AcDbLine
10
-67.7681699913270
20
21.1650899959370
30
0.000000000000000
11
-67.6681699913270
21
21.1885771438859
31
0.000000000000000
  0
LINE
  5
F10A02
330
F10A03
100
AcDbEntity
8
Geo
100
AcDbLine
10
-67.6681699913270
20
21.1885771438859
30
0.000000000000000
11
-67.5681699913270
21
21.2099133884299
31
0.000000000000000
  0
LINE
  5
F10A04
330
F10A05
100
AcDbEntity
8
Geo
100
AcDbLine
10
-67.5681699913270
20
21.2099133884299
30
0.000000000000000
11
-67.4681699913270
21
21.2291325216572
31
0.000000000000000
  0
LINE
  5
F10A06
330
F10A07
100
AcDbEntity
8
Geo
100
AcDbLine
10
-67.4681699913270
20
21.2291325216572
30
0.000000000000000
11
-67.3681699913270
21
21.2462667480789
31
0.000000000000000
  0
LINE
  5
F10A08
330
F10A09
100
AcDbEntity
8
Geo
100
AcDbLine
10
-67.3681699913270
20
21.2462667480789
30
0.000000000000000
11
-67.2681699913270
21
21.2613468103261
31
0.000000000000000
  0
LINE
  5
F10A0A
330
F10A0B
100
AcDbEntity
8
Geo
100
AcDbLine
10
-67.2681699913270
20
21.2613468103261
30
0.000000000000000
11
-67.1681699913270
21
21.2744021032767
31
0.000000000000000
  0
LINE
  5
F10A0C
330
F10A0D
100
AcDbEntity
8
Geo
100
AcDbLine
10
-67.1681699913270
20
21.2744021032767
30
0.000000000000000
11
-67.0681699913270
21
21.2854607778628
31
0.000000000000000
  0
LINE
  5
F10A0E
330
F10A0F
100
AcDbEntity
8
Geo
100
AcDbLine
10
-67.0681699913270
20
21.2854607778628
30
0.000000000000000
11
-66.9681699913270
21
21.2945498356507
31
0.000000000000000
  0
LINE
  5
F10A10
330
F10A11
100
AcDbEntity
8
Geo
100
AcDbLine
10
-66.9681699913270
20
21.2945498356507
30
0.000000000000000
11
-66.8681699913270
21
21.3016952151512
31
0.000000000000000
  0
LINE
  5
F10A12
330
F10A13
100
AcDbEntity
8
Geo
100
AcDbLine
10
-66.8681699913270
20
21.3016952151512
30
0.000000000000000
11
-66.7681699913270
21
21.3069218707014
31
0.000000000000000
  0
LINE
  5
F10A14
330
F10A15
100
AcDbEntity
8
Geo
100
AcDbLine
10
-66.7681699913270
20
21.3069218707014
30
0.000000000000000
11
-66.6681699913270
21
21.3102538446582
31
0.000000000000000
  0
LINE
  5
F10A16
330
F10A17
100
AcDbEntity
8
Geo
100
AcDbLine
10
-66.6681699913270
20
21.3102538446582
30
0.000000000000000
11
-66.5681699913270
21
21.3117143335579
31
0.000000000000000
  0
LINE
  5
F10A18
330
F10A19
100
AcDbEntity
8
Geo
100
AcDbLine
10
-66.5681699913270
20
21.3117143335579
30
0.000000000000000
11
-66.4681699913270
21
21.3113257488196
31
0.000000000000000
  0
LINE
  5
F10A1A
330
F10A1B
100
AcDbEntity
8
Geo
100
AcDbLine
10
-66.4681699913270
20
21.3113257488196
30
0.000000000000000
11
-66.3681699913270
21
21.3091097725055
31
0.000000000000000
  0
LINE
  5
F10A1C
330
F10A1D
100
AcDbEntity
8
Geo
100
AcDbLine
10
-66.3681699913270
20
21.3091097725055
30
0.000000000000000
11
-66.2681699913270
21
21.3050874085925
31
0.000000000000000
  0
LINE
  5
F10A1E
330
F10A1F
100
AcDbEntity
8
Geo
100
AcDbLine
10
-66.2681699913270
20
21.3050874085925
30
0.000000000000000
11
-66.1681699913270
21
21.2992790301616
31
0.000000000000000
  0
LINE
  5
F10A20
330
F10A21
100
AcDbEntity
8
Geo
100
AcDbLine
10
-66.1681699913270
20
21.2992790301616
30
0.000000000000000
11
-66.0681699913270
21
21.2917044228635
31
0.000000000000000
  0
LINE
  5
F10A22
330
F10A23
100
AcDbEntity
8
Geo
100
AcDbLine
10
-66.0681699913270
20
21.2917044228635
30
0.000000000000000
11
-65.9681699913270
21
21.2823828249855
31
0.000000000000000
  0
LINE
  5
F10A24
330
F10A25
100
AcDbEntity
8
Geo
100
AcDbLine
10
-65.9681699913270
20
21.2823828249855
30
0.000000000000000
11
-65.8681699913270
21
21.2713329644054
31
0.000000000000000
  0
LINE
  5
F10A26
330
F10A27
100
AcDbEntity
8
Geo
100
AcDbLine
10
-65.8681699913270
20
21.2713329644054
30
0.000000000000000
11
-65.7681699913270
21
21.2585730926908
31
0.000000000000000
  0
LINE
  5
F10A28
330
F10A29
100
AcDbEntity
8
Geo
100
AcDbLine
10
-65.7681699913270
20
21.2585730926908
30
0.000000000000000
11
-65.6681699913270
21
21.2441210165755
31
0.000000000000000
  0
LINE
  5
F10A2A
330
F10A2B
100
AcDbEntity
8
Geo
100
AcDbLine
10
-65.6681699913270
20
21.2441210165755
30
0.000000000000000
11
-65.5681699913270
21
21.2279941270195
31
0.000000000000000
  0
LINE
  5
F10A2C
330
F10A2D
100
AcDbEntity
8
Geo
100
AcDbLine
10
-65.5681699913270
20
21.2279941270195
30
0.000000000000000
11
-65.4681699913270
21
21.2102094260375
31
0.000000000000000
  0
LINE
  5
F10A2E
330
F10A2F
100
AcDbEntity
8
Geo
100
AcDbLine
10
-65.4681699913270
20
21.2102094260375
30
0.000000000000000
11
-65.3681699913270
21
21.1907835514658
31
0.000000000000000
  0
LINE
  5
F10A30
330
F10A31
100
AcDbEntity
8
Geo
100
AcDbLine
10
-65.3681699913270
20
21.1907835514658
30
0.000000000000000
11
-65.2681699913270
21
21.1697327998146
31
0.000000000000000
  0
LINE
  5
F10A32
330
F10A33
100
AcDbEntity
8
Geo
100
AcDbLine
10
-65.2681699913270
20
21.1697327998146
30
0.000000000000000
11
-65.1681699913270
21
21.1470731473417
31
0.000000000000000
  0
LINE
  5
F10A34
330
F10A35
100
AcDbEntity
8
Geo
100
AcDbLine
10
-65.1681699913270
20
21.1470731473417
30
0.000000000000000
11
-65.0681699913270
21
21.1228202694700
31
0.000000000000000
  0
LINE
  5
F10A36
330
F10A37
100
AcDbEntity
8
Geo
100
AcDbLine
10
-65.0681699913270
20
21.1228202694700
30
0.000000000000000
11
-64.9681699913270
21
21.0969895586546
31
0.000000000000000
  0
LINE
  5
F10A38
330
F10A39
100
AcDbEntity
8
Geo
100
AcDbLine
10
-64.9681699913270
20
21.0969895586546
30
0.000000000000000
11
-64.8681699913270
21
21.0695961408000
31
0.000000000000000
  0
LINE
  5
F10A3A
330
F10A3B
100
AcDbEntity
8
Geo
100
AcDbLine
10
-64.8681699913270
20
21.0695961408000
30
0.000000000000000
11
-64.7681699913270
21
21.0406548903120
31
0.000000000000000
  0
LINE
  5
F10A3C
330
F10A3D
100
AcDbEntity
8
Geo
100
AcDbLine
10
-64.7681699913270
20
21.0406548903120
30
0.000000000000000
11
-64.6681699913270
21
21.0101804438639
31
0.000000000000000
  0
LINE
  5
F10A3E
330
F10A3F
100
AcDbEntity
8
Geo
100
AcDbLine
10
-64.6681699913270
20
21.0101804438639
30
0.000000000000000
11
-64.5681699913270
21
20.9781872129448
31
0.000000000000000
  0
LINE
  5
F10A40
330
F10A41
100
AcDbEntity
8
Geo
100
AcDbLine
10
-64.5681699913270
20
20.9781872129448
30
0.000000000000000
11
-64.4681699913270
21
20.9446893952526
31
0.000000000000000
  0
LINE
  5
F10A42
330
F10A43
100
AcDbEntity
8
Geo
100
AcDbLine
10
-64.4681699913270
20
20.9446893952526
30
0.000000000000000
11
-64.3681699913270
21
20.9097009849840
31
0.000000000000000
  0
LINE
  5
F10A44
330
F10A45
100
AcDbEntity
8
Geo
100
AcDbLine
10
-64.3681699913270
20
20.9097009849840
30
0.000000000000000
11
-64.2681699913270
21
20.8738118695333
31
0.000000000000000
  0
LINE
  5
F10A46
330
F10A47
100
AcDbEntity
8
Geo
100
AcDbLine
10
-64.2681699913270
20
20.8738118695333
30
0.000000000000000
11
-64.1681699913270
21
20.8376039537406
31
0.000000000000000
  0
LINE
  5
F10A48
330
F10A49
100
AcDbEntity
8
Geo
100
AcDbLine
10
-64.1681699913270
20
20.8376039537406
30
0.000000000000000
11
-64.0681699913270
21
20.8010791234264
31
0.000000000000000
  0
LINE
  5
F10A4A
330
F10A4B
100
AcDbEntity
8
Geo
100
AcDbLine
10
-64.0681699913270
20
20.8010791234264
30
0.000000000000000
11
-63.9681699913270
21
20.7642392809176
31
0.000000000000000
  0
LINE
  5
F10A4C
330
F10A4D
100
AcDbEntity
8
Geo
100
AcDbLine
10
-63.9681699913270
20
20.7642392809176
30
0.000000000000000
11
-63.8681699913270
21
20.7270863449474
31
0.000000000000000
  0
LINE
  5
F10A4E
330
F10A4F
100
AcDbEntity
8
Geo
100
AcDbLine
10
-63.8681699913270
20
20.7270863449474
30
0.000000000000000
11
-63.7681699913270
21
20.6896222505564
31
0.000000000000000
  0
LINE
  5
F10A50
330
F10A51
100
AcDbEntity
8
Geo
100
AcDbLine
10
-63.7681699913270
20
20.6896222505564
30
0.000000000000000
11
-63.6681699913270
21
20.6518489489910
31
0.000000000000000
  0
LINE
  5
F10A52
330
F10A53
100
AcDbEntity
8
Geo
100
AcDbLine
10
-63.6681699913270
20
20.6518489489910
30
0.000000000000000
11
-63.5681699913270
21
20.6137684076020
31
0.000000000000000
  0
LINE
  5
F10A54
330
F10A55
100
AcDbEntity
8
Geo
100
AcDbLine
10
-63.5681699913270
20
20.6137684076020
30
0.000000000000000
11
-63.4681699913270
21
20.5753826097423
31
0.000000000000000
  0
LINE
  5
F10A56
330
F10A57
100
AcDbEntity
8
Geo
100
AcDbLine
10
-63.4681699913270
20
20.5753826097423
30
0.000000000000000
11
-63.3681699913270
21
20.5366935546637
31
0.000000000000000
  0
LINE
  5
F10A58
330
F10A59
100
AcDbEntity
8
Geo
100
AcDbLine
10
-63.3681699913270
20
20.5366935546637
30
0.000000000000000
11
-63.2681699913270
21
20.4977032574124
31
0.000000000000000
  0
LINE
  5
F10A5A
330
F10A5B
100
AcDbEntity
8
Geo
100
AcDbLine
10
-63.2681699913270
20
20.4977032574124
30
0.000000000000000
11
-63.1681699913270
21
20.4584137487241
31
0.000000000000000
  0
LINE
  5
F10A5C
330
F10A5D
100
AcDbEntity
8
Geo
100
AcDbLine
10
-63.1681699913270
20
20.4584137487241
30
0.000000000000000
11
-63.0681699913270
21
20.4188270749185
31
0.000000000000000
  0
LINE
  5
F10A5E
330
F10A5F
100
AcDbEntity
8
Geo
100
AcDbLine
10
-63.0681699913270
20
20.4188270749185
30
0.000000000000000
11
-62.9681699913270
21
20.3789452977927
31
0.000000000000000
  0
LINE
  5
F10A60
330
F10A61
100
AcDbEntity
8
Geo
100
AcDbLine
10
-62.9681699913270
20
20.3789452977927
30
0.000000000000000
11
-62.8681699913270
21
20.3387704945134
31
0.000000000000000
  0
LINE
  5
F10A62
330
F10A63
100
AcDbEntity
8
Geo
100
AcDbLine
10
-62.8681699913270
20
20.3387704945134
30
0.000000000000000
11
-62.7681699913270
21
20.2983047575094
31
0.000000000000000
  0
LINE
  5
F10A64
330
F10A65
100
AcDbEntity
8
Geo
100
AcDbLine
10
-62.7681699913270
20
20.2983047575094
30
0.000000000000000
11
-62.6681699913270
21
20.2575501943619
31
0.000000000000000
  0
LINE
  5
F10A66
330
F10A67
100
AcDbEntity
8
Geo
100
AcDbLine
10
-62.6681699913270
20
20.2575501943619
30
0.000000000000000
11
-62.5681699913270
21
20.2165089276952
31
0.000000000000000
  0
LINE
  5
F10A68
330
F10A69
100
AcDbEntity
8
Geo
100
AcDbLine
10
-62.5681699913270
20
20.2165089276952
30
0.000000000000000
11
-62.4681699913270
21
20.1751830950659
31
0.000000000000000
  0
LINE
  5
F10A6A
330
F10A6B
100
AcDbEntity
8
Geo
100
AcDbLine
10
-62.4681699913270
20
20.1751830950659
30
0.000000000000000
11
-62.3681699913270
21
20.1335748488520
31
0.000000000000000
  0
LINE
  5
F10A6C
330
F10A6D
100
AcDbEntity
8
Geo
100
AcDbLine
10
-62.3681699913270
20
20.1335748488520
30
0.000000000000000
11
-62.2681699913270
21
20.0916863561401
31
0.000000000000000
  0
LINE
  5
F10A6E
330
F10A6F
100
AcDbEntity
8
Geo
100
AcDbLine
10
-62.2681699913270
20
20.0916863561401
30
0.000000000000000
11
-62.1681699913270
21
20.0495197986130
31
0.000000000000000
  0
LINE
  5
F10A70
330
F10A71
100
AcDbEntity
8
Geo
100
AcDbLine
10
-62.1681699913270
20
20.0495197986130
30
0.000000000000000
11
-62.0681699913270
21
20.0070773724362
31
0.000000000000000
  0
LINE
  5
F10A72
330
F10A73
100
AcDbEntity
8
Geo
100
AcDbLine
10
-62.0681699913270
20
20.0070773724362
30
0.000000000000000
11
-61.9681699913270
21
19.9643612881430
31
0.000000000000000
  0
LINE
  5
F10A74
330
F10A75
100
AcDbEntity
8
Geo
100
AcDbLine
10
-61.9681699913270
20
19.9643612881430
30
0.000000000000000
11
-61.8681699913270
21
19.9213737705199
31
0.000000000000000
  0
LINE
  5
F10A76
330
F10A77
100
AcDbEntity
8
Geo
100
AcDbLine
10
-61.8681699913270
20
19.9213737705199
30
0.000000000000000
11
-61.7681699913270
21
19.8781170584904
31
0.000000000000000
  0
LINE
  5
F10A78
330
F10A79
100
AcDbEntity
8
Geo
100
AcDbLine
10
-61.7681699913270
20
19.8781170584904
30
0.000000000000000
11
-61.6681699913270
21
19.8345934049983
31
0.000000000000000
  0
LINE
  5
F10A7A
330
F10A7B
100
AcDbEntity
8
Geo
100
AcDbLine
10
-61.6681699913270
20
19.8345934049983
30
0.000000000000000
11
-61.5681699913270
21
19.7908050768909
31
0.000000000000000
  0
LINE
  5
F10A7C
330
F10A7D
100
AcDbEntity
8
Geo
100
AcDbLine
10
-61.5681699913270
20
19.7908050768909
30
0.000000000000000
11
-61.4681699913270
21
19.7467543548004
31
0.000000000000000
  0
LINE
  5
F10A7E
330
F10A7F
100
AcDbEntity
8
Geo
100
AcDbLine
10
-61.4681699913270
20
19.7467543548004
30
0.000000000000000
11
-61.3681699913270
21
19.7024435330251
31
0.000000000000000
  0
LINE
  5
F10A80
330
F10A81
100
AcDbEntity
8
Geo
100
AcDbLine
10
-61.3681699913270
20
19.7024435330251
30
0.000000000000000
11
-61.2681699913270
21
19.6578749194104
31
0.000000000000000
  0
LINE
  5
F10A82
330
F10A83
100
AcDbEntity
8
Geo
100
AcDbLine
10
-61.2681699913270
20
19.6578749194104
30
0.000000000000000
11
-61.1681699913270
21
19.6130508352282
31
0.000000000000000
  0
LINE
  5
F10A84
330
F10A85
100
AcDbEntity
8
Geo
100
AcDbLine
10
-61.1681699913270
20
19.6130508352282
30
0.000000000000000
11
-61.0681699913270
21
19.5679736150561
31
0.000000000000000
  0
LINE
  5
F10A86
330
F10A87
100
AcDbEntity
8
Geo
100
AcDbLine
10
-61.0681699913270
20
19.5679736150561
30
0.000000000000000
11
-60.9681699913270
21
19.5226456066557
31
0.000000000000000
  0
LINE
  5
F10A88
330
F10A89
100
AcDbEntity
8
Geo
100
AcDbLine
10
-60.9681699913270
20
19.5226456066557
30
0.000000000000000
11
-60.8681699913270
21
19.4770691708507
31
0.000000000000000
  0
LINE
  5
F10A8A
330
F10A8B
100
AcDbEntity
8
Geo
100
AcDbLine
10
-60.8681699913270
20
19.4770691708507
30
0.000000000000000
11
-60.7681699913270
21
19.4312466814032
31
0.000000000000000
  0
LINE
  5
F10A8C
330
F10A8D
100
AcDbEntity
8
Geo
100
AcDbLine
10
-60.7681699913270
20
19.4312466814032
30
0.000000000000000
11
-60.6681699913270
21
19.3851805248912
31
0.000000000000000
  0
LINE
  5
F10A8E
330
F10A8F
100
AcDbEntity
8
Geo
100
AcDbLine
10
-60.6681699913270
20
19.3851805248912
30
0.000000000000000
11
-60.5681699913270
21
19.3388731005829
31
0.000000000000000
  0
LINE
  5
F10A90
330
F10A91
100
AcDbEntity
8
Geo
100
AcDbLine
10
-60.5681699913270
20
19.3388731005829
30
0.000000000000000
11
-60.4681699913270
21
19.2923268203132
31
0.000000000000000
  0
LINE
  5
F10A92
330
F10A93
100
AcDbEntity
8
Geo
100
AcDbLine
10
-60.4681699913270
20
19.2923268203132
30
0.000000000000000
11
-60.3681699913270
21
19.2455441083567
31
0.000000000000000
  0
LINE
  5
F10A94
330
F10A95
100
AcDbEntity
8
Geo
100
AcDbLine
10
-60.3681699913270
20
19.2455441083567
30
0.000000000000000
11
-60.2681699913270
21
19.1985274013026
31
0.000000000000000
  0
LINE
  5
F10A96
330
F10A97
100
AcDbEntity
8
Geo
100
AcDbLine
10
-60.2681699913270
20
19.1985274013026
30
0.000000000000000
11
-60.1681699913270
21
19.1512791479271
31
0.000000000000000
  0
LINE
  5
F10A98
330
F10A99
100
AcDbEntity
8
Geo
100
AcDbLine
10
-60.1681699913270
20
19.1512791479271
30
0.000000000000000
11
-60.0681699913270
21
19.1038018090659
31
0.000000000000000
  0
LINE
  5
F10A9A
330
F10A9B
100
AcDbEntity
8
Geo
100
AcDbLine
10
-60.0681699913270
20
19.1038018090659
30
0.000000000000000
11
-59.9681699913270
21
19.0560978574865
31
0.000000000000000
  0
LINE
  5
F10A9C
330
F10A9D
100
AcDbEntity
8
Geo
100
AcDbLine
10
-59.9681699913270
20
19.0560978574865
30
0.000000000000000
11
-59.8681699913270
21
19.0081697777588
31
0.000000000000000
  0
LINE
  5
F10A9E
330
F10A9F
100
AcDbEntity
8
Geo
100
AcDbLine
10
-59.8681699913270
20
19.0081697777588
30
0.000000000000000
11
-59.7681699913270
21
18.9600200661262
31
0.000000000000000
  0
LINE
  5
F10AA0
330
F10AA1
100
AcDbEntity
8
Geo
100
AcDbLine
10
-59.7681699913270
20
18.9600200661262
30
0.000000000000000
11
-59.6681699913270
21
18.9116512303752
31
0.000000000000000
  0
LINE
  5
F10AA2
330
F10AA3
100
AcDbEntity
8
Geo
100
AcDbLine
10
-59.6681699913270
20
18.9116512303752
30
0.000000000000000
11
-59.5681699913270
21
18.8630657897052
31
0.000000000000000
  0
LINE
  5
F10AA4
330
F10AA5
100
AcDbEntity
8
Geo
100
AcDbLine
10
-59.5681699913270
20
18.8630657897052
30
0.000000000000000
11
-59.4681699913270
21
18.8142662745968
31
0.000000000000000
  0
LINE
  5
F10AA6
330
F10AA7
100
AcDbEntity
8
Geo
100
AcDbLine
10
-59.4681699913270
20
18.8142662745968
30
0.000000000000000
11
-59.3681699913270
21
18.7652552266805
31
0.000000000000000
  0
LINE
  5
F10AA8
330
F10AA9
100
AcDbEntity
8
Geo
100
AcDbLine
10
-59.3681699913270
20
18.7652552266805
30
0.000000000000000
11
-59.2681699913270
21
18.7160351986038
31
0.000000000000000
  0
LINE
  5
F10AAA
330
F10AAB
100
AcDbEntity
8
Geo
100
AcDbLine
10
-59.2681699913270
20
18.7160351986038
30
0.000000000000000
11
-59.1681699913270
21
18.6666087538988
31
0.000000000000000
  0
LINE
  5
F10AAC
330
F10AAD
100
AcDbEntity
8
Geo
100
AcDbLine
10
-59.1681699913270
20
18.6666087538988
30
0.000000000000000
11
-59.0681699913270
21
18.6169784668484
31
0.000000000000000
  0
LINE
  5
F10AAE
330
F10AAF
100
AcDbEntity
8
Geo
100
AcDbLine
10
-59.0681699913270
20
18.6169784668484
30
0.000000000000000
11
-58.9681699913270
21
18.5671469223520
31
0.000000000000000
  0
LINE
  5
F10AB0
330
F10AB1
100
AcDbEntity
8
Geo
100
AcDbLine
10
-58.9681699913270
20
18.5671469223520
30
0.000000000000000
11
-58.8681699913270
21
18.5171167157914
31
0.000000000000000
  0
LINE
  5
F10AB2
330
F10AB3
100
AcDbEntity
8
Geo
100
AcDbLine
10
-58.8681699913270
20
18.5171167157914
30
0.000000000000000
11
-58.7681699913270
21
18.4668904528952
31
0.000000000000000
  0
LINE
  5
F10AB4
330
F10AB5
100
AcDbEntity
8
Geo
100
AcDbLine
10
-58.7681699913270
20
18.4668904528952
30
0.000000000000000
11
-58.6681699913270
21
18.4164707496032
31
0.000000000000000
  0
LINE
  5
F10AB6
330
F10AB7
100
AcDbEntity
8
Geo
100
AcDbLine
10
-58.6681699913270
20
18.4164707496032
30
0.000000000000000
11
-58.5681699913270
21
18.3658602319302
31
0.000000000000000
  0
LINE
  5
F10AB8
330
F10AB9
100
AcDbEntity
8
Geo
100
AcDbLine
10
-58.5681699913270
20
18.3658602319302
30
0.000000000000000
11
-58.4681699913270
21
18.3150615358293
31
0.000000000000000
  0
LINE
  5
F10ABA
330
F10ABB
100
AcDbEntity
8
Geo
100
AcDbLine
10
-58.4681699913270
20
18.3150615358293
30
0.000000000000000
11
-58.3681699913270
21
18.2640773070544
31
0.000000000000000
  0
LINE
  5
F10ABC
330
F10ABD
100
AcDbEntity
8
Geo
100
AcDbLine
10
-58.3681699913270
20
18.2640773070544
30
0.000000000000000
11
-58.2681699913270
21
18.2129102010225
31
0.000000000000000
  0
LINE
  5
F10ABE
330
F10ABF
100
AcDbEntity
8
Geo
100
AcDbLine
10
-58.2681699913270
20
18.2129102010225
30
0.000000000000000
11
-58.1681699913270
21
18.1615628826755
31
0.000000000000000
  0
LINE
  5
F10AC0
330
F10AC1
100
AcDbEntity
8
Geo
100
AcDbLine
10
-58.1681699913270
20
18.1615628826755
30
0.000000000000000
11
-58.0681699913270
21
18.1100380263414
31
0.000000000000000
  0
LINE
  5
F10AC2
330
F10AC3
100
AcDbEntity
8
Geo
100
AcDbLine
10
-58.0681699913270
20
18.1100380263414
30
0.000000000000000
11
-57.9681699913270
21
18.0583383155946
31
0.000000000000000
  0
LINE
  5
F10AC4
330
F10AC5
100
AcDbEntity
8
Geo
100
AcDbLine
10
-57.9681699913270
20
18.0583383155946
30
0.000000000000000
11
-57.8681699913270
21
18.0064664431169
31
0.000000000000000
  0
LINE
  5
F10AC6
330
F10AC7
100
AcDbEntity
8
Geo
100
AcDbLine
10
-57.8681699913270
20
18.0064664431169
30
0.000000000000000
11
-57.7681699913270
21
17.9544251105565
31
0.000000000000000
  0
LINE
  5
F10AC8
330
F10AC9
100
AcDbEntity
8
Geo
100
AcDbLine
10
-57.7681699913270
20
17.9544251105565
30
0.000000000000000
11
-57.6681699913270
21
17.9022170283877
31
0.000000000000000
  0
LINE
  5
F10ACA
330
F10ACB
100
AcDbEntity
8
Geo
100
AcDbLine
10
-57.6681699913270
20
17.9022170283877
30
0.000000000000000
11
-57.5681699913270
21
17.8498449157697
31
0.000000000000000
  0
LINE
  5
F10ACC
330
F10ACD
100
AcDbEntity
8
Geo
100
AcDbLine
10
-57.5681699913270
20
17.8498449157697
30
0.000000000000000
11
-57.4681699913270
21
17.7973115004047
31
0.000000000000000
  0
LINE
  5
F10ACE
330
F10ACF
100
AcDbEntity
8
Geo
100
AcDbLine
10
-57.4681699913270
20
17.7973115004047
30
0.000000000000000
11
-57.3681699913270
21
17.7446195183964
31
0.000000000000000
  0
LINE
  5
F10AD0
330
F10AD1
100
AcDbEntity
8
Geo
100
AcDbLine
10
-57.3681699913270
20
17.7446195183964
30
0.000000000000000
11
-57.2681699913270
21
17.6917717141069
31
0.000000000000000
  0
LINE
  5
F10AD2
330
F10AD3
100
AcDbEntity
8
Geo
100
AcDbLine
10
-57.2681699913270
20
17.6917717141069
30
0.000000000000000
11
-57.1681699913270
21
17.6387708400141
31
0.000000000000000
  0
LINE
  5
F10AD4
330
F10AD5
100
AcDbEntity
8
Geo
100
AcDbLine
10
-57.1681699913270
20
17.6387708400141
30
0.000000000000000
11
-57.0681699913270
21
17.5856196565680
31
0.000000000000000
  0
LINE
  5
F10AD6
330
F10AD7
100
AcDbEntity
8
Geo
100
AcDbLine
10
-57.0681699913270
20
17.5856196565680
30
0.000000000000000
11
-56.9681699913270
21
17.5323209320477
31
0.000000000000000
  0
LINE
  5
F10AD8
330
F10AD9
100
AcDbEntity
8
Geo
100
AcDbLine
10
-56.9681699913270
20
17.5323209320477
30
0.000000000000000
11
-56.8681699913271
21
17.4788774424161
31
0.000000000000000
  0
LINE
  5
F10ADA
330
F10ADB
100
AcDbEntity
8
Geo
100
AcDbLine
10
-56.8681699913271
20
17.4788774424161
30
0.000000000000000
11
-56.7681699913270
21
17.4252919711764
31
0.000000000000000
  0
LINE
  5
F10ADC
330
F10ADD
100
AcDbEntity
8
Geo
100
AcDbLine
10
-56.7681699913270
20
17.4252919711764
30
0.000000000000000
11
-56.6681699913270
21
17.3715673092264
31
0.000000000000000
  0
LINE
  5
F10ADE
330
F10ADF
100
AcDbEntity
8
Geo
100
AcDbLine
10
-56.6681699913270
20
17.3715673092264
30
0.000000000000000
11
-56.5681699913270
21
17.3177062547133
31
0.000000000000000
  0
LINE
  5
F10AE0
330
F10AE1
100
AcDbEntity
8
Geo
100
AcDbLine
10
-56.5681699913270
20
17.3177062547133
30
0.000000000000000
11
-56.4681699913270
21
17.2637116128884
31
0.000000000000000
  0
LINE
  5
F10AE2
330
F10AE3
100
AcDbEntity
8
Geo
100
AcDbLine
10
-56.4681699913270
20
17.2637116128884
30
0.000000000000000
11
-56.3681699913271
21
17.2095861959602
31
0.000000000000000
  0
LINE
  5
F10AE4
330
F10AE5
100
AcDbEntity
8
Geo
100
AcDbLine
10
-56.3681699913271
20
17.2095861959602
30
0.000000000000000
11
-56.2681699913270
21
17.1553328229488
31
0.000000000000000
  0
LINE
  5
F10AE6
330
F10AE7
100
AcDbEntity
8
Geo
100
AcDbLine
10
-56.2681699913270
20
17.1553328229488
30
0.000000000000000
11
-56.1681699913270
21
17.1009543195383
31
0.000000000000000
  0
LINE
  5
F10AE8
330
F10AE9
100
AcDbEntity
8
Geo
100
AcDbLine
10
-56.1681699913270
20
17.1009543195383
30
0.000000000000000
11
-56.0681699913270
21
17.0464535179303
31
0.000000000000000
  0
LINE
  5
F10AEA
330
F10AEB
100
AcDbEntity
8
Geo
100
AcDbLine
10
-56.0681699913270
20
17.0464535179303
30
0.000000000000000
11
-55.9681699913270
21
16.9918332566957
31
0.000000000000000
  0
LINE
  5
F10AEC
330
F10AED
100
AcDbEntity
8
Geo
100
AcDbLine
10
-55.9681699913270
20
16.9918332566957
30
0.000000000000000
11
-55.8681699913270
21
16.9370963806275
31
0.000000000000000
  0
LINE
  5
F10AEE
330
F10AEF
100
AcDbEntity
8
Geo
100
AcDbLine
10
-55.8681699913270
20
16.9370963806275
30
0.000000000000000
11
-55.7681699913270
21
16.8822457405922
31
0.000000000000000
  0
LINE
  5
F10AF0
330
F10AF1
100
AcDbEntity
8
Geo
100
AcDbLine
10
-55.7681699913270
20
16.8822457405922
30
0.000000000000000
11
-55.6681699913270
21
16.8272841933818
31
0.000000000000000
  0
LINE
  5
F10AF2
330
F10AF3
100
AcDbEntity
8
Geo
100
AcDbLine
10
-55.6681699913270
20
16.8272841933818
30
0.000000000000000
11
-55.5681699913270
21
16.7722146015643
31
0.000000000000000
  0
LINE
  5
F10AF4
330
F10AF5
100
AcDbEntity
8
Geo
100
AcDbLine
10
-55.5681699913270
20
16.7722146015643
30
0.000000000000000
11
-55.4681699913270
21
16.7170398333351
31
0.000000000000000
  0
LINE
  5
F10AF6
330
F10AF7
100
AcDbEntity
8
Geo
100
AcDbLine
10
-55.4681699913270
20
16.7170398333351
30
0.000000000000000
11
-55.3681699913270
21
16.6617627623677
31
0.000000000000000
  0
LINE
  5
F10AF8
330
F10AF9
100
AcDbEntity
8
Geo
100
AcDbLine
10
-55.3681699913270
20
16.6617627623677
30
0.000000000000000
11
-55.2681699913270
21
16.6063862676637
31
0.000000000000000
  0
LINE
  5
F10AFA
330
F10AFB
100
AcDbEntity
8
Geo
100
AcDbLine
10
-55.2681699913270
20
16.6063862676637
30
0.000000000000000
11
-55.1681699913270
21
16.5509132334030
31
0.000000000000000
  0
LINE
  5
F10AFC
330
F10AFD
100
AcDbEntity
8
Geo
100
AcDbLine
10
-55.1681699913270
20
16.5509132334030
30
0.000000000000000
11
-55.0681699913270
21
16.4953465487935
31
0.000000000000000
  0
LINE
  5
F10AFE
330
F10AFF
100
AcDbEntity
8
Geo
100
AcDbLine
10
-55.0681699913270
20
16.4953465487935
30
0.000000000000000
11
-54.9681699913270
21
16.4396891079209
31
0.000000000000000
  0
LINE
  5
F10B00
330
F10B01
100
AcDbEntity
8
Geo
100
AcDbLine
10
-54.9681699913270
20
16.4396891079209
30
0.000000000000000
11
-54.8681699913270
21
16.3839438095977
31
0.000000000000000
  0
LINE
  5
F10B02
330
F10B03
100
AcDbEntity
8
Geo
100
AcDbLine
10
-54.8681699913270
20
16.3839438095977
30
0.000000000000000
11
-54.7681699913270
21
16.3281135572121
31
0.000000000000000
  0
LINE
  5
F10B04
330
F10B05
100
AcDbEntity
8
Geo
100
AcDbLine
10
-54.7681699913270
20
16.3281135572121
30
0.000000000000000
11
-54.6681699913270
21
16.2722012585773
31
0.000000000000000
  0
LINE
  5
F10B06
330
F10B07
100
AcDbEntity
8
Geo
100
AcDbLine
10
-54.6681699913270
20
16.2722012585773
30
0.000000000000000
11
-54.5681699913270
21
16.2162098257794
31
0.000000000000000
  0
LINE
  5
F10B08
330
F10B09
100
AcDbEntity
8
Geo
100
AcDbLine
10
-54.5681699913270
20
16.2162098257794
30
0.000000000000000
11
-54.4681699913270
21
16.1601421750263
31
0.000000000000000
  0
LINE
  5
F10B0A
330
F10B0B
100
AcDbEntity
8
Geo
100
AcDbLine
10
-54.4681699913270
20
16.1601421750263
30
0.000000000000000
11
-54.3681699913270
21
16.1040012264954
31
0.000000000000000
  0
LINE
  5
F10B0C
330
F10B0D
100
AcDbEntity
8
Geo
100
AcDbLine
10
-54.3681699913270
20
16.1040012264954
30
0.000000000000000
11
-54.2681699913270
21
16.0477899041818
31
0.000000000000000
  0
LINE
  5
F10B0E
330
F10B0F
100
AcDbEntity
8
Geo
100
AcDbLine
10
-54.2681699913270
20
16.0477899041818
30
0.000000000000000
11
-54.1681699913270
21
15.9915111357458
31
0.000000000000000
  0
LINE
  5
F10B10
330
F10B11
100
AcDbEntity
8
Geo
100
AcDbLine
10
-54.1681699913270
20
15.9915111357458
30
0.000000000000000
11
-54.0681699913270
21
15.9351678523606
31
0.000000000000000
  0
LINE
  5
F10B12
330
F10B13
100
AcDbEntity
8
Geo
100
AcDbLine
10
-54.0681699913270
20
15.9351678523606
30
0.000000000000000
11
-53.9681699913270
21
15.8787629885593
31
0.000000000000000
  0
LINE
  5
F10B14
330
F10B15
100
AcDbEntity
8
Geo
100
AcDbLine
10
-53.9681699913270
20
15.8787629885593
30
0.000000000000000
11
-53.8681699913270
21
15.8222994820827
31
0.000000000000000
  0
LINE
  5
F10B16
330
F10B17
100
AcDbEntity
8
Geo
100
AcDbLine
10
-53.8681699913270
20
15.8222994820827
30
0.000000000000000
11
-53.7681699913270
21
15.7657802737255
31
0.000000000000000
  0
LINE
  5
F10B18
330
F10B19
100
AcDbEntity
8
Geo
100
AcDbLine
10
-53.7681699913270
20
15.7657802737255
30
0.000000000000000
11
-53.6681699913270
21
15.7092083071837
31
0.000000000000000
  0
LINE
  5
F10B1A
330
F10B1B
100
AcDbEntity
8
Geo
100
AcDbLine
10
-53.6681699913270
20
15.7092083071837
30
0.000000000000000
11
-53.5681699913270
21
15.6525865289012
31
0.000000000000000
  0
LINE
  5
F10B1C
330
F10B1D
100
AcDbEntity
8
Geo
100
AcDbLine
10
-53.5681699913270
20
15.6525865289012
30
0.000000000000000
11
-53.4681699913270
21
15.5959178879161
31
0.000000000000000
  0
LINE
  5
F10B1E
330
F10B1F
100
AcDbEntity
8
Geo
100
AcDbLine
10
-53.4681699913270
20
15.5959178879161
30
0.000000000000000
11
-53.3681699913270
21
15.5392053357073
31
0.000000000000000
  0
LINE
  5
F10B20
330
F10B21
100
AcDbEntity
8
Geo
100
AcDbLine
10
-53.3681699913270
20
15.5392053357073
30
0.000000000000000
11
-53.2681699913270
21
15.4824518260408
31
0.000000000000000
  0
LINE
  5
F10B22
330
F10B23
100
AcDbEntity
8
Geo
100
AcDbLine
10
-53.2681699913270
20
15.4824518260408
30
0.000000000000000
11
-53.1681699913270
21
15.4256603148156
31
0.000000000000000
  0
LINE
  5
F10B24
330
F10B25
100
AcDbEntity
8
Geo
100
AcDbLine
10
-53.1681699913270
20
15.4256603148156
30
0.000000000000000
11
-53.0681699913270
21
15.3688337599102
31
0.000000000000000
  0
LINE
  5
F10B26
330
F10B27
100
AcDbEntity
8
Geo
100
AcDbLine
10
-53.0681699913270
20
15.3688337599102
30
0.000000000000000
11
-52.9681699913270
21
15.3119751210281
31
0.000000000000000
  0
LINE
  5
F10B28
330
F10B29
100
AcDbEntity
8
Geo
100
AcDbLine
10
-52.9681699913270
20
15.3119751210281
30
0.000000000000000
11
-52.8681699913270
21
15.2550873595439
31
0.000000000000000
  0
LINE
  5
F10B2A
330
F10B2B
100
AcDbEntity
8
Geo
100
AcDbLine
10
-52.8681699913270
20
15.2550873595439
30
0.000000000000000
11
-52.7681699913270
21
15.1981734383489
31
0.000000000000000
  0
LINE
  5
F10B2C
330
F10B2D
100
AcDbEntity
8
Geo
100
AcDbLine
10
-52.7681699913270
20
15.1981734383489
30
0.000000000000000
11
-52.6681699913270
21
15.1412363216971
31
0.000000000000000
  0
LINE
  5
F10B2E
330
F10B2F
100
AcDbEntity
8
Geo
100
AcDbLine
10
-52.6681699913270
20
15.1412363216971
30
0.000000000000000
11
-52.5681699913270
21
15.0842789750504
31
0.000000000000000
  0
LINE
  5
F10B30
330
F10B31
100
AcDbEntity
8
Geo
100
AcDbLine
10
-52.5681699913270
20
15.0842789750504
30
0.000000000000000
11
-52.4681699913270
21
15.0273043649244
31
0.000000000000000
  0
LINE
  5
F10B32
330
F10B33
100
AcDbEntity
8
Geo
100
AcDbLine
10
-52.4681699913270
20
15.0273043649244
30
0.000000000000000
11
-52.3681699913270
21
14.9703154587339
31
0.000000000000000
  0
LINE
  5
F10B34
330
F10B35
100
AcDbEntity
8
Geo
100
AcDbLine
10
-52.3681699913270
20
14.9703154587339
30
0.000000000000000
11
-52.2681699913270
21
14.9133152246380
31
0.000000000000000
  0
LINE
  5
F10B36
330
F10B37
100
AcDbEntity
8
Geo
100
AcDbLine
10
-52.2681699913270
20
14.9133152246380
30
0.000000000000000
11
-52.1681699913270
21
14.8563066313862
31
0.000000000000000
  0
LINE
  5
F10B38
330
F10B39
100
AcDbEntity
8
Geo
100
AcDbLine
10
-52.1681699913270
20
14.8563066313862
30
0.000000000000000
11
-52.0681699913270
21
14.7992926481632
31
0.000000000000000
  0
LINE
  5
F10B3A
330
F10B3B
100
AcDbEntity
8
Geo
100
AcDbLine
10
-52.0681699913270
20
14.7992926481632
30
0.000000000000000
11
-51.9681699913270
21
14.7422762444342
31
0.000000000000000
  0
LINE
  5
F10B3C
330
F10B3D
100
AcDbEntity
8
Geo
100
AcDbLine
10
-51.9681699913270
20
14.7422762444342
30
0.000000000000000
11
-51.8681699913270
21
14.6852603897909
31
0.000000000000000
  0
LINE
  5
F10B3E
330
F10B3F
100
AcDbEntity
8
Geo
100
AcDbLine
10
-51.8681699913270
20
14.6852603897909
30
0.000000000000000
11
-51.7681699913270
21
14.6282480537961
31
0.000000000000000
  0
LINE
  5
F10B40
330
F10B41
100
AcDbEntity
8
Geo
100
AcDbLine
10
-51.7681699913270
20
14.6282480537961
30
0.000000000000000
11
-51.6681699913270
21
14.5712422058293
31
0.000000000000000
  0
LINE
  5
F10B42
330
F10B43
100
AcDbEntity
8
Geo
100
AcDbLine
10
-51.6681699913270
20
14.5712422058293
30
0.000000000000000
11
-51.5681699913270
21
14.5142458149323
31
0.000000000000000
  0
LINE
  5
F10B44
330
F10B45
100
AcDbEntity
8
Geo
100
AcDbLine
10
-51.5681699913270
20
14.5142458149323
30
0.000000000000000
11
-51.4681699913270
21
14.4572618496542
31
0.000000000000000
  0
LINE
  5
F10B46
330
F10B47
100
AcDbEntity
8
Geo
100
AcDbLine
10
77.6318300086730
20
22.2528187337381
30
0.000000000000000
11
77.6318300086730
21
14.7528187337381
31
0.000000000000000
  0
ARC
  5
F10B48
330
F10B49
100
AcDbEntity
8
Geo
100
AcDbCircle
10
-64.3681699913270
20
14.7528187337381
30
0.000000000000000
 40
8.00000000000000
100
AcDbArc
 50
180.000000000000
 51
270.000000000000
  0
LINE
  5
F10B4A
330
F10B4B
100
AcDbEntity
8
Geo
100
AcDbLine
10
-64.3681699913270
20
6.75281873373810
30
0.000000000000000
11
-46.3681699913270
21
6.75281873373810
31
0.000000000000000
  0
LINE
  5
F10B4C
330
F10B4D
100
AcDbEntity
8
Geo
100
AcDbLine
10
-46.3681699913270
20
6.75281873373810
30
0.000000000000000
11
77.1318300086730
21
6.75281873373810
31
0.000000000000000
  0
LINE
  5
F10B4E
330
F10B4F
100
AcDbEntity
8
Geo
100
AcDbLine
10
77.1318300086730
20
6.75281873373810
30
0.000000000000000
11
77.6318300086730
21
7.25281873373810
31
0.000000000000000
  0
LINE
  5
F10B50
330
F10B51
100
AcDbEntity
8
Geo
100
AcDbLine
10
-64.3681699913270
20
22.7528187337381
30
0.000000000000000
11
-64.3681699913270
21
6.75281873373810
31
0.000000000000000
  0
LINE
  5
F10B52
330
F10B53
100
AcDbEntity
8
Geo
100
AcDbLine
10
-46.3681699913270
20
22.7528187337381
30
0.000000000000000
11
-46.3681699913270
21
6.75281873373810
31
0.000000000000000
  0
LINE
  5
F10B54
330
F10B55
100
AcDbEntity
8
Geo
100
AcDbLine
10
-46.3681699913270
20
22.7528187337381
30
0.000000000000000
11
-46.3681699913270
21
6.75281873373810
31
0.000000000000000
  0
LINE
  5
F10B56
330
F10B57
100
AcDbEntity
8
Geo
100
AcDbLine
10
77.1318300086730
20
22.7528187337381
30
0.000000000000000
11
77.1318300086730
21
6.75281873373810
31
0.000000000000000
  0
LINE
  5
F10B58
330
F10B59
100
AcDbEntity
8
Geo
100
AcDbLine
10
77.6318300086730
20
22.2528187337381
30
0.000000000000000
11
77.6318300086730
21
7.25281873373810
31
0.000000000000000
  0
LINE
  5
F10B5A
330
F10B5B
100
AcDbEntity
8
Geo
 6
Dashdot
100
AcDbLine
10
-72.3681699913270
20
14.7528187337381
30
0.000000000000000
11
77.6318300086730
21
14.7528187337381
31
0.000000000000000
  0
LWPOLYLINE
  5
F10B5C
330
F10B5D
100
AcDbEntity
8
Rahmen
100
AcDbPolyline
90
   4
70
   1
43
   0.0
 10
-134.596704249783
 20
99.9002601908066
 10
143.339115351258
 20
99.9002601908066
 10
143.339115351258
 20
-100.082393755421
 10
-134.596704249783
 20
-100.082393755421
  0
TEXT
  5
F10B5E
330
F10B5F
 100
AcDbEntity
8
Text
100
AcDbText
10
-133.503902862099
20
-99.5823937554206
30
0.000000000000000
40
1.00000000000000
1
ISBESketcher - ©ISBE GmbH      lizensiert für: Schmid Werkzeuge
100
AcDbText
  0
LWPOLYLINE
  5
F10B60
330
F10B61
100
AcDbEntity
8
Rahmen
100
AcDbPolyline
90
   4
70
   1
43
   0.0
 10
103.451864700781
 20
-97.1682567215958
 10
143.339115351258
 20
-97.1682567215958
 10
143.339115351258
 20
-100.082393755421
 10
103.451864700781
 20
-100.082393755421
  0
TEXT
  5
F10B62
330
F10B63
 100
AcDbEntity
8
Text
100
AcDbText
10
104.500000000000
20
-99.4570685169124
30
0.000000000000000
40
1.50000000000000
1
Ers. durch:
100
AcDbText
  0
TEXT
  5
F10B64
330
F10B65
 100
AcDbEntity
8
Text
100
AcDbText
10
0.000000000000000
20
0.500000000000000
30
0.000000000000000
40
1.50000000000000
1

100
AcDbText
  0
LWPOLYLINE
  5
F10B66
330
F10B67
100
AcDbEntity
8
Rahmen
100
AcDbPolyline
90
   4
70
   1
43
   0.0
 10
63.3824804856895
 20
-97.1682567215958
 10
103.451864700781
 20
-97.1682567215958
 10
103.451864700781
 20
-100.082393755421
 10
63.3824804856895
 20
-100.082393755421
  0
TEXT
  5
F10B68
330
F10B69
 100
AcDbEntity
8
Text
100
AcDbText
10
64.5000000000000
20
-99.4570685169124
30
0.000000000000000
40
1.50000000000000
1
Ers. für:
100
AcDbText
  0
TEXT
  5
F10B6A
330
F10B6B
 100
AcDbEntity
8
Text
100
AcDbText
10
0.000000000000000
20
0.500000000000000
30
0.000000000000000
40
1.50000000000000
1

100
AcDbText
  0
LWPOLYLINE
  5
F10B6C
330
F10B6D
100
AcDbEntity
8
Rahmen
100
AcDbPolyline
90
   4
70
   1
43
   0.0
 10
130.043365134432
 20
-94.0719861231570
 10
143.339115351258
 20
-94.0719861231570
 10
143.339115351258
 20
-97.1682567215958
 10
130.043365134432
 20
-97.1682567215958
  0
TEXT
  5
F10B6E
330
F10B6F
 100
AcDbEntity
8
Text
100
AcDbText
10
131.166666666667
20
-96.4570685169124
30
0.000000000000000
40
1.50000000000000
1
Blätter
100
AcDbText
  0
TEXT
  5
F10B70
330
F10B71
 100
AcDbEntity
8
Text
100
AcDbText
10
0.000000000000000
20
0.500000000000000
30
0.000000000000000
40
1.50000000000000
1

100
AcDbText
  0
LWPOLYLINE
  5
F10B72
330
F10B73
100
AcDbEntity
8
Rahmen
100
AcDbPolyline
90
   4
70
   1
43
   0.0
 10
130.043365134432
 20
-91.1578490893322
 10
143.339115351258
 20
-91.1578490893322
 10
143.339115351258
 20
-94.0719861231570
 10
130.043365134432
 20
-94.0719861231570
  0
TEXT
  5
F10B74
330
F10B75
 100
AcDbEntity
8
Text
100
AcDbText
10
131.166666666667
20
-93.4570685169124
30
0.000000000000000
40
1.50000000000000
1
Blatt
100
AcDbText
  0
TEXT
  5
F10B76
330
F10B77
 100
AcDbEntity
8
Text
100
AcDbText
10
0.000000000000000
20
0.500000000000000
30
0.000000000000000
40
1.50000000000000
1

100
AcDbText
  0
LWPOLYLINE
  5
F10B78
330
F10B79
100
AcDbEntity
8
Rahmen
100
AcDbPolyline
90
   4
70
   1
43
   0.0
 10
63.3824804856895
 20
-91.1578490893322
 10
130.043365134432
 20
-91.1578490893322
 10
130.043365134432
 20
-97.1682567215958
 10
63.3824804856895
 20
-97.1682567215958
  0
TEXT
  5
F10B7A
330
F10B7B
 100
AcDbEntity
8
Text
100
AcDbText
10
64.5000000000000
20
-93.4570685169124
30
0.000000000000000
40
1.50000000000000
1
Datum:
100
AcDbText
  0
TEXT
  5
F10B7C
330
F10B7D
 100
AcDbEntity
8
Text
100
AcDbText
10
90.9139924833767
20
-96.4570685169124
30
0.000000000000000
40
1.50000000000000
1
30.09.2021
100
AcDbText
  0
LWPOLYLINE
  5
F10B7E
330
F10B7F
100
AcDbEntity
8
Rahmen
100
AcDbPolyline
90
   4
70
   1
43
   0.0
 10
63.3824804856895
 20
-85.1474414570685
 10
143.339115351258
 20
-85.1474414570685
 10
143.339115351258
 20
-91.1578490893322
 10
63.3824804856895
 20
-91.1578490893322
  0
TEXT
  5
F10B80
330
F10B81
 100
AcDbEntity
8
Text
100
AcDbText
10
0.000000000000000
20
0.500000000000000
30
0.000000000000000
40
1.50000000000000
1

100
AcDbText
  0
TEXT
  5
F10B82
330
F10B83
 100
AcDbEntity
8
Text
100
AcDbText
10
73.6300954032958
20
-89.6254697889564
30
0.000000000000000
40
2.50000000000000
1
VHM-Radiusfräser R0141-16-b
100
AcDbText
  0
LWPOLYLINE
  5
F10B84
330
F10B85
100
AcDbEntity
8
Rahmen
100
AcDbPolyline
90
   4
70
   1
43
   0.0
 10
103.451864700781
 20
-79.1370338248049
 10
143.339115351258
 20
-79.1370338248049
 10
143.339115351258
 20
-85.1474414570685
 10
103.451864700781
 20
-85.1474414570685
  0
TEXT
  5
F10B86
330
F10B87
 100
AcDbEntity
8
Text
100
AcDbText
10
104.500000000000
20
-81.4570685169124
30
0.000000000000000
40
1.50000000000000
1
Zu bearb. Material:
100
AcDbText
  0
TEXT
  5
F10B88
330
F10B89
 100
AcDbEntity
8
Text
100
AcDbText
10
0.000000000000000
20
0.500000000000000
30
0.000000000000000
40
1.50000000000000
1

100
AcDbText
  0
LWPOLYLINE
  5
F10B8A
330
F10B8B
100
AcDbEntity
8
Rahmen
100
AcDbPolyline
90
   4
70
   1
43
   0.0
 10
63.3824804856895
 20
-79.1370338248049
 10
103.451864700781
 20
-79.1370338248049
 10
103.451864700781
 20
-85.1474414570685
 10
63.3824804856895
 20
-85.1474414570685
  0
TEXT
  5
F10B8C
330
F10B8D
 100
AcDbEntity
8
Text
100
AcDbText
10
64.5000000000000
20
-81.4570685169124
30
0.000000000000000
40
1.50000000000000
1
Werkstoff:
100
AcDbText
  0
TEXT
  5
F10B8E
330
F10B8F
 100
AcDbEntity
8
Text
100
AcDbText
10
80.7679965307892
20
-84.4570685169124
30
0.000000000000000
40
1.50000000000000
1
VHM
100
AcDbText
  0
LWPOLYLINE
  5
F10B90
330
F10B91
100
AcDbEntity
8
Rahmen
100
AcDbPolyline
90
   4
70
   1
43
   0.0
 10
103.451864700781
 20
-76.0407632263660
 10
143.339115351258
 20
-76.0407632263660
 10
143.339115351258
 20
-79.1370338248049
 10
103.451864700781
 20
-79.1370338248049
  0
TEXT
  5
F10B92
330
F10B93
 100
AcDbEntity
8
Text
100
AcDbText
10
0.000000000000000
20
0.500000000000000
30
0.000000000000000
40
1.50000000000000
1

100
AcDbText
  0
TEXT
  5
F10B94
330
F10B95
 100
AcDbEntity
8
Text
100
AcDbText
10
0.000000000000000
20
0.500000000000000
30
0.000000000000000
40
1.50000000000000
1

100
AcDbText
  0
LWPOLYLINE
  5
F10B96
330
F10B97
100
AcDbEntity
8
Rahmen
100
AcDbPolyline
90
   4
70
   1
43
   0.0
 10
63.3824804856895
 20
-76.0407632263660
 10
103.451864700781
 20
-76.0407632263660
 10
103.451864700781
 20
-79.1370338248049
 10
63.3824804856895
 20
-79.1370338248049
  0
TEXT
  5
F10B98
330
F10B99
 100
AcDbEntity
8
Text
100
AcDbText
10
64.5000000000000
20
-78.4570685169124
30
0.000000000000000
40
1.50000000000000
1
Maßstab:
100
AcDbText
  0
TEXT
  5
F10B9A
330
F10B9B
 100
AcDbEntity
8
Text
100
AcDbText
10
89.0411968777103
20
-78.4570685169124
30
0.000000000000000
40
1.50000000000000
1
1 : 1
100
AcDbText
0
VIEWPORT
5
294
102
{ACAD_XDICTIONARY
360
58A
102
}
330
25D
100
AcDbEntity
67
1
8
0
60
1
100
AcDbViewport
10
0.0
20
0.0
30
0.0
40
10.0
41
10.0
68
-1
69
1
12
0.0
22
0.0
13
0.0
23
0.0
14
1.0
24
1.0
15
0.0
25
0.0
16
0.0
26
0.0
36
1.0
17
0.0
27
0.0
37
0.0
42
0.0
43
0.0
44
0.0
45
10.0
50
0.0
51
0.0000000000007958
72
100
90
32800
1

281
0
71
0
74
0
110
0.0
120
0.0
130
0.0
111
1.0
121
0.0
131
0.0
112
0.0
122
1.0
132
0.0
79
0
146
0.0
1001
VD_INVISIBLE_NOT_FOR_READ
1000
VD_INVISIBLE_NOT_FOR_READ
0
VIEWPORT
5
295
102
{ACAD_XDICTIONARY
360
58C
102
}
330
25D
100
AcDbEntity
67
1
8
0
60
1
100
AcDbViewport
10
0.0
20
0.0
30
0.0
40
10.0
41
10.0
68
0
69
2
12
0.0
22
0.0
13
0.0
23
0.0
14
1.0
24
1.0
15
0.0
25
0.0
16
0.0
26
0.0
36
1.0
17
0.0
27
0.0
37
0.0
42
0.0
43
0.0
44
0.0
45
10.0
50
0.0
51
0.0000000000007958
72
100
90
163872
1

281
0
71
0
74
0
110
0.0
120
0.0
130
0.0
111
1.0
121
0.0
131
0.0
112
0.0
122
1.0
132
0.0
79
0
146
0.0
1001
VD_INVISIBLE_NOT_FOR_READ
1000
VD_INVISIBLE_NOT_FOR_READ
0
ENDSEC
0
SECTION
2
OBJECTS
0
DICTIONARY
5
13
330
0
100
AcDbDictionary
281
1
3
ACAD_COLOR
350
FA7
3
ACAD_GROUP
350
14
3
ACAD_LAYOUT
350
FCF
3
ACAD_MATERIAL
350
F7A
3
ACAD_MLEADERSTYLE
350
FCD
3
ACAD_MLINESTYLE
350
16
3
ACAD_PLOTSETTINGS
350
17
3
ACAD_PLOTSTYLENAME
350
18
3
ACAD_SCALELIST
350
FAB
3
ACAD_TABLESTYLE
350
FA8
3
ACAD_VISUALSTYLE
350
F93
3
ACDB_RECOMPOSE_DATA
350
107E
3
AcDbVariableDictionary
350
FF0
3
DWGPROPS
350
107F
0
DICTIONARY
5
F10014
330
F10013
100
AcDbDictionary
280
1
281
1
3
ACAD_MTEXT_2008_RT
360
F10015
0
DICTIONARY
5
F10019
330
F10018
100
AcDbDictionary
280
1
281
1
3
ACAD_MTEXT_2008_RT
360
F1001A
0
DICTIONARY
5
F1000A
330
F10009
100
AcDbDictionary
280
1
281
1
3
ACAD_MTEXT_2008_RT
360
F1000B
0
DICTIONARY
5
F10005
330
F10004
100
AcDbDictionary
280
1
281
1
3
ACAD_MTEXT_2008_RT
360
F10006
0
DICTIONARY
5
F1000F
330
F1000E
100
AcDbDictionary
280
1
281
1
3
ACAD_MTEXT_2008_RT
360
F10010
0
DICTIONARY
5
FA7
102
{ACAD_REACTORS
330
13
102
}
330
13
100
AcDbDictionary
281
1
0
DICTIONARY
5
14
330
13
100
AcDbDictionary
281
1
0
DICTIONARY
5
FCF
102
{ACAD_REACTORS
330
13
102
}
330
13
100
AcDbDictionary
281
1
3
Layout1
350
FD1
3
Model
350
FD0
0
DICTIONARY
5
F7A
102
{ACAD_REACTORS
330
13
102
}
330
13
100
AcDbDictionary
281
1
3
ByBlock
350
F83
3
ByLayer
350
F7B
3
Global
350
F8B
0
DICTIONARY
5
FCD
102
{ACAD_REACTORS
330
13
102
}
330
13
100
AcDbDictionary
281
1
3
Standard
350
FCE
0
DICTIONARY
5
16
330
13
100
AcDbDictionary
281
1
3
Standard
350
FAA
0
DICTIONARY
5
17
102
{ACAD_REACTORS
330
13
102
}
330
13
100
AcDbDictionary
281
1
0
ACDBDICTIONARYWDFLT
5
18
102
{ACAD_REACTORS
330
13
102
}
330
13
100
AcDbDictionary
281
1
3
Normal
350
19
100
AcDbDictionaryWithDefault
340
19
0
DICTIONARY
5
FAB
102
{ACAD_REACTORS
330
13
102
}
330
13
100
AcDbDictionary
281
1
3
A0
350
FAC
3
A1
350
FAD
3
A2
350
FAE
3
A3
350
FAF
3
A4
350
FB0
3
A5
350
FB1
3
A6
350
FB2
3
A7
350
FB3
3
A8
350
FB4
3
A9
350
FB5
3
B0
350
FB6
3
B1
350
FB7
3
B2
350
FB8
3
B3
350
FB9
3
B4
350
FBA
3
B5
350
FBB
3
B6
350
FBC
3
B7
350
FBD
3
B8
350
FBE
3
B9
350
FBF
3
C0
350
FC0
3
C1
350
FC1
3
C2
350
FC2
3
C3
350
FC3
3
C4
350
FC4
3
C5
350
FC5
3
C6
350
FC6
3
C7
350
FC7
3
C8
350
FC8
3
C9
350
FC9
3
D0
350
FCA
3
D1
350
FCB
3
D2
350
FCC
0
DICTIONARY
5
FA8
102
{ACAD_REACTORS
330
13
102
}
330
13
100
AcDbDictionary
281
1
3
Standard
350
FA9
0
DICTIONARY
5
F93
102
{ACAD_REACTORS
330
13
102
}
330
13
100
AcDbDictionary
281
1
3
2dWireframe
350
F99
3
3D Hidden
350
F9B
3
3dWireframe
350
F9A
3
Basic
350
F98
3
Brighten
350
F9F
3
ColorChange
350
FA3
3
Conceptual
350
F9C
3
Dim
350
F9E
3
EdgeColorOff
350
FA6
3
Facepattern
350
FA2
3
Flat
350
F94
3
FlatWithEdges
350
F95
3
Gouraud
350
F96
3
GouraudWithEdges
350
F97
3
JitterOff
350
FA4
3
Linepattern
350
FA1
3
OverhangOff
350
FA5
3
Realistic
350
F9D
3
Thicken
350
FA0
0
XRECORD
5
107E
102
{ACAD_REACTORS
330
13
102
}
330
13
100
AcDbXrecord
280
1
90
1
330
FA9
330
F10013
330
F10018
330
F10009
330
F10004
330
F1000E
0
DICTIONARY
5
FF0
102
{ACAD_REACTORS
330
13
102
}
330
13
100
AcDbDictionary
281
1
3
CANNOSCALE
350
FF3
3
CMLEADERSTYLE
350
FF2
3
CTABLESTYLE
350
FF1
3
DIMASSOC
350
FF6
3
INDEXCTL
350
FF5
3
SORTENTS
350
FF4
3
XCLIPFRAME
350
1078
0
XRECORD
5
107F
102
{ACAD_REACTORS
330
13
102
}
330
13
100
AcDbXrecord
280
1
1
DWGPROPS COOKIE
2

3

4

6

7

8

9

300
=
301
=
302
=
303
=
304
=
305
=
306
=
307
=
308
=
309
=
40
0.0
41
0.0
42
0.0
1

90
0
0
XRECORD
5
F10015
102
{ACAD_REACTORS
330
F10014
102
}
330
F10014
100
AcDbXrecord
280
1
40
48458.0
1
26
0
XRECORD
5
F1001A
102
{ACAD_REACTORS
330
F10019
102
}
330
F10019
100
AcDbXrecord
280
1
40
48458.0
1
150
0
XRECORD
5
F1000B
102
{ACAD_REACTORS
330
F1000A
102
}
330
F1000A
100
AcDbXrecord
280
1
40
48458.0
1
R8
0
XRECORD
5
F10006
102
{ACAD_REACTORS
330
F10005
102
}
330
F10005
100
AcDbXrecord
280
1
40
48458.0
1
Ø16
0
LAYOUT
5
FD1
102
{ACAD_XDICTIONARY
360
10A9
102
}
102
{ACAD_REACTORS
330
FCF
102
}
330
FCF
100
AcDbPlotSettings
1

2
Microsoft XPS Document Writer
4

6

40
0.0
41
0.0
42
0.0
43
0.0
44
0.0
45
0.0
46
0.0
47
0.0
48
0.0
49
0.0
140
0.0
141
0.0
142
1.0
143
1.0
70
688
72
0
73
0
74
5
7

75
16
147
1.0
148
0.0
149
0.0
100
AcDbLayout
1
Layout1
70
1
71
1
10
0.0
20
0.0
11
12.0
21
9.0
12
0.0
22
0.0
32
0.0
14
1.000000000000000E+20
24
1.000000000000000E+20
34
1.000000000000000E+20
15
-1.000000000000000E+20
25
-1.000000000000000E+20
35
-1.000000000000000E+20
146
0.0
13
0.0
23
0.0
33
0.0
16
1.0
26
0.0
36
0.0
17
0.0
27
1.0
37
0.0
76
0
330
25D
0
LAYOUT
5
FD0
102
{ACAD_XDICTIONARY
360
10A7
102
}
102
{ACAD_REACTORS
330
FCF
102
}
330
FCF
100
AcDbPlotSettings
1

2
Microsoft XPS Document Writer
4

6

40
0.0
41
0.0
42
0.0
43
0.0
44
0.0
45
0.0
46
0.0
47
0.0
48
0.0
49
0.0
140
0.0
141
0.0
142
1.0
143
1.0
70
1712
72
0
73
0
74
0
7

75
0
147
1.0
148
0.0
149
0.0
100
AcDbLayout
1
Model
70
1
71
0
10
0.0
20
0.0
11
12.0
21
9.0
12
0.0
22
0.0
32
0.0
14
0.0
24
0.0
34
0.0
15
0.0
25
0.0
35
0.0
146
0.0
13
0.0
23
0.0
33
0.0
16
1.0
26
0.0
36
0.0
17
0.0
27
1.0
37
0.0
76
0
330
261
331
26B
0
MATERIAL
5
F83
102
{ACAD_XDICTIONARY
360
F84
102
}
102
{ACAD_REACTORS
330
F7A
102
}
330
F7A
100
AcDbMaterial
1
ByBlock
72
0
43
0.0208333333333333
43
0.0
43
0.0
43
0.0
43
0.0
43
0.0208333333333333
43
0.0
43
0.0
43
0.0
43
0.0
43
1.0
43
0.0
43
0.0
43
0.0
43
0.0
43
1.0
77
0
47
0.0208333333333333
47
0.0
47
0.0
47
0.0
47
0.0
47
0.0208333333333333
47
0.0
47
0.0
47
0.0
47
0.0
47
1.0
47
0.0
47
0.0
47
0.0
47
0.0
47
1.0
171
0
49
0.0208333333333333
49
0.0
49
0.0
49
0.0
49
0.0
49
0.0208333333333333
49
0.0
49
0.0
49
0.0
49
0.0
49
1.0
49
0.0
49
0.0
49
0.0
49
0.0
49
1.0
175
0
142
0.0208333333333333
142
0.0
142
0.0
142
0.0
142
0.0
142
0.0208333333333333
142
0.0
142
0.0
142
0.0
142
0.0
142
1.0
142
0.0
142
0.0
142
0.0
142
0.0
142
1.0
179
0
144
0.0208333333333333
144
0.0
144
0.0
144
0.0
144
0.0
144
0.0208333333333333
144
0.0
144
0.0
144
0.0
144
0.0
144
1.0
144
0.0
144
0.0
144
0.0
144
0.0
144
1.0
147
0.0208333333333333
147
0.0
147
0.0
147
0.0
147
0.0
147
0.0208333333333333
147
0.0
147
0.0
147
0.0
147
0.0
147
1.0
147
0.0
147
0.0
147
0.0
147
0.0
147
1.0
0
MATERIAL
5
F7B
102
{ACAD_XDICTIONARY
360
F7C
102
}
102
{ACAD_REACTORS
330
F7A
102
}
330
F7A
100
AcDbMaterial
1
ByLayer
72
0
43
0.0208333333333333
43
0.0
43
0.0
43
0.0
43
0.0
43
0.0208333333333333
43
0.0
43
0.0
43
0.0
43
0.0
43
1.0
43
0.0
43
0.0
43
0.0
43
0.0
43
1.0
77
0
47
0.0208333333333333
47
0.0
47
0.0
47
0.0
47
0.0
47
0.0208333333333333
47
0.0
47
0.0
47
0.0
47
0.0
47
1.0
47
0.0
47
0.0
47
0.0
47
0.0
47
1.0
171
0
49
0.0208333333333333
49
0.0
49
0.0
49
0.0
49
0.0
49
0.0208333333333333
49
0.0
49
0.0
49
0.0
49
0.0
49
1.0
49
0.0
49
0.0
49
0.0
49
0.0
49
1.0
175
0
142
0.0208333333333333
142
0.0
142
0.0
142
0.0
142
0.0
142
0.0208333333333333
142
0.0
142
0.0
142
0.0
142
0.0
142
1.0
142
0.0
142
0.0
142
0.0
142
0.0
142
1.0
179
0
144
0.0208333333333333
144
0.0
144
0.0
144
0.0
144
0.0
144
0.0208333333333333
144
0.0
144
0.0
144
0.0
144
0.0
144
1.0
144
0.0
144
0.0
144
0.0
144
0.0
144
1.0
147
0.0208333333333333
147
0.0
147
0.0
147
0.0
147
0.0
147
0.0208333333333333
147
0.0
147
0.0
147
0.0
147
0.0
147
1.0
147
0.0
147
0.0
147
0.0
147
0.0
147
1.0
0
MATERIAL
5
F8B
102
{ACAD_XDICTIONARY
360
F8C
102
}
102
{ACAD_REACTORS
330
F7A
102
}
330
F7A
100
AcDbMaterial
1
Global
72
0
43
0.0208333333333333
43
0.0
43
0.0
43
0.0
43
0.0
43
0.0208333333333333
43
0.0
43
0.0
43
0.0
43
0.0
43
1.0
43
0.0
43
0.0
43
0.0
43
0.0
43
1.0
77
0
47
0.0208333333333333
47
0.0
47
0.0
47
0.0
47
0.0
47
0.0208333333333333
47
0.0
47
0.0
47
0.0
47
0.0
47
1.0
47
0.0
47
0.0
47
0.0
47
0.0
47
1.0
171
0
49
0.0208333333333333
49
0.0
49
0.0
49
0.0
49
0.0
49
0.0208333333333333
49
0.0
49
0.0
49
0.0
49
0.0
49
1.0
49
0.0
49
0.0
49
0.0
49
0.0
49
1.0
175
0
142
0.0208333333333333
142
0.0
142
0.0
142
0.0
142
0.0
142
0.0208333333333333
142
0.0
142
0.0
142
0.0
142
0.0
142
1.0
142
0.0
142
0.0
142
0.0
142
0.0
142
1.0
179
0
144
0.0208333333333333
144
0.0
144
0.0
144
0.0
144
0.0
144
0.0208333333333333
144
0.0
144
0.0
144
0.0
144
0.0
144
1.0
144
0.0
144
0.0
144
0.0
144
0.0
144
1.0
147
0.0208333333333333
147
0.0
147
0.0
147
0.0
147
0.0
147
0.0208333333333333
147
0.0
147
0.0
147
0.0
147
0.0
147
1.0
147
0.0
147
0.0
147
0.0
147
0.0
147
1.0
0
MLEADERSTYLE
5
FCE
102
{ACAD_REACTORS
330
FCD
102
}
330
FCD
100
AcDbMLeaderStyle
170
2
171
1
172
0
90
2
40
0.0
41
0.0
173
1
91
-1056964608
340
256
92
-2
290
1
42
0.09
291
1
43
0.36
3
Standard
44
0.18
300

342
253
174
1
178
6
175
1
176
0
93
-1056964608
45
0.18
292
0
297
0
46
0.18
94
-1056964608
47
1.0
49
1.0
140
1.0
293
1
141
0.0
294
1
177
0
142
1.0
295
0
296
0
143
0.125
1001
ACAD_MLEADERVER
1070
2
0
MLINESTYLE
5
FAA
102
{ACAD_REACTORS
330
16
102
}
330
16
100
AcDbMlineStyle
2
STANDARD
70
0
3

62
256
51
90.0
52
90.0
71
2
49
0.5
62
256
6
BYLAYER
49
-0.5
62
256
6
BYLAYER
0
ACDBPLACEHOLDER
5
19
102
{ACAD_REACTORS
330
18
102
}
330
18
0
SCALE
5
FAC
102
{ACAD_REACTORS
330
FAB
102
}
330
FAB
100
AcDbScale
70
0
300
1:1
140
1.0
141
1.0
290
1
0
SCALE
5
FAD
102
{ACAD_REACTORS
330
FAB
102
}
330
FAB
100
AcDbScale
70
0
300
1:2
140
1.0
141
2.0
290
0
0
SCALE
5
FAE
102
{ACAD_REACTORS
330
FAB
102
}
330
FAB
100
AcDbScale
70
0
300
1:4
140
1.0
141
4.0
290
0
0
SCALE
5
FAF
102
{ACAD_REACTORS
330
FAB
102
}
330
FAB
100
AcDbScale
70
0
300
1:5
140
1.0
141
5.0
290
0
0
SCALE
5
FB0
102
{ACAD_REACTORS
330
FAB
102
}
330
FAB
100
AcDbScale
70
0
300
1:8
140
1.0
141
8.0
290
0
0
SCALE
5
FB1
102
{ACAD_REACTORS
330
FAB
102
}
330
FAB
100
AcDbScale
70
0
300
1:10
140
1.0
141
10.0
290
0
0
SCALE
5
FB2
102
{ACAD_REACTORS
330
FAB
102
}
330
FAB
100
AcDbScale
70
0
300
1:16
140
1.0
141
16.0
290
0
0
SCALE
5
FB3
102
{ACAD_REACTORS
330
FAB
102
}
330
FAB
100
AcDbScale
70
0
300
1:20
140
1.0
141
20.0
290
0
0
SCALE
5
FB4
102
{ACAD_REACTORS
330
FAB
102
}
330
FAB
100
AcDbScale
70
0
300
1:30
140
1.0
141
30.0
290
0
0
SCALE
5
FB5
102
{ACAD_REACTORS
330
FAB
102
}
330
FAB
100
AcDbScale
70
0
300
1:40
140
1.0
141
40.0
290
0
0
SCALE
5
FB6
102
{ACAD_REACTORS
330
FAB
102
}
330
FAB
100
AcDbScale
70
0
300
1:50
140
1.0
141
50.0
290
0
0
SCALE
5
FB7
102
{ACAD_REACTORS
330
FAB
102
}
330
FAB
100
AcDbScale
70
0
300
1:100
140
1.0
141
100.0
290
0
0
SCALE
5
FB8
102
{ACAD_REACTORS
330
FAB
102
}
330
FAB
100
AcDbScale
70
0
300
2:1
140
2.0
141
1.0
290
0
0
SCALE
5
FB9
102
{ACAD_REACTORS
330
FAB
102
}
330
FAB
100
AcDbScale
70
0
300
4:1
140
4.0
141
1.0
290
0
0
SCALE
5
FBA
102
{ACAD_REACTORS
330
FAB
102
}
330
FAB
100
AcDbScale
70
0
300
8:1
140
8.0
141
1.0
290
0
0
SCALE
5
FBB
102
{ACAD_REACTORS
330
FAB
102
}
330
FAB
100
AcDbScale
70
0
300
10:1
140
10.0
141
1.0
290
0
0
SCALE
5
FBC
102
{ACAD_REACTORS
330
FAB
102
}
330
FAB
100
AcDbScale
70
0
300
100:1
140
100.0
141
1.0
290
0
0
SCALE
5
FBD
102
{ACAD_REACTORS
330
FAB
102
}
330
FAB
100
AcDbScale
70
0
300
1/128" = 1'-0"
140
0.0078125
141
12.0
290
0
0
SCALE
5
FBE
102
{ACAD_REACTORS
330
FAB
102
}
330
FAB
100
AcDbScale
70
0
300
1/64" = 1'-0"
140
0.015625
141
12.0
290
0
0
SCALE
5
FBF
102
{ACAD_REACTORS
330
FAB
102
}
330
FAB
100
AcDbScale
70
0
300
1/32" = 1'-0"
140
0.03125
141
12.0
290
0
0
SCALE
5
FC0
102
{ACAD_REACTORS
330
FAB
102
}
330
FAB
100
AcDbScale
70
0
300
1/16" = 1'-0"
140
0.0625
141
12.0
290
0
0
SCALE
5
FC1
102
{ACAD_REACTORS
330
FAB
102
}
330
FAB
100
AcDbScale
70
0
300
3/32" = 1'-0"
140
0.09375
141
12.0
290
0
0
SCALE
5
FC2
102
{ACAD_REACTORS
330
FAB
102
}
330
FAB
100
AcDbScale
70
0
300
1/8" = 1'-0"
140
0.125
141
12.0
290
0
0
SCALE
5
FC3
102
{ACAD_REACTORS
330
FAB
102
}
330
FAB
100
AcDbScale
70
0
300
3/16" = 1'-0"
140
0.1875
141
12.0
290
0
0
SCALE
5
FC4
102
{ACAD_REACTORS
330
FAB
102
}
330
FAB
100
AcDbScale
70
0
300
1/4" = 1'-0"
140
0.25
141
12.0
290
0
0
SCALE
5
FC5
102
{ACAD_REACTORS
330
FAB
102
}
330
FAB
100
AcDbScale
70
0
300
3/8" = 1'-0"
140
0.375
141
12.0
290
0
0
SCALE
5
FC6
102
{ACAD_REACTORS
330
FAB
102
}
330
FAB
100
AcDbScale
70
0
300
1/2" = 1'-0"
140
0.5
141
12.0
290
0
0
SCALE
5
FC7
102
{ACAD_REACTORS
330
FAB
102
}
330
FAB
100
AcDbScale
70
0
300
3/4" = 1'-0"
140
0.75
141
12.0
290
0
0
SCALE
5
FC8
102
{ACAD_REACTORS
330
FAB
102
}
330
FAB
100
AcDbScale
70
0
300
1" = 1'-0"
140
1.0
141
12.0
290
0
0
SCALE
5
FC9
102
{ACAD_REACTORS
330
FAB
102
}
330
FAB
100
AcDbScale
70
0
300
1-1/2" = 1'-0"
140
1.5
141
12.0
290
0
0
SCALE
5
FCA
102
{ACAD_REACTORS
330
FAB
102
}
330
FAB
100
AcDbScale
70
0
300
3" = 1'-0"
140
3.0
141
12.0
290
0
0
SCALE
5
FCB
102
{ACAD_REACTORS
330
FAB
102
}
330
FAB
100
AcDbScale
70
0
300
6" = 1'-0"
140
6.0
141
12.0
290
0
0
SCALE
5
FCC
102
{ACAD_REACTORS
330
FAB
102
}
330
FAB
100
AcDbScale
70
0
300
1'-0" = 1'-0"
140
12.0
141
12.0
290
0
0
TABLESTYLE
5
FA9
102
{ACAD_XDICTIONARY
360
FF8
102
}
102
{ACAD_REACTORS
330
FA8
102
}
330
FA8
100
AcDbTableStyle
3
Standard
70
0
71
0
40
0.06
41
0.06
280
0
281
0
7
Standard
140
0.18
170
2
62
0
63
7
283
0
274
-2
284
1
64
0
275
-2
285
1
65
0
276
-2
286
1
66
0
277
-2
287
1
67
0
278
-2
288
1
68
0
279
-2
289
1
69
0
7
Standard
140
0.25
170
5
62
0
63
7
283
0
274
-2
284
1
64
0
275
-2
285
1
65
0
276
-2
286
1
66
0
277
-2
287
1
67
0
278
-2
288
1
68
0
279
-2
289
1
69
0
7
Standard
140
0.18
170
5
62
0
63
7
283
0
274
-2
284
1
64
0
275
-2
285
1
65
0
276
-2
286
1
66
0
277
-2
287
1
67
0
278
-2
288
1
68
0
279
-2
289
1
69
0
0
VISUALSTYLE
5
F99
102
{ACAD_XDICTIONARY
360
108A
102
}
102
{ACAD_REACTORS
330
F93
102
}
330
F93
100
AcDbVisualStyle
2

70
4
71
0
72
2
73
0
90
0
40
-0.6
41
-30.0
62
5
63
7
74
1
91
4
64
7
65
257
75
1
175
1
42
1.0
92
0
66
257
43
1.0
76
1
77
6
78
2
67
7
79
5
170
0
171
0
290
0
174
0
93
1
44
0.0
173
0
291
0
45
0.0
1001
ACAD
1000
AcDbSavedByObjectVersion
1070
0
0
VISUALSTYLE
5
F9B
102
{ACAD_XDICTIONARY
360
108E
102
}
102
{ACAD_REACTORS
330
F93
102
}
330
F93
100
AcDbVisualStyle
2

70
6
71
1
72
2
73
2
90
0
40
-0.6
41
-30.0
62
5
63
7
74
2
91
2
64
7
65
257
75
2
175
1
42
179.0
92
0
66
257
43
1.0
76
1
77
6
78
2
67
7
79
3
170
0
171
0
290
0
174
0
93
1
44
0.0
173
0
291
0
45
0.0
1001
ACAD
1000
AcDbSavedByObjectVersion
1070
0
0
VISUALSTYLE
5
F9A
102
{ACAD_XDICTIONARY
360
108C
102
}
102
{ACAD_REACTORS
330
F93
102
}
330
F93
100
AcDbVisualStyle
2

70
5
71
0
72
2
73
0
90
0
40
-0.6
41
-30.0
62
5
63
7
74
1
91
4
64
7
65
257
75
1
175
1
42
1.0
92
0
66
257
43
1.0
76
1
77
6
78
2
67
7
79
5
170
0
171
0
290
0
174
0
93
1
44
0.0
173
0
291
0
45
0.0
1001
ACAD
1000
AcDbSavedByObjectVersion
1070
0
0
VISUALSTYLE
5
F98
102
{ACAD_XDICTIONARY
360
1088
102
}
102
{ACAD_REACTORS
330
F93
102
}
330
F93
100
AcDbVisualStyle
2

70
7
71
1
72
0
73
1
90
0
40
-0.6
41
-30.0
62
5
63
7
74
0
91
4
64
7
65
257
75
1
175
1
42
1.0
92
8
66
7
43
1.0
76
1
77
6
78
2
67
7
79
5
170
0
171
0
290
0
174
0
93
1
44
0.0
173
0
291
1
45
0.0
1001
ACAD
1000
AcDbSavedByObjectVersion
1070
0
0
VISUALSTYLE
5
F9F
102
{ACAD_XDICTIONARY
360
1096
102
}
102
{ACAD_REACTORS
330
F93
102
}
330
F93
100
AcDbVisualStyle
2

70
12
71
2
72
2
73
0
90
0
40
-0.6
41
-30.0
62
5
63
7
74
1
91
4
64
7
65
257
75
1
175
1
42
1.0
92
8
66
7
43
1.0
76
1
77
6
78
2
67
7
79
5
170
0
171
0
290
0
174
0
93
1
44
50.0
173
0
291
1
45
0.0
1001
ACAD
1000
AcDbSavedByObjectVersion
1070
0
0
VISUALSTYLE
5
FA3
102
{ACAD_XDICTIONARY
360
109E
102
}
102
{ACAD_REACTORS
330
F93
102
}
330
F93
100
AcDbVisualStyle
2

70
16
71
2
72
2
73
3
90
0
40
-0.6
41
-30.0
62
5
63
8
74
1
91
4
64
7
65
257
75
1
175
1
42
1.0
92
8
66
8
43
1.0
76
1
77
6
78
2
67
7
79
5
170
0
171
0
290
0
174
0
93
1
44
0.0
173
0
291
1
45
0.0
1001
ACAD
1000
AcDbSavedByObjectVersion
1070
0
0
VISUALSTYLE
5
F9C
102
{ACAD_XDICTIONARY
360
1090
102
}
102
{ACAD_REACTORS
330
F93
102
}
330
F93
100
AcDbVisualStyle
2

70
9
71
3
72
2
73
0
90
0
40
-0.6
41
-30.0
62
5
63
7
74
2
91
2
64
7
65
257
75
1
175
1
42
179.0
92
8
66
7
43
1.0
76
1
77
6
78
2
67
7
79
3
170
0
171
0
290
0
174
0
93
1
44
0.0
173
0
291
0
45
0.0
1001
ACAD
1000
AcDbSavedByObjectVersion
1070
0
0
VISUALSTYLE
5
F9E
102
{ACAD_XDICTIONARY
360
1094
102
}
102
{ACAD_REACTORS
330
F93
102
}
330
F93
100
AcDbVisualStyle
2

70
11
71
2
72
2
73
0
90
0
40
-0.6
41
-30.0
62
5
63
7
74
1
91
4
64
7
65
257
75
1
175
1
42
1.0
92
8
66
7
43
1.0
76
1
77
6
78
2
67
7
79
5
170
0
171
0
290
0
174
0
93
1
44
-50.0
173
0
291
1
45
0.0
1001
ACAD
1000
AcDbSavedByObjectVersion
1070
0
0
VISUALSTYLE
5
FA6
102
{ACAD_XDICTIONARY
360
10A4
102
}
102
{ACAD_REACTORS
330
F93
102
}
330
F93
100
AcDbVisualStyle
2

70
22
71
2
72
2
73
0
90
0
40
-0.6
41
-30.0
62
5
63
7
74
1
91
4
64
7
65
257
75
1
175
1
42
1.0
92
8
66
7
43
1.0
76
1
77
6
78
2
67
7
79
5
170
0
171
0
290
0
174
0
93
1
44
0.0
173
0
291
1
45
0.0
1001
ACAD
1000
AcDbSavedByObjectVersion
1070
0
0
VISUALSTYLE
5
FA2
102
{ACAD_XDICTIONARY
360
109C
102
}
102
{ACAD_REACTORS
330
F93
102
}
330
F93
100
AcDbVisualStyle
2

70
15
71
2
72
2
73
0
90
0
40
-0.6
41
-30.0
62
5
63
7
74
1
91
4
64
7
65
257
75
1
175
1
42
1.0
92
8
66
7
43
1.0
76
1
77
6
78
2
67
7
79
5
170
0
171
0
290
0
174
0
93
1
44
0.0
173
0
291
1
45
0.0
1001
ACAD
1000
AcDbSavedByObjectVersion
1070
0
0
VISUALSTYLE
5
F94
102
{ACAD_XDICTIONARY
360
1080
102
}
102
{ACAD_REACTORS
330
F93
102
}
330
F93
100
AcDbVisualStyle
2

70
0
71
2
72
1
73
1
90
2
40
-0.6
41
30.0
62
5
63
7
74
0
91
4
64
7
65
257
75
1
175
1
42
1.0
92
8
66
7
43
1.0
76
1
77
6
78
2
67
7
79
5
170
0
171
0
290
0
174
0
93
13
44
0.0
173
0
291
1
45
0.0
1001
ACAD
1000
AcDbSavedByObjectVersion
1070
0
0
VISUALSTYLE
5
F95
102
{ACAD_XDICTIONARY
360
1082
102
}
102
{ACAD_REACTORS
330
F93
102
}
330
F93
100
AcDbVisualStyle
2

70
1
71
2
72
1
73
1
90
2
40
-0.6
41
30.0
62
5
63
7
74
1
91
4
64
7
65
257
75
1
175
1
42
1.0
92
0
66
257
43
1.0
76
1
77
6
78
2
67
7
79
5
170
0
171
0
290
0
174
0
93
13
44
0.0
173
0
291
1
45
0.0
1001
ACAD
1000
AcDbSavedByObjectVersion
1070
0
0
VISUALSTYLE
5
F96
102
{ACAD_XDICTIONARY
360
1084
102
}
102
{ACAD_REACTORS
330
F93
102
}
330
F93
100
AcDbVisualStyle
2

70
2
71
2
72
2
73
1
90
2
40
-0.6
41
30.0
62
5
63
7
74
0
91
4
64
7
65
257
75
1
175
1
42
1.0
92
0
66
7
43
1.0
76
1
77
6
78
2
67
7
79
5
170
0
171
0
290
0
174
0
93
13
44
0.0
173
0
291
1
45
0.0
1001
ACAD
1000
AcDbSavedByObjectVersion
1070
0
0
VISUALSTYLE
5
F97
102
{ACAD_XDICTIONARY
360
1086
102
}
102
{ACAD_REACTORS
330
F93
102
}
330
F93
100
AcDbVisualStyle
2

70
3
71
2
72
2
73
1
90
2
40
-0.6
41
30.0
62
5
63
7
74
1
91
4
64
7
65
257
75
1
175
1
42
1.0
92
0
66
257
43
1.0
76
1
77
6
78
2
67
7
79
5
170
0
171
0
290
0
174
0
93
13
44
0.0
173
0
291
1
45
0.0
1001
ACAD
1000
AcDbSavedByObjectVersion
1070
0
0
VISUALSTYLE
5
FA4
102
{ACAD_XDICTIONARY
360
10A0
102
}
102
{ACAD_REACTORS
330
F93
102
}
330
F93
100
AcDbVisualStyle
2

70
20
71
2
72
2
73
0
90
0
40
-0.6
41
-30.0
62
5
63
7
74
1
91
4
64
7
65
257
75
1
175
1
42
1.0
92
10
66
7
43
1.0
76
1
77
6
78
2
67
7
79
5
170
0
171
0
290
0
174
0
93
1
44
0.0
173
0
291
1
45
0.0
1001
ACAD
1000
AcDbSavedByObjectVersion
1070
0
0
VISUALSTYLE
5
FA1
102
{ACAD_XDICTIONARY
360
109A
102
}
102
{ACAD_REACTORS
330
F93
102
}
330
F93
100
AcDbVisualStyle
2

70
14
71
2
72
2
73
0
90
0
40
-0.6
41
-30.0
62
5
63
7
74
1
91
4
64
7
65
257
75
7
175
7
42
1.0
92
8
66
7
43
1.0
76
1
77
6
78
2
67
7
79
5
170
0
171
0
290
0
174
0
93
1
44
0.0
173
0
291
1
45
0.0
1001
ACAD
1000
AcDbSavedByObjectVersion
1070
0
0
VISUALSTYLE
5
FA5
102
{ACAD_XDICTIONARY
360
10A2
102
}
102
{ACAD_REACTORS
330
F93
102
}
330
F93
100
AcDbVisualStyle
2

70
21
71
2
72
2
73
0
90
0
40
-0.6
41
-30.0
62
5
63
7
74
1
91
4
64
7
65
257
75
1
175
1
42
1.0
92
9
66
7
43
1.0
76
1
77
6
78
2
67
7
79
5
170
0
171
0
290
0
174
0
93
1
44
0.0
173
0
291
1
45
0.0
1001
ACAD
1000
AcDbSavedByObjectVersion
1070
0
0
VISUALSTYLE
5
F9D
102
{ACAD_XDICTIONARY
360
1092
102
}
102
{ACAD_REACTORS
330
F93
102
}
330
F93
100
AcDbVisualStyle
2

70
8
71
2
72
2
73
0
90
0
40
-0.6
41
-30.0
62
5
63
7
74
1
91
0
64
7
65
257
75
1
175
1
42
1.0
92
8
66
8
43
1.0
76
1
77
6
78
2
67
7
79
5
170
0
171
0
290
0
174
0
93
13
44
0.0
173
0
291
0
45
0.0
1001
ACAD
1000
AcDbSavedByObjectVersion
1070
0
0
VISUALSTYLE
5
FA0
102
{ACAD_XDICTIONARY
360
1098
102
}
102
{ACAD_REACTORS
330
F93
102
}
330
F93
100
AcDbVisualStyle
2

70
13
71
2
72
2
73
0
90
0
40
-0.6
41
-30.0
62
5
63
7
74
1
91
4
64
7
65
257
75
1
175
1
42
1.0
92
12
66
7
43
1.0
76
1
77
6
78
2
67
7
79
5
170
0
171
0
290
0
174
0
93
1
44
0.0
173
0
291
1
45
0.0
1001
ACAD
1000
AcDbSavedByObjectVersion
1070
0
0
DICTIONARYVAR
5
FF3
102
{ACAD_REACTORS
330
FF0
102
}
330
FF0
100
DictionaryVariables
280
0
1
1:1
0
DICTIONARYVAR
5
FF2
102
{ACAD_REACTORS
330
FF0
102
}
330
FF0
100
DictionaryVariables
280
0
1
STANDARD
0
DICTIONARYVAR
5
FF1
102
{ACAD_REACTORS
330
FF0
102
}
330
FF0
100
DictionaryVariables
280
0
1
STANDARD
0
DICTIONARYVAR
5
FF6
102
{ACAD_REACTORS
330
FF0
102
}
330
FF0
100
DictionaryVariables
280
0
1
1
0
DICTIONARYVAR
5
FF5
102
{ACAD_REACTORS
330
FF0
102
}
330
FF0
100
DictionaryVariables
280
0
1
0
0
DICTIONARYVAR
5
FF4
102
{ACAD_REACTORS
330
FF0
102
}
330
FF0
100
DictionaryVariables
280
0
1
127
0
DICTIONARYVAR
5
1078
102
{ACAD_REACTORS
330
FF0
102
}
330
FF0
100
DictionaryVariables
280
0
1
2
0
DICTIONARY
5
10A9
330
FD1
100
AcDbDictionary
280
1
281
1
3
ACAD_XREC_ROUNDTRIP
360
10AA
0
DICTIONARY
5
10A7
330
FD0
100
AcDbDictionary
280
1
281
1
3
ACAD_XREC_ROUNDTRIP
360
10A8
0
DICTIONARY
5
F84
330
F83
100
AcDbDictionary
280
1
281
1
3
ACAD_XREC_ROUNDTRIP
360
FFF
3
BUMPTILE
360
F86
3
DIFFUSETILE
360
F85
3
OPACITYTILE
360
F89
3
REFLECTIONTILE
360
F88
3
REFRACTIONTILE
360
F8A
3
SPECULARTILE
360
F87
0
DICTIONARY
5
F7C
330
F7B
100
AcDbDictionary
280
1
281
1
3
ACAD_XREC_ROUNDTRIP
360
FFE
3
BUMPTILE
360
F7E
3
DIFFUSETILE
360
F7D
3
OPACITYTILE
360
F81
3
REFLECTIONTILE
360
F80
3
REFRACTIONTILE
360
F82
3
SPECULARTILE
360
F7F
0
DICTIONARY
5
F8C
330
F8B
100
AcDbDictionary
280
1
281
1
3
ACAD_XREC_ROUNDTRIP
360
1000
3
BUMPTILE
360
F8E
3
DIFFUSETILE
360
F8D
3
OPACITYTILE
360
F91
3
REFLECTIONTILE
360
F90
3
REFRACTIONTILE
360
F92
3
SPECULARTILE
360
F8F
0
DICTIONARY
5
FF8
330
FA9
100
AcDbDictionary
280
1
281
1
3
ACAD_ROUNDTRIP_2008_TABLESTYLE_CELLSTYLEMAP
360
1079
3
ACAD_XREC_ROUNDTRIP
360
10A6
0
DICTIONARY
5
108A
330
F99
100
AcDbDictionary
280
1
281
1
3
ACAD_XREC_ROUNDTRIP
360
108B
0
DICTIONARY
5
108E
330
F9B
100
AcDbDictionary
280
1
281
1
3
ACAD_XREC_ROUNDTRIP
360
108F
0
DICTIONARY
5
108C
330
F9A
100
AcDbDictionary
280
1
281
1
3
ACAD_XREC_ROUNDTRIP
360
108D
0
DICTIONARY
5
1088
330
F98
100
AcDbDictionary
280
1
281
1
3
ACAD_XREC_ROUNDTRIP
360
1089
0
DICTIONARY
5
1096
330
F9F
100
AcDbDictionary
280
1
281
1
3
ACAD_XREC_ROUNDTRIP
360
1097
0
DICTIONARY
5
109E
330
FA3
100
AcDbDictionary
280
1
281
1
3
ACAD_XREC_ROUNDTRIP
360
109F
0
DICTIONARY
5
1090
330
F9C
100
AcDbDictionary
280
1
281
1
3
ACAD_XREC_ROUNDTRIP
360
1091
0
DICTIONARY
5
1094
330
F9E
100
AcDbDictionary
280
1
281
1
3
ACAD_XREC_ROUNDTRIP
360
1095
0
DICTIONARY
5
10A4
330
FA6
100
AcDbDictionary
280
1
281
1
3
ACAD_XREC_ROUNDTRIP
360
10A5
0
DICTIONARY
5
109C
330
FA2
100
AcDbDictionary
280
1
281
1
3
ACAD_XREC_ROUNDTRIP
360
109D
0
DICTIONARY
5
1080
330
F94
100
AcDbDictionary
280
1
281
1
3
ACAD_XREC_ROUNDTRIP
360
1081
0
DICTIONARY
5
1082
330
F95
100
AcDbDictionary
280
1
281
1
3
ACAD_XREC_ROUNDTRIP
360
1083
0
DICTIONARY
5
1084
330
F96
100
AcDbDictionary
280
1
281
1
3
ACAD_XREC_ROUNDTRIP
360
1085
0
DICTIONARY
5
1086
330
F97
100
AcDbDictionary
280
1
281
1
3
ACAD_XREC_ROUNDTRIP
360
1087
0
DICTIONARY
5
10A0
330
FA4
100
AcDbDictionary
280
1
281
1
3
ACAD_XREC_ROUNDTRIP
360
10A1
0
DICTIONARY
5
109A
330
FA1
100
AcDbDictionary
280
1
281
1
3
ACAD_XREC_ROUNDTRIP
360
109B
0
DICTIONARY
5
10A2
330
FA5
100
AcDbDictionary
280
1
281
1
3
ACAD_XREC_ROUNDTRIP
360
10A3
0
DICTIONARY
5
1092
330
F9D
100
AcDbDictionary
280
1
281
1
3
ACAD_XREC_ROUNDTRIP
360
1093
0
DICTIONARY
5
1098
330
FA0
100
AcDbDictionary
280
1
281
1
3
ACAD_XREC_ROUNDTRIP
360
1099
0
XRECORD
5
10AA
102
{ACAD_REACTORS
330
10A9
102
}
330
10A9
100
AcDbXrecord
280
1
102
SHADEPLOT
70
0
102
SHADEPLOTRESLEVEL
70
2
102
SHADEPLOTCUSTOMDPI
70
300
0
XRECORD
5
10A8
102
{ACAD_REACTORS
330
10A7
102
}
330
10A7
100
AcDbXrecord
280
1
102
SHADEPLOT
70
0
102
SHADEPLOTRESLEVEL
70
2
102
SHADEPLOTCUSTOMDPI
70
300
0
XRECORD
5
FFF
102
{ACAD_REACTORS
330
F84
102
}
330
F84
100
AcDbXrecord
280
1
102
MATERIAL
148
0.0
149
0.0
149
0.0
93
0
94
127
282
0
72
0
77
0
171
0
175
0
179
0
273
0
0
XRECORD
5
F86
102
{ACAD_REACTORS
330
F84
102
}
330
F84
100
AcDbXrecord
280
1
270
1
271
1
0
XRECORD
5
F85
102
{ACAD_REACTORS
330
F84
102
}
330
F84
100
AcDbXrecord
280
1
270
1
271
1
0
XRECORD
5
F89
102
{ACAD_REACTORS
330
F84
102
}
330
F84
100
AcDbXrecord
280
1
270
1
271
1
0
XRECORD
5
F88
102
{ACAD_REACTORS
330
F84
102
}
330
F84
100
AcDbXrecord
280
1
270
1
271
1
0
XRECORD
5
F8A
102
{ACAD_REACTORS
330
F84
102
}
330
F84
100
AcDbXrecord
280
1
270
1
271
1
0
XRECORD
5
F87
102
{ACAD_REACTORS
330
F84
102
}
330
F84
100
AcDbXrecord
280
1
270
1
271
1
0
XRECORD
5
FFE
102
{ACAD_REACTORS
330
F7C
102
}
330
F7C
100
AcDbXrecord
280
1
102
MATERIAL
148
0.0
149
0.0
149
0.0
93
0
94
127
282
0
72
0
77
0
171
0
175
0
179
0
273
0
0
XRECORD
5
F7E
102
{ACAD_REACTORS
330
F7C
102
}
330
F7C
100
AcDbXrecord
280
1
270
1
271
1
0
XRECORD
5
F7D
102
{ACAD_REACTORS
330
F7C
102
}
330
F7C
100
AcDbXrecord
280
1
270
1
271
1
0
XRECORD
5
F81
102
{ACAD_REACTORS
330
F7C
102
}
330
F7C
100
AcDbXrecord
280
1
270
1
271
1
0
XRECORD
5
F80
102
{ACAD_REACTORS
330
F7C
102
}
330
F7C
100
AcDbXrecord
280
1
270
1
271
1
0
XRECORD
5
F82
102
{ACAD_REACTORS
330
F7C
102
}
330
F7C
100
AcDbXrecord
280
1
270
1
271
1
0
XRECORD
5
F7F
102
{ACAD_REACTORS
330
F7C
102
}
330
F7C
100
AcDbXrecord
280
1
270
1
271
1
0
XRECORD
5
1000
102
{ACAD_REACTORS
330
F8C
102
}
330
F8C
100
AcDbXrecord
280
1
102
MATERIAL
148
0.0
149
0.0
149
0.0
93
0
94
127
282
0
72
0
77
0
171
0
175
0
179
0
273
0
0
XRECORD
5
F8E
102
{ACAD_REACTORS
330
F8C
102
}
330
F8C
100
AcDbXrecord
280
1
270
1
271
1
0
XRECORD
5
F8D
102
{ACAD_REACTORS
330
F8C
102
}
330
F8C
100
AcDbXrecord
280
1
270
1
271
1
0
XRECORD
5
F91
102
{ACAD_REACTORS
330
F8C
102
}
330
F8C
100
AcDbXrecord
280
1
270
1
271
1
0
XRECORD
5
F90
102
{ACAD_REACTORS
330
F8C
102
}
330
F8C
100
AcDbXrecord
280
1
270
1
271
1
0
XRECORD
5
F92
102
{ACAD_REACTORS
330
F8C
102
}
330
F8C
100
AcDbXrecord
280
1
270
1
271
1
0
XRECORD
5
F8F
102
{ACAD_REACTORS
330
F8C
102
}
330
F8C
100
AcDbXrecord
280
1
270
1
271
1
0
CELLSTYLEMAP
5
1079
102
{ACAD_REACTORS
330
FF8
102
}
330
FF8
100
AcDbCellStyleMap
90
3
300
CELLSTYLE
1
TABLEFORMAT_BEGIN
90
5
170
1
91
0
92
32768
62
257
93
1
300
CONTENTFORMAT
1
CONTENTFORMAT_BEGIN
90
0
91
0
92
512
93
0
300

40
0.0
140
1.0
94
5
62
0
340
253
144
0.25
309
CONTENTFORMAT_END
171
1
301
MARGIN
1
CELLMARGIN_BEGIN
40
0.06
40
0.06
40
0.06
40
0.06
40
0.18
40
0.18
309
CELLMARGIN_END
94
6
95
1
302
GRIDFORMAT
1
GRIDFORMAT_BEGIN
90
0
91
1
62
0
92
-2
340
0
93
0
40
0.045
309
GRIDFORMAT_END
95
2
302
GRIDFORMAT
1
GRIDFORMAT_BEGIN
90
0
91
1
62
0
92
-2
340
0
93
0
40
0.045
309
GRIDFORMAT_END
95
4
302
GRIDFORMAT
1
GRIDFORMAT_BEGIN
90
0
91
1
62
0
92
-2
340
0
93
0
40
0.045
309
GRIDFORMAT_END
95
8
302
GRIDFORMAT
1
GRIDFORMAT_BEGIN
90
0
91
1
62
0
92
-2
340
0
93
0
40
0.045
309
GRIDFORMAT_END
95
16
302
GRIDFORMAT
1
GRIDFORMAT_BEGIN
90
0
91
1
62
0
92
-2
340
0
93
0
40
0.045
309
GRIDFORMAT_END
95
32
302
GRIDFORMAT
1
GRIDFORMAT_BEGIN
90
0
91
1
62
0
92
-2
340
0
93
0
40
0.045
309
GRIDFORMAT_END
309
TABLEFORMAT_END
1
CELLSTYLE_BEGIN
90
1
91
1
300
_TITLE
309
CELLSTYLE_END
300
CELLSTYLE
1
TABLEFORMAT_BEGIN
90
5
170
1
91
0
92
0
62
257
93
1
300
CONTENTFORMAT
1
CONTENTFORMAT_BEGIN
90
0
91
0
92
512
93
0
300

40
0.0
140
1.0
94
5
62
0
340
253
144
0.18
309
CONTENTFORMAT_END
171
1
301
MARGIN
1
CELLMARGIN_BEGIN
40
0.06
40
0.06
40
0.06
40
0.06
40
0.18
40
0.18
309
CELLMARGIN_END
94
6
95
1
302
GRIDFORMAT
1
GRIDFORMAT_BEGIN
90
0
91
1
62
0
92
-2
340
0
93
0
40
0.045
309
GRIDFORMAT_END
95
2
302
GRIDFORMAT
1
GRIDFORMAT_BEGIN
90
0
91
1
62
0
92
-2
340
0
93
0
40
0.045
309
GRIDFORMAT_END
95
4
302
GRIDFORMAT
1
GRIDFORMAT_BEGIN
90
0
91
1
62
0
92
-2
340
0
93
0
40
0.045
309
GRIDFORMAT_END
95
8
302
GRIDFORMAT
1
GRIDFORMAT_BEGIN
90
0
91
1
62
0
92
-2
340
0
93
0
40
0.045
309
GRIDFORMAT_END
95
16
302
GRIDFORMAT
1
GRIDFORMAT_BEGIN
90
0
91
1
62
0
92
-2
340
0
93
0
40
0.045
309
GRIDFORMAT_END
95
32
302
GRIDFORMAT
1
GRIDFORMAT_BEGIN
90
0
91
1
62
0
92
-2
340
0
93
0
40
0.045
309
GRIDFORMAT_END
309
TABLEFORMAT_END
1
CELLSTYLE_BEGIN
90
2
91
1
300
_HEADER
309
CELLSTYLE_END
300
CELLSTYLE
1
TABLEFORMAT_BEGIN
90
5
170
1
91
0
92
0
62
257
93
1
300
CONTENTFORMAT
1
CONTENTFORMAT_BEGIN
90
0
91
0
92
512
93
0
300

40
0.0
140
1.0
94
2
62
0
340
253
144
0.18
309
CONTENTFORMAT_END
171
1
301
MARGIN
1
CELLMARGIN_BEGIN
40
0.06
40
0.06
40
0.06
40
0.06
40
0.18
40
0.18
309
CELLMARGIN_END
94
6
95
1
302
GRIDFORMAT
1
GRIDFORMAT_BEGIN
90
0
91
1
62
0
92
-2
340
0
93
0
40
0.045
309
GRIDFORMAT_END
95
2
302
GRIDFORMAT
1
GRIDFORMAT_BEGIN
90
0
91
1
62
0
92
-2
340
0
93
0
40
0.045
309
GRIDFORMAT_END
95
4
302
GRIDFORMAT
1
GRIDFORMAT_BEGIN
90
0
91
1
62
0
92
-2
340
0
93
0
40
0.045
309
GRIDFORMAT_END
95
8
302
GRIDFORMAT
1
GRIDFORMAT_BEGIN
90
0
91
1
62
0
92
-2
340
0
93
0
40
0.045
309
GRIDFORMAT_END
95
16
302
GRIDFORMAT
1
GRIDFORMAT_BEGIN
90
0
91
1
62
0
92
-2
340
0
93
0
40
0.045
309
GRIDFORMAT_END
95
32
302
GRIDFORMAT
1
GRIDFORMAT_BEGIN
90
0
91
1
62
0
92
-2
340
0
93
0
40
0.045
309
GRIDFORMAT_END
309
TABLEFORMAT_END
1
CELLSTYLE_BEGIN
90
3
91
2
300
_DATA
309
CELLSTYLE_END
0
XRECORD
5
10A6
102
{ACAD_REACTORS
330
FF8
102
}
330
FF8
100
AcDbXrecord
280
1
102
ACAD_ROUNDTRIP_PRE2007_TABLESTYLE
90
512
91
0
1

92
512
93
0
2

94
512
95
0
3

0
XRECORD
5
108B
102
{ACAD_REACTORS
330
108A
102
}
330
108A
100
AcDbXrecord
280
1
102
RTVSPropertyOp0
70
1
102
RTVSPropertyOp1
70
1
102
RTVSPropertyOp2
70
1
102
RTVSPropertyOp3
70
1
102
RTVSPropertyOp4
70
1
102
RTVSPropertyOp5
70
1
102
RTVSPropertyOp6
70
1
102
RTVSPropertyOp7
70
1
102
RTVSPropertyOp8
70
1
102
RTVSPropertyOp9
70
1
102
RTVSPropertyOp10
70
1
102
RTVSPropertyOp11
70
1
102
RTVSPropertyOp12
70
1
102
RTVSPropertyOp13
70
1
102
RTVSPropertyOp14
70
1
102
RTVSPropertyOp15
70
1
102
RTVSPropertyOp16
70
1
102
RTVSPropertyOp17
70
1
102
RTVSPropertyOp18
70
1
102
RTVSPropertyOp19
70
1
102
RTVSPropertyOp20
70
1
102
RTVSPropertyOp21
70
1
102
RTVSPropertyOp22
70
1
102
RTVSPropertyOp23
70
1
102
RTVSPropertyOp24
70
1
102
RTVSPropertyOp25
70
1
102
RTVSPropertyOp26
70
1
102
RTVSPropertyOp27
70
1
0
XRECORD
5
108F
102
{ACAD_REACTORS
330
108E
102
}
330
108E
100
AcDbXrecord
280
1
102
RTVSPropertyOp0
70
1
102
RTVSPropertyOp1
70
1
102
RTVSPropertyOp2
70
1
102
RTVSPropertyOp3
70
1
102
RTVSPropertyOp4
70
1
102
RTVSPropertyOp5
70
1
102
RTVSPropertyOp6
70
1
102
RTVSPropertyOp7
70
1
102
RTVSPropertyOp8
70
1
102
RTVSPropertyOp9
70
1
102
RTVSPropertyOp10
70
1
102
RTVSPropertyOp11
70
1
102
RTVSPropertyOp12
70
1
102
RTVSPropertyOp13
70
1
102
RTVSPropertyOp14
70
1
102
RTVSPropertyOp15
70
1
102
RTVSPropertyOp16
70
1
102
RTVSPropertyOp17
70
1
102
RTVSPropertyOp18
70
1
102
RTVSPropertyOp19
70
1
102
RTVSPropertyOp20
70
1
102
RTVSPropertyOp21
70
1
102
RTVSPropertyOp22
70
1
102
RTVSPropertyOp23
70
1
102
RTVSPropertyOp24
70
1
102
RTVSPropertyOp25
70
1
102
RTVSPropertyOp26
70
1
102
RTVSPropertyOp27
70
1
0
XRECORD
5
108D
102
{ACAD_REACTORS
330
108C
102
}
330
108C
100
AcDbXrecord
280
1
102
RTVSPropertyOp0
70
1
102
RTVSPropertyOp1
70
1
102
RTVSPropertyOp2
70
1
102
RTVSPropertyOp3
70
1
102
RTVSPropertyOp4
70
1
102
RTVSPropertyOp5
70
1
102
RTVSPropertyOp6
70
1
102
RTVSPropertyOp7
70
1
102
RTVSPropertyOp8
70
1
102
RTVSPropertyOp9
70
1
102
RTVSPropertyOp10
70
1
102
RTVSPropertyOp11
70
1
102
RTVSPropertyOp12
70
1
102
RTVSPropertyOp13
70
1
102
RTVSPropertyOp14
70
1
102
RTVSPropertyOp15
70
1
102
RTVSPropertyOp16
70
1
102
RTVSPropertyOp17
70
1
102
RTVSPropertyOp18
70
1
102
RTVSPropertyOp19
70
1
102
RTVSPropertyOp20
70
1
102
RTVSPropertyOp21
70
1
102
RTVSPropertyOp22
70
1
102
RTVSPropertyOp23
70
1
102
RTVSPropertyOp24
70
1
102
RTVSPropertyOp25
70
1
102
RTVSPropertyOp26
70
1
102
RTVSPropertyOp27
70
1
0
XRECORD
5
1089
102
{ACAD_REACTORS
330
1088
102
}
330
1088
100
AcDbXrecord
280
1
102
RTVSPropertyOp0
70
1
102
RTVSPropertyOp1
70
1
102
RTVSPropertyOp2
70
1
102
RTVSPropertyOp3
70
1
102
RTVSPropertyOp4
70
1
102
RTVSPropertyOp5
70
1
102
RTVSPropertyOp6
70
1
102
RTVSPropertyOp7
70
1
102
RTVSPropertyOp8
70
1
102
RTVSPropertyOp9
70
1
102
RTVSPropertyOp10
70
1
102
RTVSPropertyOp11
70
1
102
RTVSPropertyOp12
70
1
102
RTVSPropertyOp13
70
1
102
RTVSPropertyOp14
70
1
102
RTVSPropertyOp15
70
1
102
RTVSPropertyOp16
70
1
102
RTVSPropertyOp17
70
1
102
RTVSPropertyOp18
70
1
102
RTVSPropertyOp19
70
1
102
RTVSPropertyOp20
70
1
102
RTVSPropertyOp21
70
1
102
RTVSPropertyOp22
70
1
102
RTVSPropertyOp23
70
1
102
RTVSPropertyOp24
70
1
102
RTVSPropertyOp25
70
1
102
RTVSPropertyOp26
70
1
102
RTVSPropertyOp27
70
1
0
XRECORD
5
1097
102
{ACAD_REACTORS
330
1096
102
}
330
1096
100
AcDbXrecord
280
1
102
RTVSPropertyOp0
70
1
102
RTVSPropertyOp1
70
1
102
RTVSPropertyOp2
70
1
102
RTVSPropertyOp3
70
1
102
RTVSPropertyOp4
70
1
102
RTVSPropertyOp5
70
1
102
RTVSPropertyOp6
70
1
102
RTVSPropertyOp7
70
1
102
RTVSPropertyOp8
70
1
102
RTVSPropertyOp9
70
1
102
RTVSPropertyOp10
70
1
102
RTVSPropertyOp11
70
1
102
RTVSPropertyOp12
70
1
102
RTVSPropertyOp13
70
1
102
RTVSPropertyOp14
70
1
102
RTVSPropertyOp15
70
1
102
RTVSPropertyOp16
70
1
102
RTVSPropertyOp17
70
1
102
RTVSPropertyOp18
70
1
102
RTVSPropertyOp19
70
1
102
RTVSPropertyOp20
70
1
102
RTVSPropertyOp21
70
1
102
RTVSPropertyOp22
70
1
102
RTVSPropertyOp23
70
1
102
RTVSPropertyOp24
70
1
102
RTVSPropertyOp25
70
1
102
RTVSPropertyOp26
70
1
102
RTVSPropertyOp27
70
1
0
XRECORD
5
109F
102
{ACAD_REACTORS
330
109E
102
}
330
109E
100
AcDbXrecord
280
1
102
RTVSPropertyOp0
70
1
102
RTVSPropertyOp1
70
1
102
RTVSPropertyOp2
70
1
102
RTVSPropertyOp3
70
1
102
RTVSPropertyOp4
70
1
102
RTVSPropertyOp5
70
1
102
RTVSPropertyOp6
70
1
102
RTVSPropertyOp7
70
1
102
RTVSPropertyOp8
70
1
102
RTVSPropertyOp9
70
1
102
RTVSPropertyOp10
70
1
102
RTVSPropertyOp11
70
1
102
RTVSPropertyOp12
70
1
102
RTVSPropertyOp13
70
1
102
RTVSPropertyOp14
70
1
102
RTVSPropertyOp15
70
1
102
RTVSPropertyOp16
70
1
102
RTVSPropertyOp17
70
1
102
RTVSPropertyOp18
70
1
102
RTVSPropertyOp19
70
1
102
RTVSPropertyOp20
70
1
102
RTVSPropertyOp21
70
1
102
RTVSPropertyOp22
70
1
102
RTVSPropertyOp23
70
1
102
RTVSPropertyOp24
70
1
102
RTVSPropertyOp25
70
1
102
RTVSPropertyOp26
70
1
102
RTVSPropertyOp27
70
1
0
XRECORD
5
1091
102
{ACAD_REACTORS
330
1090
102
}
330
1090
100
AcDbXrecord
280
1
102
RTVSPropertyOp0
70
1
102
RTVSPropertyOp1
70
1
102
RTVSPropertyOp2
70
1
102
RTVSPropertyOp3
70
1
102
RTVSPropertyOp4
70
1
102
RTVSPropertyOp5
70
1
102
RTVSPropertyOp6
70
1
102
RTVSPropertyOp7
70
1
102
RTVSPropertyOp8
70
1
102
RTVSPropertyOp9
70
1
102
RTVSPropertyOp10
70
1
102
RTVSPropertyOp11
70
1
102
RTVSPropertyOp12
70
1
102
RTVSPropertyOp13
70
1
102
RTVSPropertyOp14
70
1
102
RTVSPropertyOp15
70
1
102
RTVSPropertyOp16
70
1
102
RTVSPropertyOp17
70
1
102
RTVSPropertyOp18
70
1
102
RTVSPropertyOp19
70
1
102
RTVSPropertyOp20
70
1
102
RTVSPropertyOp21
70
1
102
RTVSPropertyOp22
70
1
102
RTVSPropertyOp23
70
1
102
RTVSPropertyOp24
70
1
102
RTVSPropertyOp25
70
1
102
RTVSPropertyOp26
70
1
102
RTVSPropertyOp27
70
1
0
XRECORD
5
1095
102
{ACAD_REACTORS
330
1094
102
}
330
1094
100
AcDbXrecord
280
1
102
RTVSPropertyOp0
70
1
102
RTVSPropertyOp1
70
1
102
RTVSPropertyOp2
70
1
102
RTVSPropertyOp3
70
1
102
RTVSPropertyOp4
70
1
102
RTVSPropertyOp5
70
1
102
RTVSPropertyOp6
70
1
102
RTVSPropertyOp7
70
1
102
RTVSPropertyOp8
70
1
102
RTVSPropertyOp9
70
1
102
RTVSPropertyOp10
70
1
102
RTVSPropertyOp11
70
1
102
RTVSPropertyOp12
70
1
102
RTVSPropertyOp13
70
1
102
RTVSPropertyOp14
70
1
102
RTVSPropertyOp15
70
1
102
RTVSPropertyOp16
70
1
102
RTVSPropertyOp17
70
1
102
RTVSPropertyOp18
70
1
102
RTVSPropertyOp19
70
1
102
RTVSPropertyOp20
70
1
102
RTVSPropertyOp21
70
1
102
RTVSPropertyOp22
70
1
102
RTVSPropertyOp23
70
1
102
RTVSPropertyOp24
70
1
102
RTVSPropertyOp25
70
1
102
RTVSPropertyOp26
70
1
102
RTVSPropertyOp27
70
1
0
XRECORD
5
10A5
102
{ACAD_REACTORS
330
10A4
102
}
330
10A4
100
AcDbXrecord
280
1
102
RTVSPropertyOp0
70
0
102
RTVSPropertyOp1
70
0
102
RTVSPropertyOp2
70
0
102
RTVSPropertyOp3
70
0
102
RTVSPropertyOp4
70
0
102
RTVSPropertyOp5
70
0
102
RTVSPropertyOp6
70
0
102
RTVSPropertyOp7
70
0
102
RTVSPropertyOp8
70
0
102
RTVSPropertyOp9
70
0
102
RTVSPropertyOp10
70
0
102
RTVSPropertyOp11
70
0
102
RTVSPropertyOp12
70
0
102
RTVSPropertyOp13
70
0
102
RTVSPropertyOp14
70
2
102
RTVSPropertyOp15
70
0
102
RTVSPropertyOp16
70
0
102
RTVSPropertyOp17
70
0
102
RTVSPropertyOp18
70
0
102
RTVSPropertyOp19
70
0
102
RTVSPropertyOp20
70
0
102
RTVSPropertyOp21
70
0
102
RTVSPropertyOp22
70
0
102
RTVSPropertyOp23
70
0
102
RTVSPropertyOp24
70
0
102
RTVSPropertyOp25
70
0
102
RTVSPropertyOp26
70
0
102
RTVSPropertyOp27
70
0
0
XRECORD
5
109D
102
{ACAD_REACTORS
330
109C
102
}
330
109C
100
AcDbXrecord
280
1
102
RTVSPropertyOp0
70
1
102
RTVSPropertyOp1
70
1
102
RTVSPropertyOp2
70
1
102
RTVSPropertyOp3
70
1
102
RTVSPropertyOp4
70
1
102
RTVSPropertyOp5
70
1
102
RTVSPropertyOp6
70
1
102
RTVSPropertyOp7
70
1
102
RTVSPropertyOp8
70
1
102
RTVSPropertyOp9
70
1
102
RTVSPropertyOp10
70
1
102
RTVSPropertyOp11
70
1
102
RTVSPropertyOp12
70
1
102
RTVSPropertyOp13
70
1
102
RTVSPropertyOp14
70
1
102
RTVSPropertyOp15
70
1
102
RTVSPropertyOp16
70
1
102
RTVSPropertyOp17
70
1
102
RTVSPropertyOp18
70
1
102
RTVSPropertyOp19
70
1
102
RTVSPropertyOp20
70
1
102
RTVSPropertyOp21
70
1
102
RTVSPropertyOp22
70
1
102
RTVSPropertyOp23
70
1
102
RTVSPropertyOp24
70
1
102
RTVSPropertyOp25
70
1
102
RTVSPropertyOp26
70
1
102
RTVSPropertyOp27
70
1
0
XRECORD
5
1081
102
{ACAD_REACTORS
330
1080
102
}
330
1080
100
AcDbXrecord
280
1
102
RTVSPropertyOp0
70
1
102
RTVSPropertyOp1
70
1
102
RTVSPropertyOp2
70
1
102
RTVSPropertyOp3
70
1
102
RTVSPropertyOp4
70
1
102
RTVSPropertyOp5
70
1
102
RTVSPropertyOp6
70
1
102
RTVSPropertyOp7
70
1
102
RTVSPropertyOp8
70
1
102
RTVSPropertyOp9
70
1
102
RTVSPropertyOp10
70
1
102
RTVSPropertyOp11
70
1
102
RTVSPropertyOp12
70
1
102
RTVSPropertyOp13
70
1
102
RTVSPropertyOp14
70
1
102
RTVSPropertyOp15
70
1
102
RTVSPropertyOp16
70
1
102
RTVSPropertyOp17
70
1
102
RTVSPropertyOp18
70
1
102
RTVSPropertyOp19
70
1
102
RTVSPropertyOp20
70
1
102
RTVSPropertyOp21
70
1
102
RTVSPropertyOp22
70
1
102
RTVSPropertyOp23
70
1
102
RTVSPropertyOp24
70
1
102
RTVSPropertyOp25
70
1
102
RTVSPropertyOp26
70
1
102
RTVSPropertyOp27
70
1
0
XRECORD
5
1083
102
{ACAD_REACTORS
330
1082
102
}
330
1082
100
AcDbXrecord
280
1
102
RTVSPropertyOp0
70
1
102
RTVSPropertyOp1
70
1
102
RTVSPropertyOp2
70
1
102
RTVSPropertyOp3
70
1
102
RTVSPropertyOp4
70
1
102
RTVSPropertyOp5
70
1
102
RTVSPropertyOp6
70
1
102
RTVSPropertyOp7
70
1
102
RTVSPropertyOp8
70
1
102
RTVSPropertyOp9
70
1
102
RTVSPropertyOp10
70
1
102
RTVSPropertyOp11
70
1
102
RTVSPropertyOp12
70
1
102
RTVSPropertyOp13
70
1
102
RTVSPropertyOp14
70
1
102
RTVSPropertyOp15
70
1
102
RTVSPropertyOp16
70
1
102
RTVSPropertyOp17
70
1
102
RTVSPropertyOp18
70
1
102
RTVSPropertyOp19
70
1
102
RTVSPropertyOp20
70
1
102
RTVSPropertyOp21
70
1
102
RTVSPropertyOp22
70
1
102
RTVSPropertyOp23
70
1
102
RTVSPropertyOp24
70
1
102
RTVSPropertyOp25
70
1
102
RTVSPropertyOp26
70
1
102
RTVSPropertyOp27
70
1
0
XRECORD
5
1085
102
{ACAD_REACTORS
330
1084
102
}
330
1084
100
AcDbXrecord
280
1
102
RTVSPropertyOp0
70
1
102
RTVSPropertyOp1
70
1
102
RTVSPropertyOp2
70
1
102
RTVSPropertyOp3
70
1
102
RTVSPropertyOp4
70
1
102
RTVSPropertyOp5
70
1
102
RTVSPropertyOp6
70
1
102
RTVSPropertyOp7
70
1
102
RTVSPropertyOp8
70
1
102
RTVSPropertyOp9
70
1
102
RTVSPropertyOp10
70
1
102
RTVSPropertyOp11
70
1
102
RTVSPropertyOp12
70
1
102
RTVSPropertyOp13
70
1
102
RTVSPropertyOp14
70
1
102
RTVSPropertyOp15
70
1
102
RTVSPropertyOp16
70
1
102
RTVSPropertyOp17
70
1
102
RTVSPropertyOp18
70
1
102
RTVSPropertyOp19
70
1
102
RTVSPropertyOp20
70
1
102
RTVSPropertyOp21
70
1
102
RTVSPropertyOp22
70
1
102
RTVSPropertyOp23
70
1
102
RTVSPropertyOp24
70
1
102
RTVSPropertyOp25
70
1
102
RTVSPropertyOp26
70
1
102
RTVSPropertyOp27
70
1
0
XRECORD
5
1087
102
{ACAD_REACTORS
330
1086
102
}
330
1086
100
AcDbXrecord
280
1
102
RTVSPropertyOp0
70
1
102
RTVSPropertyOp1
70
1
102
RTVSPropertyOp2
70
1
102
RTVSPropertyOp3
70
1
102
RTVSPropertyOp4
70
1
102
RTVSPropertyOp5
70
1
102
RTVSPropertyOp6
70
1
102
RTVSPropertyOp7
70
1
102
RTVSPropertyOp8
70
1
102
RTVSPropertyOp9
70
1
102
RTVSPropertyOp10
70
1
102
RTVSPropertyOp11
70
1
102
RTVSPropertyOp12
70
1
102
RTVSPropertyOp13
70
1
102
RTVSPropertyOp14
70
1
102
RTVSPropertyOp15
70
1
102
RTVSPropertyOp16
70
1
102
RTVSPropertyOp17
70
1
102
RTVSPropertyOp18
70
1
102
RTVSPropertyOp19
70
1
102
RTVSPropertyOp20
70
1
102
RTVSPropertyOp21
70
1
102
RTVSPropertyOp22
70
1
102
RTVSPropertyOp23
70
1
102
RTVSPropertyOp24
70
1
102
RTVSPropertyOp25
70
1
102
RTVSPropertyOp26
70
1
102
RTVSPropertyOp27
70
1
0
XRECORD
5
10A1
102
{ACAD_REACTORS
330
10A0
102
}
330
10A0
100
AcDbXrecord
280
1
102
RTVSPropertyOp0
70
0
102
RTVSPropertyOp1
70
0
102
RTVSPropertyOp2
70
0
102
RTVSPropertyOp3
70
0
102
RTVSPropertyOp4
70
0
102
RTVSPropertyOp5
70
0
102
RTVSPropertyOp6
70
0
102
RTVSPropertyOp7
70
0
102
RTVSPropertyOp8
70
0
102
RTVSPropertyOp9
70
0
102
RTVSPropertyOp10
70
0
102
RTVSPropertyOp11
70
0
102
RTVSPropertyOp12
70
0
102
RTVSPropertyOp13
70
0
102
RTVSPropertyOp14
70
2
102
RTVSPropertyOp15
70
0
102
RTVSPropertyOp16
70
0
102
RTVSPropertyOp17
70
0
102
RTVSPropertyOp18
70
0
102
RTVSPropertyOp19
70
0
102
RTVSPropertyOp20
70
0
102
RTVSPropertyOp21
70
0
102
RTVSPropertyOp22
70
0
102
RTVSPropertyOp23
70
0
102
RTVSPropertyOp24
70
0
102
RTVSPropertyOp25
70
0
102
RTVSPropertyOp26
70
0
102
RTVSPropertyOp27
70
0
0
XRECORD
5
109B
102
{ACAD_REACTORS
330
109A
102
}
330
109A
100
AcDbXrecord
280
1
102
RTVSPropertyOp0
70
1
102
RTVSPropertyOp1
70
1
102
RTVSPropertyOp2
70
1
102
RTVSPropertyOp3
70
1
102
RTVSPropertyOp4
70
1
102
RTVSPropertyOp5
70
1
102
RTVSPropertyOp6
70
1
102
RTVSPropertyOp7
70
1
102
RTVSPropertyOp8
70
1
102
RTVSPropertyOp9
70
1
102
RTVSPropertyOp10
70
1
102
RTVSPropertyOp11
70
1
102
RTVSPropertyOp12
70
1
102
RTVSPropertyOp13
70
1
102
RTVSPropertyOp14
70
1
102
RTVSPropertyOp15
70
1
102
RTVSPropertyOp16
70
1
102
RTVSPropertyOp17
70
1
102
RTVSPropertyOp18
70
1
102
RTVSPropertyOp19
70
1
102
RTVSPropertyOp20
70
1
102
RTVSPropertyOp21
70
1
102
RTVSPropertyOp22
70
1
102
RTVSPropertyOp23
70
1
102
RTVSPropertyOp24
70
1
102
RTVSPropertyOp25
70
1
102
RTVSPropertyOp26
70
1
102
RTVSPropertyOp27
70
1
0
XRECORD
5
10A3
102
{ACAD_REACTORS
330
10A2
102
}
330
10A2
100
AcDbXrecord
280
1
102
RTVSPropertyOp0
70
0
102
RTVSPropertyOp1
70
0
102
RTVSPropertyOp2
70
0
102
RTVSPropertyOp3
70
0
102
RTVSPropertyOp4
70
0
102
RTVSPropertyOp5
70
0
102
RTVSPropertyOp6
70
0
102
RTVSPropertyOp7
70
0
102
RTVSPropertyOp8
70
0
102
RTVSPropertyOp9
70
0
102
RTVSPropertyOp10
70
0
102
RTVSPropertyOp11
70
0
102
RTVSPropertyOp12
70
0
102
RTVSPropertyOp13
70
0
102
RTVSPropertyOp14
70
2
102
RTVSPropertyOp15
70
0
102
RTVSPropertyOp16
70
0
102
RTVSPropertyOp17
70
0
102
RTVSPropertyOp18
70
0
102
RTVSPropertyOp19
70
0
102
RTVSPropertyOp20
70
0
102
RTVSPropertyOp21
70
0
102
RTVSPropertyOp22
70
0
102
RTVSPropertyOp23
70
0
102
RTVSPropertyOp24
70
0
102
RTVSPropertyOp25
70
0
102
RTVSPropertyOp26
70
0
102
RTVSPropertyOp27
70
0
0
XRECORD
5
1093
102
{ACAD_REACTORS
330
1092
102
}
330
1092
100
AcDbXrecord
280
1
102
RTVSPropertyOp0
70
1
102
RTVSPropertyOp1
70
1
102
RTVSPropertyOp2
70
1
102
RTVSPropertyOp3
70
1
102
RTVSPropertyOp4
70
1
102
RTVSPropertyOp5
70
1
102
RTVSPropertyOp6
70
1
102
RTVSPropertyOp7
70
1
102
RTVSPropertyOp8
70
1
102
RTVSPropertyOp9
70
1
102
RTVSPropertyOp10
70
1
102
RTVSPropertyOp11
70
1
102
RTVSPropertyOp12
70
1
102
RTVSPropertyOp13
70
1
102
RTVSPropertyOp14
70
1
102
RTVSPropertyOp15
70
1
102
RTVSPropertyOp16
70
1
102
RTVSPropertyOp17
70
1
102
RTVSPropertyOp18
70
1
102
RTVSPropertyOp19
70
1
102
RTVSPropertyOp20
70
1
102
RTVSPropertyOp21
70
1
102
RTVSPropertyOp22
70
1
102
RTVSPropertyOp23
70
1
102
RTVSPropertyOp24
70
1
102
RTVSPropertyOp25
70
1
102
RTVSPropertyOp26
70
1
102
RTVSPropertyOp27
70
1
0
XRECORD
5
1099
102
{ACAD_REACTORS
330
1098
102
}
330
1098
100
AcDbXrecord
280
1
102
RTVSPropertyOp0
70
1
102
RTVSPropertyOp1
70
1
102
RTVSPropertyOp2
70
1
102
RTVSPropertyOp3
70
1
102
RTVSPropertyOp4
70
1
102
RTVSPropertyOp5
70
1
102
RTVSPropertyOp6
70
1
102
RTVSPropertyOp7
70
1
102
RTVSPropertyOp8
70
1
102
RTVSPropertyOp9
70
1
102
RTVSPropertyOp10
70
1
102
RTVSPropertyOp11
70
1
102
RTVSPropertyOp12
70
1
102
RTVSPropertyOp13
70
1
102
RTVSPropertyOp14
70
1
102
RTVSPropertyOp15
70
1
102
RTVSPropertyOp16
70
1
102
RTVSPropertyOp17
70
1
102
RTVSPropertyOp18
70
1
102
RTVSPropertyOp19
70
1
102
RTVSPropertyOp20
70
1
102
RTVSPropertyOp21
70
1
102
RTVSPropertyOp22
70
1
102
RTVSPropertyOp23
70
1
102
RTVSPropertyOp24
70
1
102
RTVSPropertyOp25
70
1
102
RTVSPropertyOp26
70
1
102
RTVSPropertyOp27
70
1
0
ENDSEC
0
EOF
