0
SECTION
2
HEADER
9
$ACADVER
1
AC1015
9
$ACADMAINTVER
70
20
9
$DWGCODEPAGE
3
ANSI_1252
9
$INSBASE
10
0.0
20
0.0
30
0.0
9
$EXTMIN
10
-150.000000000000
20
-105.000000000000
30
0.0
9
$EXTMAX
10
150.000000000000
20
105.000000000000
30
0.0
9
$LIMMIN
10
0.0
20
0.0
9
$LIMMAX
10
12.0
20
9.0
9
$ORTHOMODE
70
0
9
$REGENMODE
70
1
9
$FILLMODE
70
1
9
$QTEXTMODE
70
0
9
$MIRRTEXT
70
1
9
$LTSCALE
40
1.0
9
$ATTMODE
70
1
9
$TEXTSIZE
40
0.2
9
$TRACEWID
40
0.05
9
$TEXTSTYLE
7
Standard
9
$CLAYER
8
0
9
$CELTYPE
6
ByLayer
9
$CECOLOR
62
256
9
$CELTSCALE
40
1.0
9
$DISPSILH
70
0
9
$DIMSCALE
40
1.0
9
$DIMASZ
40
2.5
9
$DIMEXO
40
0.625
9
$DIMDLI
40
0.38
9
$DIMRND
40
0.0
9
$DIMDLE
40
0.0
9
$DIMEXE
40
1.25
9
$DIMTP
40
0.0
9
$DIMTM
40
0.000000001
9
$DIMTXT
40
2.5
9
$DIMCEN
40
0.09
9
$DIMTSZ
40
0.0
9
$DIMTOL
70
1
9
$DIMLIM
70
0
9
$DIMTIH
70
0
9
$DIMTOH
70
0
9
$DIMSE1
70
0
9
$DIMSE2
70
0
9
$DIMTAD
70
1
9
$DIMZIN
70
0
9
$DIMBLK
1
VDDIM_DEFAULT
9
$DIMASO
70
1
9
$DIMSHO
70
1
9
$DIMPOST
1

9
$DIMAPOST
1

9
$DIMALT
70
0
9
$DIMALTD
70
2
9
$DIMALTF
40
25.4
9
$DIMLFAC
40
1.00000000000000
9
$DIMTOFL
70
0
9
$DIMTVP
40
0.0
9
$DIMTIX
70
0
9
$DIMSOXD
70
0
9
$DIMSAH
70
0
9
$DIMBLK1
1

9
$DIMBLK2
1

9
$DIMSTYLE
2
BEM-ISBE
9
$DIMCLRD
70
0
9
$DIMCLRE
70
0
9
$DIMCLRT
70
0
9
$DIMTFAC
40
0.5
9
$DIMGAP
40
0.625
9
$DIMJUST
70
0
9
$DIMSD1
70
0
9
$DIMSD2
70
0
9
$DIMTOLJ
70
1
9
$DIMTZIN
70
0
9
$DIMALTZ
70
0
9
$DIMALTTZ
70
0
9
$DIMUPT
70
0
9
$DIMDEC
70
3
9
$DIMTDEC
70
3
9
$DIMALTU
70
2
9
$DIMALTTD
70
2
9
$DIMTXSTY
7
Standard
9
$DIMAUNIT
70
0
9
$DIMADEC
70
3
9
$DIMALTRND
40
0.0
9
$DIMAZIN
70
0
9
$DIMDSEP
70
46
9
$DIMATFIT
70
3
9
$DIMFRAC
70
0
9
$DIMLDRBLK
1

9
$DIMLUNIT
70
2
9
$DIMLWD
70
-2
9
$DIMLWE
70
-2
9
$DIMTMOVE
70
0
9
$LUNITS
70
2
9
$LUPREC
70
4
9
$SKETCHINC
40
0.1
9
$FILLETRAD
40
0.5
9
$AUNITS
70
0
9
$AUPREC
70
0
9
$MENU
1
.
9
$ELEVATION
40
0.0
9
$PELEVATION
40
0.0
9
$THICKNESS
40
0.0
9
$LIMCHECK
70
0
9
$CHAMFERA
40
0.5
9
$CHAMFERB
40
0.5
9
$CHAMFERC
40
1.0
9
$CHAMFERD
40
0.0
9
$SKPOLY
70
0
9
$TDCREATE
40
0.0
9
$TDUCREATE
40
0.0
9
$TDUPDATE
40
0.0
9
$TDUUPDATE
40
0.0
9
$TDINDWG
40
0.0
9
$TDUSRTIMER
40
0.0
9
$USRTIMER
70
1
9
$ANGBASE
50
0.0
9
$ANGDIR
70
0
9
$PDMODE
70
0
9
$PDSIZE
40
0.0
9
$PLINEWID
40
0.0
9
$SPLFRAME
70
0
9
$SPLINETYPE
70
6
9
$SPLINESEGS
70
8
9
$HANDSEED
5
10AB
9
$SURFTAB1
70
6
9
$SURFTAB2
70
6
9
$SURFTYPE
70
6
9
$SURFU
70
6
9
$SURFV
70
6
9
$UCSBASE
2

9
$UCSNAME
2

9
$UCSORG
10
0.0
20
0.0
30
0.0
9
$UCSXDIR
10
1.0
20
0.0
30
0.0
9
$UCSYDIR
10
0.0
20
1.0
30
0.0
9
$UCSORTHOREF
2

9
$UCSORTHOVIEW
70
0
9
$UCSORGTOP
10
0.0
20
0.0
30
0.0
9
$UCSORGBOTTOM
10
0.0
20
0.0
30
0.0
9
$UCSORGLEFT
10
0.0
20
0.0
30
0.0
9
$UCSORGRIGHT
10
0.0
20
0.0
30
0.0
9
$UCSORGFRONT
10
0.0
20
0.0
30
0.0
9
$UCSORGBACK
10
0.0
20
0.0
30
0.0
9
$PUCSBASE
2

9
$PUCSNAME
2

9
$PUCSORG
10
0.0
20
0.0
30
0.0
9
$PUCSXDIR
10
1.0
20
0.0
30
0.0
9
$PUCSYDIR
10
0.0
20
1.0
30
0.0
9
$PUCSORTHOREF
2

9
$PUCSORTHOVIEW
70
0
9
$PUCSORGTOP
10
0.0
20
0.0
30
0.0
9
$PUCSORGBOTTOM
10
0.0
20
0.0
30
0.0
9
$PUCSORGLEFT
10
0.0
20
0.0
30
0.0
9
$PUCSORGRIGHT
10
0.0
20
0.0
30
0.0
9
$PUCSORGFRONT
10
0.0
20
0.0
30
0.0
9
$PUCSORGBACK
10
0.0
20
0.0
30
0.0
9
$USERI1
70
0
9
$USERI2
70
0
9
$USERI3
70
0
9
$USERI4
70
0
9
$USERI5
70
0
9
$USERR1
40
0.0
9
$USERR2
40
0.0
9
$USERR3
40
0.0
9
$USERR4
40
0.0
9
$USERR5
40
0.0
9
$WORLDVIEW
70
1
9
$SHADEDGE
70
3
9
$SHADEDIF
70
70
9
$TILEMODE
70
1
9
$MAXACTVP
70
64
9
$PINSBASE
10
0.0
20
0.0
30
0.0
9
$PLIMCHECK
70
0
9
$PEXTMIN
10
1.000000000000000E+20
20
1.000000000000000E+20
30
1.000000000000000E+20
9
$PEXTMAX
10
-1.000000000000000E+20
20
-1.000000000000000E+20
30
-1.000000000000000E+20
9
$PLIMMIN
10
0.0
20
0.0
9
$PLIMMAX
10
12.0
20
9.0
9
$UNITMODE
70
0
9
$VISRETAIN
70
1
9
$PLINEGEN
70
0
9
$PSLTSCALE
70
1
9
$TREEDEPTH
70
3020
9
$CMLSTYLE
2
Standard
9
$CMLJUST
70
0
9
$CMLSCALE
40
1.0
9
$PROXYGRAPHICS
70
1
9
$MEASUREMENT
70
0
9
$CELWEIGHT
370
-1
9
$ENDCAPS
280
0
9
$JOINSTYLE
280
0
9
$LWDISPLAY
290
0
9
$INSUNITS
70
4
9
$HYPERLINKBASE
1

9
$STYLESHEET
1

9
$XEDIT
290
1
9
$CEPSNTYPE
380
0
9
$PSTYLEMODE
290
0
9
$FINGERPRINTGUID
2
{FAEB1C30-E019-11D5-929B-00C0DF256EC4}
9
$VERSIONGUID
2
{04C5C4E4-4947-4D90-8812-D401569E61F7}
9
$EXTNAMES
290
1
9
$PSVPSCALE
40
0.0
9
$OLESTARTUP
290
0
0
ENDSEC
0
SECTION
2
CLASSES
0
CLASS
1
ACDBDICTIONARYWDFLT
2
AcDbDictionaryWithDefault
3
ObjectDBX Classes
90
0
280
0
281
0
0
CLASS
1
ACDBPLACEHOLDER
2
AcDbPlaceHolder
3
ObjectDBX Classes
90
0
280
0
281
0
0
CLASS
1
LAYOUT
2
AcDbLayout
3
ObjectDBX Classes
90
0
280
0
281
0
0
CLASS
1
MATERIAL
2
AcDbMaterial
3
ObjectDBX Classes
90
1153
280
0
281
0
0
CLASS
1
VISUALSTYLE
2
AcDbVisualStyle
3
ObjectDBX Classes
90
4095
280
0
281
0
0
CLASS
1
TABLESTYLE
2
AcDbTableStyle
3
ObjectDBX Classes
90
4095
280
0
281
0
0
CLASS
1
SCALE
2
AcDbScale
3
ObjectDBX Classes
90
1153
280
0
281
0
0
CLASS
1
MLEADERSTYLE
2
AcDbMLeaderStyle
3
ACDB_MLEADERSTYLE_CLASS
90
4095
280
0
281
0
0
CLASS
1
DICTIONARYVAR
2
AcDbDictionaryVar
3
ObjectDBX Classes
90
0
280
0
281
0
0
CLASS
1
CELLSTYLEMAP
2
AcDbCellStyleMap
3
ObjectDBX Classes
90
1152
280
0
281
0
0
ENDSEC
0
SECTION
2
TABLES
0
TABLE
2
VPORT
5
24A
330
0
100
AcDbSymbolTable
70
1
0
VPORT
5
26B
330
24A
100
AcDbSymbolTableRecord
100
AcDbViewportTableRecord
2
*Active
70
0
10
0.0
20
0.0
11
1.0
21
1.0
12
0.000000000000000
22
0.000000000000000
13
0.0
23
0.0
14
10.0
24
10.0
15
10.0
25
10.0
16
0.0
26
0.0
36
1.0
17
0.0
27
0.0
37
0.0
40
210.000000000000
41
1.42857142857143
42
1.0
43
0.0
44
0.0
50
0.0
51
0.0000000000007958
71
0
72
100
73
1
74
3
75
0
76
0
77
0
78
1
281
0
65
1
110
0.0
120
0.0
130
0.0
111
1.0
121
0.0
131
0.0
112
0.0
122
1.0
132
0.0
79
0
146
0.0
0
ENDTAB
0
TABLE
2
LTYPE
5
247
330
0
100
AcDbSymbolTable
70
25
0
LTYPE
5
256
330
247
100
AcDbSymbolTableRecord
100
AcDbLinetypeTableRecord
2
ByBlock
70
0
3

72
65
73
0
40
0.0
0
LTYPE
5
257
330
247
100
AcDbSymbolTableRecord
100
AcDbLinetypeTableRecord
2
ByLayer
70
0
3

72
65
73
0
40
0.0
0
LTYPE
5
258
330
247
100
AcDbSymbolTableRecord
100
AcDbLinetypeTableRecord
2
Continuous
70
0
3
Solid line
72
65
73
0
40
0.0
0
LTYPE
5
273
330
247
100
AcDbSymbolTableRecord
100
AcDbLinetypeTableRecord
2
CENTER
70
0
3
Center ____ _ ____ _ ____ _ ____ _ ____ _ ____
72
65
73
4
40
2.0
49
1.25
74
0
49
-0.25
74
0
49
0.25
74
0
49
-0.25
74
0
0
LTYPE
5
274
330
247
100
AcDbSymbolTableRecord
100
AcDbLinetypeTableRecord
2
DASHDOT
70
0
3
Dashdot __ . __ . __ . __ . __ . __ . __ . __
72
65
73
4
40
1.0
49
0.5
74
0
49
-0.25
74
0
49
0.0
74
0
49
-0.25
74
0
0
LTYPE
5
275
330
247
100
AcDbSymbolTableRecord
100
AcDbLinetypeTableRecord
2
DASHED
70
0
3
Dashed __ __ __ __ __ __ __ __ __ __ __ __ __ _
72
65
73
2
40
0.75
49
0.5
74
0
49
-0.25
74
0
0
LTYPE
5
276
330
247
100
AcDbSymbolTableRecord
100
AcDbLinetypeTableRecord
2
HIDDEN
70
0
3
Hidden __ __ __ __ __ __ __ __ __ __ __ __ __ __
72
65
73
2
40
0.375
49
0.25
74
0
49
-0.125
74
0
0
LTYPE
5
277
330
247
100
AcDbSymbolTableRecord
100
AcDbLinetypeTableRecord
2
HIDDEN2
70
0
3
Hidden2 _ _ _ _ _ _ _ _ _ _ _ _ _ _ _ _ _
72
65
73
2
40
0.1875
49
0.125
74
0
49
-0.0625
74
0
0
LTYPE
5
278
330
247
100
AcDbSymbolTableRecord
100
AcDbLinetypeTableRecord
2
BORDER
70
0
3
Border __ __ . __ __ . __ __ . __ __ . __ __ .
72
65
73
6
40
1.75
49
0.5
74
0
49
-0.25
74
0
49
0.5
74
0
49
-0.25
74
0
49
0.0
74
0
49
-0.25
74
0
0
LTYPE
5
279
330
247
100
AcDbSymbolTableRecord
100
AcDbLinetypeTableRecord
2
BORDER2
70
0
3
Border2 __.__.__.__.__.__.__.__.__.__.__.
72
65
73
6
40
0.875
49
0.25
74
0
49
-0.125
74
0
49
0.25
74
0
49
-0.125
74
0
49
0.0
74
0
49
-0.125
74
0
0
LTYPE
5
27A
330
247
100
AcDbSymbolTableRecord
100
AcDbLinetypeTableRecord
2
BORDERX2
70
0
3
Borderx2  ____  ____  .  ____  ____  .  ___
72
65
73
6
40
3.5
49
1.0
74
0
49
-0.5
74
0
49
1.0
74
0
49
-0.5
74
0
49
0.0
74
0
49
-0.5
74
0
0
LTYPE
5
27B
330
247
100
AcDbSymbolTableRecord
100
AcDbLinetypeTableRecord
2
CENTER2
70
0
3
Center2  ___ _ ___ _ ___ _ ___ _ ___ _ ___
72
65
73
4
40
1.125
49
0.75
74
0
49
-0.125
74
0
49
0.125
74
0
49
-0.125
74
0
0
LTYPE
5
27C
330
247
100
AcDbSymbolTableRecord
100
AcDbLinetypeTableRecord
2
CENTERX2
70
0
3
Centerx2  ________  __  ________  __  _____
72
65
73
4
40
4.0
49
2.5
74
0
49
-0.5
74
0
49
0.5
74
0
49
-0.5
74
0
0
LTYPE
5
27D
330
247
100
AcDbSymbolTableRecord
100
AcDbLinetypeTableRecord
2
DASHDOT2
70
0
3
Dashdot2  _._._._._._._._._._._._._._._.
72
65
73
4
40
0.5
49
0.25
74
0
49
-0.125
74
0
49
0.0
74
0
49
-0.125
74
0
0
LTYPE
5
27E
330
247
100
AcDbSymbolTableRecord
100
AcDbLinetypeTableRecord
2
DASHDOTX2
70
0
3
Dashdotx2 ____  .  ____  .  ____  .  ___
72
65
73
4
40
2.0
49
1.0
74
0
49
-0.5
74
0
49
0.0
74
0
49
-0.5
74
0
0
LTYPE
5
27F
330
247
100
AcDbSymbolTableRecord
100
AcDbLinetypeTableRecord
2
DASHED2
70
0
3
Dashed2 _ _ _ _ _ _ _ _ _ _ _ _ _ _ _ _ _
72
65
73
2
40
0.375
49
0.25
74
0
49
-0.125
74
0
0
LTYPE
5
280
330
247
100
AcDbSymbolTableRecord
100
AcDbLinetypeTableRecord
2
DASHEDX2
70
0
3
Dashedx2 ____  ____  ____  ____  ____  ___
72
65
73
2
40
1.5
49
1.0
74
0
49
-0.5
74
0
0
LTYPE
5
281
330
247
100
AcDbSymbolTableRecord
100
AcDbLinetypeTableRecord
2
DIVIDE
70
0
3
Divide ____ . . ____ . . ____ . . ____ . . ____
72
65
73
6
40
1.25
49
0.5
74
0
49
-0.25
74
0
49
0.0
74
0
49
-0.25
74
0
49
0.0
74
0
49
-0.25
74
0
0
LTYPE
5
282
330
247
100
AcDbSymbolTableRecord
100
AcDbLinetypeTableRecord
2
DIVIDE2
70
0
3
Divide2 __..__..__..__..__..__..__..__.._
72
65
73
6
40
0.625
49
0.25
74
0
49
-0.125
74
0
49
0.0
74
0
49
-0.125
74
0
49
0.0
74
0
49
-0.125
74
0
0
LTYPE
5
283
330
247
100
AcDbSymbolTableRecord
100
AcDbLinetypeTableRecord
2
DIVIDEX2
70
0
3
Dividex2 ________  .  .  ________  .  .  _
72
65
73
6
40
2.5
49
1.0
74
0
49
-0.5
74
0
49
0.0
74
0
49
-0.5
74
0
49
0.0
74
0
49
-0.5
74
0
0
LTYPE
5
284
330
247
100
AcDbSymbolTableRecord
100
AcDbLinetypeTableRecord
2
DOT
70
0
3
Dot . . . . . . . . . . . . . . . . . . . . . . . .
72
65
73
2
40
0.25
49
0.0
74
0
49
-0.25
74
0
0
LTYPE
5
285
330
247
100
AcDbSymbolTableRecord
100
AcDbLinetypeTableRecord
2
DOT2
70
0
3
Dot2 ........................................
72
65
73
2
40
0.125
49
0.0
74
0
49
-0.125
74
0
0
LTYPE
5
286
330
247
100
AcDbSymbolTableRecord
100
AcDbLinetypeTableRecord
2
DOTX2
70
0
3
Dotx2 .  .  .  .  .  .  .  .  .  .  .  .  .  .
72
65
73
2
40
0.5
49
0.0
74
0
49
-0.5
74
0
0
LTYPE
5
287
330
247
100
AcDbSymbolTableRecord
100
AcDbLinetypeTableRecord
2
HIDDENX2
70
0
3
Hiddenx2 ____ ____ ____ ____ ____ ____ ____
72
65
73
2
40
0.75
49
0.5
74
0
49
-0.25
74
0
0
LTYPE
5
288
330
247
100
AcDbSymbolTableRecord
100
AcDbLinetypeTableRecord
2
PHANTOM
70
0
3
Phantom ______  __  __  ______  __  __  ______
72
65
73
6
40
2.5
49
1.25
74
0
49
-0.25
74
0
49
0.25
74
0
49
-0.25
74
0
49
0.25
74
0
49
-0.25
74
0
0
LTYPE
5
289
330
247
100
AcDbSymbolTableRecord
100
AcDbLinetypeTableRecord
2
PHANTOM2
70
0
3
Phantom2 ___ _ _ ___ _ _ ___ _ _ ___ _ _
72
65
73
6
40
1.25
49
0.625
74
0
49
-0.125
74
0
49
0.125
74
0
49
-0.125
74
0
49
0.125
74
0
49
-0.125
74
0
0
LTYPE
5
28A
330
247
100
AcDbSymbolTableRecord
100
AcDbLinetypeTableRecord
2
PHANTOMX2
70
0
3
Phantomx2 ____________    ____    ____   _
72
65
73
6
40
5.0
49
2.5
74
0
49
-0.5
74
0
49
0.5
74
0
49
-0.5
74
0
49
0.5
74
0
49
-0.5
74
0
0
ENDTAB
0
TABLE
2
LAYER
5
244
330
0
100
AcDbSymbolTable
70
6
0
LAYER
5
252
330
244
100
AcDbSymbolTableRecord
100
AcDbLayerTableRecord
2
0
70
0
62
7
6
Continuous
370
0
390
251
0
LAYER
5
23F
330
244
100
AcDbSymbolTableRecord
100
AcDbLayerTableRecord
2
Bemassung
70
0
 62
   7
6
Continuous
370
0
390
251
0
LAYER
5
240
330
244
100
AcDbSymbolTableRecord
100
AcDbLayerTableRecord
2
Rahmen
70
0
 62
   7
6
Continuous
370
0
390
251
0
LAYER
5
241
330
244
100
AcDbSymbolTableRecord
100
AcDbLayerTableRecord
2
Geo
70
0
 62
   7
6
Continuous
370
0
390
251
0
LAYER
5
33A
330
244
100
AcDbSymbolTableRecord
100
AcDbLayerTableRecord
2
Defpoints
70
0
62
7
6
Continuous
290
0
370
-3
390
251
0
LAYER
5
57E
330
244
100
AcDbSymbolTableRecord
100
AcDbLayerTableRecord
2
Text
70
0
 62
   7
6
Continuous
370
0
390
251
1001
AcAecLayerStandard
1000

1000

0
ENDTAB
0
TABLE
2
STYLE
5
245
330
0
100
AcDbSymbolTable
70
2
0
STYLE
5
253
330
245
100
AcDbSymbolTableRecord
100
AcDbTextStyleTableRecord
2
Standard
70
0
40
0.0
41
1.0
50
0.0
71
0
42
0.2
3
Arial
4

1001
ACAD
1000
Arial
1071
0
0
STYLE
5
132
330
245
100
AcDbSymbolTableRecord
100
AcDbTextStyleTableRecord
2
Beschriftung
70
0
40
0.0
41
1.0
50
0.0
71
0
42
0.2
3
Arial
4

1001
ACAD
1000
Arial
1071
0
1001
AcadAnnotative
1000
AnnotativeData
1070
1
1070
1
0
ENDTAB
0
TABLE
2
VIEW
5
248
330
0
100
AcDbSymbolTable
70
0
0
ENDTAB
0
TABLE
2
UCS
5
249
330
0
100
AcDbSymbolTable
70
0
0
ENDTAB
0
TABLE
2
APPID
5
24B
330
0
100
AcDbSymbolTable
70
13
0
APPID
5
254
330
24B
100
AcDbSymbolTableRecord
100
AcDbRegAppTableRecord
2
ACAD
70
0
0
APPID
5
26C
330
24B
100
AcDbSymbolTableRecord
100
AcDbRegAppTableRecord
2
VD_INVISIBLE_NOT_FOR_READ
70
0
0
APPID
5
26D
330
24B
100
AcDbSymbolTableRecord
100
AcDbRegAppTableRecord
2
VD_TEMPHATCH
70
0
0
APPID
5
26E
330
24B
100
AcDbSymbolTableRecord
100
AcDbRegAppTableRecord
2
VDEXTRAPARAM
70
0
0
APPID
5
26F
330
24B
100
AcDbSymbolTableRecord
100
AcDbRegAppTableRecord
2
PE_URL
70
0
0
APPID
5
270
330
24B
100
AcDbSymbolTableRecord
100
AcDbRegAppTableRecord
2
VD_UNKNOWN
70
0
0
APPID
5
28F
330
24B
100
AcDbSymbolTableRecord
100
AcDbRegAppTableRecord
2
AcadAnnotative
70
0
0
APPID
5
290
330
24B
100
AcDbSymbolTableRecord
100
AcDbRegAppTableRecord
2
ACAD_DSTYLE_DIMJAG
70
0
0
APPID
5
291
330
24B
100
AcDbSymbolTableRecord
100
AcDbRegAppTableRecord
2
ACAD_DSTYLE_DIMTALN
70
0
0
APPID
5
293
330
24B
100
AcDbSymbolTableRecord
100
AcDbRegAppTableRecord
2
ACAD_PSEXT
70
0
0
APPID
5
42A
330
24B
100
AcDbSymbolTableRecord
100
AcDbRegAppTableRecord
2
ACAD_MLEADERVER
70
0
0
APPID
5
532
330
24B
100
AcDbSymbolTableRecord
100
AcDbRegAppTableRecord
2
ACAD_EXEMPT_FROM_CAD_STANDARDS
70
0
0
APPID
5
57F
330
24B
100
AcDbSymbolTableRecord
100
AcDbRegAppTableRecord
2
AcAecLayerStandard
70
0
0
ENDTAB
0
TABLE
2
DIMSTYLE
5
24C
330
0
100
AcDbSymbolTable
70
3
100
AcDbDimStyleTable
71
2
340
27
340
269
0
DIMSTYLE
105
269
330
24C
100
AcDbSymbolTableRecord
100
AcDbDimStyleTableRecord
2
Standard
70
0
172
1
174
1
288
1
340
253
342
23C
0
DIMSTYLE
105
137
330
24C
100
AcDbSymbolTableRecord
100
AcDbDimStyleTableRecord
2
Beschriftung
70
0
41
2.5
42
0.625
44
1.25
73
0
74
0
77
1
140
2.5
147
0.625
172
1
174
1
271
2
288
1
340
253
342
23C
1001
AcadAnnotative
1000
AnnotativeData
1070
1
1070
1
1001
ACAD_DSTYLE_DIMJAG
1070
388
1040
1.5
1001
ACAD_DSTYLE_DIMTALN
1070
392
1070
0
0
DIMSTYLE
105
27
102
{ACAD_REACTORS
330
F10012
330
F10017
330
F10008
330
F10003
330
F1000D
102
}
330
24C
100
AcDbSymbolTableRecord
100
AcDbDimStyleTableRecord
2
BEM-ISBE
70
0
41
2.5
42
0.625
44
1.25
48
0.000000001
71
1
73
0
74
0
77
1
140
2.5
144
1.00000000000000
146
0.5
147
0.625
171
 3
172
 1
179
 3
271
 3
272
 3
274
 3
340
253
342
23C
1001
ACAD_DSTYLE_DIMJAG
1070
388
1040
1.5
1001
ACAD_DSTYLE_DIMTALN
1070
392
1070
1
0
ENDTAB
0
TABLE
2
BLOCK_RECORD
5
243
330
0
100
AcDbSymbolTable
70
5
0
BLOCK_RECORD
5
261
330
243
100
AcDbSymbolTableRecord
100
AcDbBlockTableRecord
2
*Model_Space
340
FD0
0
BLOCK_RECORD
5
25D
330
243
100
AcDbSymbolTableRecord
100
AcDbBlockTableRecord
2
*Paper_Space
340
FD1
0
BLOCK_RECORD
5
265
330
243
100
AcDbSymbolTableRecord
100
AcDbBlockTableRecord
2
*Paper_Space0
340
0
0
BLOCK_RECORD
5
23C
330
243
100
AcDbSymbolTableRecord
100
AcDbBlockTableRecord
2
VDDIM_DEFAULT
340
0
102
{BLKREFS
102
}
0
BLOCK_RECORD
5
23E
330
243
100
AcDbSymbolTableRecord
100
AcDbBlockTableRecord
2
VDDIM_NONE
340
0
0
BLOCK_RECORD
5
F10011
330
243
100
AcDbSymbolTableRecord
100
AcDbBlockTableRecord
2
*D6
340
0
0
BLOCK_RECORD
5
F10016
330
243
100
AcDbSymbolTableRecord
100
AcDbBlockTableRecord
2
*D7
340
0
0
BLOCK_RECORD
5
F10007
330
243
100
AcDbSymbolTableRecord
100
AcDbBlockTableRecord
2
*D4
340
0
0
BLOCK_RECORD
5
F10002
330
243
100
AcDbSymbolTableRecord
100
AcDbBlockTableRecord
2
*D3
340
0
0
BLOCK_RECORD
5
F1000C
330
243
100
AcDbSymbolTableRecord
100
AcDbBlockTableRecord
2
*D5
340
0
0
ENDTAB
0
ENDSEC
0
SECTION
2
BLOCKS
0
BLOCK
5
262
330
261
100
AcDbEntity
8
0
100
AcDbBlockBegin
2
*Model_Space
70
0
10
0.0
20
0.0
30
0.0
3
*Model_Space
1

0
ENDBLK
5
263
330
261
100
AcDbEntity
8
0
100
AcDbBlockEnd
0
BLOCK
5
25E
330
25D
100
AcDbEntity
67
1
8
0
100
AcDbBlockBegin
2
*Paper_Space
70
0
10
0.0
20
0.0
30
0.0
3
*Paper_Space
1

0
ENDBLK
5
25F
330
25D
100
AcDbEntity
67
1
8
0
100
AcDbBlockEnd
0
BLOCK
5
266
330
265
100
AcDbEntity
8
0
100
AcDbBlockBegin
2
*Paper_Space0
70
0
10
0.0
20
0.0
30
0.0
3
*Paper_Space0
1

0
VIEWPORT
5
296
102
{ACAD_XDICTIONARY
360
58E
102
}
330
265
100
AcDbEntity
8
0
60
1
100
AcDbViewport
10
0.0
20
0.0
30
0.0
40
10.0
41
10.0
69
0
12
0.0
22
0.0
13
0.0
23
0.0
14
1.0
24
1.0
15
0.0
25
0.0
16
0.0
26
0.0
36
1.0
17
0.0
27
0.0
37
0.0
42
0.0
43
0.0
44
0.0
45
10.0
50
0.0
51
0.0000000000007958
72
100
90
163872
1

281
0
71
0
74
0
110
0.0
120
0.0
130
0.0
111
1.0
121
0.0
131
0.0
112
0.0
122
1.0
132
0.0
79
0
146
0.0
1001
VD_INVISIBLE_NOT_FOR_READ
1000
VD_INVISIBLE_NOT_FOR_READ
0
VIEWPORT
5
297
102
{ACAD_XDICTIONARY
360
590
102
}
330
265
100
AcDbEntity
8
0
60
1
100
AcDbViewport
10
0.0
20
0.0
30
0.0
40
10.0
41
10.0
69
0
12
0.0
22
0.0
13
0.0
23
0.0
14
1.0
24
1.0
15
0.0
25
0.0
16
0.0
26
0.0
36
1.0
17
0.0
27
0.0
37
0.0
42
0.0
43
0.0
44
0.0
45
10.0
50
0.0
51
0.0000000000007958
72
100
90
163872
1

281
0
71
0
74
0
110
0.0
120
0.0
130
0.0
111
1.0
121
0.0
131
0.0
112
0.0
122
1.0
132
0.0
79
0
146
0.0
1001
VD_INVISIBLE_NOT_FOR_READ
1000
VD_INVISIBLE_NOT_FOR_READ
0
ENDBLK
5
267
330
265
100
AcDbEntity
8
0
100
AcDbBlockEnd
0
BLOCK
5
28B
330
23C
100
AcDbEntity
8
0
100
AcDbBlockBegin
2
VDDIM_DEFAULT
70
0
10
0.0
20
0.0
30
0.0
3
VDDIM_DEFAULT
1

0
LWPOLYLINE
5
23D
330
23C
100
AcDbEntity
8
0
6
Continuous
62
0
100
AcDbPolyline
90
4
70
0
43
0.0
10
0.0
20
0.0
10
-1.0
20
-0.1665
10
-1.0
20
0.1665
10
0.0
20
0.0
1001
VDEXTRAPARAM
1071
1
1071
0
1071
0
1040
1.0
1000

1000

1040
0.0
1040
0.0
0
HATCH
5
292
330
23C
100
AcDbEntity
8
0
6
Continuous
62
0
100
AcDbHatch
10
0.0
20
0.0
30
0.0
210
0.0
220
0.0
230
1.0
2
SOLID
70
1
71
0
91
1
92
2
72
0
73
1
93
3
10
0.0
20
0.0
10
-1.0
20
-0.1665
10
-1.0
20
0.1665
97
0
75
0
76
1
98
1
10
0.0
20
0.0
1001
VDEXTRAPARAM
1071
1
1071
0
1071
0
1040
1.0
1000

1000

1040
0.0
1040
0.0
1001
VD_TEMPHATCH
1000
VD_TEMPHATCH
0
ENDBLK
5
28C
330
23C
100
AcDbEntity
8
0
100
AcDbBlockEnd
0
BLOCK
5
28D
330
23E
100
AcDbEntity
8
0
100
AcDbBlockBegin
2
VDDIM_NONE
70
0
10
0.0
20
0.0
30
0.0
3
VDDIM_NONE
1

0
ENDBLK
5
28E
330
23E
100
AcDbEntity
8
0
100
AcDbBlockEnd
  0
BLOCK
  5
F1001B
330
F10011
100
AcDbEntity
  8
0
100
AcDbBlockBegin
  2
*D6
 70
     1
 10
0.0
 20
0.0
 30
0.0
  3
*D6
  1

  0
LINE
  5
F1001C
330
F10011
100
AcDbEntity
  8
Bemassung
 62
     0
370
    -2
100
AcDbLine
10
-19.3196010407632
20
3.19601040763227
30
0.000000000000000
11
-19.3196010407632
21
-5.80398959236773
31
0.000000000000000
  0
LINE
  5
F1001D
330
F10011
100
AcDbEntity
  8
Bemassung
 62
     0
370
    -2
100
AcDbLine
10
-44.3196010407632
20
-5.80398959236773
30
0.000000000000000
11
-44.3196010407632
21
25.1960104076323
31
0.000000000000000
  0
LINE
  5
F1001E
330
F10011
100
AcDbEntity
  8
Bemassung
 62
     0
370
    -2
100
AcDbLine
10
-19.3196010407632
20
-3.80398959236773
30
0.000000000000000
11
-44.3196010407632
21
-3.80398959236773
31
0.000000000000000
  0
INSERT
  5
F1001F
330
F10011
100
AcDbEntity
  8
Bemassung
 62
     0
370
    -2
100
AcDbBlockReference
  2
VDDIM_DEFAULT
10
-19.3196010407632
20
-3.80398959236773
30
0.000000000000000
 41
2.50000000000000
 42
2.50000000000000
 43
2.50000000000000
  0
INSERT
  5
F10020
330
F10011
100
AcDbEntity
  8
Bemassung
 62
     0
370
    -2
100
AcDbBlockReference
  2
VDDIM_DEFAULT
10
-44.3196010407632
20
-3.80398959236773
30
0.000000000000000
 41
2.50000000000000
 42
2.50000000000000
 43
2.50000000000000
 50
180.000000000000
  0
MTEXT
  5
F10021
330
F10011
100
AcDbEntity
  8
Bemassung
 62
     0
100
AcDbMText
10
-29.6929748482221
20
-3.13732292570106
30
0.000000000000000
 40
2.50000000000000
 41
0.0
 71
     8
 72
     1
  1
25
 11
1.00000000000000
 21
0.000000000000000
 31
0.0
 73
     1
 44
1.0
1001
ACAD
1000
MTEXTBEGIN
1070
73
1070
1
1070
44
1040
1.0
1070
74
1070
0
1000
MTEXTEND
  0
POINT
  5
F10022
330
F10011
100
AcDbEntity
  8
Bemassung
 62
     0
100
AcDbPoint
10
-19.3196010407632
20
3.19601040763227
30
0.000000000000000
  0
POINT
  5
F10023
330
F10011
100
AcDbEntity
  8
Bemassung
 62
     0
100
AcDbPoint
10
-44.3196010407632
20
-5.80398959236773
30
0.000000000000000
  0
ENDBLK
  5
F10024
330
F10011
100
AcDbEntity
  8
0
100
AcDbBlockEnd
  0
BLOCK
  5
F10025
330
F10016
100
AcDbEntity
  8
0
100
AcDbBlockBegin
  2
*D7
 70
     1
 10
0.0
 20
0.0
 30
0.0
  3
*D7
  1

  0
LINE
  5
F10026
330
F10016
100
AcDbEntity
  8
Bemassung
 62
     0
370
    -2
100
AcDbLine
10
55.6803989592368
20
12.6960104076323
30
0.000000000000000
11
55.6803989592368
21
25.1960104076323
31
0.000000000000000
  0
LINE
  5
F10027
330
F10016
100
AcDbEntity
  8
Bemassung
 62
     0
370
    -2
100
AcDbLine
10
-44.3196010407632
20
-5.80398959236773
30
0.000000000000000
11
-44.3196010407632
21
25.1960104076323
31
0.000000000000000
  0
LINE
  5
F10028
330
F10016
100
AcDbEntity
  8
Bemassung
 62
     0
370
    -2
100
AcDbLine
10
55.6803989592368
20
23.1960104076323
30
0.000000000000000
11
-44.3196010407632
21
23.1960104076323
31
0.000000000000000
  0
INSERT
  5
F10029
330
F10016
100
AcDbEntity
  8
Bemassung
 62
     0
370
    -2
100
AcDbBlockReference
  2
VDDIM_DEFAULT
10
55.6803989592368
20
23.1960104076323
30
0.000000000000000
 41
2.50000000000000
 42
2.50000000000000
 43
2.50000000000000
  0
INSERT
  5
F1002A
330
F10016
100
AcDbEntity
  8
Bemassung
 62
     0
370
    -2
100
AcDbBlockReference
  2
VDDIM_DEFAULT
10
-44.3196010407632
20
23.1960104076323
30
0.000000000000000
 41
2.50000000000000
 42
2.50000000000000
 43
2.50000000000000
 50
180.000000000000
  0
MTEXT
  5
F1002B
330
F10016
100
AcDbEntity
  8
Bemassung
 62
     0
100
AcDbMText
10
5.68039895923678
20
23.8626770742989
30
0.000000000000000
 40
2.50000000000000
 41
0.0
 71
     8
 72
     1
  1
100
 11
1.00000000000000
 21
0.000000000000000
 31
0.0
 73
     1
 44
1.0
1001
ACAD
1000
MTEXTBEGIN
1070
73
1070
1
1070
44
1040
1.0
1070
74
1070
0
1000
MTEXTEND
  0
POINT
  5
F1002C
330
F10016
100
AcDbEntity
  8
Bemassung
 62
     0
100
AcDbPoint
10
55.6803989592368
20
12.6960104076323
30
0.000000000000000
  0
POINT
  5
F1002D
330
F10016
100
AcDbEntity
  8
Bemassung
 62
     0
100
AcDbPoint
10
-44.3196010407632
20
-5.80398959236773
30
0.000000000000000
  0
ENDBLK
  5
F1002E
330
F10016
100
AcDbEntity
  8
0
100
AcDbBlockEnd
  0
BLOCK
  5
F1002F
330
F10007
100
AcDbEntity
  8
0
100
AcDbBlockBegin
  2
*D4
 70
     1
 10
0.0
 20
0.0
 30
0.0
  3
*D4
  1

  0
LINE
  5
F10030
330
F10007
100
AcDbEntity
  8
Bemassung
 62
     0
370
    -2
100
AcDbLine
10
-42.8551349466960
20
11.7315443135650
30
0.000000000000000
11
-51.5787077189939
21
20.4551170858630
31
0.000000000000000
  0
INSERT
  5
F10031
330
F10007
100
AcDbEntity
  8
Bemassung
 62
     0
370
    -2
100
AcDbBlockReference
  2
VDDIM_DEFAULT
10
-42.8551349466960
20
11.7315443135650
30
0.000000000000000
 41
2.50000000000000
 42
2.50000000000000
 43
2.50000000000000
 50
315.000000000000
  0
MTEXT
  5
F10032
330
F10007
100
AcDbEntity
  8
Bemassung
 62
     0
100
AcDbMText
10
-49.9262027585614
20
18.8026121254305
30
0.000000000000000
 40
2.50000000000000
 41
0.0
 71
     8
 72
     1
  1
R5
 11
0.707106781186547
 21
-0.707106781186548
 31
0.0
 73
     1
 44
1.0
1001
ACAD
1000
MTEXTBEGIN
1070
73
1070
1
1070
44
1040
1.0
1070
74
1070
0
1000
MTEXTEND
  0
POINT
  5
F10033
330
F10007
100
AcDbEntity
  8
Bemassung
 62
     0
100
AcDbPoint
10
-42.8551349466960
20
11.7315443135650
30
0.000000000000000
  0
POINT
  5
F10034
330
F10007
100
AcDbEntity
  8
Bemassung
 62
     0
100
AcDbPoint
10
-39.3196010407632
20
8.19601040763227
30
0.000000000000000
  0
ENDBLK
  5
F10035
330
F10007
100
AcDbEntity
  8
0
100
AcDbBlockEnd
  0
BLOCK
  5
F10036
330
F10002
100
AcDbEntity
  8
0
100
AcDbBlockBegin
  2
*D3
 70
     1
 10
0.0
 20
0.0
 30
0.0
  3
*D3
  1

  0
LINE
  5
F10037
330
F10002
100
AcDbEntity
  8
Bemassung
 62
     0
370
    -2
100
AcDbLine
10
-39.3196010407632
20
3.19601040763227
30
0.000000000000000
11
-56.3196010407632
21
3.19601040763227
31
0.000000000000000
  0
LINE
  5
F10038
330
F10002
100
AcDbEntity
  8
Bemassung
 62
     0
370
    -2
100
AcDbLine
10
-39.3196010407632
20
13.1960104076323
30
0.000000000000000
11
-56.3196010407632
21
13.1960104076323
31
0.000000000000000
  0
LINE
  5
F10039
330
F10002
100
AcDbEntity
  8
Bemassung
 62
     0
370
    -2
100
AcDbLine
10
-54.3196010407632
20
3.19601040763227
30
0.000000000000000
11
-54.3196010407632
21
13.1960104076323
31
0.000000000000000
  0
INSERT
  5
F1003A
330
F10002
100
AcDbEntity
  8
Bemassung
 62
     0
370
    -2
100
AcDbBlockReference
  2
VDDIM_DEFAULT
10
-54.3196010407632
20
3.19601040763227
30
0.000000000000000
 41
2.50000000000000
 42
2.50000000000000
 43
2.50000000000000
 50
90.0000000000000
  0
INSERT
  5
F1003B
330
F10002
100
AcDbEntity
  8
Bemassung
 62
     0
370
    -2
100
AcDbBlockReference
  2
VDDIM_DEFAULT
10
-54.3196010407632
20
13.1960104076323
30
0.000000000000000
 41
2.50000000000000
 42
2.50000000000000
 43
2.50000000000000
 50
270.000000000000
  0
MTEXT
  5
F1003C
330
F10002
100
AcDbEntity
  8
Bemassung
 62
     0
100
AcDbMText
10
-54.9862677074299
20
8.19601040763227
30
0.000000000000000
 40
2.50000000000000
 41
0.0
 71
     8
 72
     1
  1
Ø10
 11
6.12323399573677e-17
 21
1.00000000000000
 31
0.0
 73
     1
 44
1.0
1001
ACAD
1000
MTEXTBEGIN
1070
73
1070
1
1070
44
1040
1.0
1070
74
1070
0
1000
MTEXTEND
  0
POINT
  5
F1003D
330
F10002
100
AcDbEntity
  8
Bemassung
 62
     0
100
AcDbPoint
10
-39.3196010407632
20
3.19601040763227
30
0.000000000000000
  0
POINT
  5
F1003E
330
F10002
100
AcDbEntity
  8
Bemassung
 62
     0
100
AcDbPoint
10
-39.3196010407632
20
13.1960104076323
30
0.000000000000000
  0
ENDBLK
  5
F1003F
330
F10002
100
AcDbEntity
  8
0
100
AcDbBlockEnd
  0
BLOCK
  5
F10040
330
F1000C
100
AcDbEntity
  8
0
100
AcDbBlockBegin
  2
*D5
 70
     1
 10
0.0
 20
0.0
 30
0.0
  3
*D5
  1

  0
LINE
  5
F10041
330
F1000C
100
AcDbEntity
  8
Bemassung
 62
     0
370
    -2
100
AcDbLine
10
55.1803989592368
20
3.19601040763227
30
0.000000000000000
11
70.1803989592368
21
3.19601040763227
31
0.000000000000000
  0
LINE
  5
F10042
330
F1000C
100
AcDbEntity
  8
Bemassung
 62
     0
370
    -2
100
AcDbLine
10
55.1803989592368
20
13.1960104076323
30
0.000000000000000
11
70.1803989592368
21
13.1960104076323
31
0.000000000000000
  0
LINE
  5
F10043
330
F1000C
100
AcDbEntity
  8
Bemassung
 62
     0
370
    -2
100
AcDbLine
10
68.1803989592368
20
3.19601040763227
30
0.000000000000000
11
68.1803989592368
21
13.1960104076323
31
0.000000000000000
  0
INSERT
  5
F10044
330
F1000C
100
AcDbEntity
  8
Bemassung
 62
     0
370
    -2
100
AcDbBlockReference
  2
VDDIM_DEFAULT
10
68.1803989592368
20
3.19601040763227
30
0.000000000000000
 41
2.50000000000000
 42
2.50000000000000
 43
2.50000000000000
 50
90.0000000000000
  0
INSERT
  5
F10045
330
F1000C
100
AcDbEntity
  8
Bemassung
 62
     0
370
    -2
100
AcDbBlockReference
  2
VDDIM_DEFAULT
10
68.1803989592368
20
13.1960104076323
30
0.000000000000000
 41
2.50000000000000
 42
2.50000000000000
 43
2.50000000000000
 50
270.000000000000
  0
MTEXT
  5
F10046
330
F1000C
100
AcDbEntity
  8
Bemassung
 62
     0
100
AcDbMText
10
67.5137322925701
20
7.74067649609714
30
0.000000000000000
 40
2.50000000000000
 41
0.0
 71
     8
 72
     1
  1
Ø10h6
 11
6.12323399573677e-17
 21
1.00000000000000
 31
0.0
 73
     1
 44
1.0
  0
POINT
  5
F10047
330
F1000C
100
AcDbEntity
  8
Bemassung
 62
     0
100
AcDbPoint
10
55.1803989592368
20
3.19601040763227
30
0.000000000000000
  0
POINT
  5
F10048
330
F1000C
100
AcDbEntity
  8
Bemassung
 62
     0
100
AcDbPoint
10
55.1803989592368
20
13.1960104076323
30
0.000000000000000
  0
ENDBLK
  5
F10049
330
F1000C
100
AcDbEntity
  8
0
100
AcDbBlockEnd
0
ENDSEC
0
SECTION
2
ENTITIES
  0
DIMENSION
  5
F10012
330
261
100
AcDbEntity
  8
Bemassung
100
AcDbDimension
  2
*D6
10
-44.3196010407632
20
-3.80398959236773
30
0.000000000000000
11
-29.6929748482221
21
-3.13732292570106
31
0.000000000000000
 70
32
 1
25
 71
     8
  3
BEM-ISBE
100
AcDbAlignedDimension
13
-19.3196010407632
23
3.19601040763227
33
0.000000000000000
14
-44.3196010407632
24
-5.80398959236773
34
0.000000000000000
100
AcDbRotatedDimension
1001
ACAD
1000
DSTYLE
1002
{
1070
284
1070
8
1070
78
1070
8
1070
144
1040
1.00000000000000
1070
147
1040
0.625
1070
 72
1070
 0
1070
 71
1070
 0
1002
}
  0
DIMENSION
  5
F10017
330
261
100
AcDbEntity
  8
Bemassung
100
AcDbDimension
  2
*D7
10
-44.3196010407632
20
23.1960104076323
30
0.000000000000000
11
5.68039895923678
21
23.8626770742989
31
0.000000000000000
 70
32
 1
100
 71
     8
  3
BEM-ISBE
100
AcDbAlignedDimension
13
55.6803989592368
23
12.6960104076323
33
0.000000000000000
14
-44.3196010407632
24
-5.80398959236773
34
0.000000000000000
100
AcDbRotatedDimension
1001
ACAD
1000
DSTYLE
1002
{
1070
284
1070
8
1070
78
1070
8
1070
144
1040
1.00000000000000
1070
147
1040
0.625
1070
 72
1070
 0
1070
 71
1070
 0
1002
}
  0
DIMENSION
  5
F10008
330
261
100
AcDbEntity
  8
Bemassung
100
AcDbDimension
  2
*D4
10
-39.3196010407632
20
8.19601040763227
30
0.000000000000000
11
-49.9262027585614
21
18.8026121254305
31
0.000000000000000
 70
164
 1
R5
 71
     8
  3
BEM-ISBE
100
AcDbRadialDimension
15
-42.8551349466960
25
11.7315443135650
35
0.000000000000000
40
0.0
1001
ACAD
1000
DSTYLE
1002
{
1070
284
1070
8
1070
78
1070
8
1070
144
1040
1.00000000000000
1070
147
1040
0.625
1070
 72
1070
 0
1070
 71
1070
 0
1002
}
  0
DIMENSION
  5
F10003
330
261
100
AcDbEntity
  8
Bemassung
100
AcDbDimension
  2
*D3
10
-54.3196010407632
20
13.1960104076323
30
0.000000000000000
11
-54.9862677074299
21
8.19601040763227
31
0.000000000000000
 70
32
 1
Ø10
 71
     8
  3
BEM-ISBE
100
AcDbAlignedDimension
13
-39.3196010407632
23
3.19601040763227
33
0.000000000000000
14
-39.3196010407632
24
13.1960104076323
34
0.000000000000000
50
90.0000000000000
100
AcDbRotatedDimension
1001
ACAD
1000
DSTYLE
1002
{
1070
284
1070
8
1070
78
1070
8
1070
144
1040
1.00000000000000
1070
147
1040
0.625
1070
 72
1070
 0
1070
 71
1070
 0
1002
}
  0
DIMENSION
  5
F1000D
330
261
100
AcDbEntity
  8
Bemassung
100
AcDbDimension
  2
*D5
10
68.1803989592368
20
13.1960104076323
30
0.000000000000000
11
67.5137322925701
21
7.74067649609714
31
0.000000000000000
 70
32
 1
Ø10h6
 71
     8
  3
BEM-ISBE
100
AcDbAlignedDimension
13
55.1803989592368
23
3.19601040763227
33
0.000000000000000
14
55.1803989592368
24
13.1960104076323
34
0.000000000000000
50
90.0000000000000
100
AcDbRotatedDimension
1001
ACAD
1000
DSTYLE
1002
{
1070
284
1070
8
1070
78
1070
8
1070
144
1040
1.00000000000000
1070
147
1040
0.625
1070
 72
1070
 0
1070
 71
1070
 0
1002
}
  0
ARC
  5
F1004A
330
F1004B
100
AcDbEntity
8
Geo
100
AcDbCircle
10
-39.3196010407632
20
8.19601040763227
30
0.000000000000000
 40
5.00000000000000
100
AcDbArc
 50
90.0000000000000
 51
180.000000000000
  0
LINE
  5
F1004C
330
F1004D
100
AcDbEntity
8
Geo
100
AcDbLine
10
-39.3196010407632
20
13.1960104076323
30
0.000000000000000
11
-19.3196010407632
21
13.1960104076323
31
0.000000000000000
  0
LINE
  5
F1004E
330
F1004F
100
AcDbEntity
8
Geo
100
AcDbLine
10
-19.3196010407632
20
13.1960104076323
30
0.000000000000000
11
55.1803989592368
21
13.1960104076323
31
0.000000000000000
  0
LINE
  5
F10050
330
F10051
100
AcDbEntity
8
Geo
100
AcDbLine
10
55.1803989592368
20
13.1960104076323
30
0.000000000000000
11
55.6803989592368
21
12.6960104076323
31
0.000000000000000
  0
LINE
  5
F10052
330
F10053
100
AcDbEntity
8
Geo
100
AcDbLine
10
-43.5834527527975
20
10.8074407777135
30
0.000000000000000
11
-43.5196010407632
21
10.9030017819591
31
0.000000000000000
  0
LINE
  5
F10054
330
F10055
100
AcDbEntity
8
Geo
100
AcDbLine
10
-43.5196010407632
20
10.9030017819591
30
0.000000000000000
11
-43.4196010407632
21
11.0368580326832
31
0.000000000000000
  0
LINE
  5
F10056
330
F10057
100
AcDbEntity
8
Geo
100
AcDbLine
10
-43.4196010407632
20
11.0368580326832
30
0.000000000000000
11
-43.3196010407632
21
11.1591827985278
31
0.000000000000000
  0
LINE
  5
F10058
330
F10059
100
AcDbEntity
8
Geo
100
AcDbLine
10
-43.3196010407632
20
11.1591827985278
30
0.000000000000000
11
-43.2196010407632
21
11.2733033672510
31
0.000000000000000
  0
LINE
  5
F1005A
330
F1005B
100
AcDbEntity
8
Geo
100
AcDbLine
10
-43.2196010407632
20
11.2733033672510
30
0.000000000000000
11
-43.1196010407632
21
11.3808599011286
31
0.000000000000000
  0
LINE
  5
F1005C
330
F1005D
100
AcDbEntity
8
Geo
100
AcDbLine
10
-43.1196010407632
20
11.3808599011286
30
0.000000000000000
11
-43.0196010407632
21
11.4829178083669
31
0.000000000000000
  0
LINE
  5
F1005E
330
F1005F
100
AcDbEntity
8
Geo
100
AcDbLine
10
-43.0196010407632
20
11.4829178083669
30
0.000000000000000
11
-42.9196010407632
21
11.5801164384733
31
0.000000000000000
  0
LINE
  5
F10060
330
F10061
100
AcDbEntity
8
Geo
100
AcDbLine
10
-42.9196010407632
20
11.5801164384733
30
0.000000000000000
11
-42.8196010407632
21
11.6729265499695
31
0.000000000000000
  0
LINE
  5
F10062
330
F10063
100
AcDbEntity
8
Geo
100
AcDbLine
10
-42.8196010407632
20
11.6729265499695
30
0.000000000000000
11
-42.7196010407632
21
11.7603680530778
31
0.000000000000000
  0
LINE
  5
F10064
330
F10065
100
AcDbEntity
8
Geo
100
AcDbLine
10
-42.7196010407632
20
11.7603680530778
30
0.000000000000000
11
-42.6196010407632
21
11.8419788398668
31
0.000000000000000
  0
LINE
  5
F10066
330
F10067
100
AcDbEntity
8
Geo
100
AcDbLine
10
-42.6196010407632
20
11.8419788398668
30
0.000000000000000
11
-42.5196010407632
21
11.9181159595191
31
0.000000000000000
  0
LINE
  5
F10068
330
F10069
100
AcDbEntity
8
Geo
100
AcDbLine
10
-42.5196010407632
20
11.9181159595191
30
0.000000000000000
11
-42.4196010407632
21
11.9890854959820
31
0.000000000000000
  0
LINE
  5
F1006A
330
F1006B
100
AcDbEntity
8
Geo
100
AcDbLine
10
-42.4196010407632
20
11.9890854959820
30
0.000000000000000
11
-42.3196010407632
21
12.0551522345995
31
0.000000000000000
  0
LINE
  5
F1006C
330
F1006D
100
AcDbEntity
8
Geo
100
AcDbLine
10
-42.3196010407632
20
12.0551522345995
30
0.000000000000000
11
-42.2196010407632
21
12.1165471237808
31
0.000000000000000
  0
LINE
  5
F1006E
330
F1006F
100
AcDbEntity
8
Geo
100
AcDbLine
10
-42.2196010407632
20
12.1165471237808
30
0.000000000000000
11
-42.1196010407632
21
12.1734731163744
31
0.000000000000000
  0
LINE
  5
F10070
330
F10071
100
AcDbEntity
8
Geo
100
AcDbLine
10
-42.1196010407632
20
12.1734731163744
30
0.000000000000000
11
-42.0196010407632
21
12.2261098005599
31
0.000000000000000
  0
LINE
  5
F10072
330
F10073
100
AcDbEntity
8
Geo
100
AcDbLine
10
-42.0196010407632
20
12.2261098005599
30
0.000000000000000
11
-41.9196010407632
21
12.2746171129199
31
0.000000000000000
  0
LINE
  5
F10074
330
F10075
100
AcDbEntity
8
Geo
100
AcDbLine
10
-41.9196010407632
20
12.2746171129199
30
0.000000000000000
11
-41.8196010407632
21
12.3191383462181
31
0.000000000000000
  0
LINE
  5
F10076
330
F10077
100
AcDbEntity
8
Geo
100
AcDbLine
10
-41.8196010407632
20
12.3191383462181
30
0.000000000000000
11
-41.7196010407632
21
12.3598026085830
31
0.000000000000000
  0
LINE
  5
F10078
330
F10079
100
AcDbEntity
8
Geo
100
AcDbLine
10
-41.7196010407632
20
12.3598026085830
30
0.000000000000000
11
-41.6196010407632
21
12.3967268512260
31
0.000000000000000
  0
LINE
  5
F1007A
330
F1007B
100
AcDbEntity
8
Geo
100
AcDbLine
10
-41.6196010407632
20
12.3967268512260
30
0.000000000000000
11
-41.5196010407632
21
12.4300175533560
31
0.000000000000000
  0
LINE
  5
F1007C
330
F1007D
100
AcDbEntity
8
Geo
100
AcDbLine
10
-41.5196010407632
20
12.4300175533560
30
0.000000000000000
11
-41.4196010407632
21
12.4597721321792
31
0.000000000000000
  0
LINE
  5
F1007E
330
F1007F
100
AcDbEntity
8
Geo
100
AcDbLine
10
-41.4196010407632
20
12.4597721321792
30
0.000000000000000
11
-41.3196010407632
21
12.4860801305150
31
0.000000000000000
  0
LINE
  5
F10080
330
F10081
100
AcDbEntity
8
Geo
100
AcDbLine
10
-41.3196010407632
20
12.4860801305150
30
0.000000000000000
11
-41.2196010407632
21
12.5090242230798
31
0.000000000000000
  0
LINE
  5
F10082
330
F10083
100
AcDbEntity
8
Geo
100
AcDbLine
10
-41.2196010407632
20
12.5090242230798
30
0.000000000000000
11
-41.1196010407632
21
12.5286810737996
31
0.000000000000000
  0
LINE
  5
F10084
330
F10085
100
AcDbEntity
8
Geo
100
AcDbLine
10
-41.1196010407632
20
12.5286810737996
30
0.000000000000000
11
-41.0196010407632
21
12.5451220698846
31
0.000000000000000
  0
LINE
  5
F10086
330
F10087
100
AcDbEntity
8
Geo
100
AcDbLine
10
-41.0196010407632
20
12.5451220698846
30
0.000000000000000
11
-40.9196010407632
21
12.5584139532795
31
0.000000000000000
  0
LINE
  5
F10088
330
F10089
100
AcDbEntity
8
Geo
100
AcDbLine
10
-40.9196010407632
20
12.5584139532795
30
0.000000000000000
11
-40.8196010407632
21
12.5686193661243
31
0.000000000000000
  0
LINE
  5
F1008A
330
F1008B
100
AcDbEntity
8
Geo
100
AcDbLine
10
-40.8196010407632
20
12.5686193661243
30
0.000000000000000
11
-40.7196010407632
21
12.5757973237384
31
0.000000000000000
  0
LINE
  5
F1008C
330
F1008D
100
AcDbEntity
8
Geo
100
AcDbLine
10
-40.7196010407632
20
12.5757973237384
30
0.000000000000000
11
-40.6196010407632
21
12.5800036261709
31
0.000000000000000
  0
LINE
  5
F1008E
330
F1008F
100
AcDbEntity
8
Geo
100
AcDbLine
10
-40.6196010407632
20
12.5800036261709
30
0.000000000000000
11
-40.5196010407632
21
12.5812912173951
31
0.000000000000000
  0
LINE
  5
F10090
330
F10091
100
AcDbEntity
8
Geo
100
AcDbLine
10
-40.5196010407632
20
12.5812912173951
30
0.000000000000000
11
-40.4196010407632
21
12.5797104996465
31
0.000000000000000
  0
LINE
  5
F10092
330
F10093
100
AcDbEntity
8
Geo
100
AcDbLine
10
-40.4196010407632
20
12.5797104996465
30
0.000000000000000
11
-40.3196010407632
21
12.5753096091302
31
0.000000000000000
  0
LINE
  5
F10094
330
F10095
100
AcDbEntity
8
Geo
100
AcDbLine
10
-40.3196010407632
20
12.5753096091302
30
0.000000000000000
11
-40.2196010407632
21
12.5681346582888
31
0.000000000000000
  0
LINE
  5
F10096
330
F10097
100
AcDbEntity
8
Geo
100
AcDbLine
10
-40.2196010407632
20
12.5681346582888
30
0.000000000000000
11
-40.1196010407632
21
12.5582299489727
31
0.000000000000000
  0
LINE
  5
F10098
330
F10099
100
AcDbEntity
8
Geo
100
AcDbLine
10
-40.1196010407632
20
12.5582299489727
30
0.000000000000000
11
-40.0196010407632
21
12.5456381601594
31
0.000000000000000
  0
LINE
  5
F1009A
330
F1009B
100
AcDbEntity
8
Geo
100
AcDbLine
10
-40.0196010407632
20
12.5456381601594
30
0.000000000000000
11
-39.9196010407632
21
12.5304005132877
31
0.000000000000000
  0
LINE
  5
F1009C
330
F1009D
100
AcDbEntity
8
Geo
100
AcDbLine
10
-39.9196010407632
20
12.5304005132877
30
0.000000000000000
11
-39.8196010407632
21
12.5125569177939
31
0.000000000000000
  0
LINE
  5
F1009E
330
F1009F
100
AcDbEntity
8
Geo
100
AcDbLine
10
-39.8196010407632
20
12.5125569177939
30
0.000000000000000
11
-39.7196010407632
21
12.4921460990278
31
0.000000000000000
  0
LINE
  5
F100A0
330
F100A1
100
AcDbEntity
8
Geo
100
AcDbLine
10
-39.7196010407632
20
12.4921460990278
30
0.000000000000000
11
-39.6196010407632
21
12.4692057103860
31
0.000000000000000
  0
LINE
  5
F100A2
330
F100A3
100
AcDbEntity
8
Geo
100
AcDbLine
10
-39.6196010407632
20
12.4692057103860
30
0.000000000000000
11
-39.5196010407632
21
12.4437724312069
31
0.000000000000000
  0
LINE
  5
F100A4
330
F100A5
100
AcDbEntity
8
Geo
100
AcDbLine
10
-39.5196010407632
20
12.4437724312069
30
0.000000000000000
11
-39.4196010407632
21
12.4158820517180
31
0.000000000000000
  0
LINE
  5
F100A6
330
F100A7
100
AcDbEntity
8
Geo
100
AcDbLine
10
-39.4196010407632
20
12.4158820517180
30
0.000000000000000
11
-39.3196010407632
21
12.3855695461072
31
0.000000000000000
  0
LINE
  5
F100A8
330
F100A9
100
AcDbEntity
8
Geo
100
AcDbLine
10
-39.3196010407632
20
12.3855695461072
30
0.000000000000000
11
-39.2196010407632
21
12.3537788436766
31
0.000000000000000
  0
LINE
  5
F100AA
330
F100AB
100
AcDbEntity
8
Geo
100
AcDbLine
10
-39.2196010407632
20
12.3537788436766
30
0.000000000000000
11
-39.1196010407632
21
12.3214337782808
31
0.000000000000000
  0
LINE
  5
F100AC
330
F100AD
100
AcDbEntity
8
Geo
100
AcDbLine
10
-39.1196010407632
20
12.3214337782808
30
0.000000000000000
11
-39.0196010407632
21
12.2885386625473
31
0.000000000000000
  0
LINE
  5
F100AE
330
F100AF
100
AcDbEntity
8
Geo
100
AcDbLine
10
-39.0196010407632
20
12.2885386625473
30
0.000000000000000
11
-38.9196010407632
21
12.2550978824428
31
0.000000000000000
  0
LINE
  5
F100B0
330
F100B1
100
AcDbEntity
8
Geo
100
AcDbLine
10
-38.9196010407632
20
12.2550978824428
30
0.000000000000000
11
-38.8196010407632
21
12.2211158966884
31
0.000000000000000
  0
LINE
  5
F100B2
330
F100B3
100
AcDbEntity
8
Geo
100
AcDbLine
10
-38.8196010407632
20
12.2211158966884
30
0.000000000000000
11
-38.7196010407632
21
12.1865972361652
31
0.000000000000000
  0
LINE
  5
F100B4
330
F100B5
100
AcDbEntity
8
Geo
100
AcDbLine
10
-38.7196010407632
20
12.1865972361652
30
0.000000000000000
11
-38.6196010407632
21
12.1515465033102
31
0.000000000000000
  0
LINE
  5
F100B6
330
F100B7
100
AcDbEntity
8
Geo
100
AcDbLine
10
-38.6196010407632
20
12.1515465033102
30
0.000000000000000
11
-38.5196010407632
21
12.1159683715025
31
0.000000000000000
  0
LINE
  5
F100B8
330
F100B9
100
AcDbEntity
8
Geo
100
AcDbLine
10
-38.5196010407632
20
12.1159683715025
30
0.000000000000000
11
-38.4196010407632
21
12.0798675844402
31
0.000000000000000
  0
LINE
  5
F100BA
330
F100BB
100
AcDbEntity
8
Geo
100
AcDbLine
10
-38.4196010407632
20
12.0798675844402
30
0.000000000000000
11
-38.3196010407632
21
12.0432489555082
31
0.000000000000000
  0
LINE
  5
F100BC
330
F100BD
100
AcDbEntity
8
Geo
100
AcDbLine
10
-38.3196010407632
20
12.0432489555082
30
0.000000000000000
11
-38.2196010407632
21
12.0061173671360
31
0.000000000000000
  0
LINE
  5
F100BE
330
F100BF
100
AcDbEntity
8
Geo
100
AcDbLine
10
-38.2196010407632
20
12.0061173671360
30
0.000000000000000
11
-38.1196010407632
21
11.9684777701472
31
0.000000000000000
  0
LINE
  5
F100C0
330
F100C1
100
AcDbEntity
8
Geo
100
AcDbLine
10
-38.1196010407632
20
11.9684777701472
30
0.000000000000000
11
-38.0196010407632
21
11.9303351830988
31
0.000000000000000
  0
LINE
  5
F100C2
330
F100C3
100
AcDbEntity
8
Geo
100
AcDbLine
10
-38.0196010407632
20
11.9303351830988
30
0.000000000000000
11
-37.9196010407632
21
11.8916946916127
31
0.000000000000000
  0
LINE
  5
F100C4
330
F100C5
100
AcDbEntity
8
Geo
100
AcDbLine
10
-37.9196010407632
20
11.8916946916127
30
0.000000000000000
11
-37.8196010407632
21
11.8525614476972
31
0.000000000000000
  0
LINE
  5
F100C6
330
F100C7
100
AcDbEntity
8
Geo
100
AcDbLine
10
-37.8196010407632
20
11.8525614476972
30
0.000000000000000
11
-37.7196010407632
21
11.8129406690600
31
0.000000000000000
  0
LINE
  5
F100C8
330
F100C9
100
AcDbEntity
8
Geo
100
AcDbLine
10
-37.7196010407632
20
11.8129406690600
30
0.000000000000000
11
-37.6196010407632
21
11.7728376384130
31
0.000000000000000
  0
LINE
  5
F100CA
330
F100CB
100
AcDbEntity
8
Geo
100
AcDbLine
10
-37.6196010407632
20
11.7728376384130
30
0.000000000000000
11
-37.5196010407632
21
11.7322577027676
31
0.000000000000000
  0
LINE
  5
F100CC
330
F100CD
100
AcDbEntity
8
Geo
100
AcDbLine
10
-37.5196010407632
20
11.7322577027676
30
0.000000000000000
11
-37.4196010407632
21
11.6912062727217
31
0.000000000000000
  0
LINE
  5
F100CE
330
F100CF
100
AcDbEntity
8
Geo
100
AcDbLine
10
-37.4196010407632
20
11.6912062727217
30
0.000000000000000
11
-37.3196010407632
21
11.6496888217385
31
0.000000000000000
  0
LINE
  5
F100D0
330
F100D1
100
AcDbEntity
8
Geo
100
AcDbLine
10
-37.3196010407632
20
11.6496888217385
30
0.000000000000000
11
-37.2196010407632
21
11.6077108854166
31
0.000000000000000
  0
LINE
  5
F100D2
330
F100D3
100
AcDbEntity
8
Geo
100
AcDbLine
10
-37.2196010407632
20
11.6077108854166
30
0.000000000000000
11
-37.1196010407632
21
11.5652780607520
31
0.000000000000000
  0
LINE
  5
F100D4
330
F100D5
100
AcDbEntity
8
Geo
100
AcDbLine
10
-37.1196010407632
20
11.5652780607520
30
0.000000000000000
11
-37.0196010407632
21
11.5223960053919
31
0.000000000000000
  0
LINE
  5
F100D6
330
F100D7
100
AcDbEntity
8
Geo
100
AcDbLine
10
-37.0196010407632
20
11.5223960053919
30
0.000000000000000
11
-36.9196010407632
21
11.4790704368799
31
0.000000000000000
  0
LINE
  5
F100D8
330
F100D9
100
AcDbEntity
8
Geo
100
AcDbLine
10
-36.9196010407632
20
11.4790704368799
30
0.000000000000000
11
-36.8196010407632
21
11.4353071318946
31
0.000000000000000
  0
LINE
  5
F100DA
330
F100DB
100
AcDbEntity
8
Geo
100
AcDbLine
10
-36.8196010407632
20
11.4353071318946
30
0.000000000000000
11
-36.7196010407632
21
11.3911119254782
31
0.000000000000000
  0
LINE
  5
F100DC
330
F100DD
100
AcDbEntity
8
Geo
100
AcDbLine
10
-36.7196010407632
20
11.3911119254782
30
0.000000000000000
11
-36.6196010407632
21
11.3464907102596
31
0.000000000000000
  0
LINE
  5
F100DE
330
F100DF
100
AcDbEntity
8
Geo
100
AcDbLine
10
-36.6196010407632
20
11.3464907102596
30
0.000000000000000
11
-36.5196010407632
21
11.3014494356680
31
0.000000000000000
  0
LINE
  5
F100E0
330
F100E1
100
AcDbEntity
8
Geo
100
AcDbLine
10
-36.5196010407632
20
11.3014494356680
30
0.000000000000000
11
-36.4196010407632
21
11.2559941071400
31
0.000000000000000
  0
LINE
  5
F100E2
330
F100E3
100
AcDbEntity
8
Geo
100
AcDbLine
10
-36.4196010407632
20
11.2559941071400
30
0.000000000000000
11
-36.3196010407632
21
11.2101307853187
31
0.000000000000000
  0
LINE
  5
F100E4
330
F100E5
100
AcDbEntity
8
Geo
100
AcDbLine
10
-36.3196010407632
20
11.2101307853187
30
0.000000000000000
11
-36.2196010407632
21
11.1638655852456
31
0.000000000000000
  0
LINE
  5
F100E6
330
F100E7
100
AcDbEntity
8
Geo
100
AcDbLine
10
-36.2196010407632
20
11.1638655852456
30
0.000000000000000
11
-36.1196010407632
21
11.1172046755457
31
0.000000000000000
  0
LINE
  5
F100E8
330
F100E9
100
AcDbEntity
8
Geo
100
AcDbLine
10
-36.1196010407632
20
11.1172046755457
30
0.000000000000000
11
-36.0196010407632
21
11.0701542776045
31
0.000000000000000
  0
LINE
  5
F100EA
330
F100EB
100
AcDbEntity
8
Geo
100
AcDbLine
10
-36.0196010407632
20
11.0701542776045
30
0.000000000000000
11
-35.9196010407632
21
11.0227206647385
31
0.000000000000000
  0
LINE
  5
F100EC
330
F100ED
100
AcDbEntity
8
Geo
100
AcDbLine
10
-35.9196010407632
20
11.0227206647385
30
0.000000000000000
11
-35.8196010407632
21
10.9749101613593
31
0.000000000000000
  0
LINE
  5
F100EE
330
F100EF
100
AcDbEntity
8
Geo
100
AcDbLine
10
-35.8196010407632
20
10.9749101613593
30
0.000000000000000
11
-35.7196010407632
21
10.9267291421298
31
0.000000000000000
  0
LINE
  5
F100F0
330
F100F1
100
AcDbEntity
8
Geo
100
AcDbLine
10
-35.7196010407632
20
10.9267291421298
30
0.000000000000000
11
-35.6196010407632
21
10.8781840311145
31
0.000000000000000
  0
LINE
  5
F100F2
330
F100F3
100
AcDbEntity
8
Geo
100
AcDbLine
10
-35.6196010407632
20
10.8781840311145
30
0.000000000000000
11
-35.5196010407632
21
10.8292813009230
31
0.000000000000000
  0
LINE
  5
F100F4
330
F100F5
100
AcDbEntity
8
Geo
100
AcDbLine
10
-35.5196010407632
20
10.8292813009230
30
0.000000000000000
11
-35.4196010407632
21
10.7800274718468
31
0.000000000000000
  0
LINE
  5
F100F6
330
F100F7
100
AcDbEntity
8
Geo
100
AcDbLine
10
-35.4196010407632
20
10.7800274718468
30
0.000000000000000
11
-35.3196010407632
21
10.7304291109902
31
0.000000000000000
  0
LINE
  5
F100F8
330
F100F9
100
AcDbEntity
8
Geo
100
AcDbLine
10
-35.3196010407632
20
10.7304291109902
30
0.000000000000000
11
-35.2196010407632
21
10.6804928313946
31
0.000000000000000
  0
LINE
  5
F100FA
330
F100FB
100
AcDbEntity
8
Geo
100
AcDbLine
10
-35.2196010407632
20
10.6804928313946
30
0.000000000000000
11
-35.1196010407632
21
10.6302252911564
31
0.000000000000000
  0
LINE
  5
F100FC
330
F100FD
100
AcDbEntity
8
Geo
100
AcDbLine
10
-35.1196010407632
20
10.6302252911564
30
0.000000000000000
11
-35.0196010407632
21
10.5796331925401
31
0.000000000000000
  0
LINE
  5
F100FE
330
F100FF
100
AcDbEntity
8
Geo
100
AcDbLine
10
-35.0196010407632
20
10.5796331925401
30
0.000000000000000
11
-34.9196010407632
21
10.5287232810836
31
0.000000000000000
  0
LINE
  5
F10100
330
F10101
100
AcDbEntity
8
Geo
100
AcDbLine
10
-34.9196010407632
20
10.5287232810836
30
0.000000000000000
11
-34.8196010407632
21
10.4775023446999
31
0.000000000000000
  0
LINE
  5
F10102
330
F10103
100
AcDbEntity
8
Geo
100
AcDbLine
10
-34.8196010407632
20
10.4775023446999
30
0.000000000000000
11
-34.7196010407632
21
10.4259772127713
31
0.000000000000000
  0
LINE
  5
F10104
330
F10105
100
AcDbEntity
8
Geo
100
AcDbLine
10
-34.7196010407632
20
10.4259772127713
30
0.000000000000000
11
-34.6196010407632
21
10.3741547552389
31
0.000000000000000
  0
LINE
  5
F10106
330
F10107
100
AcDbEntity
8
Geo
100
AcDbLine
10
-34.6196010407632
20
10.3741547552389
30
0.000000000000000
11
-34.5196010407632
21
10.3220418816870
31
0.000000000000000
  0
LINE
  5
F10108
330
F10109
100
AcDbEntity
8
Geo
100
AcDbLine
10
-34.5196010407632
20
10.3220418816870
30
0.000000000000000
11
-34.4196010407632
21
10.2696455404216
31
0.000000000000000
  0
LINE
  5
F1010A
330
F1010B
100
AcDbEntity
8
Geo
100
AcDbLine
10
-34.4196010407632
20
10.2696455404216
30
0.000000000000000
11
-34.3196010407632
21
10.2169727175439
31
0.000000000000000
  0
LINE
  5
F1010C
330
F1010D
100
AcDbEntity
8
Geo
100
AcDbLine
10
-34.3196010407632
20
10.2169727175439
30
0.000000000000000
11
-34.2196010407632
21
10.1640304360189
31
0.000000000000000
  0
LINE
  5
F1010E
330
F1010F
100
AcDbEntity
8
Geo
100
AcDbLine
10
-34.2196010407632
20
10.1640304360189
30
0.000000000000000
11
-34.1196010407632
21
10.1108257547389
31
0.000000000000000
  0
LINE
  5
F10110
330
F10111
100
AcDbEntity
8
Geo
100
AcDbLine
10
-34.1196010407632
20
10.1108257547389
30
0.000000000000000
11
-34.0196010407632
21
10.0573657675828
31
0.000000000000000
  0
LINE
  5
F10112
330
F10113
100
AcDbEntity
8
Geo
100
AcDbLine
10
-34.0196010407632
20
10.0573657675828
30
0.000000000000000
11
-33.9196010407632
21
10.0036576024696
31
0.000000000000000
  0
LINE
  5
F10114
330
F10115
100
AcDbEntity
8
Geo
100
AcDbLine
10
-33.9196010407632
20
10.0036576024696
30
0.000000000000000
11
-33.8196010407632
21
9.94970842040834
31
0.000000000000000
  0
LINE
  5
F10116
330
F10117
100
AcDbEntity
8
Geo
100
AcDbLine
10
-33.8196010407632
20
9.94970842040834
30
0.000000000000000
11
-33.7196010407632
21
9.89552541454346
31
0.000000000000000
  0
LINE
  5
F10118
330
F10119
100
AcDbEntity
8
Geo
100
AcDbLine
10
-33.7196010407632
20
9.89552541454346
30
0.000000000000000
11
-33.6196010407632
21
9.84111580919545
31
0.000000000000000
  0
LINE
  5
F1011A
330
F1011B
100
AcDbEntity
8
Geo
100
AcDbLine
10
-33.6196010407632
20
9.84111580919545
30
0.000000000000000
11
-33.5196010407632
21
9.78648685889775
31
0.000000000000000
  0
LINE
  5
F1011C
330
F1011D
100
AcDbEntity
8
Geo
100
AcDbLine
10
-33.5196010407632
20
9.78648685889775
30
0.000000000000000
11
-33.4196010407632
21
9.73164584742947
31
0.000000000000000
  0
LINE
  5
F1011E
330
F1011F
100
AcDbEntity
8
Geo
100
AcDbLine
10
-33.4196010407632
20
9.73164584742947
30
0.000000000000000
11
-33.3196010407632
21
9.67660008684422
31
0.000000000000000
  0
LINE
  5
F10120
330
F10121
100
AcDbEntity
8
Geo
100
AcDbLine
10
-33.3196010407632
20
9.67660008684422
30
0.000000000000000
11
-33.2196010407632
21
9.62135691649519
31
0.000000000000000
  0
LINE
  5
F10122
330
F10123
100
AcDbEntity
8
Geo
100
AcDbLine
10
-33.2196010407632
20
9.62135691649519
30
0.000000000000000
11
-33.1196010407632
21
9.56592370205660
31
0.000000000000000
  0
LINE
  5
F10124
330
F10125
100
AcDbEntity
8
Geo
100
AcDbLine
10
-33.1196010407632
20
9.56592370205660
30
0.000000000000000
11
-33.0196010407632
21
9.51030783454158
31
0.000000000000000
  0
LINE
  5
F10126
330
F10127
100
AcDbEntity
8
Geo
100
AcDbLine
10
-33.0196010407632
20
9.51030783454158
30
0.000000000000000
11
-32.9196010407632
21
9.45451672931674
31
0.000000000000000
  0
LINE
  5
F10128
330
F10129
100
AcDbEntity
8
Geo
100
AcDbLine
10
-32.9196010407632
20
9.45451672931674
30
0.000000000000000
11
-32.8196010407632
21
9.39855782511345
31
0.000000000000000
  0
LINE
  5
F1012A
330
F1012B
100
AcDbEntity
8
Geo
100
AcDbLine
10
-32.8196010407632
20
9.39855782511345
30
0.000000000000000
11
-32.7196010407632
21
9.34243858303604
31
0.000000000000000
  0
LINE
  5
F1012C
330
F1012D
100
AcDbEntity
8
Geo
100
AcDbLine
10
-32.7196010407632
20
9.34243858303604
30
0.000000000000000
11
-32.6196010407632
21
9.28616648556698
31
0.000000000000000
  0
LINE
  5
F1012E
330
F1012F
100
AcDbEntity
8
Geo
100
AcDbLine
10
-32.6196010407632
20
9.28616648556698
30
0.000000000000000
11
-32.5196010407632
21
9.22974903556923
31
0.000000000000000
  0
LINE
  5
F10130
330
F10131
100
AcDbEntity
8
Geo
100
AcDbLine
10
-32.5196010407632
20
9.22974903556923
30
0.000000000000000
11
-32.4196010407632
21
9.17319375528588
31
0.000000000000000
  0
LINE
  5
F10132
330
F10133
100
AcDbEntity
8
Geo
100
AcDbLine
10
-32.4196010407632
20
9.17319375528588
30
0.000000000000000
11
-32.3196010407632
21
9.11650818533719
31
0.000000000000000
  0
LINE
  5
F10134
330
F10135
100
AcDbEntity
8
Geo
100
AcDbLine
10
-32.3196010407632
20
9.11650818533719
30
0.000000000000000
11
-32.2196010407632
21
9.05969988371517
31
0.000000000000000
  0
LINE
  5
F10136
330
F10137
100
AcDbEntity
8
Geo
100
AcDbLine
10
-32.2196010407632
20
9.05969988371517
30
0.000000000000000
11
-32.1196010407632
21
9.00277642477586
31
0.000000000000000
  0
LINE
  5
F10138
330
F10139
100
AcDbEntity
8
Geo
100
AcDbLine
10
-32.1196010407632
20
9.00277642477586
30
0.000000000000000
11
-32.0196010407632
21
8.94574539822947
31
0.000000000000000
  0
LINE
  5
F1013A
330
F1013B
100
AcDbEntity
8
Geo
100
AcDbLine
10
-32.0196010407632
20
8.94574539822947
30
0.000000000000000
11
-31.9196010407632
21
8.88861440812839
31
0.000000000000000
  0
LINE
  5
F1013C
330
F1013D
100
AcDbEntity
8
Geo
100
AcDbLine
10
-31.9196010407632
20
8.88861440812839
30
0.000000000000000
11
-31.8196010407632
21
8.83139107185331
31
0.000000000000000
  0
LINE
  5
F1013E
330
F1013F
100
AcDbEntity
8
Geo
100
AcDbLine
10
-31.8196010407632
20
8.83139107185331
30
0.000000000000000
11
-31.7196010407632
21
8.77408301909764
31
0.000000000000000
  0
LINE
  5
F10140
330
F10141
100
AcDbEntity
8
Geo
100
AcDbLine
10
-31.7196010407632
20
8.77408301909764
30
0.000000000000000
11
-31.6196010407632
21
8.71669789085018
31
0.000000000000000
  0
LINE
  5
F10142
330
F10143
100
AcDbEntity
8
Geo
100
AcDbLine
10
-31.6196010407632
20
8.71669789085018
30
0.000000000000000
11
-31.5196010407632
21
8.65924333837633
31
0.000000000000000
  0
LINE
  5
F10144
330
F10145
100
AcDbEntity
8
Geo
100
AcDbLine
10
-31.5196010407632
20
8.65924333837633
30
0.000000000000000
11
-31.4196010407632
21
8.60172702219799
31
0.000000000000000
  0
LINE
  5
F10146
330
F10147
100
AcDbEntity
8
Geo
100
AcDbLine
10
-31.4196010407632
20
8.60172702219799
30
0.000000000000000
11
-31.3196010407632
21
8.54415661107210
31
0.000000000000000
  0
LINE
  5
F10148
330
F10149
100
AcDbEntity
8
Geo
100
AcDbLine
10
-31.3196010407632
20
8.54415661107210
30
0.000000000000000
11
-31.2196010407632
21
8.48653978096819
31
0.000000000000000
  0
LINE
  5
F1014A
330
F1014B
100
AcDbEntity
8
Geo
100
AcDbLine
10
-31.2196010407632
20
8.48653978096819
30
0.000000000000000
11
-31.1196010407632
21
8.42888421404491
31
0.000000000000000
  0
LINE
  5
F1014C
330
F1014D
100
AcDbEntity
8
Geo
100
AcDbLine
10
-31.1196010407632
20
8.42888421404491
30
0.000000000000000
11
-31.0196010407632
21
8.37119759762577
31
0.000000000000000
  0
LINE
  5
F1014E
330
F1014F
100
AcDbEntity
8
Geo
100
AcDbLine
10
-31.0196010407632
20
8.37119759762577
30
0.000000000000000
11
-30.9196010407632
21
8.31348762317417
31
0.000000000000000
  0
LINE
  5
F10150
330
F10151
100
AcDbEntity
8
Geo
100
AcDbLine
10
-30.9196010407632
20
8.31348762317417
30
0.000000000000000
11
-30.8196010407632
21
8.25576198526787
31
0.000000000000000
  0
LINE
  5
F10152
330
F10153
100
AcDbEntity
8
Geo
100
AcDbLine
10
-30.8196010407632
20
8.25576198526787
30
0.000000000000000
11
-30.7196010407633
21
8.19802838057307
31
0.000000000000000
  0
LINE
  5
F10154
330
F10155
100
AcDbEntity
8
Geo
100
AcDbLine
10
-30.7196010407633
20
8.19802838057307
30
0.000000000000000
11
-30.6196010407632
21
8.14029450681820
31
0.000000000000000
  0
LINE
  5
F10156
330
F10157
100
AcDbEntity
8
Geo
100
AcDbLine
10
-30.6196010407632
20
8.14029450681820
30
0.000000000000000
11
-30.5196010407632
21
8.08256806176756
31
0.000000000000000
  0
LINE
  5
F10158
330
F10159
100
AcDbEntity
8
Geo
100
AcDbLine
10
-30.5196010407632
20
8.08256806176756
30
0.000000000000000
11
-30.4196010407633
21
8.02485674219498
31
0.000000000000000
  0
LINE
  5
F1015A
330
F1015B
100
AcDbEntity
8
Geo
100
AcDbLine
10
-30.4196010407633
20
8.02485674219498
30
0.000000000000000
11
-30.3196010407633
21
7.96716824285757
31
0.000000000000000
  0
LINE
  5
F1015C
330
F1015D
100
AcDbEntity
8
Geo
100
AcDbLine
10
-30.3196010407633
20
7.96716824285757
30
0.000000000000000
11
-30.2196010407633
21
7.90951025546976
31
0.000000000000000
  0
LINE
  5
F1015E
330
F1015F
100
AcDbEntity
8
Geo
100
AcDbLine
10
-30.2196010407633
20
7.90951025546976
30
0.000000000000000
11
-30.1196010407632
21
7.85189046767781
31
0.000000000000000
  0
LINE
  5
F10160
330
F10161
100
AcDbEntity
8
Geo
100
AcDbLine
10
-30.1196010407632
20
7.85189046767781
30
0.000000000000000
11
-30.0196010407633
21
7.79431656203470
31
0.000000000000000
  0
LINE
  5
F10162
330
F10163
100
AcDbEntity
8
Geo
100
AcDbLine
10
-30.0196010407633
20
7.79431656203470
30
0.000000000000000
11
-29.9196010407633
21
7.73679621497592
31
0.000000000000000
  0
LINE
  5
F10164
330
F10165
100
AcDbEntity
8
Geo
100
AcDbLine
10
-29.9196010407633
20
7.73679621497592
30
0.000000000000000
11
-29.8196010407633
21
7.67933709579583
31
0.000000000000000
  0
LINE
  5
F10166
330
F10167
100
AcDbEntity
8
Geo
100
AcDbLine
10
-29.8196010407633
20
7.67933709579583
30
0.000000000000000
11
-29.7196010407633
21
7.62194686562522
31
0.000000000000000
  0
LINE
  5
F10168
330
F10169
100
AcDbEntity
8
Geo
100
AcDbLine
10
-29.7196010407633
20
7.62194686562522
30
0.000000000000000
11
-29.6196010407633
21
7.56463317640976
31
0.000000000000000
  0
LINE
  5
F1016A
330
F1016B
100
AcDbEntity
8
Geo
100
AcDbLine
10
-29.6196010407633
20
7.56463317640976
30
0.000000000000000
11
-29.5196010407633
21
7.50740366988975
31
0.000000000000000
  0
LINE
  5
F1016C
330
F1016D
100
AcDbEntity
8
Geo
100
AcDbLine
10
-29.5196010407633
20
7.50740366988975
30
0.000000000000000
11
-29.4196010407633
21
7.45026597658128
31
0.000000000000000
  0
LINE
  5
F1016E
330
F1016F
100
AcDbEntity
8
Geo
100
AcDbLine
10
-29.4196010407633
20
7.45026597658128
30
0.000000000000000
11
-29.3196010407633
21
7.39322771475883
31
0.000000000000000
  0
LINE
  5
F10170
330
F10171
100
AcDbEntity
8
Geo
100
AcDbLine
10
-29.3196010407633
20
7.39322771475883
30
0.000000000000000
11
-29.2196010407633
21
7.33629648943945
31
0.000000000000000
  0
LINE
  5
F10172
330
F10173
100
AcDbEntity
8
Geo
100
AcDbLine
10
-29.2196010407633
20
7.33629648943945
30
0.000000000000000
11
-29.1196010407633
21
7.27947989136885
31
0.000000000000000
  0
LINE
  5
F10174
330
F10175
100
AcDbEntity
8
Geo
100
AcDbLine
10
-29.1196010407633
20
7.27947989136885
30
0.000000000000000
11
-29.0196010407633
21
7.22278549600927
31
0.000000000000000
  0
LINE
  5
F10176
330
F10177
100
AcDbEntity
8
Geo
100
AcDbLine
10
-29.0196010407633
20
7.22278549600927
30
0.000000000000000
11
-28.9196010407633
21
7.16622086252944
31
0.000000000000000
  0
LINE
  5
F10178
330
F10179
100
AcDbEntity
8
Geo
100
AcDbLine
10
-28.9196010407633
20
7.16622086252944
30
0.000000000000000
11
-28.8196010407633
21
7.10979353279667
31
0.000000000000000
  0
LINE
  5
F1017A
330
F1017B
100
AcDbEntity
8
Geo
100
AcDbLine
10
-28.8196010407633
20
7.10979353279667
30
0.000000000000000
11
-28.7196010407633
21
7.05351103037135
31
0.000000000000000
  0
LINE
  5
F1017C
330
F1017D
100
AcDbEntity
8
Geo
100
AcDbLine
10
-28.7196010407633
20
7.05351103037135
30
0.000000000000000
11
-28.6196010407633
21
6.99738085950375
31
0.000000000000000
  0
LINE
  5
F1017E
330
F1017F
100
AcDbEntity
8
Geo
100
AcDbLine
10
-28.6196010407633
20
6.99738085950375
30
0.000000000000000
11
-28.5196010407633
21
6.94141050413349
31
0.000000000000000
  0
LINE
  5
F10180
330
F10181
100
AcDbEntity
8
Geo
100
AcDbLine
10
-28.5196010407633
20
6.94141050413349
30
0.000000000000000
11
-28.4196010407633
21
6.88560742689170
31
0.000000000000000
  0
LINE
  5
F10182
330
F10183
100
AcDbEntity
8
Geo
100
AcDbLine
10
-28.4196010407633
20
6.88560742689170
30
0.000000000000000
11
-28.3196010407633
21
6.82997906810602
31
0.000000000000000
  0
LINE
  5
F10184
330
F10185
100
AcDbEntity
8
Geo
100
AcDbLine
10
-28.3196010407633
20
6.82997906810602
30
0.000000000000000
11
-28.2196010407633
21
6.77453284480853
31
0.000000000000000
  0
LINE
  5
F10186
330
F10187
100
AcDbEntity
8
Geo
100
AcDbLine
10
-28.2196010407633
20
6.77453284480853
30
0.000000000000000
11
-28.1196010407633
21
6.71927614974687
31
0.000000000000000
  0
LINE
  5
F10188
330
F10189
100
AcDbEntity
8
Geo
100
AcDbLine
10
-28.1196010407633
20
6.71927614974687
30
0.000000000000000
11
-28.0196010407633
21
6.66421635039852
31
0.000000000000000
  0
LINE
  5
F1018A
330
F1018B
100
AcDbEntity
8
Geo
100
AcDbLine
10
-28.0196010407633
20
6.66421635039852
30
0.000000000000000
11
-27.9196010407633
21
6.60936078798848
31
0.000000000000000
  0
LINE
  5
F1018C
330
F1018D
100
AcDbEntity
8
Geo
100
AcDbLine
10
-27.9196010407633
20
6.60936078798848
30
0.000000000000000
11
-27.8196010407633
21
6.55471677651048
31
0.000000000000000
  0
LINE
  5
F1018E
330
F1018F
100
AcDbEntity
8
Geo
100
AcDbLine
10
-27.8196010407633
20
6.55471677651048
30
0.000000000000000
11
-27.7196010407633
21
6.50029160175176
31
0.000000000000000
  0
LINE
  5
F10190
330
F10191
100
AcDbEntity
8
Geo
100
AcDbLine
10
-27.7196010407633
20
6.50029160175176
30
0.000000000000000
11
-27.6196010407632
21
6.44609252032166
31
0.000000000000000
  0
LINE
  5
F10192
330
F10193
100
AcDbEntity
8
Geo
100
AcDbLine
10
-27.6196010407632
20
6.44609252032166
30
0.000000000000000
11
-27.5196010407632
21
6.39212675868407
31
0.000000000000000
  0
LINE
  5
F10194
330
F10195
100
AcDbEntity
8
Geo
100
AcDbLine
10
-27.5196010407632
20
6.39212675868407
30
0.000000000000000
11
-27.4196010407632
21
6.33840151219394
31
0.000000000000000
  0
LINE
  5
F10196
330
F10197
100
AcDbEntity
8
Geo
100
AcDbLine
10
-27.4196010407632
20
6.33840151219394
30
0.000000000000000
11
-27.3196010407632
21
6.28492394413786
31
0.000000000000000
  0
LINE
  5
F10198
330
F10199
100
AcDbEntity
8
Geo
100
AcDbLine
10
-27.3196010407632
20
6.28492394413786
30
0.000000000000000
11
-27.2196010407632
21
6.23170118477903
31
0.000000000000000
  0
LINE
  5
F1019A
330
F1019B
100
AcDbEntity
8
Geo
100
AcDbLine
10
-27.2196010407632
20
6.23170118477903
30
0.000000000000000
11
-27.1196010407632
21
6.17874033040650
31
0.000000000000000
  0
LINE
  5
F1019C
330
F1019D
100
AcDbEntity
8
Geo
100
AcDbLine
10
-27.1196010407632
20
6.17874033040650
30
0.000000000000000
11
-27.0196010407632
21
6.12604844238906
31
0.000000000000000
  0
LINE
  5
F1019E
330
F1019F
100
AcDbEntity
8
Geo
100
AcDbLine
10
-27.0196010407632
20
6.12604844238906
30
0.000000000000000
11
-26.9196010407632
21
6.07363254623373
31
0.000000000000000
  0
LINE
  5
F101A0
330
F101A1
100
AcDbEntity
8
Geo
100
AcDbLine
10
-26.9196010407632
20
6.07363254623373
30
0.000000000000000
11
-26.8196010407632
21
6.02149963064900
31
0.000000000000000
  0
LINE
  5
F101A2
330
F101A3
100
AcDbEntity
8
Geo
100
AcDbLine
10
-26.8196010407632
20
6.02149963064900
30
0.000000000000000
11
-26.7196010407632
21
5.96965664661305
31
0.000000000000000
  0
LINE
  5
F101A4
330
F101A5
100
AcDbEntity
8
Geo
100
AcDbLine
10
-26.7196010407632
20
5.96965664661305
30
0.000000000000000
11
-26.6196010407632
21
5.91811050644695
31
0.000000000000000
  0
LINE
  5
F101A6
330
F101A7
100
AcDbEntity
8
Geo
100
AcDbLine
10
-26.6196010407632
20
5.91811050644695
30
0.000000000000000
11
-26.5196010407632
21
5.86686808289302
31
0.000000000000000
  0
LINE
  5
F101A8
330
F101A9
100
AcDbEntity
8
Geo
100
AcDbLine
10
-26.5196010407632
20
5.86686808289302
30
0.000000000000000
11
-26.4196010407632
21
5.81593620819850
31
0.000000000000000
  0
LINE
  5
F101AA
330
F101AB
100
AcDbEntity
8
Geo
100
AcDbLine
10
-26.4196010407632
20
5.81593620819850
30
0.000000000000000
11
-26.3196010407632
21
5.76532167320454
31
0.000000000000000
  0
LINE
  5
F101AC
330
F101AD
100
AcDbEntity
8
Geo
100
AcDbLine
10
-26.3196010407632
20
5.76532167320454
30
0.000000000000000
11
-26.2196010407632
21
5.71503122644084
31
0.000000000000000
  0
LINE
  5
F101AE
330
F101AF
100
AcDbEntity
8
Geo
100
AcDbLine
10
-26.2196010407632
20
5.71503122644084
30
0.000000000000000
11
-26.1196010407632
21
5.66507157322578
31
0.000000000000000
  0
LINE
  5
F101B0
330
F101B1
100
AcDbEntity
8
Geo
100
AcDbLine
10
-26.1196010407632
20
5.66507157322578
30
0.000000000000000
11
-26.0196010407632
21
5.61544937477246
31
0.000000000000000
  0
LINE
  5
F101B2
330
F101B3
100
AcDbEntity
8
Geo
100
AcDbLine
10
-26.0196010407632
20
5.61544937477246
30
0.000000000000000
11
-25.9196010407632
21
5.56617124730049
31
0.000000000000000
  0
LINE
  5
F101B4
330
F101B5
100
AcDbEntity
8
Geo
100
AcDbLine
10
-25.9196010407632
20
5.56617124730049
30
0.000000000000000
11
-25.8196010407632
21
5.51724376115385
31
0.000000000000000
  0
LINE
  5
F101B6
330
F101B7
100
AcDbEntity
8
Geo
100
AcDbLine
10
-25.8196010407632
20
5.51724376115385
30
0.000000000000000
11
-25.7196010407632
21
5.46867343992488
31
0.000000000000000
  0
LINE
  5
F101B8
330
F101B9
100
AcDbEntity
8
Geo
100
AcDbLine
10
-25.7196010407632
20
5.46867343992488
30
0.000000000000000
11
-25.6196010407632
21
5.42046675958446
31
0.000000000000000
  0
LINE
  5
F101BA
330
F101BB
100
AcDbEntity
8
Geo
100
AcDbLine
10
-25.6196010407632
20
5.42046675958446
30
0.000000000000000
11
-25.5196010407632
21
5.37263014761854
31
0.000000000000000
  0
LINE
  5
F101BC
330
F101BD
100
AcDbEntity
8
Geo
100
AcDbLine
10
-25.5196010407632
20
5.37263014761854
30
0.000000000000000
11
-25.4196010407632
21
5.32516998217120
31
0.000000000000000
  0
LINE
  5
F101BE
330
F101BF
100
AcDbEntity
8
Geo
100
AcDbLine
10
-25.4196010407632
20
5.32516998217120
30
0.000000000000000
11
-25.3196010407632
21
5.27809259119417
31
0.000000000000000
  0
LINE
  5
F101C0
330
F101C1
100
AcDbEntity
8
Geo
100
AcDbLine
10
-25.3196010407632
20
5.27809259119417
30
0.000000000000000
11
-25.2196010407632
21
5.23140425160318
31
0.000000000000000
  0
LINE
  5
F101C2
330
F101C3
100
AcDbEntity
8
Geo
100
AcDbLine
10
-25.2196010407632
20
5.23140425160318
30
0.000000000000000
11
-25.1196010407632
21
5.18511118844100
31
0.000000000000000
  0
LINE
  5
F101C4
330
F101C5
100
AcDbEntity
8
Geo
100
AcDbLine
10
-25.1196010407632
20
5.18511118844100
30
0.000000000000000
11
-25.0196010407632
21
5.13921957404748
31
0.000000000000000
  0
LINE
  5
F101C6
330
F101C7
100
AcDbEntity
8
Geo
100
AcDbLine
10
-25.0196010407632
20
5.13921957404748
30
0.000000000000000
11
-24.9196010407632
21
5.09373552723654
31
0.000000000000000
  0
LINE
  5
F101C8
330
F101C9
100
AcDbEntity
8
Geo
100
AcDbLine
10
-24.9196010407632
20
5.09373552723654
30
0.000000000000000
11
-24.8196010407632
21
5.04866511248038
31
0.000000000000000
  0
LINE
  5
F101CA
330
F101CB
100
AcDbEntity
8
Geo
100
AcDbLine
10
-24.8196010407632
20
5.04866511248038
30
0.000000000000000
11
-24.7196010407632
21
5.00401433910086
31
0.000000000000000
  0
LINE
  5
F101CC
330
F101CD
100
AcDbEntity
8
Geo
100
AcDbLine
10
-24.7196010407632
20
5.00401433910086
30
0.000000000000000
11
-24.6196010407632
21
4.95978916046828
31
0.000000000000000
  0
LINE
  5
F101CE
330
F101CF
100
AcDbEntity
8
Geo
100
AcDbLine
10
-24.6196010407632
20
4.95978916046828
30
0.000000000000000
11
-24.5196010407632
21
4.91599547320761
31
0.000000000000000
  0
LINE
  5
F101D0
330
F101D1
100
AcDbEntity
8
Geo
100
AcDbLine
10
-24.5196010407632
20
4.91599547320761
30
0.000000000000000
11
-24.4196010407632
21
4.87263911641227
31
0.000000000000000
  0
LINE
  5
F101D2
330
F101D3
100
AcDbEntity
8
Geo
100
AcDbLine
10
-43.6196010407632
20
9.02452595826297
30
0.000000000000000
11
-43.6196010407632
21
8.29759494501627
31
0.000000000000000
  0
LINE
  5
F101D4
330
F101D5
100
AcDbEntity
8
Geo
100
AcDbLine
10
-43.6196010407632
20
8.29759494501627
30
0.000000000000000
11
-43.5196010407632
21
8.01657323389052
31
0.000000000000000
  0
LINE
  5
F101D6
330
F101D7
100
AcDbEntity
8
Geo
100
AcDbLine
10
-43.5196010407632
20
8.01657323389052
30
0.000000000000000
11
-43.4196010407632
21
7.85020009656225
31
0.000000000000000
  0
LINE
  5
F101D8
330
F101D9
100
AcDbEntity
8
Geo
100
AcDbLine
10
-43.4196010407632
20
7.85020009656225
30
0.000000000000000
11
-43.3196010407632
21
7.72738541701140
31
0.000000000000000
  0
LINE
  5
F101DA
330
F101DB
100
AcDbEntity
8
Geo
100
AcDbLine
10
-43.3196010407632
20
7.72738541701140
30
0.000000000000000
11
-43.2196010407632
21
7.63008811554547
31
0.000000000000000
  0
LINE
  5
F101DC
330
F101DD
100
AcDbEntity
8
Geo
100
AcDbLine
10
-43.2196010407632
20
7.63008811554547
30
0.000000000000000
11
-43.1196010407632
21
7.55046125863085
31
0.000000000000000
  0
LINE
  5
F101DE
330
F101DF
100
AcDbEntity
8
Geo
100
AcDbLine
10
-43.1196010407632
20
7.55046125863085
30
0.000000000000000
11
-43.0196010407632
21
7.48450514482950
31
0.000000000000000
  0
LINE
  5
F101E0
330
F101E1
100
AcDbEntity
8
Geo
100
AcDbLine
10
-43.0196010407632
20
7.48450514482950
30
0.000000000000000
11
-42.9196010407632
21
7.42931204972010
31
0.000000000000000
  0
LINE
  5
F101E2
330
F101E3
100
AcDbEntity
8
Geo
100
AcDbLine
10
-42.9196010407632
20
7.42931204972010
30
0.000000000000000
11
-42.8196010407632
21
7.38295804821430
31
0.000000000000000
  0
LINE
  5
F101E4
330
F101E5
100
AcDbEntity
8
Geo
100
AcDbLine
10
-42.8196010407632
20
7.38295804821430
30
0.000000000000000
11
-42.7196010407632
21
7.33848223004637
31
0.000000000000000
  0
LINE
  5
F101E6
330
F101E7
100
AcDbEntity
8
Geo
100
AcDbLine
10
-42.7196010407632
20
7.33848223004637
30
0.000000000000000
11
-42.6196010407632
21
7.29217735272144
31
0.000000000000000
  0
LINE
  5
F101E8
330
F101E9
100
AcDbEntity
8
Geo
100
AcDbLine
10
-42.6196010407632
20
7.29217735272144
30
0.000000000000000
11
-42.5196010407632
21
7.24420671956766
31
0.000000000000000
  0
LINE
  5
F101EA
330
F101EB
100
AcDbEntity
8
Geo
100
AcDbLine
10
-42.5196010407632
20
7.24420671956766
30
0.000000000000000
11
-42.4196010407632
21
7.19472055242501
31
0.000000000000000
  0
LINE
  5
F101EC
330
F101ED
100
AcDbEntity
8
Geo
100
AcDbLine
10
-42.4196010407632
20
7.19472055242501
30
0.000000000000000
11
-42.3196010407632
21
7.14385815659996
31
0.000000000000000
  0
LINE
  5
F101EE
330
F101EF
100
AcDbEntity
8
Geo
100
AcDbLine
10
-42.3196010407632
20
7.14385815659996
30
0.000000000000000
11
-42.2196010407632
21
7.09174963348012
31
0.000000000000000
  0
LINE
  5
F101F0
330
F101F1
100
AcDbEntity
8
Geo
100
AcDbLine
10
-42.2196010407632
20
7.09174963348012
30
0.000000000000000
11
-42.1196010407632
21
7.03851725406025
31
0.000000000000000
  0
LINE
  5
F101F2
330
F101F3
100
AcDbEntity
8
Geo
100
AcDbLine
10
-42.1196010407632
20
7.03851725406025
30
0.000000000000000
11
-42.0196010407632
21
6.98427657418361
31
0.000000000000000
  0
LINE
  5
F101F4
330
F101F5
100
AcDbEntity
8
Geo
100
AcDbLine
10
-42.0196010407632
20
6.98427657418361
30
0.000000000000000
11
-41.9196010407632
21
6.92913735022558
31
0.000000000000000
  0
LINE
  5
F101F6
330
F101F7
100
AcDbEntity
8
Geo
100
AcDbLine
10
-41.9196010407632
20
6.92913735022558
30
0.000000000000000
11
-41.8196010407632
21
6.87320429861505
31
0.000000000000000
  0
LINE
  5
F101F8
330
F101F9
100
AcDbEntity
8
Geo
100
AcDbLine
10
-41.8196010407632
20
6.87320429861505
30
0.000000000000000
11
-41.7196010407632
21
6.81657773174627
31
0.000000000000000
  0
LINE
  5
F101FA
330
F101FB
100
AcDbEntity
8
Geo
100
AcDbLine
10
-41.7196010407632
20
6.81657773174627
30
0.000000000000000
11
-41.6196010407632
21
6.75935409503643
31
0.000000000000000
  0
LINE
  5
F101FC
330
F101FD
100
AcDbEntity
8
Geo
100
AcDbLine
10
-41.6196010407632
20
6.75935409503643
30
0.000000000000000
11
-41.5196010407632
21
6.70162642419290
31
0.000000000000000
  0
LINE
  5
F101FE
330
F101FF
100
AcDbEntity
8
Geo
100
AcDbLine
10
-41.5196010407632
20
6.70162642419290
30
0.000000000000000
11
-41.4196010407632
21
6.64348473754205
31
0.000000000000000
  0
LINE
  5
F10200
330
F10201
100
AcDbEntity
8
Geo
100
AcDbLine
10
-41.4196010407632
20
6.64348473754205
30
0.000000000000000
11
-41.3196010407632
21
6.58501637511539
31
0.000000000000000
  0
LINE
  5
F10202
330
F10203
100
AcDbEntity
8
Geo
100
AcDbLine
10
-41.3196010407632
20
6.58501637511539
30
0.000000000000000
11
-41.2196010407632
21
6.52630629379688
31
0.000000000000000
  0
LINE
  5
F10204
330
F10205
100
AcDbEntity
8
Geo
100
AcDbLine
10
-41.2196010407632
20
6.52630629379688
30
0.000000000000000
11
-41.1196010407632
21
6.46743732600300
31
0.000000000000000
  0
LINE
  5
F10206
330
F10207
100
AcDbEntity
8
Geo
100
AcDbLine
10
-41.1196010407632
20
6.46743732600300
30
0.000000000000000
11
-41.0196010407632
21
6.40849040795088
31
0.000000000000000
  0
LINE
  5
F10208
330
F10209
100
AcDbEntity
8
Geo
100
AcDbLine
10
-41.0196010407632
20
6.40849040795088
30
0.000000000000000
11
-40.9196010407632
21
6.34954478246489
31
0.000000000000000
  0
LINE
  5
F1020A
330
F1020B
100
AcDbEntity
8
Geo
100
AcDbLine
10
-40.9196010407632
20
6.34954478246489
30
0.000000000000000
11
-40.8196010407632
21
6.29067818040383
31
0.000000000000000
  0
LINE
  5
F1020C
330
F1020D
100
AcDbEntity
8
Geo
100
AcDbLine
10
-40.8196010407632
20
6.29067818040383
30
0.000000000000000
11
-40.7196010407632
21
6.23196698410378
31
0.000000000000000
  0
LINE
  5
F1020E
330
F1020F
100
AcDbEntity
8
Geo
100
AcDbLine
10
-40.7196010407632
20
6.23196698410378
30
0.000000000000000
11
-40.6196010407632
21
6.17348637568429
31
0.000000000000000
  0
LINE
  5
F10210
330
F10211
100
AcDbEntity
8
Geo
100
AcDbLine
10
-40.6196010407632
20
6.17348637568429
30
0.000000000000000
11
-40.5196010407632
21
6.11531047262827
31
0.000000000000000
  0
LINE
  5
F10212
330
F10213
100
AcDbEntity
8
Geo
100
AcDbLine
10
-40.5196010407632
20
6.11531047262827
30
0.000000000000000
11
-40.4196010407632
21
6.05751245269409
31
0.000000000000000
  0
LINE
  5
F10214
330
F10215
100
AcDbEntity
8
Geo
100
AcDbLine
10
-40.4196010407632
20
6.05751245269409
30
0.000000000000000
11
-40.3196010407632
21
6.00016466993574
31
0.000000000000000
  0
LINE
  5
F10216
330
F10217
100
AcDbEntity
8
Geo
100
AcDbLine
10
-40.3196010407632
20
6.00016466993574
30
0.000000000000000
11
-40.2196010407632
21
5.94333876337929
31
0.000000000000000
  0
LINE
  5
F10218
330
F10219
100
AcDbEntity
8
Geo
100
AcDbLine
10
-40.2196010407632
20
5.94333876337929
30
0.000000000000000
11
-40.1196010407632
21
5.88710575972073
31
0.000000000000000
  0
LINE
  5
F1021A
330
F1021B
100
AcDbEntity
8
Geo
100
AcDbLine
10
-40.1196010407632
20
5.88710575972073
30
0.000000000000000
11
-40.0196010407632
21
5.83153617126467
31
0.000000000000000
  0
LINE
  5
F1021C
330
F1021D
100
AcDbEntity
8
Geo
100
AcDbLine
10
-40.0196010407632
20
5.83153617126467
30
0.000000000000000
11
-39.9196010407632
21
5.77670009020780
31
0.000000000000000
  0
LINE
  5
F1021E
330
F1021F
100
AcDbEntity
8
Geo
100
AcDbLine
10
-39.9196010407632
20
5.77670009020780
30
0.000000000000000
11
-39.8196010407632
21
5.72266728028194
31
0.000000000000000
  0
LINE
  5
F10220
330
F10221
100
AcDbEntity
8
Geo
100
AcDbLine
10
-39.8196010407632
20
5.72266728028194
30
0.000000000000000
11
-39.7196010407632
21
5.66950726670462
31
0.000000000000000
  0
LINE
  5
F10222
330
F10223
100
AcDbEntity
8
Geo
100
AcDbLine
10
-39.7196010407632
20
5.66950726670462
30
0.000000000000000
11
-39.6196010407632
21
5.61728942533824
31
0.000000000000000
  0
LINE
  5
F10224
330
F10225
100
AcDbEntity
8
Geo
100
AcDbLine
10
-39.6196010407632
20
5.61728942533824
30
0.000000000000000
11
-39.5196010407632
21
5.56608307192936
31
0.000000000000000
  0
LINE
  5
F10226
330
F10227
100
AcDbEntity
8
Geo
100
AcDbLine
10
-39.5196010407632
20
5.56608307192936
30
0.000000000000000
11
-39.4196010407632
21
5.51595755228757
31
0.000000000000000
  0
LINE
  5
F10228
330
F10229
100
AcDbEntity
8
Geo
100
AcDbLine
10
-39.4196010407632
20
5.51595755228757
30
0.000000000000000
11
-39.3196010407632
21
5.46698233426604
31
0.000000000000000
  0
LINE
  5
F1022A
330
F1022B
100
AcDbEntity
8
Geo
100
AcDbLine
10
-39.3196010407632
20
5.46698233426604
30
0.000000000000000
11
-39.2196010407632
21
5.41878848055596
31
0.000000000000000
  0
LINE
  5
F1022C
330
F1022D
100
AcDbEntity
8
Geo
100
AcDbLine
10
-39.2196010407632
20
5.41878848055596
30
0.000000000000000
11
-39.1196010407632
21
5.37096491898844
31
0.000000000000000
  0
LINE
  5
F1022E
330
F1022F
100
AcDbEntity
8
Geo
100
AcDbLine
10
-39.1196010407632
20
5.37096491898844
30
0.000000000000000
11
-39.0196010407632
21
5.32351802596751
31
0.000000000000000
  0
LINE
  5
F10230
330
F10231
100
AcDbEntity
8
Geo
100
AcDbLine
10
-39.0196010407632
20
5.32351802596751
30
0.000000000000000
11
-38.9196010407632
21
5.27645412767527
31
0.000000000000000
  0
LINE
  5
F10232
330
F10233
100
AcDbEntity
8
Geo
100
AcDbLine
10
-38.9196010407632
20
5.27645412767527
30
0.000000000000000
11
-38.8196010407632
21
5.22977949922844
31
0.000000000000000
  0
LINE
  5
F10234
330
F10235
100
AcDbEntity
8
Geo
100
AcDbLine
10
-38.8196010407632
20
5.22977949922844
30
0.000000000000000
11
-38.7196010407632
21
5.18350036384167
31
0.000000000000000
  0
LINE
  5
F10236
330
F10237
100
AcDbEntity
8
Geo
100
AcDbLine
10
-38.7196010407632
20
5.18350036384167
30
0.000000000000000
11
-38.6196010407632
21
5.13762289199778
31
0.000000000000000
  0
LINE
  5
F10238
330
F10239
100
AcDbEntity
8
Geo
100
AcDbLine
10
-38.6196010407632
20
5.13762289199778
30
0.000000000000000
11
-38.5196010407632
21
5.09215320062505
31
0.000000000000000
  0
LINE
  5
F1023A
330
F1023B
100
AcDbEntity
8
Geo
100
AcDbLine
10
-38.5196010407632
20
5.09215320062505
30
0.000000000000000
11
-38.4196010407632
21
5.04709735228163
31
0.000000000000000
  0
LINE
  5
F1023C
330
F1023D
100
AcDbEntity
8
Geo
100
AcDbLine
10
-38.4196010407632
20
5.04709735228163
30
0.000000000000000
11
-38.3196010407632
21
5.00246135434723
31
0.000000000000000
  0
LINE
  5
F1023E
330
F1023F
100
AcDbEntity
8
Geo
100
AcDbLine
10
-38.3196010407632
20
5.00246135434723
30
0.000000000000000
11
-38.2196010407632
21
4.95825115822210
31
0.000000000000000
  0
LINE
  5
F10240
330
F10241
100
AcDbEntity
8
Geo
100
AcDbLine
10
-38.2196010407632
20
4.95825115822210
30
0.000000000000000
11
-38.1196010407632
21
4.91447265853356
31
0.000000000000000
  0
LINE
  5
F10242
330
F10243
100
AcDbEntity
8
Geo
100
AcDbLine
10
-38.1196010407632
20
4.91447265853356
30
0.000000000000000
11
-38.0196010407632
21
4.87113169235006
31
0.000000000000000
  0
LINE
  5
F10244
330
F10245
100
AcDbEntity
8
Geo
100
AcDbLine
10
-38.0196010407632
20
4.87113169235006
30
0.000000000000000
11
-37.9196010407632
21
4.82823403840287
31
0.000000000000000
  0
LINE
  5
F10246
330
F10247
100
AcDbEntity
8
Geo
100
AcDbLine
10
-37.9196010407632
20
4.82823403840287
30
0.000000000000000
11
-37.8196010407632
21
4.78578541631564
31
0.000000000000000
  0
LINE
  5
F10248
330
F10249
100
AcDbEntity
8
Geo
100
AcDbLine
10
-37.8196010407632
20
4.78578541631564
30
0.000000000000000
11
-37.7196010407632
21
4.74379148584175
31
0.000000000000000
  0
LINE
  5
F1024A
330
F1024B
100
AcDbEntity
8
Geo
100
AcDbLine
10
-37.7196010407632
20
4.74379148584175
30
0.000000000000000
11
-37.6196010407632
21
4.70225784610972
31
0.000000000000000
  0
LINE
  5
F1024C
330
F1024D
100
AcDbEntity
8
Geo
100
AcDbLine
10
-37.6196010407632
20
4.70225784610972
30
0.000000000000000
11
-37.5196010407632
21
4.66119003487666
31
0.000000000000000
  0
LINE
  5
F1024E
330
F1024F
100
AcDbEntity
8
Geo
100
AcDbLine
10
-37.5196010407632
20
4.66119003487666
30
0.000000000000000
11
-37.4196010407632
21
4.62059352778988
31
0.000000000000000
  0
LINE
  5
F10250
330
F10251
100
AcDbEntity
8
Geo
100
AcDbLine
10
-37.4196010407632
20
4.62059352778988
30
0.000000000000000
11
-37.3196010407632
21
4.58047373765686
31
0.000000000000000
  0
LINE
  5
F10252
330
F10253
100
AcDbEntity
8
Geo
100
AcDbLine
10
-37.3196010407632
20
4.58047373765686
30
0.000000000000000
11
-37.2196010407632
21
4.54083601372351
31
0.000000000000000
  0
LINE
  5
F10254
330
F10255
100
AcDbEntity
8
Geo
100
AcDbLine
10
-37.2196010407632
20
4.54083601372351
30
0.000000000000000
11
-37.1196010407632
21
4.50168564096097
31
0.000000000000000
  0
LINE
  5
F10256
330
F10257
100
AcDbEntity
8
Geo
100
AcDbLine
10
-37.1196010407632
20
4.50168564096097
30
0.000000000000000
11
-37.0196010407632
21
4.46302783936093
31
0.000000000000000
  0
LINE
  5
F10258
330
F10259
100
AcDbEntity
8
Geo
100
AcDbLine
10
-37.0196010407632
20
4.46302783936093
30
0.000000000000000
11
-36.9196010407632
21
4.42486776323967
31
0.000000000000000
  0
LINE
  5
F1025A
330
F1025B
100
AcDbEntity
8
Geo
100
AcDbLine
10
-36.9196010407632
20
4.42486776323967
30
0.000000000000000
11
-36.8196010407632
21
4.38721050055081
31
0.000000000000000
  0
LINE
  5
F1025C
330
F1025D
100
AcDbEntity
8
Geo
100
AcDbLine
10
-36.8196010407632
20
4.38721050055081
30
0.000000000000000
11
-36.7196010407632
21
4.35006107220693
31
0.000000000000000
  0
LINE
  5
F1025E
330
F1025F
100
AcDbEntity
8
Geo
100
AcDbLine
10
-36.7196010407632
20
4.35006107220693
30
0.000000000000000
11
-36.6196010407632
21
4.31342443141009
31
0.000000000000000
  0
LINE
  5
F10260
330
F10261
100
AcDbEntity
8
Geo
100
AcDbLine
10
-36.6196010407632
20
4.31342443141009
30
0.000000000000000
11
-36.5196010407632
21
4.27730546299145
31
0.000000000000000
  0
LINE
  5
F10262
330
F10263
100
AcDbEntity
8
Geo
100
AcDbLine
10
-36.5196010407632
20
4.27730546299145
30
0.000000000000000
11
-36.4196010407632
21
4.24170898275998
31
0.000000000000000
  0
LINE
  5
F10264
330
F10265
100
AcDbEntity
8
Geo
100
AcDbLine
10
-36.4196010407632
20
4.24170898275998
30
0.000000000000000
11
-36.3196010407632
21
4.20663973686028
31
0.000000000000000
  0
LINE
  5
F10266
330
F10267
100
AcDbEntity
8
Geo
100
AcDbLine
10
-36.3196010407632
20
4.20663973686028
30
0.000000000000000
11
-36.2196010407632
21
4.17210240113988
31
0.000000000000000
  0
LINE
  5
F10268
330
F10269
100
AcDbEntity
8
Geo
100
AcDbLine
10
-36.2196010407632
20
4.17210240113988
30
0.000000000000000
11
-36.1196010407632
21
4.13810158052568
31
0.000000000000000
  0
LINE
  5
F1026A
330
F1026B
100
AcDbEntity
8
Geo
100
AcDbLine
10
-36.1196010407632
20
4.13810158052568
30
0.000000000000000
11
-36.0196010407632
21
4.10464180841008
31
0.000000000000000
  0
LINE
  5
F1026C
330
F1026D
100
AcDbEntity
8
Geo
100
AcDbLine
10
-36.0196010407632
20
4.10464180841008
30
0.000000000000000
11
-35.9196010407632
21
4.07172754604645
31
0.000000000000000
  0
LINE
  5
F1026E
330
F1026F
100
AcDbEntity
8
Geo
100
AcDbLine
10
-35.9196010407632
20
4.07172754604645
30
0.000000000000000
11
-35.8196010407632
21
4.03936318195433
31
0.000000000000000
  0
LINE
  5
F10270
330
F10271
100
AcDbEntity
8
Geo
100
AcDbLine
10
-35.8196010407632
20
4.03936318195433
30
0.000000000000000
11
-35.7196010407632
21
4.00755303133435
31
0.000000000000000
  0
LINE
  5
F10272
330
F10273
100
AcDbEntity
8
Geo
100
AcDbLine
10
-35.7196010407632
20
4.00755303133435
30
0.000000000000000
11
-35.6196010407632
21
3.97630133549277
31
0.000000000000000
  0
LINE
  5
F10274
330
F10275
100
AcDbEntity
8
Geo
100
AcDbLine
10
-35.6196010407632
20
3.97630133549277
30
0.000000000000000
11
-35.5196010407632
21
3.94561226127609
31
0.000000000000000
  0
LINE
  5
F10276
330
F10277
100
AcDbEntity
8
Geo
100
AcDbLine
10
-35.5196010407632
20
3.94561226127609
30
0.000000000000000
11
-35.4196010407632
21
3.91548990051539
31
0.000000000000000
  0
LINE
  5
F10278
330
F10279
100
AcDbEntity
8
Geo
100
AcDbLine
10
-35.4196010407632
20
3.91548990051539
30
0.000000000000000
11
-35.3196010407632
21
3.88593826948083
31
0.000000000000000
  0
LINE
  5
F1027A
330
F1027B
100
AcDbEntity
8
Geo
100
AcDbLine
10
-35.3196010407632
20
3.88593826948083
30
0.000000000000000
11
-35.2196010407632
21
3.85696130834609
31
0.000000000000000
  0
LINE
  5
F1027C
330
F1027D
100
AcDbEntity
8
Geo
100
AcDbLine
10
-35.2196010407632
20
3.85696130834609
30
0.000000000000000
11
-35.1196010407632
21
3.82856288066306
31
0.000000000000000
  0
LINE
  5
F1027E
330
F1027F
100
AcDbEntity
8
Geo
100
AcDbLine
10
-35.1196010407632
20
3.82856288066306
30
0.000000000000000
11
-35.0196010407632
21
3.80074677284670
31
0.000000000000000
  0
LINE
  5
F10280
330
F10281
100
AcDbEntity
8
Geo
100
AcDbLine
10
-35.0196010407632
20
3.80074677284670
30
0.000000000000000
11
-34.9196010407632
21
3.77351669367017
31
0.000000000000000
  0
LINE
  5
F10282
330
F10283
100
AcDbEntity
8
Geo
100
AcDbLine
10
-34.9196010407632
20
3.77351669367017
30
0.000000000000000
11
-34.8196010407632
21
3.74687627377035
31
0.000000000000000
  0
LINE
  5
F10284
330
F10285
100
AcDbEntity
8
Geo
100
AcDbLine
10
-34.8196010407632
20
3.74687627377035
30
0.000000000000000
11
-34.7196010407632
21
3.72082906516377
31
0.000000000000000
  0
LINE
  5
F10286
330
F10287
100
AcDbEntity
8
Geo
100
AcDbLine
10
-34.7196010407632
20
3.72082906516377
30
0.000000000000000
11
-34.6196010407632
21
3.69537854077298
31
0.000000000000000
  0
LINE
  5
F10288
330
F10289
100
AcDbEntity
8
Geo
100
AcDbLine
10
-34.6196010407632
20
3.69537854077298
30
0.000000000000000
11
-34.5196010407632
21
3.67052809396354
31
0.000000000000000
  0
LINE
  5
F1028A
330
F1028B
100
AcDbEntity
8
Geo
100
AcDbLine
10
-34.5196010407632
20
3.67052809396354
30
0.000000000000000
11
-34.4196010407632
21
3.64628103809152
31
0.000000000000000
  0
LINE
  5
F1028C
330
F1028D
100
AcDbEntity
8
Geo
100
AcDbLine
10
-34.4196010407632
20
3.64628103809152
30
0.000000000000000
11
-34.3196010407632
21
3.62264060606181
31
0.000000000000000
  0
LINE
  5
F1028E
330
F1028F
100
AcDbEntity
8
Geo
100
AcDbLine
10
-34.3196010407632
20
3.62264060606181
30
0.000000000000000
11
-34.2196010407632
21
3.59960994989697
31
0.000000000000000
  0
LINE
  5
F10290
330
F10291
100
AcDbEntity
8
Geo
100
AcDbLine
10
-34.2196010407632
20
3.59960994989697
30
0.000000000000000
11
-34.1196010407632
21
3.57719214031704
31
0.000000000000000
  0
LINE
  5
F10292
330
F10293
100
AcDbEntity
8
Geo
100
AcDbLine
10
-34.1196010407632
20
3.57719214031704
30
0.000000000000000
11
-34.0196010407632
21
3.55539016633009
31
0.000000000000000
  0
LINE
  5
F10294
330
F10295
100
AcDbEntity
8
Geo
100
AcDbLine
10
-34.0196010407632
20
3.55539016633009
30
0.000000000000000
11
-33.9196010407632
21
3.53420693483369
31
0.000000000000000
  0
LINE
  5
F10296
330
F10297
100
AcDbEntity
8
Geo
100
AcDbLine
10
-33.9196010407632
20
3.53420693483369
30
0.000000000000000
11
-33.8196010407632
21
3.51364527022732
31
0.000000000000000
  0
LINE
  5
F10298
330
F10299
100
AcDbEntity
8
Geo
100
AcDbLine
10
-33.8196010407632
20
3.51364527022732
30
0.000000000000000
11
-33.7196010407632
21
3.49370791403579
31
0.000000000000000
  0
LINE
  5
F1029A
330
F1029B
100
AcDbEntity
8
Geo
100
AcDbLine
10
-33.7196010407632
20
3.49370791403579
30
0.000000000000000
11
-33.6196010407632
21
3.47439752454373
31
0.000000000000000
  0
LINE
  5
F1029C
330
F1029D
100
AcDbEntity
8
Geo
100
AcDbLine
10
-33.6196010407632
20
3.47439752454373
30
0.000000000000000
11
-33.5196010407632
21
3.45571667644113
31
0.000000000000000
  0
LINE
  5
F1029E
330
F1029F
100
AcDbEntity
8
Geo
100
AcDbLine
10
-33.5196010407632
20
3.45571667644113
30
0.000000000000000
11
-33.4196010407632
21
3.43766786048007
31
0.000000000000000
  0
LINE
  5
F102A0
330
F102A1
100
AcDbEntity
8
Geo
100
AcDbLine
10
-33.4196010407632
20
3.43766786048007
30
0.000000000000000
11
-33.3196010407632
21
3.42025348314259
31
0.000000000000000
  0
LINE
  5
F102A2
330
F102A3
100
AcDbEntity
8
Geo
100
AcDbLine
10
-33.3196010407632
20
3.42025348314259
30
0.000000000000000
11
-33.2196010407632
21
3.40347586631988
31
0.000000000000000
  0
LINE
  5
F102A4
330
F102A5
100
AcDbEntity
8
Geo
100
AcDbLine
10
-33.2196010407632
20
3.40347586631988
30
0.000000000000000
11
-33.1196010407632
21
3.38733724700267
31
0.000000000000000
  0
LINE
  5
F102A6
330
F102A7
100
AcDbEntity
8
Geo
100
AcDbLine
10
-33.1196010407632
20
3.38733724700267
30
0.000000000000000
11
-33.0196010407632
21
3.37183977698294
31
0.000000000000000
  0
LINE
  5
F102A8
330
F102A9
100
AcDbEntity
8
Geo
100
AcDbLine
10
-33.0196010407632
20
3.37183977698294
30
0.000000000000000
11
-32.9196010407632
21
3.35698552256707
31
0.000000000000000
  0
LINE
  5
F102AA
330
F102AB
100
AcDbEntity
8
Geo
100
AcDbLine
10
-32.9196010407632
20
3.35698552256707
30
0.000000000000000
11
-32.8196010407632
21
3.34277646430032
31
0.000000000000000
  0
LINE
  5
F102AC
330
F102AD
100
AcDbEntity
8
Geo
100
AcDbLine
10
-32.8196010407632
20
3.34277646430032
30
0.000000000000000
11
-32.7196010407632
21
3.32921449670274
31
0.000000000000000
  0
LINE
  5
F102AE
330
F102AF
100
AcDbEntity
8
Geo
100
AcDbLine
10
-32.7196010407632
20
3.32921449670274
30
0.000000000000000
11
-32.6196010407632
21
3.31630142801658
31
0.000000000000000
  0
LINE
  5
F102B0
330
F102B1
100
AcDbEntity
8
Geo
100
AcDbLine
10
-32.6196010407632
20
3.31630142801658
30
0.000000000000000
11
-32.5196010407632
21
3.30403897996520
31
0.000000000000000
  0
LINE
  5
F102B2
330
F102B3
100
AcDbEntity
8
Geo
100
AcDbLine
10
-32.5196010407632
20
3.30403897996520
30
0.000000000000000
11
-32.4196010407632
21
3.29242878752351
31
0.000000000000000
  0
LINE
  5
F102B4
330
F102B5
100
AcDbEntity
8
Geo
100
AcDbLine
10
-32.4196010407632
20
3.29242878752351
30
0.000000000000000
11
-32.3196010407632
21
3.28147239869996
31
0.000000000000000
  0
LINE
  5
F102B6
330
F102B7
100
AcDbEntity
8
Geo
100
AcDbLine
10
-32.3196010407632
20
3.28147239869996
30
0.000000000000000
11
-32.2196010407632
21
3.27117127433018
31
0.000000000000000
  0
LINE
  5
F102B8
330
F102B9
100
AcDbEntity
8
Geo
100
AcDbLine
10
-32.2196010407632
20
3.27117127433018
30
0.000000000000000
11
-32.1196010407632
21
3.26152678788215
31
0.000000000000000
  0
LINE
  5
F102BA
330
F102BB
100
AcDbEntity
8
Geo
100
AcDbLine
10
-32.1196010407632
20
3.26152678788215
30
0.000000000000000
11
-32.0196010407632
21
3.25254022527310
31
0.000000000000000
  0
LINE
  5
F102BC
330
F102BD
100
AcDbEntity
8
Geo
100
AcDbLine
10
-32.0196010407632
20
3.25254022527310
30
0.000000000000000
11
-31.9196010407632
21
3.24421278469807
31
0.000000000000000
  0
LINE
  5
F102BE
330
F102BF
100
AcDbEntity
8
Geo
100
AcDbLine
10
-31.9196010407632
20
3.24421278469807
30
0.000000000000000
11
-31.8196010407632
21
3.23654557647014
31
0.000000000000000
  0
LINE
  5
F102C0
330
F102C1
100
AcDbEntity
8
Geo
100
AcDbLine
10
-31.8196010407632
20
3.23654557647014
30
0.000000000000000
11
-31.7196010407632
21
3.22953962287237
31
0.000000000000000
  0
LINE
  5
F102C2
330
F102C3
100
AcDbEntity
8
Geo
100
AcDbLine
10
-31.7196010407632
20
3.22953962287237
30
0.000000000000000
11
-31.6196010407632
21
3.22319585802154
31
0.000000000000000
  0
LINE
  5
F102C4
330
F102C5
100
AcDbEntity
8
Geo
100
AcDbLine
10
-31.6196010407632
20
3.22319585802154
30
0.000000000000000
11
-31.5196010407632
21
3.21751512774355
31
0.000000000000000
  0
LINE
  5
F102C6
330
F102C7
100
AcDbEntity
8
Geo
100
AcDbLine
10
-31.5196010407632
20
3.21751512774355
30
0.000000000000000
11
-31.4196010407632
21
3.21249818946070
31
0.000000000000000
  0
LINE
  5
F102C8
330
F102C9
100
AcDbEntity
8
Geo
100
AcDbLine
10
-31.4196010407632
20
3.21249818946070
30
0.000000000000000
11
-31.3196010407632
21
3.20814571209066
31
0.000000000000000
  0
LINE
  5
F102CA
330
F102CB
100
AcDbEntity
8
Geo
100
AcDbLine
10
-31.3196010407632
20
3.20814571209066
30
0.000000000000000
11
-31.2196010407632
21
3.20445827595729
31
0.000000000000000
  0
LINE
  5
F102CC
330
F102CD
100
AcDbEntity
8
Geo
100
AcDbLine
10
-31.2196010407632
20
3.20445827595729
30
0.000000000000000
11
-31.1196010407632
21
3.20143637271329
31
0.000000000000000
  0
LINE
  5
F102CE
330
F102CF
100
AcDbEntity
8
Geo
100
AcDbLine
10
-31.1196010407632
20
3.20143637271329
30
0.000000000000000
11
-31.0196010407632
21
3.19908040527461
31
0.000000000000000
  0
LINE
  5
F102D0
330
F102D1
100
AcDbEntity
8
Geo
100
AcDbLine
10
-31.0196010407632
20
3.19908040527461
30
0.000000000000000
11
-30.9196010407632
21
3.19739068776674
31
0.000000000000000
  0
LINE
  5
F102D2
330
F102D3
100
AcDbEntity
8
Geo
100
AcDbLine
10
-30.9196010407632
20
3.19739068776674
30
0.000000000000000
11
-30.8196010407632
21
3.19636744548287
31
0.000000000000000
  0
LINE
  5
F102D4
330
F102D5
100
AcDbEntity
8
Geo
100
AcDbLine
10
-30.8196010407632
20
3.19636744548287
30
0.000000000000000
11
-30.7196010407633
21
3.19601081485377
31
0.000000000000000
  0
LINE
  5
F102D6
330
F102D7
100
AcDbEntity
8
Geo
100
AcDbLine
10
-30.7196010407633
20
3.19601081485377
30
0.000000000000000
11
-30.7161057392885
21
3.19601040763227
31
0.000000000000000
  0
LINE
  5
F102D8
330
F102D9
100
AcDbEntity
8
Geo
100
AcDbLine
10
-43.6196010407632
20
5.78280465959439
30
0.000000000000000
11
-43.6196010407632
21
5.64656329467533
31
0.000000000000000
  0
LINE
  5
F102DA
330
F102DB
100
AcDbEntity
8
Geo
100
AcDbLine
10
-43.6196010407632
20
5.64656329467533
30
0.000000000000000
11
-43.5834527527975
21
5.58458003755104
31
0.000000000000000
  0
LINE
  5
F102DC
330
F102DD
100
AcDbEntity
8
Geo
100
AcDbLine
10
-30.7161057392885
20
13.1960104076323
30
0.000000000000000
11
-30.6196010407632
21
13.1956999718349
31
0.000000000000000
  0
LINE
  5
F102DE
330
F102DF
100
AcDbEntity
8
Geo
100
AcDbLine
10
-30.6196010407632
20
13.1956999718349
30
0.000000000000000
11
-30.5196010407632
21
13.1947233253907
31
0.000000000000000
  0
LINE
  5
F102E0
330
F102E1
100
AcDbEntity
8
Geo
100
AcDbLine
10
-30.5196010407632
20
13.1947233253907
30
0.000000000000000
11
-30.4196010407633
21
13.1930801912962
31
0.000000000000000
  0
LINE
  5
F102E2
330
F102E3
100
AcDbEntity
8
Geo
100
AcDbLine
10
-30.4196010407633
20
13.1930801912962
30
0.000000000000000
11
-30.3196010407633
21
13.1907707886337
31
0.000000000000000
  0
LINE
  5
F102E4
330
F102E5
100
AcDbEntity
8
Geo
100
AcDbLine
10
-30.3196010407633
20
13.1907707886337
30
0.000000000000000
11
-30.2196010407633
21
13.1877954253199
31
0.000000000000000
  0
LINE
  5
F102E6
330
F102E7
100
AcDbEntity
8
Geo
100
AcDbLine
10
-30.2196010407633
20
13.1877954253199
30
0.000000000000000
11
-30.1196010407632
21
13.1841544980657
31
0.000000000000000
  0
LINE
  5
F102E8
330
F102E9
100
AcDbEntity
8
Geo
100
AcDbLine
10
-30.1196010407632
20
13.1841544980657
30
0.000000000000000
11
-30.0196010407633
21
13.1798484923225
31
0.000000000000000
  0
LINE
  5
F102EA
330
F102EB
100
AcDbEntity
8
Geo
100
AcDbLine
10
-30.0196010407633
20
13.1798484923225
30
0.000000000000000
11
-29.9196010407633
21
13.1748779822182
31
0.000000000000000
  0
LINE
  5
F102EC
330
F102ED
100
AcDbEntity
8
Geo
100
AcDbLine
10
-29.9196010407633
20
13.1748779822182
30
0.000000000000000
11
-29.8196010407633
21
13.1692436304800
31
0.000000000000000
  0
LINE
  5
F102EE
330
F102EF
100
AcDbEntity
8
Geo
100
AcDbLine
10
-29.8196010407633
20
13.1692436304800
30
0.000000000000000
11
-29.7196010407633
21
13.1629461883464
31
0.000000000000000
  0
LINE
  5
F102F0
330
F102F1
100
AcDbEntity
8
Geo
100
AcDbLine
10
-29.7196010407633
20
13.1629461883464
30
0.000000000000000
11
-29.6196010407633
21
13.1559864954672
31
0.000000000000000
  0
LINE
  5
F102F2
330
F102F3
100
AcDbEntity
8
Geo
100
AcDbLine
10
-29.6196010407633
20
13.1559864954672
30
0.000000000000000
11
-29.5196010407633
21
13.1483654797909
31
0.000000000000000
  0
LINE
  5
F102F4
330
F102F5
100
AcDbEntity
8
Geo
100
AcDbLine
10
-29.5196010407633
20
13.1483654797909
30
0.000000000000000
11
-29.4196010407633
21
13.1400841574419
31
0.000000000000000
  0
LINE
  5
F102F6
330
F102F7
100
AcDbEntity
8
Geo
100
AcDbLine
10
-29.4196010407633
20
13.1400841574419
30
0.000000000000000
11
-29.3196010407633
21
13.1311436325840
31
0.000000000000000
  0
LINE
  5
F102F8
330
F102F9
100
AcDbEntity
8
Geo
100
AcDbLine
10
-29.3196010407633
20
13.1311436325840
30
0.000000000000000
11
-29.2196010407633
21
13.1215450972742
31
0.000000000000000
  0
LINE
  5
F102FA
330
F102FB
100
AcDbEntity
8
Geo
100
AcDbLine
10
-29.2196010407633
20
13.1215450972742
30
0.000000000000000
11
-29.1196010407633
21
13.1112898313027
31
0.000000000000000
  0
LINE
  5
F102FC
330
F102FD
100
AcDbEntity
8
Geo
100
AcDbLine
10
-29.1196010407633
20
13.1112898313027
30
0.000000000000000
11
-29.0196010407633
21
13.1003792020233
31
0.000000000000000
  0
LINE
  5
F102FE
330
F102FF
100
AcDbEntity
8
Geo
100
AcDbLine
10
-29.0196010407633
20
13.1003792020233
30
0.000000000000000
11
-28.9196010407633
21
13.0888146641703
31
0.000000000000000
  0
LINE
  5
F10300
330
F10301
100
AcDbEntity
8
Geo
100
AcDbLine
10
-28.9196010407633
20
13.0888146641703
30
0.000000000000000
11
-28.8196010407633
21
13.0765977596651
31
0.000000000000000
  0
LINE
  5
F10302
330
F10303
100
AcDbEntity
8
Geo
100
AcDbLine
10
-28.8196010407633
20
13.0765977596651
30
0.000000000000000
11
-28.7196010407633
21
13.0637301174100
31
0.000000000000000
  0
LINE
  5
F10304
330
F10305
100
AcDbEntity
8
Geo
100
AcDbLine
10
-28.7196010407633
20
13.0637301174100
30
0.000000000000000
11
-28.6196010407633
21
13.0502134530717
31
0.000000000000000
  0
LINE
  5
F10306
330
F10307
100
AcDbEntity
8
Geo
100
AcDbLine
10
-28.6196010407633
20
13.0502134530717
30
0.000000000000000
11
-28.5196010407633
21
13.0360495688520
31
0.000000000000000
  0
LINE
  5
F10308
330
F10309
100
AcDbEntity
8
Geo
100
AcDbLine
10
-28.5196010407633
20
13.0360495688520
30
0.000000000000000
11
-28.4196010407633
21
13.0212403532479
31
0.000000000000000
  0
LINE
  5
F1030A
330
F1030B
100
AcDbEntity
8
Geo
100
AcDbLine
10
-28.4196010407633
20
13.0212403532479
30
0.000000000000000
11
-28.3196010407633
21
13.0057877807996
31
0.000000000000000
  0
LINE
  5
F1030C
330
F1030D
100
AcDbEntity
8
Geo
100
AcDbLine
10
-28.3196010407633
20
13.0057877807996
30
0.000000000000000
11
-28.2196010407633
21
12.9896939118270
31
0.000000000000000
  0
LINE
  5
F1030E
330
F1030F
100
AcDbEntity
8
Geo
100
AcDbLine
10
-28.2196010407633
20
12.9896939118270
30
0.000000000000000
11
-28.1196010407633
21
12.9729608921556
31
0.000000000000000
  0
LINE
  5
F10310
330
F10311
100
AcDbEntity
8
Geo
100
AcDbLine
10
-28.1196010407633
20
12.9729608921556
30
0.000000000000000
11
-28.0196010407633
21
12.9555909528299
31
0.000000000000000
  0
LINE
  5
F10312
330
F10313
100
AcDbEntity
8
Geo
100
AcDbLine
10
-28.0196010407633
20
12.9555909528299
30
0.000000000000000
11
-27.9196010407633
21
12.9375864098160
31
0.000000000000000
  0
LINE
  5
F10314
330
F10315
100
AcDbEntity
8
Geo
100
AcDbLine
10
-27.9196010407633
20
12.9375864098160
30
0.000000000000000
11
-27.8196010407633
21
12.9189496636930
31
0.000000000000000
  0
LINE
  5
F10316
330
F10317
100
AcDbEntity
8
Geo
100
AcDbLine
10
-27.8196010407633
20
12.9189496636930
30
0.000000000000000
11
-27.7196010407633
21
12.8996831993327
31
0.000000000000000
  0
LINE
  5
F10318
330
F10319
100
AcDbEntity
8
Geo
100
AcDbLine
10
-27.7196010407633
20
12.8996831993327
30
0.000000000000000
11
-27.6196010407632
21
12.8797895855686
31
0.000000000000000
  0
LINE
  5
F1031A
330
F1031B
100
AcDbEntity
8
Geo
100
AcDbLine
10
-27.6196010407632
20
12.8797895855686
30
0.000000000000000
11
-27.5196010407632
21
12.8592714748531
31
0.000000000000000
  0
LINE
  5
F1031C
330
F1031D
100
AcDbEntity
8
Geo
100
AcDbLine
10
-27.5196010407632
20
12.8592714748531
30
0.000000000000000
11
-27.4196010407632
21
12.8381316029037
31
0.000000000000000
  0
LINE
  5
F1031E
330
F1031F
100
AcDbEntity
8
Geo
100
AcDbLine
10
-27.4196010407632
20
12.8381316029037
30
0.000000000000000
11
-27.3196010407632
21
12.8163727883388
31
0.000000000000000
  0
LINE
  5
F10320
330
F10321
100
AcDbEntity
8
Geo
100
AcDbLine
10
-27.3196010407632
20
12.8163727883388
30
0.000000000000000
11
-27.2196010407632
21
12.7939979323015
31
0.000000000000000
  0
LINE
  5
F10322
330
F10323
100
AcDbEntity
8
Geo
100
AcDbLine
10
-27.2196010407632
20
12.7939979323015
30
0.000000000000000
11
-27.1196010407632
21
12.7710100180726
31
0.000000000000000
  0
LINE
  5
F10324
330
F10325
100
AcDbEntity
8
Geo
100
AcDbLine
10
-27.1196010407632
20
12.7710100180726
30
0.000000000000000
11
-27.0196010407632
21
12.7474121106735
31
0.000000000000000
  0
LINE
  5
F10326
330
F10327
100
AcDbEntity
8
Geo
100
AcDbLine
10
-27.0196010407632
20
12.7474121106735
30
0.000000000000000
11
-26.9196010407632
21
12.7232073564567
31
0.000000000000000
  0
LINE
  5
F10328
330
F10329
100
AcDbEntity
8
Geo
100
AcDbLine
10
-26.9196010407632
20
12.7232073564567
30
0.000000000000000
11
-26.8196010407632
21
12.6983989826870
31
0.000000000000000
  0
LINE
  5
F1032A
330
F1032B
100
AcDbEntity
8
Geo
100
AcDbLine
10
-26.8196010407632
20
12.6983989826870
30
0.000000000000000
11
-26.7196010407632
21
12.6729902971108
31
0.000000000000000
  0
LINE
  5
F1032C
330
F1032D
100
AcDbEntity
8
Geo
100
AcDbLine
10
-26.7196010407632
20
12.6729902971108
30
0.000000000000000
11
-26.6196010407632
21
12.6469846875153
31
0.000000000000000
  0
LINE
  5
F1032E
330
F1032F
100
AcDbEntity
8
Geo
100
AcDbLine
10
-26.6196010407632
20
12.6469846875153
30
0.000000000000000
11
-26.5196010407632
21
12.6203856212764
31
0.000000000000000
  0
LINE
  5
F10330
330
F10331
100
AcDbEntity
8
Geo
100
AcDbLine
10
-26.5196010407632
20
12.6203856212764
30
0.000000000000000
11
-26.4196010407632
21
12.5931966448969
31
0.000000000000000
  0
LINE
  5
F10332
330
F10333
100
AcDbEntity
8
Geo
100
AcDbLine
10
-26.4196010407632
20
12.5931966448969
30
0.000000000000000
11
-26.3196010407632
21
12.5654213835335
31
0.000000000000000
  0
LINE
  5
F10334
330
F10335
100
AcDbEntity
8
Geo
100
AcDbLine
10
-26.3196010407632
20
12.5654213835335
30
0.000000000000000
11
-26.2196010407632
21
12.5370635405131
31
0.000000000000000
  0
LINE
  5
F10336
330
F10337
100
AcDbEntity
8
Geo
100
AcDbLine
10
-26.2196010407632
20
12.5370635405131
30
0.000000000000000
11
-26.1196010407632
21
12.5081268968395
31
0.000000000000000
  0
LINE
  5
F10338
330
F10339
100
AcDbEntity
8
Geo
100
AcDbLine
10
-26.1196010407632
20
12.5081268968395
30
0.000000000000000
11
-26.0196010407632
21
12.4786153106890
31
0.000000000000000
  0
LINE
  5
F1033A
330
F1033B
100
AcDbEntity
8
Geo
100
AcDbLine
10
-26.0196010407632
20
12.4786153106890
30
0.000000000000000
11
-25.9196010407632
21
12.4485327168960
31
0.000000000000000
  0
LINE
  5
F1033C
330
F1033D
100
AcDbEntity
8
Geo
100
AcDbLine
10
-25.9196010407632
20
12.4485327168960
30
0.000000000000000
11
-25.8196010407632
21
12.4178831264284
31
0.000000000000000
  0
LINE
  5
F1033E
330
F1033F
100
AcDbEntity
8
Geo
100
AcDbLine
10
-25.8196010407632
20
12.4178831264284
30
0.000000000000000
11
-25.7196010407632
21
12.3866706258529
31
0.000000000000000
  0
LINE
  5
F10340
330
F10341
100
AcDbEntity
8
Geo
100
AcDbLine
10
-25.7196010407632
20
12.3866706258529
30
0.000000000000000
11
-25.6196010407632
21
12.3548993767900
31
0.000000000000000
  0
LINE
  5
F10342
330
F10343
100
AcDbEntity
8
Geo
100
AcDbLine
10
-25.6196010407632
20
12.3548993767900
30
0.000000000000000
11
-25.5196010407632
21
12.3225736153591
31
0.000000000000000
  0
LINE
  5
F10344
330
F10345
100
AcDbEntity
8
Geo
100
AcDbLine
10
-25.5196010407632
20
12.3225736153591
30
0.000000000000000
11
-25.4196010407632
21
12.2896976516140
31
0.000000000000000
  0
LINE
  5
F10346
330
F10347
100
AcDbEntity
8
Geo
100
AcDbLine
10
-25.4196010407632
20
12.2896976516140
30
0.000000000000000
11
-25.3196010407632
21
12.2562758689677
31
0.000000000000000
  0
LINE
  5
F10348
330
F10349
100
AcDbEntity
8
Geo
100
AcDbLine
10
-25.3196010407632
20
12.2562758689677
30
0.000000000000000
11
-25.2196010407632
21
12.2223127236084
31
0.000000000000000
  0
LINE
  5
F1034A
330
F1034B
100
AcDbEntity
8
Geo
100
AcDbLine
10
-25.2196010407632
20
12.2223127236084
30
0.000000000000000
11
-25.1196010407632
21
12.1878127439051
31
0.000000000000000
  0
LINE
  5
F1034C
330
F1034D
100
AcDbEntity
8
Geo
100
AcDbLine
10
-25.1196010407632
20
12.1878127439051
30
0.000000000000000
11
-25.0196010407632
21
12.1527805298041
31
0.000000000000000
  0
LINE
  5
F1034E
330
F1034F
100
AcDbEntity
8
Geo
100
AcDbLine
10
-25.0196010407632
20
12.1527805298041
30
0.000000000000000
11
-24.9196010407632
21
12.1172207522154
31
0.000000000000000
  0
LINE
  5
F10350
330
F10351
100
AcDbEntity
8
Geo
100
AcDbLine
10
-24.9196010407632
20
12.1172207522154
30
0.000000000000000
11
-24.8196010407632
21
12.0811381523899
31
0.000000000000000
  0
LINE
  5
F10352
330
F10353
100
AcDbEntity
8
Geo
100
AcDbLine
10
-24.8196010407632
20
12.0811381523899
30
0.000000000000000
11
-24.7196010407632
21
12.0445375412874
31
0.000000000000000
  0
LINE
  5
F10354
330
F10355
100
AcDbEntity
8
Geo
100
AcDbLine
10
-24.7196010407632
20
12.0445375412874
30
0.000000000000000
11
-24.6196010407632
21
12.0074237989353
31
0.000000000000000
  0
LINE
  5
F10356
330
F10357
100
AcDbEntity
8
Geo
100
AcDbLine
10
-24.6196010407632
20
12.0074237989353
30
0.000000000000000
11
-24.5196010407632
21
11.9698018737776
31
0.000000000000000
  0
LINE
  5
F10358
330
F10359
100
AcDbEntity
8
Geo
100
AcDbLine
10
-24.5196010407632
20
11.9698018737776
30
0.000000000000000
11
-24.4196010407632
21
11.9316767820151
31
0.000000000000000
  0
LINE
  5
F1035A
330
F1035B
100
AcDbEntity
8
Geo
100
AcDbLine
10
-33.4368050629828
20
13.1960104076323
30
0.000000000000000
11
-33.4196010407632
21
13.1960005419276
31
0.000000000000000
  0
LINE
  5
F1035C
330
F1035D
100
AcDbEntity
8
Geo
100
AcDbLine
10
-33.4196010407632
20
13.1960005419276
30
0.000000000000000
11
-33.3196010407632
21
13.1955525234825
31
0.000000000000000
  0
LINE
  5
F1035E
330
F1035F
100
AcDbEntity
8
Geo
100
AcDbLine
10
-33.3196010407632
20
13.1955525234825
30
0.000000000000000
11
-33.2196010407632
21
13.1944379068287
31
0.000000000000000
  0
LINE
  5
F10360
330
F10361
100
AcDbEntity
8
Geo
100
AcDbLine
10
-33.2196010407632
20
13.1944379068287
30
0.000000000000000
11
-33.1196010407632
21
13.1926568405800
31
0.000000000000000
  0
LINE
  5
F10362
330
F10363
100
AcDbEntity
8
Geo
100
AcDbLine
10
-33.1196010407632
20
13.1926568405800
30
0.000000000000000
11
-33.0196010407632
21
13.1902095622093
31
0.000000000000000
  0
LINE
  5
F10364
330
F10365
100
AcDbEntity
8
Geo
100
AcDbLine
10
-33.0196010407632
20
13.1902095622093
30
0.000000000000000
11
-32.9196010407632
21
13.1870963980167
31
0.000000000000000
  0
LINE
  5
F10366
330
F10367
100
AcDbEntity
8
Geo
100
AcDbLine
10
-32.9196010407632
20
13.1870963980167
30
0.000000000000000
11
-32.8196010407632
21
13.1833177630863
31
0.000000000000000
  0
LINE
  5
F10368
330
F10369
100
AcDbEntity
8
Geo
100
AcDbLine
10
-32.8196010407632
20
13.1833177630863
30
0.000000000000000
11
-32.7196010407632
21
13.1788741612304
31
0.000000000000000
  0
LINE
  5
F1036A
330
F1036B
100
AcDbEntity
8
Geo
100
AcDbLine
10
-32.7196010407632
20
13.1788741612304
30
0.000000000000000
11
-32.6196010407632
21
13.1737661849227
31
0.000000000000000
  0
LINE
  5
F1036C
330
F1036D
100
AcDbEntity
8
Geo
100
AcDbLine
10
-32.6196010407632
20
13.1737661849227
30
0.000000000000000
11
-32.5196010407632
21
13.1679945152191
31
0.000000000000000
  0
LINE
  5
F1036E
330
F1036F
100
AcDbEntity
8
Geo
100
AcDbLine
10
-32.5196010407632
20
13.1679945152191
30
0.000000000000000
11
-32.4196010407632
21
13.1615599216670
31
0.000000000000000
  0
LINE
  5
F10370
330
F10371
100
AcDbEntity
8
Geo
100
AcDbLine
10
-32.4196010407632
20
13.1615599216670
30
0.000000000000000
11
-32.3196010407632
21
13.1544632622027
31
0.000000000000000
  0
LINE
  5
F10372
330
F10373
100
AcDbEntity
8
Geo
100
AcDbLine
10
-32.3196010407632
20
13.1544632622027
30
0.000000000000000
11
-32.2196010407632
21
13.1467054830370
31
0.000000000000000
  0
LINE
  5
F10374
330
F10375
100
AcDbEntity
8
Geo
100
AcDbLine
10
-32.2196010407632
20
13.1467054830370
30
0.000000000000000
11
-32.1196010407632
21
13.1382876185289
31
0.000000000000000
  0
LINE
  5
F10376
330
F10377
100
AcDbEntity
8
Geo
100
AcDbLine
10
-32.1196010407632
20
13.1382876185289
30
0.000000000000000
11
-32.0196010407632
21
13.1292107910478
31
0.000000000000000
  0
LINE
  5
F10378
330
F10379
100
AcDbEntity
8
Geo
100
AcDbLine
10
-32.0196010407632
20
13.1292107910478
30
0.000000000000000
11
-31.9196010407632
21
13.1194762108241
31
0.000000000000000
  0
LINE
  5
F1037A
330
F1037B
100
AcDbEntity
8
Geo
100
AcDbLine
10
-31.9196010407632
20
13.1194762108241
30
0.000000000000000
11
-31.8196010407632
21
13.1090851757872
31
0.000000000000000
  0
LINE
  5
F1037C
330
F1037D
100
AcDbEntity
8
Geo
100
AcDbLine
10
-31.8196010407632
20
13.1090851757872
30
0.000000000000000
11
-31.7196010407632
21
13.0980390713932
31
0.000000000000000
  0
LINE
  5
F1037E
330
F1037F
100
AcDbEntity
8
Geo
100
AcDbLine
10
-31.7196010407632
20
13.0980390713932
30
0.000000000000000
11
-31.6196010407632
21
13.0863393704396
31
0.000000000000000
  0
LINE
  5
F10380
330
F10381
100
AcDbEntity
8
Geo
100
AcDbLine
10
-31.6196010407632
20
13.0863393704396
30
0.000000000000000
11
-31.5196010407632
21
13.0739876328691
31
0.000000000000000
  0
LINE
  5
F10382
330
F10383
100
AcDbEntity
8
Geo
100
AcDbLine
10
-31.5196010407632
20
13.0739876328691
30
0.000000000000000
11
-31.4196010407632
21
13.0609855055619
31
0.000000000000000
  0
LINE
  5
F10384
330
F10385
100
AcDbEntity
8
Geo
100
AcDbLine
10
-31.4196010407632
20
13.0609855055619
30
0.000000000000000
11
-31.3196010407632
21
13.0473347221157
31
0.000000000000000
  0
LINE
  5
F10386
330
F10387
100
AcDbEntity
8
Geo
100
AcDbLine
10
-31.3196010407632
20
13.0473347221157
30
0.000000000000000
11
-31.2196010407632
21
13.0330371026146
31
0.000000000000000
  0
LINE
  5
F10388
330
F10389
100
AcDbEntity
8
Geo
100
AcDbLine
10
-31.2196010407632
20
13.0330371026146
30
0.000000000000000
11
-31.1196010407632
21
13.0180945533868
31
0.000000000000000
  0
LINE
  5
F1038A
330
F1038B
100
AcDbEntity
8
Geo
100
AcDbLine
10
-31.1196010407632
20
13.0180945533868
30
0.000000000000000
11
-31.0196010407632
21
13.0025090667501
31
0.000000000000000
  0
LINE
  5
F1038C
330
F1038D
100
AcDbEntity
8
Geo
100
AcDbLine
10
-31.0196010407632
20
13.0025090667501
30
0.000000000000000
11
-30.9196010407632
21
12.9862827207461
31
0.000000000000000
  0
LINE
  5
F1038E
330
F1038F
100
AcDbEntity
8
Geo
100
AcDbLine
10
-30.9196010407632
20
12.9862827207461
30
0.000000000000000
11
-30.8196010407632
21
12.9694176788638
31
0.000000000000000
  0
LINE
  5
F10390
330
F10391
100
AcDbEntity
8
Geo
100
AcDbLine
10
-30.8196010407632
20
12.9694176788638
30
0.000000000000000
11
-30.7196010407633
21
12.9519161897503
31
0.000000000000000
  0
LINE
  5
F10392
330
F10393
100
AcDbEntity
8
Geo
100
AcDbLine
10
-30.7196010407633
20
12.9519161897503
30
0.000000000000000
11
-30.6196010407632
21
12.9337805869116
31
0.000000000000000
  0
LINE
  5
F10394
330
F10395
100
AcDbEntity
8
Geo
100
AcDbLine
10
-30.6196010407632
20
12.9337805869116
30
0.000000000000000
11
-30.5196010407632
21
12.9150132884012
31
0.000000000000000
  0
LINE
  5
F10396
330
F10397
100
AcDbEntity
8
Geo
100
AcDbLine
10
-30.5196010407632
20
12.9150132884012
30
0.000000000000000
11
-30.4196010407633
21
12.8956167964978
31
0.000000000000000
  0
LINE
  5
F10398
330
F10399
100
AcDbEntity
8
Geo
100
AcDbLine
10
-30.4196010407633
20
12.8956167964978
30
0.000000000000000
11
-30.3196010407633
21
12.8755936973716
31
0.000000000000000
  0
LINE
  5
F1039A
330
F1039B
100
AcDbEntity
8
Geo
100
AcDbLine
10
-30.3196010407633
20
12.8755936973716
30
0.000000000000000
11
-30.2196010407633
21
12.8549466607394
31
0.000000000000000
  0
LINE
  5
F1039C
330
F1039D
100
AcDbEntity
8
Geo
100
AcDbLine
10
-30.2196010407633
20
12.8549466607394
30
0.000000000000000
11
-30.1196010407632
21
12.8336784395089
31
0.000000000000000
  0
LINE
  5
F1039E
330
F1039F
100
AcDbEntity
8
Geo
100
AcDbLine
10
-30.1196010407632
20
12.8336784395089
30
0.000000000000000
11
-30.0196010407633
21
12.8117918694114
31
0.000000000000000
  0
LINE
  5
F103A0
330
F103A1
100
AcDbEntity
8
Geo
100
AcDbLine
10
-30.0196010407633
20
12.8117918694114
30
0.000000000000000
11
-29.9196010407633
21
12.7892898686239
31
0.000000000000000
  0
LINE
  5
F103A2
330
F103A3
100
AcDbEntity
8
Geo
100
AcDbLine
10
-29.9196010407633
20
12.7892898686239
30
0.000000000000000
11
-29.8196010407633
21
12.7661754373797
31
0.000000000000000
  0
LINE
  5
F103A4
330
F103A5
100
AcDbEntity
8
Geo
100
AcDbLine
10
-29.8196010407633
20
12.7661754373797
30
0.000000000000000
11
-29.7196010407633
21
12.7424516575688
31
0.000000000000000
  0
LINE
  5
F103A6
330
F103A7
100
AcDbEntity
8
Geo
100
AcDbLine
10
-29.7196010407633
20
12.7424516575688
30
0.000000000000000
11
-29.6196010407633
21
12.7181216923266
31
0.000000000000000
  0
LINE
  5
F103A8
330
F103A9
100
AcDbEntity
8
Geo
100
AcDbLine
10
-29.6196010407633
20
12.7181216923266
30
0.000000000000000
11
-29.5196010407633
21
12.6931887856126
31
0.000000000000000
  0
LINE
  5
F103AA
330
F103AB
100
AcDbEntity
8
Geo
100
AcDbLine
10
-29.5196010407633
20
12.6931887856126
30
0.000000000000000
11
-29.4196010407633
21
12.6676562617773
31
0.000000000000000
  0
LINE
  5
F103AC
330
F103AD
100
AcDbEntity
8
Geo
100
AcDbLine
10
-29.4196010407633
20
12.6676562617773
30
0.000000000000000
11
-29.3196010407633
21
12.6415275251194
31
0.000000000000000
  0
LINE
  5
F103AE
330
F103AF
100
AcDbEntity
8
Geo
100
AcDbLine
10
-29.3196010407633
20
12.6415275251194
30
0.000000000000000
11
-29.2196010407633
21
12.6148060594318
31
0.000000000000000
  0
LINE
  5
F103B0
330
F103B1
100
AcDbEntity
8
Geo
100
AcDbLine
10
-29.2196010407633
20
12.6148060594318
30
0.000000000000000
11
-29.1196010407633
21
12.5874954275369
31
0.000000000000000
  0
LINE
  5
F103B2
330
F103B3
100
AcDbEntity
8
Geo
100
AcDbLine
10
-29.1196010407633
20
12.5874954275369
30
0.000000000000000
11
-29.0196010407633
21
12.5595992708119
31
0.000000000000000
  0
LINE
  5
F103B4
330
F103B5
100
AcDbEntity
8
Geo
100
AcDbLine
10
-29.0196010407633
20
12.5595992708119
30
0.000000000000000
11
-28.9196010407633
21
12.5311213087030
31
0.000000000000000
  0
LINE
  5
F103B6
330
F103B7
100
AcDbEntity
8
Geo
100
AcDbLine
10
-28.9196010407633
20
12.5311213087030
30
0.000000000000000
11
-28.8196010407633
21
12.5020653382297
31
0.000000000000000
  0
LINE
  5
F103B8
330
F103B9
100
AcDbEntity
8
Geo
100
AcDbLine
10
-28.8196010407633
20
12.5020653382297
30
0.000000000000000
11
-28.7196010407633
21
12.4724352334783
31
0.000000000000000
  0
LINE
  5
F103BA
330
F103BB
100
AcDbEntity
8
Geo
100
AcDbLine
10
-28.7196010407633
20
12.4724352334783
30
0.000000000000000
11
-28.6196010407633
21
12.4422349450855
31
0.000000000000000
  0
LINE
  5
F103BC
330
F103BD
100
AcDbEntity
8
Geo
100
AcDbLine
10
-28.6196010407633
20
12.4422349450855
30
0.000000000000000
11
-28.5196010407633
21
12.4114684997118
31
0.000000000000000
  0
LINE
  5
F103BE
330
F103BF
100
AcDbEntity
8
Geo
100
AcDbLine
10
-28.5196010407633
20
12.4114684997118
30
0.000000000000000
11
-28.4196010407633
21
12.3801399995041
31
0.000000000000000
  0
LINE
  5
F103C0
330
F103C1
100
AcDbEntity
8
Geo
100
AcDbLine
10
-28.4196010407633
20
12.3801399995041
30
0.000000000000000
11
-28.3196010407633
21
12.3482536215496
31
0.000000000000000
  0
LINE
  5
F103C2
330
F103C3
100
AcDbEntity
8
Geo
100
AcDbLine
10
-28.3196010407633
20
12.3482536215496
30
0.000000000000000
11
-28.2196010407633
21
12.3158136173180
31
0.000000000000000
  0
LINE
  5
F103C4
330
F103C5
100
AcDbEntity
8
Geo
100
AcDbLine
10
-28.2196010407633
20
12.3158136173180
30
0.000000000000000
11
-28.1196010407633
21
12.2828243120952
31
0.000000000000000
  0
LINE
  5
F103C6
330
F103C7
100
AcDbEntity
8
Geo
100
AcDbLine
10
-28.1196010407633
20
12.2828243120952
30
0.000000000000000
11
-28.0196010407633
21
12.2492901044063
31
0.000000000000000
  0
LINE
  5
F103C8
330
F103C9
100
AcDbEntity
8
Geo
100
AcDbLine
10
-28.0196010407633
20
12.2492901044063
30
0.000000000000000
11
-27.9196010407633
21
12.2152154654293
31
0.000000000000000
  0
LINE
  5
F103CA
330
F103CB
100
AcDbEntity
8
Geo
100
AcDbLine
10
-27.9196010407633
20
12.2152154654293
30
0.000000000000000
11
-27.8196010407633
21
12.1806049383990
31
0.000000000000000
  0
LINE
  5
F103CC
330
F103CD
100
AcDbEntity
8
Geo
100
AcDbLine
10
-27.8196010407633
20
12.1806049383990
30
0.000000000000000
11
-27.7196010407633
21
12.1454631380009
31
0.000000000000000
  0
LINE
  5
F103CE
330
F103CF
100
AcDbEntity
8
Geo
100
AcDbLine
10
-27.7196010407633
20
12.1454631380009
30
0.000000000000000
11
-27.6196010407632
21
12.1097947497565
31
0.000000000000000
  0
LINE
  5
F103D0
330
F103D1
100
AcDbEntity
8
Geo
100
AcDbLine
10
-27.6196010407632
20
12.1097947497565
30
0.000000000000000
11
-27.5196010407632
21
12.0736045293980
31
0.000000000000000
  0
LINE
  5
F103D2
330
F103D3
100
AcDbEntity
8
Geo
100
AcDbLine
10
-27.5196010407632
20
12.0736045293980
30
0.000000000000000
11
-27.4196010407632
21
12.0368973022345
31
0.000000000000000
  0
LINE
  5
F103D4
330
F103D5
100
AcDbEntity
8
Geo
100
AcDbLine
10
-27.4196010407632
20
12.0368973022345
30
0.000000000000000
11
-27.3196010407632
21
11.9996779625085
31
0.000000000000000
  0
LINE
  5
F103D6
330
F103D7
100
AcDbEntity
8
Geo
100
AcDbLine
10
-27.3196010407632
20
11.9996779625085
30
0.000000000000000
11
-27.2196010407632
21
11.9619514727436
31
0.000000000000000
  0
LINE
  5
F103D8
330
F103D9
100
AcDbEntity
8
Geo
100
AcDbLine
10
-27.2196010407632
20
11.9619514727436
30
0.000000000000000
11
-27.1196010407632
21
11.9237228630825
31
0.000000000000000
  0
LINE
  5
F103DA
330
F103DB
100
AcDbEntity
8
Geo
100
AcDbLine
10
-27.1196010407632
20
11.9237228630825
30
0.000000000000000
11
-27.0196010407632
21
11.8849972306166
31
0.000000000000000
  0
LINE
  5
F103DC
330
F103DD
100
AcDbEntity
8
Geo
100
AcDbLine
10
-27.0196010407632
20
11.8849972306166
30
0.000000000000000
11
-26.9196010407632
21
11.8457797387060
31
0.000000000000000
  0
LINE
  5
F103DE
330
F103DF
100
AcDbEntity
8
Geo
100
AcDbLine
10
-26.9196010407632
20
11.8457797387060
30
0.000000000000000
11
-26.8196010407632
21
11.8060756162916
31
0.000000000000000
  0
LINE
  5
F103E0
330
F103E1
100
AcDbEntity
8
Geo
100
AcDbLine
10
-26.8196010407632
20
11.8060756162916
30
0.000000000000000
11
-26.7196010407632
21
11.7658901571977
31
0.000000000000000
  0
LINE
  5
F103E2
330
F103E3
100
AcDbEntity
8
Geo
100
AcDbLine
10
-26.7196010407632
20
11.7658901571977
30
0.000000000000000
11
-26.6196010407632
21
11.7252287194258
31
0.000000000000000
  0
LINE
  5
F103E4
330
F103E5
100
AcDbEntity
8
Geo
100
AcDbLine
10
-26.6196010407632
20
11.7252287194258
30
0.000000000000000
11
-26.5196010407632
21
11.6840967244409
31
0.000000000000000
  0
LINE
  5
F103E6
330
F103E7
100
AcDbEntity
8
Geo
100
AcDbLine
10
-26.5196010407632
20
11.6840967244409
30
0.000000000000000
11
-26.4196010407632
21
11.6424996564478
31
0.000000000000000
  0
LINE
  5
F103E8
330
F103E9
100
AcDbEntity
8
Geo
100
AcDbLine
10
-26.4196010407632
20
11.6424996564478
30
0.000000000000000
11
-26.3196010407632
21
11.6004430616608
31
0.000000000000000
  0
LINE
  5
F103EA
330
F103EB
100
AcDbEntity
8
Geo
100
AcDbLine
10
-26.3196010407632
20
11.6004430616608
30
0.000000000000000
11
-26.2196010407632
21
11.5579325475635
31
0.000000000000000
  0
LINE
  5
F103EC
330
F103ED
100
AcDbEntity
8
Geo
100
AcDbLine
10
-26.2196010407632
20
11.5579325475635
30
0.000000000000000
11
-26.1196010407632
21
11.5149737821615
31
0.000000000000000
  0
LINE
  5
F103EE
330
F103EF
100
AcDbEntity
8
Geo
100
AcDbLine
10
-26.1196010407632
20
11.5149737821615
30
0.000000000000000
11
-26.0196010407632
21
11.4715724932265
31
0.000000000000000
  0
LINE
  5
F103F0
330
F103F1
100
AcDbEntity
8
Geo
100
AcDbLine
10
-26.0196010407632
20
11.4715724932265
30
0.000000000000000
11
-25.9196010407632
21
11.4277344675328
31
0.000000000000000
  0
LINE
  5
F103F2
330
F103F3
100
AcDbEntity
8
Geo
100
AcDbLine
10
-25.9196010407632
20
11.4277344675328
30
0.000000000000000
11
-25.8196010407632
21
11.3834655500854
31
0.000000000000000
  0
LINE
  5
F103F4
330
F103F5
100
AcDbEntity
8
Geo
100
AcDbLine
10
-25.8196010407632
20
11.3834655500854
30
0.000000000000000
11
-25.7196010407632
21
11.3387716433412
31
0.000000000000000
  0
LINE
  5
F103F6
330
F103F7
100
AcDbEntity
8
Geo
100
AcDbLine
10
-25.7196010407632
20
11.3387716433412
30
0.000000000000000
11
-25.6196010407632
21
11.2936587064215
31
0.000000000000000
  0
LINE
  5
F103F8
330
F103F9
100
AcDbEntity
8
Geo
100
AcDbLine
10
-25.6196010407632
20
11.2936587064215
30
0.000000000000000
11
-25.5196010407632
21
11.2481327543177
31
0.000000000000000
  0
LINE
  5
F103FA
330
F103FB
100
AcDbEntity
8
Geo
100
AcDbLine
10
-25.5196010407632
20
11.2481327543177
30
0.000000000000000
11
-25.4196010407632
21
11.2021998570893
31
0.000000000000000
  0
LINE
  5
F103FC
330
F103FD
100
AcDbEntity
8
Geo
100
AcDbLine
10
-25.4196010407632
20
11.2021998570893
30
0.000000000000000
11
-25.3196010407632
21
11.1558661390546
31
0.000000000000000
  0
LINE
  5
F103FE
330
F103FF
100
AcDbEntity
8
Geo
100
AcDbLine
10
-25.3196010407632
20
11.1558661390546
30
0.000000000000000
11
-25.2196010407632
21
11.1091377779740
31
0.000000000000000
  0
LINE
  5
F10400
330
F10401
100
AcDbEntity
8
Geo
100
AcDbLine
10
-25.2196010407632
20
11.1091377779740
30
0.000000000000000
11
-25.1196010407632
21
11.0620210042264
31
0.000000000000000
  0
LINE
  5
F10402
330
F10403
100
AcDbEntity
8
Geo
100
AcDbLine
10
-25.1196010407632
20
11.0620210042264
30
0.000000000000000
11
-25.0196010407632
21
11.0145220999785
31
0.000000000000000
  0
LINE
  5
F10404
330
F10405
100
AcDbEntity
8
Geo
100
AcDbLine
10
-25.0196010407632
20
11.0145220999785
30
0.000000000000000
11
-24.9196010407632
21
10.9666473983472
31
0.000000000000000
  0
LINE
  5
F10406
330
F10407
100
AcDbEntity
8
Geo
100
AcDbLine
10
-24.9196010407632
20
10.9666473983472
30
0.000000000000000
11
-24.8196010407632
21
10.9184032825551
31
0.000000000000000
  0
LINE
  5
F10408
330
F10409
100
AcDbEntity
8
Geo
100
AcDbLine
10
-24.8196010407632
20
10.9184032825551
30
0.000000000000000
11
-24.7196010407632
21
10.8697961850795
31
0.000000000000000
  0
LINE
  5
F1040A
330
F1040B
100
AcDbEntity
8
Geo
100
AcDbLine
10
-24.7196010407632
20
10.8697961850795
30
0.000000000000000
11
-24.6196010407632
21
10.8208325867947
31
0.000000000000000
  0
LINE
  5
F1040C
330
F1040D
100
AcDbEntity
8
Geo
100
AcDbLine
10
-24.6196010407632
20
10.8208325867947
30
0.000000000000000
11
-24.5196010407632
21
10.7715190161080
31
0.000000000000000
  0
LINE
  5
F1040E
330
F1040F
100
AcDbEntity
8
Geo
100
AcDbLine
10
-24.5196010407632
20
10.7715190161080
30
0.000000000000000
11
-24.4196010407632
21
10.7218620480890
31
0.000000000000000
  0
LINE
  5
F10410
330
F10411
100
AcDbEntity
8
Geo
100
AcDbLine
10
-43.6196010407632
20
8.29759494501627
30
0.000000000000000
11
-43.6196010407632
21
9.02452595826297
31
0.000000000000000
  0
LINE
  5
F10412
330
F10413
100
AcDbEntity
8
Geo
100
AcDbLine
10
-43.6196010407632
20
9.02452595826297
30
0.000000000000000
11
-43.5196010407632
21
9.53524403598988
31
0.000000000000000
  0
LINE
  5
F10414
330
F10415
100
AcDbEntity
8
Geo
100
AcDbLine
10
-43.5196010407632
20
9.53524403598988
30
0.000000000000000
11
-43.4196010407632
21
9.84500190786773
31
0.000000000000000
  0
LINE
  5
F10416
330
F10417
100
AcDbEntity
8
Geo
100
AcDbLine
10
-43.4196010407632
20
9.84500190786773
30
0.000000000000000
11
-43.3196010407632
21
10.0820397929753
31
0.000000000000000
  0
LINE
  5
F10418
330
F10419
100
AcDbEntity
8
Geo
100
AcDbLine
10
-43.3196010407632
20
10.0820397929753
30
0.000000000000000
11
-43.2196010407632
21
10.2773030300907
31
0.000000000000000
  0
LINE
  5
F1041A
330
F1041B
100
AcDbEntity
8
Geo
100
AcDbLine
10
-43.2196010407632
20
10.2773030300907
30
0.000000000000000
11
-43.1196010407632
21
10.4442010483650
31
0.000000000000000
  0
LINE
  5
F1041C
330
F1041D
100
AcDbEntity
8
Geo
100
AcDbLine
10
-43.1196010407632
20
10.4442010483650
30
0.000000000000000
11
-43.0196010407632
21
10.5899957926155
31
0.000000000000000
  0
LINE
  5
F1041E
330
F1041F
100
AcDbEntity
8
Geo
100
AcDbLine
10
-43.0196010407632
20
10.5899957926155
30
0.000000000000000
11
-42.9196010407632
21
10.7191448185965
31
0.000000000000000
  0
LINE
  5
F10420
330
F10421
100
AcDbEntity
8
Geo
100
AcDbLine
10
-42.9196010407632
20
10.7191448185965
30
0.000000000000000
11
-42.8196010407632
21
10.8346164429085
31
0.000000000000000
  0
LINE
  5
F10422
330
F10423
100
AcDbEntity
8
Geo
100
AcDbLine
10
-42.8196010407632
20
10.8346164429085
30
0.000000000000000
11
-42.7196010407632
21
10.9385043384732
31
0.000000000000000
  0
LINE
  5
F10424
330
F10425
100
AcDbEntity
8
Geo
100
AcDbLine
10
-42.7196010407632
20
10.9385043384732
30
0.000000000000000
11
-42.6196010407632
21
11.0323500431628
31
0.000000000000000
  0
LINE
  5
F10426
330
F10427
100
AcDbEntity
8
Geo
100
AcDbLine
10
-42.6196010407632
20
11.0323500431628
30
0.000000000000000
11
-42.5196010407632
21
11.1173270470464
31
0.000000000000000
  0
LINE
  5
F10428
330
F10429
100
AcDbEntity
8
Geo
100
AcDbLine
10
-42.5196010407632
20
11.1173270470464
30
0.000000000000000
11
-42.4196010407632
21
11.1943528278832
31
0.000000000000000
  0
LINE
  5
F1042A
330
F1042B
100
AcDbEntity
8
Geo
100
AcDbLine
10
-42.4196010407632
20
11.1943528278832
30
0.000000000000000
11
-42.3196010407632
21
11.2641605776861
31
0.000000000000000
  0
LINE
  5
F1042C
330
F1042D
100
AcDbEntity
8
Geo
100
AcDbLine
10
-42.3196010407632
20
11.2641605776861
30
0.000000000000000
11
-42.2196010407632
21
11.3273470480599
31
0.000000000000000
  0
LINE
  5
F1042E
330
F1042F
100
AcDbEntity
8
Geo
100
AcDbLine
10
-42.2196010407632
20
11.3273470480599
30
0.000000000000000
11
-42.1196010407632
21
11.3844055695161
31
0.000000000000000
  0
LINE
  5
F10430
330
F10431
100
AcDbEntity
8
Geo
100
AcDbLine
10
-42.1196010407632
20
11.3844055695161
30
0.000000000000000
11
-42.0196010407632
21
11.4357495009867
31
0.000000000000000
  0
LINE
  5
F10432
330
F10433
100
AcDbEntity
8
Geo
100
AcDbLine
10
-42.0196010407632
20
11.4357495009867
30
0.000000000000000
11
-41.9196010407632
21
11.4817292953604
31
0.000000000000000
  0
LINE
  5
F10434
330
F10435
100
AcDbEntity
8
Geo
100
AcDbLine
10
-41.9196010407632
20
11.4817292953604
30
0.000000000000000
11
-41.8196010407632
21
11.5226451841909
31
0.000000000000000
  0
LINE
  5
F10436
330
F10437
100
AcDbEntity
8
Geo
100
AcDbLine
10
-41.8196010407632
20
11.5226451841909
30
0.000000000000000
11
-41.7196010407632
21
11.5587567815308
31
0.000000000000000
  0
LINE
  5
F10438
330
F10439
100
AcDbEntity
8
Geo
100
AcDbLine
10
-41.7196010407632
20
11.5587567815308
30
0.000000000000000
11
-41.6196010407632
21
11.5902904740128
31
0.000000000000000
  0
LINE
  5
F1043A
330
F1043B
100
AcDbEntity
8
Geo
100
AcDbLine
10
-41.6196010407632
20
11.5902904740128
30
0.000000000000000
11
-41.5196010407632
21
11.6174451897222
31
0.000000000000000
  0
LINE
  5
F1043C
330
F1043D
100
AcDbEntity
8
Geo
100
AcDbLine
10
-41.5196010407632
20
11.6174451897222
30
0.000000000000000
11
-41.4196010407632
21
11.6403969595238
31
0.000000000000000
  0
LINE
  5
F1043E
330
F1043F
100
AcDbEntity
8
Geo
100
AcDbLine
10
-41.4196010407632
20
11.6403969595238
30
0.000000000000000
11
-41.3196010407632
21
11.6593025651858
31
0.000000000000000
  0
LINE
  5
F10440
330
F10441
100
AcDbEntity
8
Geo
100
AcDbLine
10
-41.3196010407632
20
11.6593025651858
30
0.000000000000000
11
-41.2196010407632
21
11.6743024873563
31
0.000000000000000
  0
LINE
  5
F10442
330
F10443
100
AcDbEntity
8
Geo
100
AcDbLine
10
-41.2196010407632
20
11.6743024873563
30
0.000000000000000
11
-41.1196010407632
21
11.6855233100064
31
0.000000000000000
  0
LINE
  5
F10444
330
F10445
100
AcDbEntity
8
Geo
100
AcDbLine
10
-41.1196010407632
20
11.6855233100064
30
0.000000000000000
11
-41.0196010407632
21
11.6930796980867
31
0.000000000000000
  0
LINE
  5
F10446
330
F10447
100
AcDbEntity
8
Geo
100
AcDbLine
10
-41.0196010407632
20
11.6930796980867
30
0.000000000000000
11
-40.9196010407632
21
11.6970760365367
31
0.000000000000000
  0
LINE
  5
F10448
330
F10449
100
AcDbEntity
8
Geo
100
AcDbLine
10
-40.9196010407632
20
11.6970760365367
30
0.000000000000000
11
-40.8196010407632
21
11.6976077979707
31
0.000000000000000
  0
LINE
  5
F1044A
330
F1044B
100
AcDbEntity
8
Geo
100
AcDbLine
10
-40.8196010407632
20
11.6976077979707
30
0.000000000000000
11
-40.7196010407632
21
11.6947626910051
31
0.000000000000000
  0
LINE
  5
F1044C
330
F1044D
100
AcDbEntity
8
Geo
100
AcDbLine
10
-40.7196010407632
20
11.6947626910051
30
0.000000000000000
11
-40.6196010407632
21
11.6886216297331
31
0.000000000000000
  0
LINE
  5
F1044E
330
F1044F
100
AcDbEntity
8
Geo
100
AcDbLine
10
-40.6196010407632
20
11.6886216297331
30
0.000000000000000
11
-40.5196010407632
21
11.6792595562003
31
0.000000000000000
  0
LINE
  5
F10450
330
F10451
100
AcDbEntity
8
Geo
100
AcDbLine
10
-40.5196010407632
20
11.6792595562003
30
0.000000000000000
11
-40.4196010407632
21
11.6667461411320
31
0.000000000000000
  0
LINE
  5
F10452
330
F10453
100
AcDbEntity
8
Geo
100
AcDbLine
10
-40.4196010407632
20
11.6667461411320
30
0.000000000000000
11
-40.3196010407632
21
11.6511463830776
31
0.000000000000000
  0
LINE
  5
F10454
330
F10455
100
AcDbEntity
8
Geo
100
AcDbLine
10
-40.3196010407632
20
11.6511463830776
30
0.000000000000000
11
-40.2196010407632
21
11.6325211221814
31
0.000000000000000
  0
LINE
  5
F10456
330
F10457
100
AcDbEntity
8
Geo
100
AcDbLine
10
-40.2196010407632
20
11.6325211221814
30
0.000000000000000
11
-40.1196010407632
21
11.6109274816820
31
0.000000000000000
  0
LINE
  5
F10458
330
F10459
100
AcDbEntity
8
Geo
100
AcDbLine
10
-40.1196010407632
20
11.6109274816820
30
0.000000000000000
11
-40.0196010407632
21
11.5864192477880
31
0.000000000000000
  0
LINE
  5
F1045A
330
F1045B
100
AcDbEntity
8
Geo
100
AcDbLine
10
-40.0196010407632
20
11.5864192477880
30
0.000000000000000
11
-39.9196010407632
21
11.5590471966077
31
0.000000000000000
  0
LINE
  5
F1045C
330
F1045D
100
AcDbEntity
8
Geo
100
AcDbLine
10
-39.9196010407632
20
11.5590471966077
30
0.000000000000000
11
-39.8196010407632
21
11.5288593752341
31
0.000000000000000
  0
LINE
  5
F1045E
330
F1045F
100
AcDbEntity
8
Geo
100
AcDbLine
10
-39.8196010407632
20
11.5288593752341
30
0.000000000000000
11
-39.7196010407632
21
11.4959013427937
31
0.000000000000000
  0
LINE
  5
F10460
330
F10461
100
AcDbEntity
8
Geo
100
AcDbLine
10
-39.7196010407632
20
11.4959013427937
30
0.000000000000000
11
-39.6196010407632
21
11.4602163762123
31
0.000000000000000
  0
LINE
  5
F10462
330
F10463
100
AcDbEntity
8
Geo
100
AcDbLine
10
-39.6196010407632
20
11.4602163762123
30
0.000000000000000
11
-39.5196010407632
21
11.4218456445703
31
0.000000000000000
  0
LINE
  5
F10464
330
F10465
100
AcDbEntity
8
Geo
100
AcDbLine
10
-39.5196010407632
20
11.4218456445703
30
0.000000000000000
11
-39.4196010407632
21
11.3808283551805
31
0.000000000000000
  0
LINE
  5
F10466
330
F10467
100
AcDbEntity
8
Geo
100
AcDbLine
10
-39.4196010407632
20
11.3808283551805
30
0.000000000000000
11
-39.3196010407632
21
11.3372018738863
31
0.000000000000000
  0
LINE
  5
F10468
330
F10469
100
AcDbEntity
8
Geo
100
AcDbLine
10
-39.3196010407632
20
11.3372018738863
30
0.000000000000000
11
-39.2196010407632
21
11.2920743993612
31
0.000000000000000
  0
LINE
  5
F1046A
330
F1046B
100
AcDbEntity
8
Geo
100
AcDbLine
10
-39.2196010407632
20
11.2920743993612
30
0.000000000000000
11
-39.1196010407632
21
11.2465341208907
31
0.000000000000000
  0
LINE
  5
F1046C
330
F1046D
100
AcDbEntity
8
Geo
100
AcDbLine
10
-39.1196010407632
20
11.2465341208907
30
0.000000000000000
11
-39.0196010407632
21
11.2005871104443
31
0.000000000000000
  0
LINE
  5
F1046E
330
F1046F
100
AcDbEntity
8
Geo
100
AcDbLine
10
-39.0196010407632
20
11.2005871104443
30
0.000000000000000
11
-38.9196010407632
21
11.1542394942220
31
0.000000000000000
  0
LINE
  5
F10470
330
F10471
100
AcDbEntity
8
Geo
100
AcDbLine
10
-38.9196010407632
20
11.1542394942220
30
0.000000000000000
11
-38.8196010407632
21
11.1074974518375
31
0.000000000000000
  0
LINE
  5
F10472
330
F10473
100
AcDbEntity
8
Geo
100
AcDbLine
10
-38.8196010407632
20
11.1074974518375
30
0.000000000000000
11
-38.7196010407632
21
11.0603672154936
31
0.000000000000000
  0
LINE
  5
F10474
330
F10475
100
AcDbEntity
8
Geo
100
AcDbLine
10
-38.7196010407632
20
11.0603672154936
30
0.000000000000000
11
-38.6196010407632
21
11.0128550691522
31
0.000000000000000
  0
LINE
  5
F10476
330
F10477
100
AcDbEntity
8
Geo
100
AcDbLine
10
-38.6196010407632
20
11.0128550691522
30
0.000000000000000
11
-38.5196010407632
21
10.9649673476957
31
0.000000000000000
  0
LINE
  5
F10478
330
F10479
100
AcDbEntity
8
Geo
100
AcDbLine
10
-38.5196010407632
20
10.9649673476957
30
0.000000000000000
11
-38.4196010407632
21
10.9167104360826
31
0.000000000000000
  0
LINE
  5
F1047A
330
F1047B
100
AcDbEntity
8
Geo
100
AcDbLine
10
-38.4196010407632
20
10.9167104360826
30
0.000000000000000
11
-38.3196010407632
21
10.8680907684964
31
0.000000000000000
  0
LINE
  5
F1047C
330
F1047D
100
AcDbEntity
8
Geo
100
AcDbLine
10
-38.3196010407632
20
10.8680907684964
30
0.000000000000000
11
-38.2196010407632
21
10.8191148274874
31
0.000000000000000
  0
LINE
  5
F1047E
330
F1047F
100
AcDbEntity
8
Geo
100
AcDbLine
10
-38.2196010407632
20
10.8191148274874
30
0.000000000000000
11
-38.1196010407632
21
10.7697891431085
31
0.000000000000000
  0
LINE
  5
F10480
330
F10481
100
AcDbEntity
8
Geo
100
AcDbLine
10
-38.1196010407632
20
10.7697891431085
30
0.000000000000000
11
-38.0196010407632
21
10.7201202920444
31
0.000000000000000
  0
LINE
  5
F10482
330
F10483
100
AcDbEntity
8
Geo
100
AcDbLine
10
-38.0196010407632
20
10.7201202920444
30
0.000000000000000
11
-37.9196010407632
21
10.6701148967352
31
0.000000000000000
  0
LINE
  5
F10484
330
F10485
100
AcDbEntity
8
Geo
100
AcDbLine
10
-37.9196010407632
20
10.6701148967352
30
0.000000000000000
11
-37.8196010407632
21
10.6197796244928
31
0.000000000000000
  0
LINE
  5
F10486
330
F10487
100
AcDbEntity
8
Geo
100
AcDbLine
10
-37.8196010407632
20
10.6197796244928
30
0.000000000000000
11
-37.7196010407632
21
10.5691211866122
31
0.000000000000000
  0
LINE
  5
F10488
330
F10489
100
AcDbEntity
8
Geo
100
AcDbLine
10
-37.7196010407632
20
10.5691211866122
30
0.000000000000000
11
-37.6196010407632
21
10.5181463374768
31
0.000000000000000
  0
LINE
  5
F1048A
330
F1048B
100
AcDbEntity
8
Geo
100
AcDbLine
10
-37.6196010407632
20
10.5181463374768
30
0.000000000000000
11
-37.5196010407632
21
10.4668618736576
31
0.000000000000000
  0
LINE
  5
F1048C
330
F1048D
100
AcDbEntity
8
Geo
100
AcDbLine
10
-37.5196010407632
20
10.4668618736576
30
0.000000000000000
11
-37.4196010407632
21
10.4152746330071
31
0.000000000000000
  0
LINE
  5
F1048E
330
F1048F
100
AcDbEntity
8
Geo
100
AcDbLine
10
-37.4196010407632
20
10.4152746330071
30
0.000000000000000
11
-37.3196010407632
21
10.3633914937477
31
0.000000000000000
  0
LINE
  5
F10490
330
F10491
100
AcDbEntity
8
Geo
100
AcDbLine
10
-37.3196010407632
20
10.3633914937477
30
0.000000000000000
11
-37.2196010407632
21
10.3112193735544
31
0.000000000000000
  0
LINE
  5
F10492
330
F10493
100
AcDbEntity
8
Geo
100
AcDbLine
10
-37.2196010407632
20
10.3112193735544
30
0.000000000000000
11
-37.1196010407632
21
10.2587652286326
31
0.000000000000000
  0
LINE
  5
F10494
330
F10495
100
AcDbEntity
8
Geo
100
AcDbLine
10
-37.1196010407632
20
10.2587652286326
30
0.000000000000000
11
-37.0196010407632
21
10.2060360527906
31
0.000000000000000
  0
LINE
  5
F10496
330
F10497
100
AcDbEntity
8
Geo
100
AcDbLine
10
-37.0196010407632
20
10.2060360527906
30
0.000000000000000
11
-36.9196010407632
21
10.1530388765070
31
0.000000000000000
  0
LINE
  5
F10498
330
F10499
100
AcDbEntity
8
Geo
100
AcDbLine
10
-36.9196010407632
20
10.1530388765070
30
0.000000000000000
11
-36.8196010407632
21
10.0997807659936
31
0.000000000000000
  0
LINE
  5
F1049A
330
F1049B
100
AcDbEntity
8
Geo
100
AcDbLine
10
-36.8196010407632
20
10.0997807659936
30
0.000000000000000
11
-36.7196010407632
21
10.0462688222527
31
0.000000000000000
  0
LINE
  5
F1049C
330
F1049D
100
AcDbEntity
8
Geo
100
AcDbLine
10
-36.7196010407632
20
10.0462688222527
30
0.000000000000000
11
-36.6196010407632
21
9.99251018013102
31
0.000000000000000
  0
LINE
  5
F1049E
330
F1049F
100
AcDbEntity
8
Geo
100
AcDbLine
10
-36.6196010407632
20
9.99251018013102
30
0.000000000000000
11
-36.5196010407632
21
9.93851200736781
31
0.000000000000000
  0
LINE
  5
F104A0
330
F104A1
100
AcDbEntity
8
Geo
100
AcDbLine
10
-36.5196010407632
20
9.93851200736781
30
0.000000000000000
11
-36.4196010407632
21
9.88428150363943
31
0.000000000000000
  0
LINE
  5
F104A2
330
F104A3
100
AcDbEntity
8
Geo
100
AcDbLine
10
-36.4196010407632
20
9.88428150363943
30
0.000000000000000
11
-36.3196010407632
21
9.82982589959938
31
0.000000000000000
  0
LINE
  5
F104A4
330
F104A5
100
AcDbEntity
8
Geo
100
AcDbLine
10
-36.3196010407632
20
9.82982589959938
30
0.000000000000000
11
-36.2196010407632
21
9.77515245591420
31
0.000000000000000
  0
LINE
  5
F104A6
330
F104A7
100
AcDbEntity
8
Geo
100
AcDbLine
10
-36.2196010407632
20
9.77515245591420
30
0.000000000000000
11
-36.1196010407632
21
9.72026846229537
31
0.000000000000000
  0
LINE
  5
F104A8
330
F104A9
100
AcDbEntity
8
Geo
100
AcDbLine
10
-36.1196010407632
20
9.72026846229537
30
0.000000000000000
11
-36.0196010407632
21
9.66518123652740
31
0.000000000000000
  0
LINE
  5
F104AA
330
F104AB
100
AcDbEntity
8
Geo
100
AcDbLine
10
-36.0196010407632
20
9.66518123652740
30
0.000000000000000
11
-35.9196010407632
21
9.60989812349212
31
0.000000000000000
  0
LINE
  5
F104AC
330
F104AD
100
AcDbEntity
8
Geo
100
AcDbLine
10
-35.9196010407632
20
9.60989812349212
30
0.000000000000000
11
-35.8196010407632
21
9.55442649418936
31
0.000000000000000
  0
LINE
  5
F104AE
330
F104AF
100
AcDbEntity
8
Geo
100
AcDbLine
10
-35.8196010407632
20
9.55442649418936
30
0.000000000000000
11
-35.7196010407632
21
9.49877374475419
31
0.000000000000000
  0
LINE
  5
F104B0
330
F104B1
100
AcDbEntity
8
Geo
100
AcDbLine
10
-35.7196010407632
20
9.49877374475419
30
0.000000000000000
11
-35.6196010407632
21
9.44294729547074
31
0.000000000000000
  0
LINE
  5
F104B2
330
F104B3
100
AcDbEntity
8
Geo
100
AcDbLine
10
-35.6196010407632
20
9.44294729547074
30
0.000000000000000
11
-35.5196010407632
21
9.38695458978290
31
0.000000000000000
  0
LINE
  5
F104B4
330
F104B5
100
AcDbEntity
8
Geo
100
AcDbLine
10
-35.5196010407632
20
9.38695458978290
30
0.000000000000000
11
-35.4196010407632
21
9.33080309330178
31
0.000000000000000
  0
LINE
  5
F104B6
330
F104B7
100
AcDbEntity
8
Geo
100
AcDbLine
10
-35.4196010407632
20
9.33080309330178
30
0.000000000000000
11
-35.3196010407632
21
9.27450029281041
31
0.000000000000000
  0
LINE
  5
F104B8
330
F104B9
100
AcDbEntity
8
Geo
100
AcDbLine
10
-35.3196010407632
20
9.27450029281041
30
0.000000000000000
11
-35.2196010407632
21
9.21805369526543
31
0.000000000000000
  0
LINE
  5
F104BA
330
F104BB
100
AcDbEntity
8
Geo
100
AcDbLine
10
-35.2196010407632
20
9.21805369526543
30
0.000000000000000
11
-35.1196010407632
21
9.16147082679624
31
0.000000000000000
  0
LINE
  5
F104BC
330
F104BD
100
AcDbEntity
8
Geo
100
AcDbLine
10
-35.1196010407632
20
9.16147082679624
30
0.000000000000000
11
-35.0196010407632
21
9.10475923170146
31
0.000000000000000
  0
LINE
  5
F104BE
330
F104BF
100
AcDbEntity
8
Geo
100
AcDbLine
10
-35.0196010407632
20
9.10475923170146
30
0.000000000000000
11
-34.9196010407632
21
9.04792647144310
31
0.000000000000000
  0
LINE
  5
F104C0
330
F104C1
100
AcDbEntity
8
Geo
100
AcDbLine
10
-34.9196010407632
20
9.04792647144310
30
0.000000000000000
11
-34.8196010407632
21
8.99098012363832
31
0.000000000000000
  0
LINE
  5
F104C2
330
F104C3
100
AcDbEntity
8
Geo
100
AcDbLine
10
-34.8196010407632
20
8.99098012363832
30
0.000000000000000
11
-34.7196010407632
21
8.93392778104914
31
0.000000000000000
  0
LINE
  5
F104C4
330
F104C5
100
AcDbEntity
8
Geo
100
AcDbLine
10
-34.7196010407632
20
8.93392778104914
30
0.000000000000000
11
-34.6196010407632
21
8.87677705057004
31
0.000000000000000
  0
LINE
  5
F104C6
330
F104C7
100
AcDbEntity
8
Geo
100
AcDbLine
10
-34.6196010407632
20
8.87677705057004
30
0.000000000000000
11
-34.5196010407632
21
8.81953555221375
31
0.000000000000000
  0
LINE
  5
F104C8
330
F104C9
100
AcDbEntity
8
Geo
100
AcDbLine
10
-34.5196010407632
20
8.81953555221375
30
0.000000000000000
11
-34.4196010407632
21
8.76221091809525
31
0.000000000000000
  0
LINE
  5
F104CA
330
F104CB
100
AcDbEntity
8
Geo
100
AcDbLine
10
-34.4196010407632
20
8.76221091809525
30
0.000000000000000
11
-34.3196010407632
21
8.70481079141417
31
0.000000000000000
  0
LINE
  5
F104CC
330
F104CD
100
AcDbEntity
8
Geo
100
AcDbLine
10
-34.3196010407632
20
8.70481079141417
30
0.000000000000000
11
-34.2196010407632
21
8.64734282543570
31
0.000000000000000
  0
LINE
  5
F104CE
330
F104CF
100
AcDbEntity
8
Geo
100
AcDbLine
10
-34.2196010407632
20
8.64734282543570
30
0.000000000000000
11
-34.1196010407632
21
8.58981468247016
31
0.000000000000000
  0
LINE
  5
F104D0
330
F104D1
100
AcDbEntity
8
Geo
100
AcDbLine
10
-34.1196010407632
20
8.58981468247016
30
0.000000000000000
11
-34.0196010407632
21
8.53223403285138
31
0.000000000000000
  0
LINE
  5
F104D2
330
F104D3
100
AcDbEntity
8
Geo
100
AcDbLine
10
-34.0196010407632
20
8.53223403285138
30
0.000000000000000
11
-33.9196010407632
21
8.47460855391401
31
0.000000000000000
  0
LINE
  5
F104D4
330
F104D5
100
AcDbEntity
8
Geo
100
AcDbLine
10
-33.9196010407632
20
8.47460855391401
30
0.000000000000000
11
-33.8196010407632
21
8.41694592896988
31
0.000000000000000
  0
LINE
  5
F104D6
330
F104D7
100
AcDbEntity
8
Geo
100
AcDbLine
10
-33.8196010407632
20
8.41694592896988
30
0.000000000000000
11
-33.7196010407632
21
8.35925384628354
31
0.000000000000000
  0
LINE
  5
F104D8
330
F104D9
100
AcDbEntity
8
Geo
100
AcDbLine
10
-33.7196010407632
20
8.35925384628354
30
0.000000000000000
11
-33.6196010407632
21
8.30153999804722
31
0.000000000000000
  0
LINE
  5
F104DA
330
F104DB
100
AcDbEntity
8
Geo
100
AcDbLine
10
-33.6196010407632
20
8.30153999804722
30
0.000000000000000
11
-33.5196010407632
21
8.24381207935519
31
0.000000000000000
  0
LINE
  5
F104DC
330
F104DD
100
AcDbEntity
8
Geo
100
AcDbLine
10
-33.5196010407632
20
8.24381207935519
30
0.000000000000000
11
-33.4196010407632
21
8.18607778717775
31
0.000000000000000
  0
LINE
  5
F104DE
330
F104DF
100
AcDbEntity
8
Geo
100
AcDbLine
10
-33.4196010407632
20
8.18607778717775
30
0.000000000000000
11
-33.3196010407632
21
8.12834481933498
31
0.000000000000000
  0
LINE
  5
F104E0
330
F104E1
100
AcDbEntity
8
Geo
100
AcDbLine
10
-33.3196010407632
20
8.12834481933498
30
0.000000000000000
11
-33.2196010407632
21
8.07062087347041
31
0.000000000000000
  0
LINE
  5
F104E2
330
F104E3
100
AcDbEntity
8
Geo
100
AcDbLine
10
-33.2196010407632
20
8.07062087347041
30
0.000000000000000
11
-33.1196010407632
21
8.01291364602464
31
0.000000000000000
  0
LINE
  5
F104E4
330
F104E5
100
AcDbEntity
8
Geo
100
AcDbLine
10
-33.1196010407632
20
8.01291364602464
30
0.000000000000000
11
-33.0196010407632
21
7.95523083120915
31
0.000000000000000
  0
LINE
  5
F104E6
330
F104E7
100
AcDbEntity
8
Geo
100
AcDbLine
10
-33.0196010407632
20
7.95523083120915
30
0.000000000000000
11
-32.9196010407632
21
7.89758011998049
31
0.000000000000000
  0
LINE
  5
F104E8
330
F104E9
100
AcDbEntity
8
Geo
100
AcDbLine
10
-32.9196010407632
20
7.89758011998049
30
0.000000000000000
11
-32.8196010407632
21
7.83996919901472
31
0.000000000000000
  0
LINE
  5
F104EA
330
F104EB
100
AcDbEntity
8
Geo
100
AcDbLine
10
-32.8196010407632
20
7.83996919901472
30
0.000000000000000
11
-32.7196010407632
21
7.78240574968264
31
0.000000000000000
  0
LINE
  5
F104EC
330
F104ED
100
AcDbEntity
8
Geo
100
AcDbLine
10
-32.7196010407632
20
7.78240574968264
30
0.000000000000000
11
-32.6196010407632
21
7.72489744702554
31
0.000000000000000
  0
LINE
  5
F104EE
330
F104EF
100
AcDbEntity
8
Geo
100
AcDbLine
10
-32.6196010407632
20
7.72489744702554
30
0.000000000000000
11
-32.5196010407632
21
7.66745195873191
31
0.000000000000000
  0
LINE
  5
F104F0
330
F104F1
100
AcDbEntity
8
Geo
100
AcDbLine
10
-32.5196010407632
20
7.66745195873191
30
0.000000000000000
11
-32.4196010407632
21
7.61007694411509
31
0.000000000000000
  0
LINE
  5
F104F2
330
F104F3
100
AcDbEntity
8
Geo
100
AcDbLine
10
-32.4196010407632
20
7.61007694411509
30
0.000000000000000
11
-32.3196010407632
21
7.55278005309203
31
0.000000000000000
  0
LINE
  5
F104F4
330
F104F5
100
AcDbEntity
8
Geo
100
AcDbLine
10
-32.3196010407632
20
7.55278005309203
30
0.000000000000000
11
-32.2196010407632
21
7.49556892516330
31
0.000000000000000
  0
LINE
  5
F104F6
330
F104F7
100
AcDbEntity
8
Geo
100
AcDbLine
10
-32.2196010407632
20
7.49556892516330
30
0.000000000000000
11
-32.1196010407632
21
7.43845118839456
31
0.000000000000000
  0
LINE
  5
F104F8
330
F104F9
100
AcDbEntity
8
Geo
100
AcDbLine
10
-32.1196010407632
20
7.43845118839456
30
0.000000000000000
11
-32.0196010407632
21
7.38143445839941
31
0.000000000000000
  0
LINE
  5
F104FA
330
F104FB
100
AcDbEntity
8
Geo
100
AcDbLine
10
-32.0196010407632
20
7.38143445839941
30
0.000000000000000
11
-31.9196010407632
21
7.32452633732404
31
0.000000000000000
  0
LINE
  5
F104FC
330
F104FD
100
AcDbEntity
8
Geo
100
AcDbLine
10
-31.9196010407632
20
7.32452633732404
30
0.000000000000000
11
-31.8196010407632
21
7.26773441283364
31
0.000000000000000
  0
LINE
  5
F104FE
330
F104FF
100
AcDbEntity
8
Geo
100
AcDbLine
10
-31.8196010407632
20
7.26773441283364
30
0.000000000000000
11
-31.7196010407632
21
7.21106625710066
31
0.000000000000000
  0
LINE
  5
F10500
330
F10501
100
AcDbEntity
8
Geo
100
AcDbLine
10
-31.7196010407632
20
7.21106625710066
30
0.000000000000000
11
-31.6196010407632
21
7.15452942579525
31
0.000000000000000
  0
LINE
  5
F10502
330
F10503
100
AcDbEntity
8
Geo
100
AcDbLine
10
-31.6196010407632
20
7.15452942579525
30
0.000000000000000
11
-31.5196010407632
21
7.09813145707782
31
0.000000000000000
  0
LINE
  5
F10504
330
F10505
100
AcDbEntity
8
Geo
100
AcDbLine
10
-31.5196010407632
20
7.09813145707782
30
0.000000000000000
11
-31.4196010407632
21
7.04187987059398
31
0.000000000000000
  0
LINE
  5
F10506
330
F10507
100
AcDbEntity
8
Geo
100
AcDbLine
10
-31.4196010407632
20
7.04187987059398
30
0.000000000000000
11
-31.3196010407632
21
6.98578216647194
31
0.000000000000000
  0
LINE
  5
F10508
330
F10509
100
AcDbEntity
8
Geo
100
AcDbLine
10
-31.3196010407632
20
6.98578216647194
30
0.000000000000000
11
-31.2196010407632
21
6.92984582432246
31
0.000000000000000
  0
LINE
  5
F1050A
330
F1050B
100
AcDbEntity
8
Geo
100
AcDbLine
10
-31.2196010407632
20
6.92984582432246
30
0.000000000000000
11
-31.1196010407632
21
6.87407830224163
31
0.000000000000000
  0
LINE
  5
F1050C
330
F1050D
100
AcDbEntity
8
Geo
100
AcDbLine
10
-31.1196010407632
20
6.87407830224163
30
0.000000000000000
11
-31.0196010407632
21
6.81848703581644
31
0.000000000000000
  0
LINE
  5
F1050E
330
F1050F
100
AcDbEntity
8
Geo
100
AcDbLine
10
-31.0196010407632
20
6.81848703581644
30
0.000000000000000
11
-30.9196010407632
21
6.76307943713340
31
0.000000000000000
  0
LINE
  5
F10510
330
F10511
100
AcDbEntity
8
Geo
100
AcDbLine
10
-30.9196010407632
20
6.76307943713340
30
0.000000000000000
11
-30.8196010407632
21
6.70786289379023
31
0.000000000000000
  0
LINE
  5
F10512
330
F10513
100
AcDbEntity
8
Geo
100
AcDbLine
10
-30.8196010407632
20
6.70786289379023
30
0.000000000000000
11
-30.7196010407633
21
6.65284476791093
31
0.000000000000000
  0
LINE
  5
F10514
330
F10515
100
AcDbEntity
8
Geo
100
AcDbLine
10
-30.7196010407633
20
6.65284476791093
30
0.000000000000000
11
-30.6196010407632
21
6.59803239516410
31
0.000000000000000
  0
LINE
  5
F10516
330
F10517
100
AcDbEntity
8
Geo
100
AcDbLine
10
-30.6196010407632
20
6.59803239516410
30
0.000000000000000
11
-30.5196010407632
21
6.54343308378489
31
0.000000000000000
  0
LINE
  5
F10518
330
F10519
100
AcDbEntity
8
Geo
100
AcDbLine
10
-30.5196010407632
20
6.54343308378489
30
0.000000000000000
11
-30.4196010407633
21
6.48905411360062
31
0.000000000000000
  0
LINE
  5
F1051A
330
F1051B
100
AcDbEntity
8
Geo
100
AcDbLine
10
-30.4196010407633
20
6.48905411360062
30
0.000000000000000
11
-30.3196010407633
21
6.43490273506006
31
0.000000000000000
  0
LINE
  5
F1051C
330
F1051D
100
AcDbEntity
8
Geo
100
AcDbLine
10
-30.3196010407633
20
6.43490273506006
30
0.000000000000000
11
-30.2196010407633
21
6.38098616826682
31
0.000000000000000
  0
LINE
  5
F1051E
330
F1051F
100
AcDbEntity
8
Geo
100
AcDbLine
10
-30.2196010407633
20
6.38098616826682
30
0.000000000000000
11
-30.1196010407632
21
6.32731160201658
31
0.000000000000000
  0
LINE
  5
F10520
330
F10521
100
AcDbEntity
8
Geo
100
AcDbLine
10
-30.1196010407632
20
6.32731160201658
30
0.000000000000000
11
-30.0196010407633
21
6.27388619283865
31
0.000000000000000
  0
LINE
  5
F10522
330
F10523
100
AcDbEntity
8
Geo
100
AcDbLine
10
-30.0196010407633
20
6.27388619283865
30
0.000000000000000
11
-29.9196010407633
21
6.22071706404179
31
0.000000000000000
  0
LINE
  5
F10524
330
F10525
100
AcDbEntity
8
Geo
100
AcDbLine
10
-29.9196010407633
20
6.22071706404179
30
0.000000000000000
11
-29.8196010407633
21
6.16781130476439
31
0.000000000000000
  0
LINE
  5
F10526
330
F10527
100
AcDbEntity
8
Geo
100
AcDbLine
10
-29.8196010407633
20
6.16781130476439
30
0.000000000000000
11
-29.7196010407633
21
6.11517596902931
31
0.000000000000000
  0
LINE
  5
F10528
330
F10529
100
AcDbEntity
8
Geo
100
AcDbLine
10
-29.7196010407633
20
6.11517596902931
30
0.000000000000000
11
-29.6196010407633
21
6.06281807480335
31
0.000000000000000
  0
LINE
  5
F1052A
330
F1052B
100
AcDbEntity
8
Geo
100
AcDbLine
10
-29.6196010407633
20
6.06281807480335
30
0.000000000000000
11
-29.5196010407633
21
6.01074460306149
31
0.000000000000000
  0
LINE
  5
F1052C
330
F1052D
100
AcDbEntity
8
Geo
100
AcDbLine
10
-29.5196010407633
20
6.01074460306149
30
0.000000000000000
11
-29.4196010407633
21
5.95896249685615
31
0.000000000000000
  0
LINE
  5
F1052E
330
F1052F
100
AcDbEntity
8
Geo
100
AcDbLine
10
-29.4196010407633
20
5.95896249685615
30
0.000000000000000
11
-29.3196010407633
21
5.90747866039146
31
0.000000000000000
  0
LINE
  5
F10530
330
F10531
100
AcDbEntity
8
Geo
100
AcDbLine
10
-29.3196010407633
20
5.90747866039146
30
0.000000000000000
11
-29.2196010407633
21
5.85629995810266
31
0.000000000000000
  0
LINE
  5
F10532
330
F10533
100
AcDbEntity
8
Geo
100
AcDbLine
10
-29.2196010407633
20
5.85629995810266
30
0.000000000000000
11
-29.1196010407633
21
5.80543321374091
31
0.000000000000000
  0
LINE
  5
F10534
330
F10535
100
AcDbEntity
8
Geo
100
AcDbLine
10
-29.1196010407633
20
5.80543321374091
30
0.000000000000000
11
-29.0196010407633
21
5.75488520946343
31
0.000000000000000
  0
LINE
  5
F10536
330
F10537
100
AcDbEntity
8
Geo
100
AcDbLine
10
-29.0196010407633
20
5.75488520946343
30
0.000000000000000
11
-28.9196010407633
21
5.70466268492925
31
0.000000000000000
  0
LINE
  5
F10538
330
F10539
100
AcDbEntity
8
Geo
100
AcDbLine
10
-28.9196010407633
20
5.70466268492925
30
0.000000000000000
11
-28.8196010407633
21
5.65477233640055
31
0.000000000000000
  0
LINE
  5
F1053A
330
F1053B
100
AcDbEntity
8
Geo
100
AcDbLine
10
-28.8196010407633
20
5.65477233640055
30
0.000000000000000
11
-28.7196010407633
21
5.60522081584990
31
0.000000000000000
  0
LINE
  5
F1053C
330
F1053D
100
AcDbEntity
8
Geo
100
AcDbLine
10
-28.7196010407633
20
5.60522081584990
30
0.000000000000000
11
-28.6196010407633
21
5.55601473007331
31
0.000000000000000
  0
LINE
  5
F1053E
330
F1053F
100
AcDbEntity
8
Geo
100
AcDbLine
10
-28.6196010407633
20
5.55601473007331
30
0.000000000000000
11
-28.5196010407633
21
5.50716063980930
31
0.000000000000000
  0
LINE
  5
F10540
330
F10541
100
AcDbEntity
8
Geo
100
AcDbLine
10
-28.5196010407633
20
5.50716063980930
30
0.000000000000000
11
-28.4196010407633
21
5.45866505886420
31
0.000000000000000
  0
LINE
  5
F10542
330
F10543
100
AcDbEntity
8
Geo
100
AcDbLine
10
-28.4196010407633
20
5.45866505886420
30
0.000000000000000
11
-28.3196010407633
21
5.41053445324363
31
0.000000000000000
  0
LINE
  5
F10544
330
F10545
100
AcDbEntity
8
Geo
100
AcDbLine
10
-28.3196010407633
20
5.41053445324363
30
0.000000000000000
11
-28.2196010407633
21
5.36277524029037
31
0.000000000000000
  0
LINE
  5
F10546
330
F10547
100
AcDbEntity
8
Geo
100
AcDbLine
10
-28.2196010407633
20
5.36277524029037
30
0.000000000000000
11
-28.1196010407633
21
5.31539378782871
31
0.000000000000000
  0
LINE
  5
F10548
330
F10549
100
AcDbEntity
8
Geo
100
AcDbLine
10
-28.1196010407633
20
5.31539378782871
30
0.000000000000000
11
-28.0196010407633
21
5.26839641331547
31
0.000000000000000
  0
LINE
  5
F1054A
330
F1054B
100
AcDbEntity
8
Geo
100
AcDbLine
10
-28.0196010407633
20
5.26839641331547
30
0.000000000000000
11
-27.9196010407633
21
5.22178938299762
31
0.000000000000000
  0
LINE
  5
F1054C
330
F1054D
100
AcDbEntity
8
Geo
100
AcDbLine
10
-27.9196010407633
20
5.22178938299762
30
0.000000000000000
11
-27.8196010407633
21
5.17557891107682
31
0.000000000000000
  0
LINE
  5
F1054E
330
F1054F
100
AcDbEntity
8
Geo
100
AcDbLine
10
-27.8196010407633
20
5.17557891107682
30
0.000000000000000
11
-27.7196010407633
21
5.12977115888087
31
0.000000000000000
  0
LINE
  5
F10550
330
F10551
100
AcDbEntity
8
Geo
100
AcDbLine
10
-27.7196010407633
20
5.12977115888087
30
0.000000000000000
11
-27.6196010407632
21
5.08437223404219
31
0.000000000000000
  0
LINE
  5
F10552
330
F10553
100
AcDbEntity
8
Geo
100
AcDbLine
10
-27.6196010407632
20
5.08437223404219
30
0.000000000000000
11
-27.5196010407632
21
5.03938818968351
31
0.000000000000000
  0
LINE
  5
F10554
330
F10555
100
AcDbEntity
8
Geo
100
AcDbLine
10
-27.5196010407632
20
5.03938818968351
30
0.000000000000000
11
-27.4196010407632
21
4.99482502361077
31
0.000000000000000
  0
LINE
  5
F10556
330
F10557
100
AcDbEntity
8
Geo
100
AcDbLine
10
-27.4196010407632
20
4.99482502361077
30
0.000000000000000
11
-27.3196010407632
21
4.95068867751342
31
0.000000000000000
  0
LINE
  5
F10558
330
F10559
100
AcDbEntity
8
Geo
100
AcDbLine
10
-27.3196010407632
20
4.95068867751342
30
0.000000000000000
11
-27.2196010407632
21
4.90698503617223
31
0.000000000000000
  0
LINE
  5
F1055A
330
F1055B
100
AcDbEntity
8
Geo
100
AcDbLine
10
-27.2196010407632
20
4.90698503617223
30
0.000000000000000
11
-27.1196010407632
21
4.86371992667462
31
0.000000000000000
  0
LINE
  5
F1055C
330
F1055D
100
AcDbEntity
8
Geo
100
AcDbLine
10
-27.1196010407632
20
4.86371992667462
30
0.000000000000000
11
-27.0196010407632
21
4.82089911763777
31
0.000000000000000
  0
LINE
  5
F1055E
330
F1055F
100
AcDbEntity
8
Geo
100
AcDbLine
10
-27.0196010407632
20
4.82089911763777
30
0.000000000000000
11
-26.9196010407632
21
4.77852831843944
31
0.000000000000000
  0
LINE
  5
F10560
330
F10561
100
AcDbEntity
8
Geo
100
AcDbLine
10
-26.9196010407632
20
4.77852831843944
30
0.000000000000000
11
-26.8196010407632
21
4.73661317845676
31
0.000000000000000
  0
LINE
  5
F10562
330
F10563
100
AcDbEntity
8
Geo
100
AcDbLine
10
-26.8196010407632
20
4.73661317845676
30
0.000000000000000
11
-26.7196010407632
21
4.69515928631295
31
0.000000000000000
  0
LINE
  5
F10564
330
F10565
100
AcDbEntity
8
Geo
100
AcDbLine
10
-26.7196010407632
20
4.69515928631295
30
0.000000000000000
11
-26.6196010407632
21
4.65417216913224
31
0.000000000000000
  0
LINE
  5
F10566
330
F10567
100
AcDbEntity
8
Geo
100
AcDbLine
10
-26.6196010407632
20
4.65417216913224
30
0.000000000000000
11
-26.5196010407632
21
4.61365729180284
31
0.000000000000000
  0
LINE
  5
F10568
330
F10569
100
AcDbEntity
8
Geo
100
AcDbLine
10
-26.5196010407632
20
4.61365729180284
30
0.000000000000000
11
-26.4196010407632
21
4.57362005624839
31
0.000000000000000
  0
LINE
  5
F1056A
330
F1056B
100
AcDbEntity
8
Geo
100
AcDbLine
10
-26.4196010407632
20
4.57362005624839
30
0.000000000000000
11
-26.3196010407632
21
4.53406580070764
31
0.000000000000000
  0
LINE
  5
F1056C
330
F1056D
100
AcDbEntity
8
Geo
100
AcDbLine
10
-26.3196010407632
20
4.53406580070764
30
0.000000000000000
11
-26.2196010407632
21
4.49499979902274
31
0.000000000000000
  0
LINE
  5
F1056E
330
F1056F
100
AcDbEntity
8
Geo
100
AcDbLine
10
-26.2196010407632
20
4.49499979902274
30
0.000000000000000
11
-26.1196010407632
21
4.45642725993603
31
0.000000000000000
  0
LINE
  5
F10570
330
F10571
100
AcDbEntity
8
Geo
100
AcDbLine
10
-26.1196010407632
20
4.45642725993603
30
0.000000000000000
11
-26.0196010407632
21
4.41835332639558
31
0.000000000000000
  0
LINE
  5
F10572
330
F10573
100
AcDbEntity
8
Geo
100
AcDbLine
10
-26.0196010407632
20
4.41835332639558
30
0.000000000000000
11
-25.9196010407632
21
4.38078307486946
31
0.000000000000000
  0
LINE
  5
F10574
330
F10575
100
AcDbEntity
8
Geo
100
AcDbLine
10
-25.9196010407632
20
4.38078307486946
30
0.000000000000000
11
-25.8196010407632
21
4.34372151466888
31
0.000000000000000
  0
LINE
  5
F10576
330
F10577
100
AcDbEntity
8
Geo
100
AcDbLine
10
-25.8196010407632
20
4.34372151466888
30
0.000000000000000
11
-25.7196010407632
21
4.30717358728029
31
0.000000000000000
  0
LINE
  5
F10578
330
F10579
100
AcDbEntity
8
Geo
100
AcDbLine
10
-25.7196010407632
20
4.30717358728029
30
0.000000000000000
11
-25.6196010407632
21
4.27114416570654
31
0.000000000000000
  0
LINE
  5
F1057A
330
F1057B
100
AcDbEntity
8
Geo
100
AcDbLine
10
-25.6196010407632
20
4.27114416570654
30
0.000000000000000
11
-25.5196010407632
21
4.23563805381711
31
0.000000000000000
  0
LINE
  5
F1057C
330
F1057D
100
AcDbEntity
8
Geo
100
AcDbLine
10
-25.5196010407632
20
4.23563805381711
30
0.000000000000000
11
-25.4196010407632
21
4.20065998570767
31
0.000000000000000
  0
LINE
  5
F1057E
330
F1057F
100
AcDbEntity
8
Geo
100
AcDbLine
10
-25.4196010407632
20
4.20065998570767
30
0.000000000000000
11
-25.3196010407632
21
4.16621462506881
31
0.000000000000000
  0
LINE
  5
F10580
330
F10581
100
AcDbEntity
8
Geo
100
AcDbLine
10
-25.3196010407632
20
4.16621462506881
30
0.000000000000000
11
-25.2196010407632
21
4.13230656456425
31
0.000000000000000
  0
LINE
  5
F10582
330
F10583
100
AcDbEntity
8
Geo
100
AcDbLine
10
-25.2196010407632
20
4.13230656456425
30
0.000000000000000
11
-25.1196010407632
21
4.09894032521849
31
0.000000000000000
  0
LINE
  5
F10584
330
F10585
100
AcDbEntity
8
Geo
100
AcDbLine
10
-25.1196010407632
20
4.09894032521849
30
0.000000000000000
11
-25.0196010407632
21
4.06612035581401
31
0.000000000000000
  0
LINE
  5
F10586
330
F10587
100
AcDbEntity
8
Geo
100
AcDbLine
10
-25.0196010407632
20
4.06612035581401
30
0.000000000000000
11
-24.9196010407632
21
4.03385103229811
31
0.000000000000000
  0
LINE
  5
F10588
330
F10589
100
AcDbEntity
8
Geo
100
AcDbLine
10
-24.9196010407632
20
4.03385103229811
30
0.000000000000000
11
-24.8196010407632
21
4.00213665719945
31
0.000000000000000
  0
LINE
  5
F1058A
330
F1058B
100
AcDbEntity
8
Geo
100
AcDbLine
10
-24.8196010407632
20
4.00213665719945
30
0.000000000000000
11
-24.7196010407632
21
3.97098145905440
31
0.000000000000000
  0
LINE
  5
F1058C
330
F1058D
100
AcDbEntity
8
Geo
100
AcDbLine
10
-24.7196010407632
20
3.97098145905440
30
0.000000000000000
11
-24.6196010407632
21
3.94038959184322
31
0.000000000000000
  0
LINE
  5
F1058E
330
F1058F
100
AcDbEntity
8
Geo
100
AcDbLine
10
-24.6196010407632
20
3.94038959184322
30
0.000000000000000
11
-24.5196010407632
21
3.91036513443622
31
0.000000000000000
  0
LINE
  5
F10590
330
F10591
100
AcDbEntity
8
Geo
100
AcDbLine
10
-24.5196010407632
20
3.91036513443622
30
0.000000000000000
11
-24.4196010407632
21
3.88091209004990
31
0.000000000000000
  0
LINE
  5
F10592
330
F10593
100
AcDbEntity
8
Geo
100
AcDbLine
10
-43.6196010407632
20
5.64656329467533
30
0.000000000000000
11
-43.6196010407632
21
5.78280465959439
31
0.000000000000000
  0
LINE
  5
F10594
330
F10595
100
AcDbEntity
8
Geo
100
AcDbLine
10
-43.6196010407632
20
5.78280465959439
30
0.000000000000000
11
-43.5196010407632
21
5.83667717795146
31
0.000000000000000
  0
LINE
  5
F10596
330
F10597
100
AcDbEntity
8
Geo
100
AcDbLine
10
-43.5196010407632
20
5.83667717795146
30
0.000000000000000
11
-43.4196010407632
21
5.85703049490297
31
0.000000000000000
  0
LINE
  5
F10598
330
F10599
100
AcDbEntity
8
Geo
100
AcDbLine
10
-43.4196010407632
20
5.85703049490297
30
0.000000000000000
11
-43.3196010407632
21
5.86300951658606
31
0.000000000000000
  0
LINE
  5
F1059A
330
F1059B
100
AcDbEntity
8
Geo
100
AcDbLine
10
-43.3196010407632
20
5.86300951658606
30
0.000000000000000
11
-43.2196010407632
21
5.85972681617765
31
0.000000000000000
  0
LINE
  5
F1059C
330
F1059D
100
AcDbEntity
8
Geo
100
AcDbLine
10
-43.2196010407632
20
5.85972681617765
30
0.000000000000000
11
-43.1196010407632
21
5.84960063035087
31
0.000000000000000
  0
LINE
  5
F1059E
330
F1059F
100
AcDbEntity
8
Geo
100
AcDbLine
10
-43.1196010407632
20
5.84960063035087
30
0.000000000000000
11
-43.0196010407632
21
5.83405486688082
31
0.000000000000000
  0
LINE
  5
F105A0
330
F105A1
100
AcDbEntity
8
Geo
100
AcDbLine
10
-43.0196010407632
20
5.83405486688082
30
0.000000000000000
11
-42.9196010407632
21
5.81403795938520
31
0.000000000000000
  0
LINE
  5
F105A2
330
F105A3
100
AcDbEntity
8
Geo
100
AcDbLine
10
-42.9196010407632
20
5.81403795938520
30
0.000000000000000
11
-42.8196010407632
21
5.79023440172402
31
0.000000000000000
  0
LINE
  5
F105A4
330
F105A5
100
AcDbEntity
8
Geo
100
AcDbLine
10
-42.8196010407632
20
5.79023440172402
30
0.000000000000000
11
-42.7196010407632
21
5.76316700138916
31
0.000000000000000
  0
LINE
  5
F105A6
330
F105A7
100
AcDbEntity
8
Geo
100
AcDbLine
10
-42.7196010407632
20
5.76316700138916
30
0.000000000000000
11
-42.6196010407632
21
5.73325230503298
31
0.000000000000000
  0
LINE
  5
F105A8
330
F105A9
100
AcDbEntity
8
Geo
100
AcDbLine
10
-42.6196010407632
20
5.73325230503298
30
0.000000000000000
11
-42.5196010407632
21
5.70083324112045
31
0.000000000000000
  0
LINE
  5
F105AA
330
F105AB
100
AcDbEntity
8
Geo
100
AcDbLine
10
-42.5196010407632
20
5.70083324112045
30
0.000000000000000
11
-42.4196010407632
21
5.66619959831792
31
0.000000000000000
  0
LINE
  5
F105AC
330
F105AD
100
AcDbEntity
8
Geo
100
AcDbLine
10
-42.4196010407632
20
5.66619959831792
30
0.000000000000000
11
-42.3196010407632
21
5.62960152867347
31
0.000000000000000
  0
LINE
  5
F105AE
330
F105AF
100
AcDbEntity
8
Geo
100
AcDbLine
10
-42.3196010407632
20
5.62960152867347
30
0.000000000000000
11
-42.2196010407632
21
5.59125881788038
31
0.000000000000000
  0
LINE
  5
F105B0
330
F105B1
100
AcDbEntity
8
Geo
100
AcDbLine
10
-42.2196010407632
20
5.59125881788038
30
0.000000000000000
11
-42.1196010407632
21
5.55136746544222
31
0.000000000000000
  0
LINE
  5
F105B2
330
F105B3
100
AcDbEntity
8
Geo
100
AcDbLine
10
-42.1196010407632
20
5.55136746544222
30
0.000000000000000
11
-42.0196010407632
21
5.51010448839555
31
0.000000000000000
  0
LINE
  5
F105B4
330
F105B5
100
AcDbEntity
8
Geo
100
AcDbLine
10
-42.0196010407632
20
5.51010448839555
30
0.000000000000000
11
-41.9196010407632
21
5.46763151333874
31
0.000000000000000
  0
LINE
  5
F105B6
330
F105B7
100
AcDbEntity
8
Geo
100
AcDbLine
10
-41.9196010407632
20
5.46763151333874
30
0.000000000000000
11
-41.8196010407632
21
5.42409751877910
31
0.000000000000000
  0
LINE
  5
F105B8
330
F105B9
100
AcDbEntity
8
Geo
100
AcDbLine
10
-41.8196010407632
20
5.42409751877910
30
0.000000000000000
11
-41.7196010407632
21
5.37964096722998
31
0.000000000000000
  0
LINE
  5
F105BA
330
F105BB
100
AcDbEntity
8
Geo
100
AcDbLine
10
-41.7196010407632
20
5.37964096722998
30
0.000000000000000
11
-41.6196010407632
21
5.33439148978672
31
0.000000000000000
  0
LINE
  5
F105BC
330
F105BD
100
AcDbEntity
8
Geo
100
AcDbLine
10
-41.6196010407632
20
5.33439148978672
30
0.000000000000000
11
-41.5196010407632
21
5.28847123645935
31
0.000000000000000
  0
LINE
  5
F105BE
330
F105BF
100
AcDbEntity
8
Geo
100
AcDbLine
10
-41.5196010407632
20
5.28847123645935
30
0.000000000000000
11
-41.4196010407632
21
5.24199597280827
31
0.000000000000000
  0
LINE
  5
F105C0
330
F105C1
100
AcDbEntity
8
Geo
100
AcDbLine
10
-41.4196010407632
20
5.24199597280827
30
0.000000000000000
11
-41.3196010407632
21
5.19507598125300
31
0.000000000000000
  0
LINE
  5
F105C2
330
F105C3
100
AcDbEntity
8
Geo
100
AcDbLine
10
-41.3196010407632
20
5.19507598125300
30
0.000000000000000
11
-41.2196010407632
21
5.14781681008482
31
0.000000000000000
  0
LINE
  5
F105C4
330
F105C5
100
AcDbEntity
8
Geo
100
AcDbLine
10
-41.2196010407632
20
5.14781681008482
30
0.000000000000000
11
-41.1196010407632
21
5.10031990240342
31
0.000000000000000
  0
LINE
  5
F105C6
330
F105C7
100
AcDbEntity
8
Geo
100
AcDbLine
10
-41.1196010407632
20
5.10031990240342
30
0.000000000000000
11
-41.0196010407632
21
5.05268312945068
31
0.000000000000000
  0
LINE
  5
F105C8
330
F105C9
100
AcDbEntity
8
Geo
100
AcDbLine
10
-41.0196010407632
20
5.05268312945068
30
0.000000000000000
11
-40.9196010407632
21
5.00500124717783
31
0.000000000000000
  0
LINE
  5
F105CA
330
F105CB
100
AcDbEntity
8
Geo
100
AcDbLine
10
-40.9196010407632
20
5.00500124717783
30
0.000000000000000
11
-40.8196010407632
21
4.95736629072547
31
0.000000000000000
  0
LINE
  5
F105CC
330
F105CD
100
AcDbEntity
8
Geo
100
AcDbLine
10
-40.8196010407632
20
4.95736629072547
30
0.000000000000000
11
-40.7196010407632
21
4.90986791839152
31
0.000000000000000
  0
LINE
  5
F105CE
330
F105CF
100
AcDbEntity
8
Geo
100
AcDbLine
10
-40.7196010407632
20
4.90986791839152
30
0.000000000000000
11
-40.6196010407632
21
4.86259371431965
31
0.000000000000000
  0
LINE
  5
F105D0
330
F105D1
100
AcDbEntity
8
Geo
100
AcDbLine
10
-40.6196010407632
20
4.86259371431965
30
0.000000000000000
11
-40.5196010407632
21
4.81562945735463
31
0.000000000000000
  0
LINE
  5
F105D2
330
F105D3
100
AcDbEntity
8
Geo
100
AcDbLine
10
-40.5196010407632
20
4.81562945735463
30
0.000000000000000
11
-40.4196010407632
21
4.76905936213891
31
0.000000000000000
  0
LINE
  5
F105D4
330
F105D5
100
AcDbEntity
8
Geo
100
AcDbLine
10
-40.4196010407632
20
4.76905936213891
30
0.000000000000000
11
-40.3196010407632
21
4.72296629746277
31
0.000000000000000
  0
LINE
  5
F105D6
330
F105D7
100
AcDbEntity
8
Geo
100
AcDbLine
10
-40.3196010407632
20
4.72296629746277
30
0.000000000000000
11
-40.2196010407632
21
4.67743198605500
31
0.000000000000000
  0
LINE
  5
F105D8
330
F105D9
100
AcDbEntity
8
Geo
100
AcDbLine
10
-40.2196010407632
20
4.67743198605500
30
0.000000000000000
11
-40.1196010407632
21
4.63253718935723
31
0.000000000000000
  0
LINE
  5
F105DA
330
F105DB
100
AcDbEntity
8
Geo
100
AcDbLine
10
-40.1196010407632
20
4.63253718935723
30
0.000000000000000
11
-40.0196010407632
21
4.58836188032338
31
0.000000000000000
  0
LINE
  5
F105DC
330
F105DD
100
AcDbEntity
8
Geo
100
AcDbLine
10
-40.0196010407632
20
4.58836188032338
30
0.000000000000000
11
-39.9196010407632
21
4.54498540689647
31
0.000000000000000
  0
LINE
  5
F105DE
330
F105DF
100
AcDbEntity
8
Geo
100
AcDbLine
10
-39.9196010407632
20
4.54498540689647
30
0.000000000000000
11
-39.8196010407632
21
4.50248664851616
31
0.000000000000000
  0
LINE
  5
F105E0
330
F105E1
100
AcDbEntity
8
Geo
100
AcDbLine
10
-39.8196010407632
20
4.50248664851616
30
0.000000000000000
11
-39.7196010407632
21
4.46094416778602
31
0.000000000000000
  0
LINE
  5
F105E2
330
F105E3
100
AcDbEntity
8
Geo
100
AcDbLine
10
-39.7196010407632
20
4.46094416778602
30
0.000000000000000
11
-39.6196010407632
21
4.42043635926735
31
0.000000000000000
  0
LINE
  5
F105E4
330
F105E5
100
AcDbEntity
8
Geo
100
AcDbLine
10
-39.6196010407632
20
4.42043635926735
30
0.000000000000000
11
-39.5196010407632
21
4.38104159725794
31
0.000000000000000
  0
LINE
  5
F105E6
330
F105E7
100
AcDbEntity
8
Geo
100
AcDbLine
10
-39.5196010407632
20
4.38104159725794
30
0.000000000000000
11
-39.4196010407632
21
4.34283838435398
31
0.000000000000000
  0
LINE
  5
F105E8
330
F105E9
100
AcDbEntity
8
Geo
100
AcDbLine
10
-39.4196010407632
20
4.34283838435398
30
0.000000000000000
11
-39.3196010407632
21
4.30590550257731
31
0.000000000000000
  0
LINE
  5
F105EA
330
F105EB
100
AcDbEntity
8
Geo
100
AcDbLine
10
-39.3196010407632
20
4.30590550257731
30
0.000000000000000
11
-39.2196010407632
21
4.26989429127514
31
0.000000000000000
  0
LINE
  5
F105EC
330
F105ED
100
AcDbEntity
8
Geo
100
AcDbLine
10
-39.2196010407632
20
4.26989429127514
30
0.000000000000000
11
-39.1196010407632
21
4.23440655630537
31
0.000000000000000
  0
LINE
  5
F105EE
330
F105EF
100
AcDbEntity
8
Geo
100
AcDbLine
10
-39.1196010407632
20
4.23440655630537
30
0.000000000000000
11
-39.0196010407632
21
4.19944702931344
31
0.000000000000000
  0
LINE
  5
F105F0
330
F105F1
100
AcDbEntity
8
Geo
100
AcDbLine
10
-39.0196010407632
20
4.19944702931344
30
0.000000000000000
11
-38.9196010407632
21
4.16502037151780
31
0.000000000000000
  0
LINE
  5
F105F2
330
F105F3
100
AcDbEntity
8
Geo
100
AcDbLine
10
-38.9196010407632
20
4.16502037151780
30
0.000000000000000
11
-38.8196010407632
21
4.13113117308851
31
0.000000000000000
  0
LINE
  5
F105F4
330
F105F5
100
AcDbEntity
8
Geo
100
AcDbLine
10
-38.8196010407632
20
4.13113117308851
30
0.000000000000000
11
-38.7196010407632
21
4.09778395253513
31
0.000000000000000
  0
LINE
  5
F105F6
330
F105F7
100
AcDbEntity
8
Geo
100
AcDbLine
10
-38.7196010407632
20
4.09778395253513
30
0.000000000000000
11
-38.6196010407632
21
4.06498315610435
31
0.000000000000000
  0
LINE
  5
F105F8
330
F105F9
100
AcDbEntity
8
Geo
100
AcDbLine
10
-38.6196010407632
20
4.06498315610435
30
0.000000000000000
11
-38.5196010407632
21
4.03273315718709
31
0.000000000000000
  0
LINE
  5
F105FA
330
F105FB
100
AcDbEntity
8
Geo
100
AcDbLine
10
-38.5196010407632
20
4.03273315718709
30
0.000000000000000
11
-38.4196010407632
21
4.00103825573543
31
0.000000000000000
  0
LINE
  5
F105FC
330
F105FD
100
AcDbEntity
8
Geo
100
AcDbLine
10
-38.4196010407632
20
4.00103825573543
30
0.000000000000000
11
-38.3196010407632
21
3.96990267768928
31
0.000000000000000
  0
LINE
  5
F105FE
330
F105FF
100
AcDbEntity
8
Geo
100
AcDbLine
10
-38.3196010407632
20
3.96990267768928
30
0.000000000000000
11
-38.2196010407632
21
3.93933057441292
31
0.000000000000000
  0
LINE
  5
F10600
330
F10601
100
AcDbEntity
8
Geo
100
AcDbLine
10
-38.2196010407632
20
3.93933057441292
30
0.000000000000000
11
-38.1196010407632
21
3.90932602214149
31
0.000000000000000
  0
LINE
  5
F10602
330
F10603
100
AcDbEntity
8
Geo
100
AcDbLine
10
-38.1196010407632
20
3.90932602214149
30
0.000000000000000
11
-38.0196010407632
21
3.87989302143751
31
0.000000000000000
  0
LINE
  5
F10604
330
F10605
100
AcDbEntity
8
Geo
100
AcDbLine
10
-38.0196010407632
20
3.87989302143751
30
0.000000000000000
11
-37.9196010407632
21
3.85103549665747
31
0.000000000000000
  0
LINE
  5
F10606
330
F10607
100
AcDbEntity
8
Geo
100
AcDbLine
10
-37.9196010407632
20
3.85103549665747
30
0.000000000000000
11
-37.8196010407632
21
3.82275729542859
31
0.000000000000000
  0
LINE
  5
F10608
330
F10609
100
AcDbEntity
8
Geo
100
AcDbLine
10
-37.8196010407632
20
3.82275729542859
30
0.000000000000000
11
-37.7196010407632
21
3.79506218813580
31
0.000000000000000
  0
LINE
  5
F1060A
330
F1060B
100
AcDbEntity
8
Geo
100
AcDbLine
10
-37.7196010407632
20
3.79506218813580
30
0.000000000000000
11
-37.6196010407632
21
3.76795386741905
31
0.000000000000000
  0
LINE
  5
F1060C
330
F1060D
100
AcDbEntity
8
Geo
100
AcDbLine
10
-37.6196010407632
20
3.76795386741905
30
0.000000000000000
11
-37.5196010407632
21
3.74143594768094
31
0.000000000000000
  0
LINE
  5
F1060E
330
F1060F
100
AcDbEntity
8
Geo
100
AcDbLine
10
-37.5196010407632
20
3.74143594768094
30
0.000000000000000
11
-37.4196010407632
21
3.71551196460482
31
0.000000000000000
  0
LINE
  5
F10610
330
F10611
100
AcDbEntity
8
Geo
100
AcDbLine
10
-37.4196010407632
20
3.71551196460482
30
0.000000000000000
11
-37.3196010407632
21
3.69018537468336
31
0.000000000000000
  0
LINE
  5
F10612
330
F10613
100
AcDbEntity
8
Geo
100
AcDbLine
10
-37.3196010407632
20
3.69018537468336
30
0.000000000000000
11
-37.2196010407632
21
3.66545955475769
31
0.000000000000000
  0
LINE
  5
F10614
330
F10615
100
AcDbEntity
8
Geo
100
AcDbLine
10
-37.2196010407632
20
3.66545955475769
30
0.000000000000000
11
-37.1196010407632
21
3.64133780156717
31
0.000000000000000
  0
LINE
  5
F10616
330
F10617
100
AcDbEntity
8
Geo
100
AcDbLine
10
-37.1196010407632
20
3.64133780156717
30
0.000000000000000
11
-37.0196010407632
21
3.61782333130983
31
0.000000000000000
  0
LINE
  5
F10618
330
F10619
100
AcDbEntity
8
Geo
100
AcDbLine
10
-37.0196010407632
20
3.61782333130983
30
0.000000000000000
11
-36.9196010407632
21
3.59491927921353
31
0.000000000000000
  0
LINE
  5
F1061A
330
F1061B
100
AcDbEntity
8
Geo
100
AcDbLine
10
-36.9196010407632
20
3.59491927921353
30
0.000000000000000
11
-36.8196010407632
21
3.57262869911795
31
0.000000000000000
  0
LINE
  5
F1061C
330
F1061D
100
AcDbEntity
8
Geo
100
AcDbLine
10
-36.8196010407632
20
3.57262869911795
30
0.000000000000000
11
-36.7196010407632
21
3.55095456306741
31
0.000000000000000
  0
LINE
  5
F1061E
330
F1061F
100
AcDbEntity
8
Geo
100
AcDbLine
10
-36.7196010407632
20
3.55095456306741
30
0.000000000000000
11
-36.6196010407632
21
3.52989976091462
31
0.000000000000000
  0
LINE
  5
F10620
330
F10621
100
AcDbEntity
8
Geo
100
AcDbLine
10
-36.6196010407632
20
3.52989976091462
30
0.000000000000000
11
-36.5196010407632
21
3.50946709993533
31
0.000000000000000
  0
LINE
  5
F10622
330
F10623
100
AcDbEntity
8
Geo
100
AcDbLine
10
-36.5196010407632
20
3.50946709993533
30
0.000000000000000
11
-36.4196010407632
21
3.48965930445407
31
0.000000000000000
  0
LINE
  5
F10624
330
F10625
100
AcDbEntity
8
Geo
100
AcDbLine
10
-36.4196010407632
20
3.48965930445407
30
0.000000000000000
11
-36.3196010407632
21
3.47047901548089
31
0.000000000000000
  0
LINE
  5
F10626
330
F10627
100
AcDbEntity
8
Geo
100
AcDbLine
10
-36.3196010407632
20
3.47047901548089
30
0.000000000000000
11
-36.2196010407632
21
3.45192879035925
31
0.000000000000000
  0
LINE
  5
F10628
330
F10629
100
AcDbEntity
8
Geo
100
AcDbLine
10
-36.2196010407632
20
3.45192879035925
30
0.000000000000000
11
-36.1196010407632
21
3.43401110242500
31
0.000000000000000
  0
LINE
  5
F1062A
330
F1062B
100
AcDbEntity
8
Geo
100
AcDbLine
10
-36.1196010407632
20
3.43401110242500
30
0.000000000000000
11
-36.0196010407632
21
3.41672834067666
31
0.000000000000000
  0
LINE
  5
F1062C
330
F1062D
100
AcDbEntity
8
Geo
100
AcDbLine
10
-36.0196010407632
20
3.41672834067666
30
0.000000000000000
11
-35.9196010407632
21
3.40008280945686
31
0.000000000000000
  0
LINE
  5
F1062E
330
F1062F
100
AcDbEntity
8
Geo
100
AcDbLine
10
-35.9196010407632
20
3.40008280945686
30
0.000000000000000
11
-35.8196010407632
21
3.38407672814511
31
0.000000000000000
  0
LINE
  5
F10630
330
F10631
100
AcDbEntity
8
Geo
100
AcDbLine
10
-35.8196010407632
20
3.38407672814511
30
0.000000000000000
11
-35.7196010407632
21
3.36871223086187
31
0.000000000000000
  0
LINE
  5
F10632
330
F10633
100
AcDbEntity
8
Geo
100
AcDbLine
10
-35.7196010407632
20
3.36871223086187
30
0.000000000000000
11
-35.6196010407632
21
3.35399136618400
31
0.000000000000000
  0
LINE
  5
F10634
330
F10635
100
AcDbEntity
8
Geo
100
AcDbLine
10
-35.6196010407632
20
3.35399136618400
30
0.000000000000000
11
-35.5196010407632
21
3.33991609687167
31
0.000000000000000
  0
LINE
  5
F10636
330
F10637
100
AcDbEntity
8
Geo
100
AcDbLine
10
-35.5196010407632
20
3.33991609687167
30
0.000000000000000
11
-35.4196010407632
21
3.32648829960659
31
0.000000000000000
  0
LINE
  5
F10638
330
F10639
100
AcDbEntity
8
Geo
100
AcDbLine
10
-35.4196010407632
20
3.32648829960659
30
0.000000000000000
11
-35.3196010407632
21
3.31370976474184
31
0.000000000000000
  0
LINE
  5
F1063A
330
F1063B
100
AcDbEntity
8
Geo
100
AcDbLine
10
-35.3196010407632
20
3.31370976474184
30
0.000000000000000
11
-35.2196010407632
21
3.30158219606313
31
0.000000000000000
  0
LINE
  5
F1063C
330
F1063D
100
AcDbEntity
8
Geo
100
AcDbLine
10
-35.2196010407632
20
3.30158219606313
30
0.000000000000000
11
-35.1196010407632
21
3.29010721056166
31
0.000000000000000
  0
LINE
  5
F1063E
330
F1063F
100
AcDbEntity
8
Geo
100
AcDbLine
10
-35.1196010407632
20
3.29010721056166
30
0.000000000000000
11
-35.0196010407632
21
3.27928633821849
31
0.000000000000000
  0
LINE
  5
F10640
330
F10641
100
AcDbEntity
8
Geo
100
AcDbLine
10
-35.0196010407632
20
3.27928633821849
30
0.000000000000000
11
-34.9196010407632
21
3.26912102180058
31
0.000000000000000
  0
LINE
  5
F10642
330
F10643
100
AcDbEntity
8
Geo
100
AcDbLine
10
-34.9196010407632
20
3.26912102180058
30
0.000000000000000
11
-34.8196010407632
21
3.25961261666838
31
0.000000000000000
  0
LINE
  5
F10644
330
F10645
100
AcDbEntity
8
Geo
100
AcDbLine
10
-34.8196010407632
20
3.25961261666838
30
0.000000000000000
11
-34.7196010407632
21
3.25076239059516
31
0.000000000000000
  0
LINE
  5
F10646
330
F10647
100
AcDbEntity
8
Geo
100
AcDbLine
10
-34.7196010407632
20
3.25076239059516
30
0.000000000000000
11
-34.6196010407632
21
3.24257152359795
31
0.000000000000000
  0
LINE
  5
F10648
330
F10649
100
AcDbEntity
8
Geo
100
AcDbLine
10
-34.6196010407632
20
3.24257152359795
30
0.000000000000000
11
-34.5196010407632
21
3.23504110778022
31
0.000000000000000
  0
LINE
  5
F1064A
330
F1064B
100
AcDbEntity
8
Geo
100
AcDbLine
10
-34.5196010407632
20
3.23504110778022
30
0.000000000000000
11
-34.4196010407632
21
3.22817214718624
31
0.000000000000000
  0
LINE
  5
F1064C
330
F1064D
100
AcDbEntity
8
Geo
100
AcDbLine
10
-34.4196010407632
20
3.22817214718624
30
0.000000000000000
11
-34.3196010407632
21
3.22196555766727
31
0.000000000000000
  0
LINE
  5
F1064E
330
F1064F
100
AcDbEntity
8
Geo
100
AcDbLine
10
-34.3196010407632
20
3.22196555766727
30
0.000000000000000
11
-34.2196010407632
21
3.21642216675937
31
0.000000000000000
  0
LINE
  5
F10650
330
F10651
100
AcDbEntity
8
Geo
100
AcDbLine
10
-34.2196010407632
20
3.21642216675937
30
0.000000000000000
11
-34.1196010407632
21
3.21154271357312
31
0.000000000000000
  0
LINE
  5
F10652
330
F10653
100
AcDbEntity
8
Geo
100
AcDbLine
10
-34.1196010407632
20
3.21154271357312
30
0.000000000000000
11
-34.0196010407632
21
3.20732784869504
31
0.000000000000000
  0
LINE
  5
F10654
330
F10655
100
AcDbEntity
8
Geo
100
AcDbLine
10
-34.0196010407632
20
3.20732784869504
30
0.000000000000000
11
-33.9196010407632
21
3.20377813410089
31
0.000000000000000
  0
LINE
  5
F10656
330
F10657
100
AcDbEntity
8
Geo
100
AcDbLine
10
-33.9196010407632
20
3.20377813410089
30
0.000000000000000
11
-33.8196010407632
21
3.20089404308067
31
0.000000000000000
  0
LINE
  5
F10658
330
F10659
100
AcDbEntity
8
Geo
100
AcDbLine
10
-33.8196010407632
20
3.20089404308067
30
0.000000000000000
11
-33.7196010407632
21
3.19867596017558
31
0.000000000000000
  0
LINE
  5
F1065A
330
F1065B
100
AcDbEntity
8
Geo
100
AcDbLine
10
-33.7196010407632
20
3.19867596017558
30
0.000000000000000
11
-33.6196010407632
21
3.19712418112673
31
0.000000000000000
  0
LINE
  5
F1065C
330
F1065D
100
AcDbEntity
8
Geo
100
AcDbLine
10
-33.6196010407632
20
3.19712418112673
30
0.000000000000000
11
-33.5196010407632
21
3.19623891283569
31
0.000000000000000
  0
LINE
  5
F1065E
330
F1065F
100
AcDbEntity
8
Geo
100
AcDbLine
10
-33.5196010407632
20
3.19623891283569
30
0.000000000000000
11
-33.4368050629828
21
3.19601040763227
31
0.000000000000000
  0
LINE
  5
F10660
330
F10661
100
AcDbEntity
8
Geo
100
AcDbLine
10
-24.4196010407632
20
4.87263911641227
30
0.000000000000000
11
-24.2196010407632
21
4.78726145827011
31
0.000000000000000
  0
LINE
  5
F10662
330
F10663
100
AcDbEntity
8
Geo
100
AcDbLine
10
-24.2196010407632
20
4.78726145827011
30
0.000000000000000
11
-24.1196010407632
21
4.74525154048455
31
0.000000000000000
  0
LINE
  5
F10664
330
F10665
100
AcDbEntity
8
Geo
100
AcDbLine
10
-24.1196010407632
20
4.74525154048455
30
0.000000000000000
11
-24.0196010407632
21
4.70370171876906
31
0.000000000000000
  0
LINE
  5
F10666
330
F10667
100
AcDbEntity
8
Geo
100
AcDbLine
10
-24.0196010407632
20
4.70370171876906
30
0.000000000000000
11
-23.9196010407632
21
4.66261753303844
31
0.000000000000000
  0
LINE
  5
F10668
330
F10669
100
AcDbEntity
8
Geo
100
AcDbLine
10
-23.9196010407632
20
4.66261753303844
30
0.000000000000000
11
-23.8196010407632
21
4.62200446112461
31
0.000000000000000
  0
LINE
  5
F1066A
330
F1066B
100
AcDbEntity
8
Geo
100
AcDbLine
10
-23.8196010407632
20
4.62200446112461
30
0.000000000000000
11
-23.7196010407632
21
4.58186791805397
31
0.000000000000000
  0
LINE
  5
F1066C
330
F1066D
100
AcDbEntity
8
Geo
100
AcDbLine
10
-23.7196010407632
20
4.58186791805397
30
0.000000000000000
11
-23.6196010407632
21
4.54221325536070
31
0.000000000000000
  0
LINE
  5
F1066E
330
F1066F
100
AcDbEntity
8
Geo
100
AcDbLine
10
-23.6196010407632
20
4.54221325536070
30
0.000000000000000
11
-23.5196010407632
21
4.50304576049849
31
0.000000000000000
  0
LINE
  5
F10670
330
F10671
100
AcDbEntity
8
Geo
100
AcDbLine
10
-23.5196010407632
20
4.50304576049849
30
0.000000000000000
11
-23.4196010407632
21
4.46437065650319
31
0.000000000000000
  0
LINE
  5
F10672
330
F10673
100
AcDbEntity
8
Geo
100
AcDbLine
10
-23.4196010407632
20
4.46437065650319
30
0.000000000000000
11
-23.3196010407632
21
4.42619310223160
31
0.000000000000000
  0
LINE
  5
F10674
330
F10675
100
AcDbEntity
8
Geo
100
AcDbLine
10
-23.3196010407632
20
4.42619310223160
30
0.000000000000000
11
-23.2196010407632
21
4.38851819380073
31
0.000000000000000
  0
LINE
  5
F10676
330
F10677
100
AcDbEntity
8
Geo
100
AcDbLine
10
-23.2196010407632
20
4.38851819380073
30
0.000000000000000
11
-23.1196010407632
21
4.35135096833312
31
0.000000000000000
  0
LINE
  5
F10678
330
F10679
100
AcDbEntity
8
Geo
100
AcDbLine
10
-23.1196010407632
20
4.35135096833312
30
0.000000000000000
11
-23.0196010407632
21
4.31469641184173
31
0.000000000000000
  0
LINE
  5
F1067A
330
F1067B
100
AcDbEntity
8
Geo
100
AcDbLine
10
-23.0196010407632
20
4.31469641184173
30
0.000000000000000
11
-22.9196010407632
21
4.27855947413540
31
0.000000000000000
  0
LINE
  5
F1067C
330
F1067D
100
AcDbEntity
8
Geo
100
AcDbLine
10
-22.9196010407632
20
4.27855947413540
30
0.000000000000000
11
-22.8196010407632
21
4.24294509507421
31
0.000000000000000
  0
LINE
  5
F1067E
330
F1067F
100
AcDbEntity
8
Geo
100
AcDbLine
10
-22.8196010407632
20
4.24294509507421
30
0.000000000000000
11
-22.7196010407632
21
4.20785824843355
31
0.000000000000000
  0
LINE
  5
F10680
330
F10681
100
AcDbEntity
8
Geo
100
AcDbLine
10
-22.7196010407632
20
4.20785824843355
30
0.000000000000000
11
-22.6196010407632
21
4.17330401213067
31
0.000000000000000
  0
LINE
  5
F10682
330
F10683
100
AcDbEntity
8
Geo
100
AcDbLine
10
-22.6196010407632
20
4.17330401213067
30
0.000000000000000
11
-22.5196010407632
21
4.13928767670354
31
0.000000000000000
  0
LINE
  5
F10684
330
F10685
100
AcDbEntity
8
Geo
100
AcDbLine
10
-22.5196010407632
20
4.13928767670354
30
0.000000000000000
11
-22.4196010407632
21
4.10581490777604
31
0.000000000000000
  0
LINE
  5
F10686
330
F10687
100
AcDbEntity
8
Geo
100
AcDbLine
10
-22.4196010407632
20
4.10581490777604
30
0.000000000000000
11
-22.3196010407632
21
4.07289198284752
31
0.000000000000000
  0
LINE
  5
F10688
330
F10689
100
AcDbEntity
8
Geo
100
AcDbLine
10
-22.3196010407632
20
4.07289198284752
30
0.000000000000000
11
-22.2196010407632
21
4.04052612813836
31
0.000000000000000
  0
LINE
  5
F1068A
330
F1068B
100
AcDbEntity
8
Geo
100
AcDbLine
10
-22.2196010407632
20
4.04052612813836
30
0.000000000000000
11
-22.1196010407632
21
4.00872598741298
31
0.000000000000000
  0
LINE
  5
F1068C
330
F1068D
100
AcDbEntity
8
Geo
100
AcDbLine
10
-22.1196010407632
20
4.00872598741298
30
0.000000000000000
11
-22.0196010407632
21
3.97750226166927
31
0.000000000000000
  0
LINE
  5
F1068E
330
F1068F
100
AcDbEntity
8
Geo
100
AcDbLine
10
-22.0196010407632
20
3.97750226166927
30
0.000000000000000
11
-21.9196010407632
21
3.94686856629279
31
0.000000000000000
  0
LINE
  5
F10690
330
F10691
100
AcDbEntity
8
Geo
100
AcDbLine
10
-21.9196010407632
20
3.94686856629279
30
0.000000000000000
11
-21.8196010407632
21
3.91684256069438
31
0.000000000000000
  0
LINE
  5
F10692
330
F10693
100
AcDbEntity
8
Geo
100
AcDbLine
10
-21.8196010407632
20
3.91684256069438
30
0.000000000000000
11
-21.7196010407632
21
3.88744741460110
31
0.000000000000000
  0
LINE
  5
F10694
330
F10695
100
AcDbEntity
8
Geo
100
AcDbLine
10
-21.7196010407632
20
3.88744741460110
30
0.000000000000000
11
-21.6196010407632
21
3.85871368521775
31
0.000000000000000
  0
LINE
  5
F10696
330
F10697
100
AcDbEntity
8
Geo
100
AcDbLine
10
-21.6196010407632
20
3.85871368521775
30
0.000000000000000
11
-21.5196010407632
21
3.83068169089741
31
0.000000000000000
  0
LINE
  5
F10698
330
F10699
100
AcDbEntity
8
Geo
100
AcDbLine
10
-21.5196010407632
20
3.83068169089741
30
0.000000000000000
11
-21.4196010407632
21
3.80340448083939
31
0.000000000000000
  0
LINE
  5
F1069A
330
F1069B
100
AcDbEntity
8
Geo
100
AcDbLine
10
-21.4196010407632
20
3.80340448083939
30
0.000000000000000
11
-21.3196010407632
21
3.77695151886200
31
0.000000000000000
  0
LINE
  5
F1069C
330
F1069D
100
AcDbEntity
8
Geo
100
AcDbLine
10
-21.3196010407632
20
3.77695151886200
30
0.000000000000000
11
-21.2196010407632
21
3.75141322658112
31
0.000000000000000
  0
LINE
  5
F1069E
330
F1069F
100
AcDbEntity
8
Geo
100
AcDbLine
10
-21.2196010407632
20
3.75141322658112
30
0.000000000000000
11
-21.1196010407632
21
3.72690657469091
31
0.000000000000000
  0
LINE
  5
F106A0
330
F106A1
100
AcDbEntity
8
Geo
100
AcDbLine
10
-21.1196010407632
20
3.72690657469091
30
0.000000000000000
11
-21.0196010407632
21
3.70358198307357
31
0.000000000000000
  0
LINE
  5
F106A2
330
F106A3
100
AcDbEntity
8
Geo
100
AcDbLine
10
-21.0196010407632
20
3.70358198307357
30
0.000000000000000
11
-20.9196010407632
21
3.68163191212963
31
0.000000000000000
  0
LINE
  5
F106A4
330
F106A5
100
AcDbEntity
8
Geo
100
AcDbLine
10
-20.9196010407632
20
3.68163191212963
30
0.000000000000000
11
-20.8196010407632
21
3.66130173306598
31
0.000000000000000
  0
LINE
  5
F106A6
330
F106A7
100
AcDbEntity
8
Geo
100
AcDbLine
10
-20.8196010407632
20
3.66130173306598
30
0.000000000000000
11
-20.7196010407632
21
3.64290380794029
31
0.000000000000000
  0
LINE
  5
F106A8
330
F106A9
100
AcDbEntity
8
Geo
100
AcDbLine
10
-20.7196010407632
20
3.64290380794029
30
0.000000000000000
11
-20.6196010407632
21
3.62683627498187
31
0.000000000000000
  0
LINE
  5
F106AA
330
F106AB
100
AcDbEntity
8
Geo
100
AcDbLine
10
-20.6196010407632
20
3.62683627498187
30
0.000000000000000
11
-20.5196010407631
21
3.61360894881392
31
0.000000000000000
  0
LINE
  5
F106AC
330
F106AD
100
AcDbEntity
8
Geo
100
AcDbLine
10
-20.5196010407631
20
3.61360894881392
30
0.000000000000000
11
-20.4196010407631
21
3.60388019888020
31
0.000000000000000
  0
LINE
  5
F106AE
330
F106AF
100
AcDbEntity
8
Geo
100
AcDbLine
10
-20.4196010407631
20
3.60388019888020
30
0.000000000000000
11
-20.3196010407631
21
3.59851093908959
31
0.000000000000000
  0
LINE
  5
F106B0
330
F106B1
100
AcDbEntity
8
Geo
100
AcDbLine
10
-20.3196010407631
20
3.59851093908959
30
0.000000000000000
11
-20.2196010407631
21
3.59864533756237
31
0.000000000000000
  0
LINE
  5
F106B2
330
F106B3
100
AcDbEntity
8
Geo
100
AcDbLine
10
-20.2196010407631
20
3.59864533756237
30
0.000000000000000
11
-20.1196010407631
21
3.60583306575060
31
0.000000000000000
  0
LINE
  5
F106B4
330
F106B5
100
AcDbEntity
8
Geo
100
AcDbLine
10
-20.1196010407631
20
3.60583306575060
30
0.000000000000000
11
-20.0196010407631
21
3.62221552101916
31
0.000000000000000
  0
LINE
  5
F106B6
330
F106B7
100
AcDbEntity
8
Geo
100
AcDbLine
10
-20.0196010407631
20
3.62221552101916
30
0.000000000000000
11
-19.9196010407631
21
3.65080922289603
31
0.000000000000000
  0
LINE
  5
F106B8
330
F106B9
100
AcDbEntity
8
Geo
100
AcDbLine
10
-19.9196010407631
20
3.65080922289603
30
0.000000000000000
11
-19.8196010407631
21
3.69593408095202
31
0.000000000000000
  0
LINE
  5
F106BA
330
F106BB
100
AcDbEntity
8
Geo
100
AcDbLine
10
-19.8196010407631
20
3.69593408095202
30
0.000000000000000
11
-19.7196010407631
21
3.76385219891135
31
0.000000000000000
  0
LINE
  5
F106BC
330
F106BD
100
AcDbEntity
8
Geo
100
AcDbLine
10
-19.7196010407631
20
3.76385219891135
30
0.000000000000000
11
-19.6196010407631
21
3.86370153928525
31
0.000000000000000
  0
LINE
  5
F106BE
330
F106BF
100
AcDbEntity
8
Geo
100
AcDbLine
10
-19.6196010407631
20
3.86370153928525
30
0.000000000000000
11
-19.5196010407631
21
4.00881898437439
31
0.000000000000000
  0
LINE
  5
F106C0
330
F106C1
100
AcDbEntity
8
Geo
100
AcDbLine
10
-19.5196010407631
20
4.00881898437439
30
0.000000000000000
11
-19.4196010407631
21
4.21852516575063
31
0.000000000000000
  0
LINE
  5
F106C2
330
F106C3
100
AcDbEntity
8
Geo
100
AcDbLine
10
-19.4196010407631
20
4.21852516575063
30
0.000000000000000
11
-19.3196010407632
21
4.52033280652162
31
0.000000000000000
  0
LINE
  5
F106C4
330
F106C5
100
AcDbEntity
8
Geo
100
AcDbLine
10
-19.3196010407632
20
4.52033280652162
30
0.000000000000000
11
-19.3196010407632
21
4.60667461870262
31
0.000000000000000
  0
LINE
  5
F106C6
330
F106C7
100
AcDbEntity
8
Geo
100
AcDbLine
10
-19.3196010407632
20
4.60667461870262
30
0.000000000000000
11
-19.4196010407631
21
4.95756074346869
31
0.000000000000000
  0
LINE
  5
F106C8
330
F106C9
100
AcDbEntity
8
Geo
100
AcDbLine
10
-19.4196010407631
20
4.95756074346869
30
0.000000000000000
11
-19.5196010407631
21
5.30479747868247
31
0.000000000000000
  0
LINE
  5
F106CA
330
F106CB
100
AcDbEntity
8
Geo
100
AcDbLine
10
-19.5196010407631
20
5.30479747868247
30
0.000000000000000
11
-19.6196010407631
21
5.64182878996876
31
0.000000000000000
  0
LINE
  5
F106CC
330
F106CD
100
AcDbEntity
8
Geo
100
AcDbLine
10
-19.6196010407631
20
5.64182878996876
30
0.000000000000000
11
-19.7196010407631
21
5.96422084567611
31
0.000000000000000
  0
LINE
  5
F106CE
330
F106CF
100
AcDbEntity
8
Geo
100
AcDbLine
10
-19.7196010407631
20
5.96422084567611
30
0.000000000000000
11
-19.8196010407631
21
6.26919288381417
31
0.000000000000000
  0
LINE
  5
F106D0
330
F106D1
100
AcDbEntity
8
Geo
100
AcDbLine
10
-19.8196010407631
20
6.26919288381417
30
0.000000000000000
11
-19.9196010407631
21
6.55522250797985
31
0.000000000000000
  0
LINE
  5
F106D2
330
F106D3
100
AcDbEntity
8
Geo
100
AcDbLine
10
-19.9196010407631
20
6.55522250797985
30
0.000000000000000
11
-20.0196010407631
21
6.82172292629712
31
0.000000000000000
  0
LINE
  5
F106D4
330
F106D5
100
AcDbEntity
8
Geo
100
AcDbLine
10
-20.0196010407631
20
6.82172292629712
30
0.000000000000000
11
-20.1196010407631
21
7.06878502687778
31
0.000000000000000
  0
LINE
  5
F106D6
330
F106D7
100
AcDbEntity
8
Geo
100
AcDbLine
10
-20.1196010407631
20
7.06878502687778
30
0.000000000000000
11
-20.2196010407631
21
7.29697526586971
31
0.000000000000000
  0
LINE
  5
F106D8
330
F106D9
100
AcDbEntity
8
Geo
100
AcDbLine
10
-20.2196010407631
20
7.29697526586971
30
0.000000000000000
11
-20.3196010407631
21
7.50718004841228
31
0.000000000000000
  0
LINE
  5
F106DA
330
F106DB
100
AcDbEntity
8
Geo
100
AcDbLine
10
-20.3196010407631
20
7.50718004841228
30
0.000000000000000
11
-20.4196010407631
21
7.70048788199802
31
0.000000000000000
  0
LINE
  5
F106DC
330
F106DD
100
AcDbEntity
8
Geo
100
AcDbLine
10
-20.4196010407631
20
7.70048788199802
30
0.000000000000000
11
-20.5196010407631
21
7.87810160880629
31
0.000000000000000
  0
LINE
  5
F106DE
330
F106DF
100
AcDbEntity
8
Geo
100
AcDbLine
10
-20.5196010407631
20
7.87810160880629
30
0.000000000000000
11
-20.6196010407632
21
8.04127419315676
31
0.000000000000000
  0
LINE
  5
F106E0
330
F106E1
100
AcDbEntity
8
Geo
100
AcDbLine
10
-20.6196010407632
20
8.04127419315676
30
0.000000000000000
11
-20.7196010407632
21
8.19126268901585
31
0.000000000000000
  0
LINE
  5
F106E2
330
F106E3
100
AcDbEntity
8
Geo
100
AcDbLine
10
-20.7196010407632
20
8.19126268901585
30
0.000000000000000
11
-20.8196010407632
21
8.32929605601900
31
0.000000000000000
  0
LINE
  5
F106E4
330
F106E5
100
AcDbEntity
8
Geo
100
AcDbLine
10
-20.8196010407632
20
8.32929605601900
30
0.000000000000000
11
-20.9196010407632
21
8.45655339509082
31
0.000000000000000
  0
LINE
  5
F106E6
330
F106E7
100
AcDbEntity
8
Geo
100
AcDbLine
10
-20.9196010407632
20
8.45655339509082
30
0.000000000000000
11
-21.0196010407632
21
8.57414992943910
31
0.000000000000000
  0
LINE
  5
F106E8
330
F106E9
100
AcDbEntity
8
Geo
100
AcDbLine
10
-21.0196010407632
20
8.57414992943910
30
0.000000000000000
11
-21.1196010407632
21
8.68312867202203
31
0.000000000000000
  0
LINE
  5
F106EA
330
F106EB
100
AcDbEntity
8
Geo
100
AcDbLine
10
-21.1196010407632
20
8.68312867202203
30
0.000000000000000
11
-21.2196010407632
21
8.78445621250100
31
0.000000000000000
  0
LINE
  5
F106EC
330
F106ED
100
AcDbEntity
8
Geo
100
AcDbLine
10
-21.2196010407632
20
8.78445621250100
30
0.000000000000000
11
-21.3196010407632
21
8.87902144367840
31
0.000000000000000
  0
LINE
  5
F106EE
330
F106EF
100
AcDbEntity
8
Geo
100
AcDbLine
10
-21.3196010407632
20
8.87902144367840
30
0.000000000000000
11
-21.4196010407632
21
8.96763634774529
31
0.000000000000000
  0
LINE
  5
F106F0
330
F106F1
100
AcDbEntity
8
Geo
100
AcDbLine
10
-21.4196010407632
20
8.96763634774529
30
0.000000000000000
11
-21.5196010407632
21
9.05103819296544
31
0.000000000000000
  0
LINE
  5
F106F2
330
F106F3
100
AcDbEntity
8
Geo
100
AcDbLine
10
-21.5196010407632
20
9.05103819296544
30
0.000000000000000
11
-21.6196010407632
21
9.12989266612254
31
0.000000000000000
  0
LINE
  5
F106F4
330
F106F5
100
AcDbEntity
8
Geo
100
AcDbLine
10
-21.6196010407632
20
9.12989266612254
30
0.000000000000000
11
-21.7196010407632
21
9.20479759724182
31
0.000000000000000
  0
LINE
  5
F106F6
330
F106F7
100
AcDbEntity
8
Geo
100
AcDbLine
10
-21.7196010407632
20
9.20479759724182
30
0.000000000000000
11
-21.8196010407632
21
9.27628703064222
31
0.000000000000000
  0
LINE
  5
F106F8
330
F106F9
100
AcDbEntity
8
Geo
100
AcDbLine
10
-21.8196010407632
20
9.27628703064222
30
0.000000000000000
11
-21.9196010407632
21
9.34483546820250
31
0.000000000000000
  0
LINE
  5
F106FA
330
F106FB
100
AcDbEntity
8
Geo
100
AcDbLine
10
-21.9196010407632
20
9.34483546820250
30
0.000000000000000
11
-22.0196010407632
21
9.41086216308709
31
0.000000000000000
  0
LINE
  5
F106FC
330
F106FD
100
AcDbEntity
8
Geo
100
AcDbLine
10
-22.0196010407632
20
9.41086216308709
30
0.000000000000000
11
-22.1196010407632
21
9.47473537994854
31
0.000000000000000
  0
LINE
  5
F106FE
330
F106FF
100
AcDbEntity
8
Geo
100
AcDbLine
10
-22.1196010407632
20
9.47473537994854
30
0.000000000000000
11
-22.2196010407632
21
9.53677656456020
31
0.000000000000000
  0
LINE
  5
F10700
330
F10701
100
AcDbEntity
8
Geo
100
AcDbLine
10
-22.2196010407632
20
9.53677656456020
30
0.000000000000000
11
-22.3196010407632
21
9.59726438479988
31
0.000000000000000
  0
LINE
  5
F10702
330
F10703
100
AcDbEntity
8
Geo
100
AcDbLine
10
-22.3196010407632
20
9.59726438479988
30
0.000000000000000
11
-22.4196010407632
21
9.65643861807245
31
0.000000000000000
  0
LINE
  5
F10704
330
F10705
100
AcDbEntity
8
Geo
100
AcDbLine
10
-22.4196010407632
20
9.65643861807245
30
0.000000000000000
11
-22.5196010407632
21
9.71450386924864
31
0.000000000000000
  0
LINE
  5
F10706
330
F10707
100
AcDbEntity
8
Geo
100
AcDbLine
10
-22.5196010407632
20
9.71450386924864
30
0.000000000000000
11
-22.6196010407632
21
9.77163310922131
31
0.000000000000000
  0
LINE
  5
F10708
330
F10709
100
AcDbEntity
8
Geo
100
AcDbLine
10
-22.6196010407632
20
9.77163310922131
30
0.000000000000000
11
-22.7196010407632
21
9.82797102812685
31
0.000000000000000
  0
LINE
  5
F1070A
330
F1070B
100
AcDbEntity
8
Geo
100
AcDbLine
10
-22.7196010407632
20
9.82797102812685
30
0.000000000000000
11
-22.8196010407632
21
9.88363719980426
31
0.000000000000000
  0
LINE
  5
F1070C
330
F1070D
100
AcDbEntity
8
Geo
100
AcDbLine
10
-22.8196010407632
20
9.88363719980426
30
0.000000000000000
11
-22.9196010407632
21
9.93872905563776
31
0.000000000000000
  0
LINE
  5
F1070E
330
F1070F
100
AcDbEntity
8
Geo
100
AcDbLine
10
-22.9196010407632
20
9.93872905563776
30
0.000000000000000
11
-23.0196010407632
21
9.99332466689112
31
0.000000000000000
  0
LINE
  5
F10710
330
F10711
100
AcDbEntity
8
Geo
100
AcDbLine
10
-23.0196010407632
20
9.99332466689112
30
0.000000000000000
11
-23.1196010407632
21
10.0474853352318
31
0.000000000000000
  0
LINE
  5
F10712
330
F10713
100
AcDbEntity
8
Geo
100
AcDbLine
10
-23.1196010407632
20
10.0474853352318
30
0.000000000000000
11
-23.2196010407632
21
10.1012579915269
31
0.000000000000000
  0
LINE
  5
F10714
330
F10715
100
AcDbEntity
8
Geo
100
AcDbLine
10
-23.2196010407632
20
10.1012579915269
30
0.000000000000000
11
-23.3196010407632
21
10.1546774032828
31
0.000000000000000
  0
LINE
  5
F10716
330
F10717
100
AcDbEntity
8
Geo
100
AcDbLine
10
-23.3196010407632
20
10.1546774032828
30
0.000000000000000
11
-23.4196010407632
21
10.2077681913691
31
0.000000000000000
  0
LINE
  5
F10718
330
F10719
100
AcDbEntity
8
Geo
100
AcDbLine
10
-23.4196010407632
20
10.2077681913691
30
0.000000000000000
11
-23.5196010407632
21
10.2605466569577
31
0.000000000000000
  0
LINE
  5
F1071A
330
F1071B
100
AcDbEntity
8
Geo
100
AcDbLine
10
-23.5196010407632
20
10.2605466569577
30
0.000000000000000
11
-23.6196010407632
21
10.3130224199438
31
0.000000000000000
  0
LINE
  5
F1071C
330
F1071D
100
AcDbEntity
8
Geo
100
AcDbLine
10
-23.6196010407632
20
10.3130224199438
30
0.000000000000000
11
-23.7196010407632
21
10.3651998705100
31
0.000000000000000
  0
LINE
  5
F1071E
330
F1071F
100
AcDbEntity
8
Geo
100
AcDbLine
10
-23.7196010407632
20
10.3651998705100
30
0.000000000000000
11
-23.8196010407632
21
10.4170794359356
31
0.000000000000000
  0
LINE
  5
F10720
330
F10721
100
AcDbEntity
8
Geo
100
AcDbLine
10
-23.8196010407632
20
10.4170794359356
30
0.000000000000000
11
-23.9196010407632
21
10.4686586652514
31
0.000000000000000
  0
LINE
  5
F10722
330
F10723
100
AcDbEntity
8
Geo
100
AcDbLine
10
-23.9196010407632
20
10.4686586652514
30
0.000000000000000
11
-24.0196010407632
21
10.5199331348670
31
0.000000000000000
  0
LINE
  5
F10724
330
F10725
100
AcDbEntity
8
Geo
100
AcDbLine
10
-24.0196010407632
20
10.5199331348670
30
0.000000000000000
11
-24.1196010407632
21
10.5708971788579
31
0.000000000000000
  0
LINE
  5
F10726
330
F10727
100
AcDbEntity
8
Geo
100
AcDbLine
10
-24.1196010407632
20
10.5708971788579
30
0.000000000000000
11
-24.2196010407632
21
10.6215444481719
31
0.000000000000000
  0
LINE
  5
F10728
330
F10729
100
AcDbEntity
8
Geo
100
AcDbLine
10
-24.2196010407632
20
10.6215444481719
30
0.000000000000000
11
-24.4196010407632
21
10.7218620480890
31
0.000000000000000
  0
LINE
  5
F1072A
330
F1072B
100
AcDbEntity
8
Geo
100
AcDbLine
10
-20.7230405849252
20
3.19601040763227
30
0.000000000000000
11
-20.8196010407632
21
3.19778722974854
31
0.000000000000000
  0
LINE
  5
F1072C
330
F1072D
100
AcDbEntity
8
Geo
100
AcDbLine
10
-20.8196010407632
20
3.19778722974854
30
0.000000000000000
11
-20.9196010407632
21
3.20280328678437
31
0.000000000000000
  0
LINE
  5
F1072E
330
F1072F
100
AcDbEntity
8
Geo
100
AcDbLine
10
-20.9196010407632
20
3.20280328678437
30
0.000000000000000
11
-21.0196010407632
21
3.21032986210514
31
0.000000000000000
  0
LINE
  5
F10730
330
F10731
100
AcDbEntity
8
Geo
100
AcDbLine
10
-21.0196010407632
20
3.21032986210514
30
0.000000000000000
11
-21.1196010407632
21
3.21979540057139
31
0.000000000000000
  0
LINE
  5
F10732
330
F10733
100
AcDbEntity
8
Geo
100
AcDbLine
10
-21.1196010407632
20
3.21979540057139
30
0.000000000000000
11
-21.2196010407632
21
3.23075799363231
31
0.000000000000000
  0
LINE
  5
F10734
330
F10735
100
AcDbEntity
8
Geo
100
AcDbLine
10
-21.2196010407632
20
3.23075799363231
30
0.000000000000000
11
-21.3196010407632
21
3.24288049568375
31
0.000000000000000
  0
LINE
  5
F10736
330
F10737
100
AcDbEntity
8
Geo
100
AcDbLine
10
-21.3196010407632
20
3.24288049568375
30
0.000000000000000
11
-21.4196010407632
21
3.25590986123196
31
0.000000000000000
  0
LINE
  5
F10738
330
F10739
100
AcDbEntity
8
Geo
100
AcDbLine
10
-21.4196010407632
20
3.25590986123196
30
0.000000000000000
11
-21.5196010407632
21
3.26966008652149
31
0.000000000000000
  0
LINE
  5
F1073A
330
F1073B
100
AcDbEntity
8
Geo
100
AcDbLine
10
-21.5196010407632
20
3.26966008652149
30
0.000000000000000
11
-21.6196010407632
21
3.28399820006630
31
0.000000000000000
  0
LINE
  5
F1073C
330
F1073D
100
AcDbEntity
8
Geo
100
AcDbLine
10
-21.6196010407632
20
3.28399820006630
30
0.000000000000000
11
-21.7196010407632
21
3.29883281170217
31
0.000000000000000
  0
LINE
  5
F1073E
330
F1073F
100
AcDbEntity
8
Geo
100
AcDbLine
10
-21.7196010407632
20
3.29883281170217
30
0.000000000000000
11
-21.8196010407632
21
3.31410479426998
31
0.000000000000000
  0
LINE
  5
F10740
330
F10741
100
AcDbEntity
8
Geo
100
AcDbLine
10
-21.8196010407632
20
3.31410479426998
30
0.000000000000000
11
-21.9196010407632
21
3.32977973284857
31
0.000000000000000
  0
LINE
  5
F10742
330
F10743
100
AcDbEntity
8
Geo
100
AcDbLine
10
-21.9196010407632
20
3.32977973284857
30
0.000000000000000
11
-22.0196010407632
21
3.34584183197757
31
0.000000000000000
  0
LINE
  5
F10744
330
F10745
100
AcDbEntity
8
Geo
100
AcDbLine
10
-22.0196010407632
20
3.34584183197757
30
0.000000000000000
11
-22.1196010407632
21
3.36228902083568
31
0.000000000000000
  0
LINE
  5
F10746
330
F10747
100
AcDbEntity
8
Geo
100
AcDbLine
10
-22.1196010407632
20
3.36228902083568
30
0.000000000000000
11
-22.2196010407632
21
3.37912903973076
31
0.000000000000000
  0
LINE
  5
F10748
330
F10749
100
AcDbEntity
8
Geo
100
AcDbLine
10
-22.2196010407632
20
3.37912903973076
30
0.000000000000000
11
-22.3196010407632
21
3.39637632871834
31
0.000000000000000
  0
LINE
  5
F1074A
330
F1074B
100
AcDbEntity
8
Geo
100
AcDbLine
10
-22.3196010407632
20
3.39637632871834
30
0.000000000000000
11
-22.4196010407632
21
3.41404957109769
31
0.000000000000000
  0
LINE
  5
F1074C
330
F1074D
100
AcDbEntity
8
Geo
100
AcDbLine
10
-22.4196010407632
20
3.41404957109769
30
0.000000000000000
11
-22.5196010407632
21
3.43216977144088
31
0.000000000000000
  0
LINE
  5
F1074E
330
F1074F
100
AcDbEntity
8
Geo
100
AcDbLine
10
-22.5196010407632
20
3.43216977144088
30
0.000000000000000
11
-22.6196010407632
21
3.45075877023334
31
0.000000000000000
  0
LINE
  5
F10750
330
F10751
100
AcDbEntity
8
Geo
100
AcDbLine
10
-22.6196010407632
20
3.45075877023334
30
0.000000000000000
11
-22.7196010407632
21
3.46983811568660
31
0.000000000000000
  0
LINE
  5
F10752
330
F10753
100
AcDbEntity
8
Geo
100
AcDbLine
10
-22.7196010407632
20
3.46983811568660
30
0.000000000000000
11
-22.8196010407632
21
3.48942822834937
31
0.000000000000000
  0
LINE
  5
F10754
330
F10755
100
AcDbEntity
8
Geo
100
AcDbLine
10
-22.8196010407632
20
3.48942822834937
30
0.000000000000000
11
-22.9196010407632
21
3.50954780627781
31
0.000000000000000
  0
LINE
  5
F10756
330
F10757
100
AcDbEntity
8
Geo
100
AcDbLine
10
-22.9196010407632
20
3.50954780627781
30
0.000000000000000
11
-23.0196010407632
21
3.53021342818012
31
0.000000000000000
  0
LINE
  5
F10758
330
F10759
100
AcDbEntity
8
Geo
100
AcDbLine
10
-23.0196010407632
20
3.53021342818012
30
0.000000000000000
11
-23.1196010407632
21
3.55143931952625
31
0.000000000000000
  0
LINE
  5
F1075A
330
F1075B
100
AcDbEntity
8
Geo
100
AcDbLine
10
-23.1196010407632
20
3.55143931952625
30
0.000000000000000
11
-23.2196010407632
21
3.57323725247271
31
0.000000000000000
  0
LINE
  5
F1075C
330
F1075D
100
AcDbEntity
8
Geo
100
AcDbLine
10
-23.2196010407632
20
3.57323725247271
30
0.000000000000000
11
-23.3196010407632
21
3.59561655491167
31
0.000000000000000
  0
LINE
  5
F1075E
330
F1075F
100
AcDbEntity
8
Geo
100
AcDbLine
10
-23.3196010407632
20
3.59561655491167
30
0.000000000000000
11
-23.4196010407632
21
3.61858420729063
31
0.000000000000000
  0
LINE
  5
F10760
330
F10761
100
AcDbEntity
8
Geo
100
AcDbLine
10
-23.4196010407632
20
3.61858420729063
30
0.000000000000000
11
-23.5196010407632
21
3.64214500830157
31
0.000000000000000
  0
LINE
  5
F10762
330
F10763
100
AcDbEntity
8
Geo
100
AcDbLine
10
-23.5196010407632
20
3.64214500830157
30
0.000000000000000
11
-23.6196010407632
21
3.66630179230957
31
0.000000000000000
  0
LINE
  5
F10764
330
F10765
100
AcDbEntity
8
Geo
100
AcDbLine
10
-23.6196010407632
20
3.66630179230957
30
0.000000000000000
11
-23.7196010407632
21
3.69105568264996
31
0.000000000000000
  0
LINE
  5
F10766
330
F10767
100
AcDbEntity
8
Geo
100
AcDbLine
10
-23.7196010407632
20
3.69105568264996
30
0.000000000000000
11
-23.8196010407632
21
3.71640636580985
31
0.000000000000000
  0
LINE
  5
F10768
330
F10769
100
AcDbEntity
8
Geo
100
AcDbLine
10
-23.8196010407632
20
3.71640636580985
30
0.000000000000000
11
-23.9196010407632
21
3.74235237213599
31
0.000000000000000
  0
LINE
  5
F1076A
330
F1076B
100
AcDbEntity
8
Geo
100
AcDbLine
10
-23.9196010407632
20
3.74235237213599
30
0.000000000000000
11
-24.0196010407632
21
3.76889134916526
31
0.000000000000000
  0
LINE
  5
F1076C
330
F1076D
100
AcDbEntity
8
Geo
100
AcDbLine
10
-24.0196010407632
20
3.76889134916526
30
0.000000000000000
11
-24.1196010407632
21
3.79602031402326
31
0.000000000000000
  0
LINE
  5
F1076E
330
F1076F
100
AcDbEntity
8
Geo
100
AcDbLine
10
-24.1196010407632
20
3.79602031402326
30
0.000000000000000
11
-24.2196010407632
21
3.82373587162887
31
0.000000000000000
  0
LINE
  5
F10770
330
F10771
100
AcDbEntity
8
Geo
100
AcDbLine
10
-24.2196010407632
20
3.82373587162887
30
0.000000000000000
11
-24.4196010407632
21
3.88091209004990
31
0.000000000000000
  0
LINE
  5
F10772
330
F10773
100
AcDbEntity
8
Geo
100
AcDbLine
10
-24.4196010407632
20
11.9316767820151
30
0.000000000000000
11
-24.2196010407632
21
11.8539374982428
31
0.000000000000000
  0
LINE
  5
F10774
330
F10775
100
AcDbEntity
8
Geo
100
AcDbLine
10
-24.2196010407632
20
11.8539374982428
30
0.000000000000000
11
-24.1196010407632
21
11.8143336713556
31
0.000000000000000
  0
LINE
  5
F10776
330
F10777
100
AcDbEntity
8
Geo
100
AcDbLine
10
-24.1196010407632
20
11.8143336713556
30
0.000000000000000
11
-24.0196010407632
21
11.7742474067270
31
0.000000000000000
  0
LINE
  5
F10778
330
F10779
100
AcDbEntity
8
Geo
100
AcDbLine
10
-24.0196010407632
20
11.7742474067270
30
0.000000000000000
11
-23.9196010407632
21
11.7336840491331
31
0.000000000000000
  0
LINE
  5
F1077A
330
F1077B
100
AcDbEntity
8
Geo
100
AcDbLine
10
-23.9196010407632
20
11.7336840491331
30
0.000000000000000
11
-23.8196010407632
21
11.6926490069628
31
0.000000000000000
  0
LINE
  5
F1077C
330
F1077D
100
AcDbEntity
8
Geo
100
AcDbLine
10
-23.8196010407632
20
11.6926490069628
30
0.000000000000000
11
-23.7196010407632
21
11.6511477515051
31
0.000000000000000
  0
LINE
  5
F1077E
330
F1077F
100
AcDbEntity
8
Geo
100
AcDbLine
10
-23.7196010407632
20
11.6511477515051
30
0.000000000000000
11
-23.6196010407632
21
11.6091858162587
31
0.000000000000000
  0
LINE
  5
F10780
330
F10781
100
AcDbEntity
8
Geo
100
AcDbLine
10
-23.6196010407632
20
11.6091858162587
30
0.000000000000000
11
-23.5196010407632
21
11.5667687963365
31
0.000000000000000
  0
LINE
  5
F10782
330
F10783
100
AcDbEntity
8
Geo
100
AcDbLine
10
-23.5196010407632
20
11.5667687963365
30
0.000000000000000
11
-23.4196010407632
21
11.5239023481546
31
0.000000000000000
  0
LINE
  5
F10784
330
F10785
100
AcDbEntity
8
Geo
100
AcDbLine
10
-23.4196010407632
20
11.5239023481546
30
0.000000000000000
11
-23.3196010407632
21
11.4805921898234
31
0.000000000000000
  0
LINE
  5
F10786
330
F10787
100
AcDbEntity
8
Geo
100
AcDbLine
10
-23.3196010407632
20
11.4805921898234
30
0.000000000000000
11
-23.2196010407632
21
11.4368441030897
31
0.000000000000000
  0
LINE
  5
F10788
330
F10789
100
AcDbEntity
8
Geo
100
AcDbLine
10
-23.2196010407632
20
11.4368441030897
30
0.000000000000000
11
-23.1196010407632
21
11.3926639384060
31
0.000000000000000
  0
LINE
  5
F1078A
330
F1078B
100
AcDbEntity
8
Geo
100
AcDbLine
10
-23.1196010407632
20
11.3926639384060
30
0.000000000000000
11
-23.0196010407632
21
11.3480576258827
31
0.000000000000000
  0
LINE
  5
F1078C
330
F1078D
100
AcDbEntity
8
Geo
100
AcDbLine
10
-23.0196010407632
20
11.3480576258827
30
0.000000000000000
11
-22.9196010407632
21
11.3030311966912
31
0.000000000000000
  0
LINE
  5
F1078E
330
F1078F
100
AcDbEntity
8
Geo
100
AcDbLine
10
-22.9196010407632
20
11.3030311966912
30
0.000000000000000
11
-22.8196010407632
21
11.2575908221650
31
0.000000000000000
  0
LINE
  5
F10790
330
F10791
100
AcDbEntity
8
Geo
100
AcDbLine
10
-22.8196010407632
20
11.2575908221650
30
0.000000000000000
11
-22.7196010407632
21
11.2117428816887
31
0.000000000000000
  0
LINE
  5
F10792
330
F10793
100
AcDbEntity
8
Geo
100
AcDbLine
10
-22.7196010407632
20
11.2117428816887
30
0.000000000000000
11
-22.6196010407632
21
11.1654940758127
31
0.000000000000000
  0
LINE
  5
F10794
330
F10795
100
AcDbEntity
8
Geo
100
AcDbLine
10
-22.6196010407632
20
11.1654940758127
30
0.000000000000000
11
-22.5196010407632
21
11.1188516083078
31
0.000000000000000
  0
LINE
  5
F10796
330
F10797
100
AcDbEntity
8
Geo
100
AcDbLine
10
-22.5196010407632
20
11.1188516083078
30
0.000000000000000
11
-22.4196010407632
21
11.0718234705687
31
0.000000000000000
  0
LINE
  5
F10798
330
F10799
100
AcDbEntity
8
Geo
100
AcDbLine
10
-22.4196010407632
20
11.0718234705687
30
0.000000000000000
11
-22.3196010407632
21
11.0244188744561
31
0.000000000000000
  0
LINE
  5
F1079A
330
F1079B
100
AcDbEntity
8
Geo
100
AcDbLine
10
-22.3196010407632
20
11.0244188744561
30
0.000000000000000
11
-22.2196010407632
21
10.9766488959797
31
0.000000000000000
  0
LINE
  5
F1079C
330
F1079D
100
AcDbEntity
8
Geo
100
AcDbLine
10
-22.2196010407632
20
10.9766488959797
30
0.000000000000000
11
-22.1196010407632
21
10.9285274129204
31
0.000000000000000
  0
LINE
  5
F1079E
330
F1079F
100
AcDbEntity
8
Geo
100
AcDbLine
10
-22.1196010407632
20
10.9285274129204
30
0.000000000000000
11
-22.0196010407632
21
10.8800724453735
31
0.000000000000000
  0
LINE
  5
F107A0
330
F107A1
100
AcDbEntity
8
Geo
100
AcDbLine
10
-22.0196010407632
20
10.8800724453735
30
0.000000000000000
11
-21.9196010407632
21
10.8313080401926
31
0.000000000000000
  0
LINE
  5
F107A2
330
F107A3
100
AcDbEntity
8
Geo
100
AcDbLine
10
-21.9196010407632
20
10.8313080401926
30
0.000000000000000
11
-21.8196010407632
21
10.7822668793947
31
0.000000000000000
  0
LINE
  5
F107A4
330
F107A5
100
AcDbEntity
8
Geo
100
AcDbLine
10
-21.8196010407632
20
10.7822668793947
30
0.000000000000000
11
-21.7196010407632
21
10.7329938397978
31
0.000000000000000
  0
LINE
  5
F107A6
330
F107A7
100
AcDbEntity
8
Geo
100
AcDbLine
10
-21.7196010407632
20
10.7329938397978
30
0.000000000000000
11
-21.6196010407632
21
10.6835507875522
31
0.000000000000000
  0
LINE
  5
F107A8
330
F107A9
100
AcDbEntity
8
Geo
100
AcDbLine
10
-21.6196010407632
20
10.6835507875522
30
0.000000000000000
11
-21.5196010407632
21
10.6340229578153
31
0.000000000000000
  0
LINE
  5
F107AA
330
F107AB
100
AcDbEntity
8
Geo
100
AcDbLine
10
-21.5196010407632
20
10.6340229578153
30
0.000000000000000
11
-21.4196010407632
21
10.5845273474726
31
0.000000000000000
  0
LINE
  5
F107AC
330
F107AD
100
AcDbEntity
8
Geo
100
AcDbLine
10
-21.4196010407632
20
10.5845273474726
30
0.000000000000000
11
-21.3196010407632
21
10.5352236380968
31
0.000000000000000
  0
LINE
  5
F107AE
330
F107AF
100
AcDbEntity
8
Geo
100
AcDbLine
10
-21.3196010407632
20
10.5352236380968
30
0.000000000000000
11
-21.2196010407632
21
10.4863282672736
31
0.000000000000000
  0
LINE
  5
F107B0
330
F107B1
100
AcDbEntity
8
Geo
100
AcDbLine
10
-21.2196010407632
20
10.4863282672736
30
0.000000000000000
11
-21.1196010407632
21
10.4381323780855
31
0.000000000000000
  0
LINE
  5
F107B2
330
F107B3
100
AcDbEntity
8
Geo
100
AcDbLine
10
-21.1196010407632
20
10.4381323780855
30
0.000000000000000
11
-21.0196010407632
21
10.3910244964748
31
0.000000000000000
  0
LINE
  5
F107B4
330
F107B5
100
AcDbEntity
8
Geo
100
AcDbLine
10
-21.0196010407632
20
10.3910244964748
30
0.000000000000000
11
-20.9196010407632
21
10.3455189094399
31
0.000000000000000
  0
LINE
  5
F107B6
330
F107B7
100
AcDbEntity
8
Geo
100
AcDbLine
10
-20.9196010407632
20
10.3455189094399
30
0.000000000000000
11
-20.8196010407632
21
10.3022908345492
31
0.000000000000000
  0
LINE
  5
F107B8
330
F107B9
100
AcDbEntity
8
Geo
100
AcDbLine
10
-20.8196010407632
20
10.3022908345492
30
0.000000000000000
11
-20.7196010407632
21
10.2622195673839
31
0.000000000000000
  0
LINE
  5
F107BA
330
F107BB
100
AcDbEntity
8
Geo
100
AcDbLine
10
-20.7196010407632
20
10.2622195673839
30
0.000000000000000
11
-20.6196010407632
21
10.2264408411903
31
0.000000000000000
  0
LINE
  5
F107BC
330
F107BD
100
AcDbEntity
8
Geo
100
AcDbLine
10
-20.6196010407632
20
10.2264408411903
30
0.000000000000000
11
-20.5196010407631
21
10.1964095853514
31
0.000000000000000
  0
LINE
  5
F107BE
330
F107BF
100
AcDbEntity
8
Geo
100
AcDbLine
10
-20.5196010407631
20
10.1964095853514
30
0.000000000000000
11
-20.4196010407631
21
10.1739740437658
31
0.000000000000000
  0
LINE
  5
F107C0
330
F107C1
100
AcDbEntity
8
Geo
100
AcDbLine
10
-20.4196010407631
20
10.1739740437658
30
0.000000000000000
11
-20.3196010407631
21
10.1614616628787
31
0.000000000000000
  0
LINE
  5
F107C2
330
F107C3
100
AcDbEntity
8
Geo
100
AcDbLine
10
-20.3196010407631
20
10.1614616628787
30
0.000000000000000
11
-20.2196010407631
21
10.1617760123017
31
0.000000000000000
  0
LINE
  5
F107C4
330
F107C5
100
AcDbEntity
8
Geo
100
AcDbLine
10
-20.2196010407631
20
10.1617760123017
30
0.000000000000000
11
-20.1196010407631
21
10.1785017619832
31
0.000000000000000
  0
LINE
  5
F107C6
330
F107C7
100
AcDbEntity
8
Geo
100
AcDbLine
10
-20.1196010407631
20
10.1785017619832
30
0.000000000000000
11
-20.0196010407631
21
10.2160104906005
31
0.000000000000000
  0
LINE
  5
F107C8
330
F107C9
100
AcDbEntity
8
Geo
100
AcDbLine
10
-20.0196010407631
20
10.2160104906005
30
0.000000000000000
11
-19.9196010407631
21
10.2795521495401
31
0.000000000000000
  0
LINE
  5
F107CA
330
F107CB
100
AcDbEntity
8
Geo
100
AcDbLine
10
-19.9196010407631
20
10.2795521495401
30
0.000000000000000
11
-19.8196010407631
21
10.3753022774955
31
0.000000000000000
  0
LINE
  5
F107CC
330
F107CD
100
AcDbEntity
8
Geo
100
AcDbLine
10
-19.8196010407631
20
10.3753022774955
30
0.000000000000000
11
-19.7196010407631
21
10.5103080576479
31
0.000000000000000
  0
LINE
  5
F107CE
330
F107CF
100
AcDbEntity
8
Geo
100
AcDbLine
10
-19.7196010407631
20
10.5103080576479
30
0.000000000000000
11
-19.6196010407631
21
10.6922275194320
31
0.000000000000000
  0
LINE
  5
F107D0
330
F107D1
100
AcDbEntity
8
Geo
100
AcDbLine
10
-19.6196010407631
20
10.6922275194320
30
0.000000000000000
11
-19.5196010407631
21
10.9286699153272
31
0.000000000000000
  0
LINE
  5
F107D2
330
F107D3
100
AcDbEntity
8
Geo
100
AcDbLine
10
-19.5196010407631
20
10.9286699153272
30
0.000000000000000
11
-19.4196010407631
21
11.2257977187506
31
0.000000000000000
  0
LINE
  5
F107D4
330
F107D5
100
AcDbEntity
8
Geo
100
AcDbLine
10
-19.4196010407631
20
11.2257977187506
30
0.000000000000000
11
-19.3196010407632
21
11.5856112945647
31
0.000000000000000
  0
LINE
  5
F107D6
330
F107D7
100
AcDbEntity
8
Geo
100
AcDbLine
10
-19.3196010407632
20
11.5856112945647
30
0.000000000000000
11
-19.3196010407632
21
11.6769109512142
31
0.000000000000000
  0
LINE
  5
F107D8
330
F107D9
100
AcDbEntity
8
Geo
100
AcDbLine
10
-19.3196010407632
20
11.6769109512142
30
0.000000000000000
11
-19.4196010407631
21
12.0055305575565
31
0.000000000000000
  0
LINE
  5
F107DA
330
F107DB
100
AcDbEntity
8
Geo
100
AcDbLine
10
-19.4196010407631
20
12.0055305575565
30
0.000000000000000
11
-19.5196010407631
21
12.2753348369310
31
0.000000000000000
  0
LINE
  5
F107DC
330
F107DD
100
AcDbEntity
8
Geo
100
AcDbLine
10
-19.5196010407631
20
12.2753348369310
30
0.000000000000000
11
-19.6196010407631
21
12.4944003694656
31
0.000000000000000
  0
LINE
  5
F107DE
330
F107DF
100
AcDbEntity
8
Geo
100
AcDbLine
10
-19.6196010407631
20
12.4944003694656
30
0.000000000000000
11
-19.7196010407631
21
12.6702830134469
31
0.000000000000000
  0
LINE
  5
F107E0
330
F107E1
100
AcDbEntity
8
Geo
100
AcDbLine
10
-19.7196010407631
20
12.6702830134469
30
0.000000000000000
11
-19.8196010407631
21
12.8098346598018
31
0.000000000000000
  0
LINE
  5
F107E2
330
F107E3
100
AcDbEntity
8
Geo
100
AcDbLine
10
-19.8196010407631
20
12.8098346598018
30
0.000000000000000
11
-19.9196010407631
21
12.9191253827683
31
0.000000000000000
  0
LINE
  5
F107E4
330
F107E5
100
AcDbEntity
8
Geo
100
AcDbLine
10
-19.9196010407631
20
12.9191253827683
30
0.000000000000000
11
-20.0196010407631
21
13.0034352815794
31
0.000000000000000
  0
LINE
  5
F107E6
330
F107E7
100
AcDbEntity
8
Geo
100
AcDbLine
10
-20.0196010407631
20
13.0034352815794
30
0.000000000000000
11
-20.1196010407631
21
13.0672898023070
31
0.000000000000000
  0
LINE
  5
F107E8
330
F107E9
100
AcDbEntity
8
Geo
100
AcDbLine
10
-20.1196010407631
20
13.0672898023070
30
0.000000000000000
11
-20.2196010407631
21
13.1145199190469
31
0.000000000000000
  0
LINE
  5
F107EA
330
F107EB
100
AcDbEntity
8
Geo
100
AcDbLine
10
-20.2196010407631
20
13.1145199190469
30
0.000000000000000
11
-20.3196010407631
21
13.1483343809015
31
0.000000000000000
  0
LINE
  5
F107EC
330
F107ED
100
AcDbEntity
8
Geo
100
AcDbLine
10
-20.3196010407631
20
13.1483343809015
30
0.000000000000000
11
-20.4196010407631
21
13.1713955612248
31
0.000000000000000
  0
LINE
  5
F107EE
330
F107EF
100
AcDbEntity
8
Geo
100
AcDbLine
10
-20.4196010407631
20
13.1713955612248
30
0.000000000000000
11
-20.5196010407631
21
13.1858935721592
31
0.000000000000000
  0
LINE
  5
F107F0
330
F107F1
100
AcDbEntity
8
Geo
100
AcDbLine
10
-20.5196010407631
20
13.1858935721592
30
0.000000000000000
11
-20.6196010407632
21
13.1936155044691
31
0.000000000000000
  0
LINE
  5
F107F2
330
F107F3
100
AcDbEntity
8
Geo
100
AcDbLine
10
-20.6196010407632
20
13.1936155044691
30
0.000000000000000
11
-20.7196010407632
21
13.1960081535486
31
0.000000000000000
  0
LINE
  5
F107F4
330
F107F5
100
AcDbEntity
8
Geo
100
AcDbLine
10
-20.7196010407632
20
13.1960081535486
30
0.000000000000000
11
-20.7230405849252
21
13.1960104076323
31
0.000000000000000
  0
LINE
  5
F107F6
330
F107F7
100
AcDbEntity
8
Geo
100
AcDbLine
10
-43.6196010407632
20
8.53061190413262
30
0.000000000000000
11
-43.6196010407632
21
7.80212466913893
31
0.000000000000000
  0
LINE
  5
F107F8
330
F107F9
100
AcDbEntity
8
Geo
100
AcDbLine
10
-43.6196010407632
20
7.80212466913893
30
0.000000000000000
11
-43.5196010407632
21
7.53099026293815
31
0.000000000000000
  0
LINE
  5
F107FA
330
F107FB
100
AcDbEntity
8
Geo
100
AcDbLine
10
-43.5196010407632
20
7.53099026293815
30
0.000000000000000
11
-43.4196010407632
21
7.37189577837747
31
0.000000000000000
  0
LINE
  5
F107FC
330
F107FD
100
AcDbEntity
8
Geo
100
AcDbLine
10
-43.4196010407632
20
7.37189577837747
30
0.000000000000000
11
-43.3196010407632
21
7.25458887227221
31
0.000000000000000
  0
LINE
  5
F107FE
330
F107FF
100
AcDbEntity
8
Geo
100
AcDbLine
10
-43.3196010407632
20
7.25458887227221
30
0.000000000000000
11
-43.2196010407632
21
7.16150924309417
31
0.000000000000000
  0
LINE
  5
F10800
330
F10801
100
AcDbEntity
8
Geo
100
AcDbLine
10
-43.2196010407632
20
7.16150924309417
30
0.000000000000000
11
-43.1196010407632
21
7.08511910220902
31
0.000000000000000
  0
LINE
  5
F10802
330
F10803
100
AcDbEntity
8
Geo
100
AcDbLine
10
-43.1196010407632
20
7.08511910220902
30
0.000000000000000
11
-43.0196010407632
21
7.02161657742653
31
0.000000000000000
  0
LINE
  5
F10804
330
F10805
100
AcDbEntity
8
Geo
100
AcDbLine
10
-43.0196010407632
20
7.02161657742653
30
0.000000000000000
11
-42.9196010407632
21
6.96826339466342
31
0.000000000000000
  0
LINE
  5
F10806
330
F10807
100
AcDbEntity
8
Geo
100
AcDbLine
10
-42.9196010407632
20
6.96826339466342
30
0.000000000000000
11
-42.8196010407632
21
6.92325885136104
31
0.000000000000000
  0
LINE
  5
F10808
330
F10809
100
AcDbEntity
8
Geo
100
AcDbLine
10
-42.8196010407632
20
6.92325885136104
30
0.000000000000000
11
-42.7196010407632
21
6.88004751694016
31
0.000000000000000
  0
LINE
  5
F1080A
330
F1080B
100
AcDbEntity
8
Geo
100
AcDbLine
10
-42.7196010407632
20
6.88004751694016
30
0.000000000000000
11
-42.6196010407632
21
6.83513139963841
31
0.000000000000000
  0
LINE
  5
F1080C
330
F1080D
100
AcDbEntity
8
Geo
100
AcDbLine
10
-42.6196010407632
20
6.83513139963841
30
0.000000000000000
11
-42.5196010407632
21
6.78866354781461
31
0.000000000000000
  0
LINE
  5
F1080E
330
F1080F
100
AcDbEntity
8
Geo
100
AcDbLine
10
-42.5196010407632
20
6.78866354781461
30
0.000000000000000
11
-42.4196010407632
21
6.74078614245601
31
0.000000000000000
  0
LINE
  5
F10810
330
F10811
100
AcDbEntity
8
Geo
100
AcDbLine
10
-42.4196010407632
20
6.74078614245601
30
0.000000000000000
11
-42.3196010407632
21
6.69163209783107
31
0.000000000000000
  0
LINE
  5
F10812
330
F10813
100
AcDbEntity
8
Geo
100
AcDbLine
10
-42.3196010407632
20
6.69163209783107
30
0.000000000000000
11
-42.2196010407632
21
6.64132637305685
31
0.000000000000000
  0
LINE
  5
F10814
330
F10815
100
AcDbEntity
8
Geo
100
AcDbLine
10
-42.2196010407632
20
6.64132637305685
30
0.000000000000000
11
-42.1196010407632
21
6.58998705544252
31
0.000000000000000
  0
LINE
  5
F10816
330
F10817
100
AcDbEntity
8
Geo
100
AcDbLine
10
-42.1196010407632
20
6.58998705544252
30
0.000000000000000
11
-42.0196010407632
21
6.53772626237449
31
0.000000000000000
  0
LINE
  5
F10818
330
F10819
100
AcDbEntity
8
Geo
100
AcDbLine
10
-42.0196010407632
20
6.53772626237449
30
0.000000000000000
11
-41.9196010407632
21
6.48465089785991
31
0.000000000000000
  0
LINE
  5
F1081A
330
F1081B
100
AcDbEntity
8
Geo
100
AcDbLine
10
-41.9196010407632
20
6.48465089785991
30
0.000000000000000
11
-41.8196010407632
21
6.43086329180360
31
0.000000000000000
  0
LINE
  5
F1081C
330
F1081D
100
AcDbEntity
8
Geo
100
AcDbLine
10
-41.8196010407632
20
6.43086329180360
30
0.000000000000000
11
-41.7196010407632
21
6.37646174400079
31
0.000000000000000
  0
LINE
  5
F1081E
330
F1081F
100
AcDbEntity
8
Geo
100
AcDbLine
10
-41.7196010407632
20
6.37646174400079
30
0.000000000000000
11
-41.6196010407632
21
6.32154099018876
31
0.000000000000000
  0
LINE
  5
F10820
330
F10821
100
AcDbEntity
8
Geo
100
AcDbLine
10
-41.6196010407632
20
6.32154099018876
30
0.000000000000000
11
-41.5196010407632
21
6.26619260394470
31
0.000000000000000
  0
LINE
  5
F10822
330
F10823
100
AcDbEntity
8
Geo
100
AcDbLine
10
-41.5196010407632
20
6.26619260394470
30
0.000000000000000
11
-41.4196010407632
21
6.21050534547445
31
0.000000000000000
  0
LINE
  5
F10824
330
F10825
100
AcDbEntity
8
Geo
100
AcDbLine
10
-41.4196010407632
20
6.21050534547445
30
0.000000000000000
11
-41.3196010407632
21
6.15456546620607
31
0.000000000000000
  0
LINE
  5
F10826
330
F10827
100
AcDbEntity
8
Geo
100
AcDbLine
10
-41.3196010407632
20
6.15456546620607
30
0.000000000000000
11
-41.2196010407632
21
6.09845697643595
31
0.000000000000000
  0
LINE
  5
F10828
330
F10829
100
AcDbEntity
8
Geo
100
AcDbLine
10
-41.2196010407632
20
6.09845697643595
30
0.000000000000000
11
-41.1196010407632
21
6.04226188196361
31
0.000000000000000
  0
LINE
  5
F1082A
330
F1082B
100
AcDbEntity
8
Geo
100
AcDbLine
10
-41.1196010407632
20
6.04226188196361
30
0.000000000000000
11
-41.0196010407632
21
5.98606039461255
31
0.000000000000000
  0
LINE
  5
F1082C
330
F1082D
100
AcDbEntity
8
Geo
100
AcDbLine
10
-41.0196010407632
20
5.98606039461255
30
0.000000000000000
11
-40.9196010407632
21
5.92993112070658
31
0.000000000000000
  0
LINE
  5
F1082E
330
F1082F
100
AcDbEntity
8
Geo
100
AcDbLine
10
-40.9196010407632
20
5.92993112070658
30
0.000000000000000
11
-40.8196010407632
21
5.87395123090847
31
0.000000000000000
  0
LINE
  5
F10830
330
F10831
100
AcDbEntity
8
Geo
100
AcDbLine
10
-40.8196010407632
20
5.87395123090847
30
0.000000000000000
11
-40.7196010407632
21
5.81819661429458
31
0.000000000000000
  0
LINE
  5
F10832
330
F10833
100
AcDbEntity
8
Geo
100
AcDbLine
10
-40.7196010407632
20
5.81819661429458
30
0.000000000000000
11
-40.6196010407632
21
5.76274201910828
31
0.000000000000000
  0
LINE
  5
F10834
330
F10835
100
AcDbEntity
8
Geo
100
AcDbLine
10
-40.6196010407632
20
5.76274201910828
30
0.000000000000000
11
-40.5196010407632
21
5.70766118228630
31
0.000000000000000
  0
LINE
  5
F10836
330
F10837
100
AcDbEntity
8
Geo
100
AcDbLine
10
-40.5196010407632
20
5.70766118228630
30
0.000000000000000
11
-40.4196010407632
21
5.65302694956935
31
0.000000000000000
  0
LINE
  5
F10838
330
F10839
100
AcDbEntity
8
Geo
100
AcDbLine
10
-40.4196010407632
20
5.65302694956935
30
0.000000000000000
11
-40.3196010407632
21
5.59891138777874
31
0.000000000000000
  0
LINE
  5
F1083A
330
F1083B
100
AcDbEntity
8
Geo
100
AcDbLine
10
-40.3196010407632
20
5.59891138777874
30
0.000000000000000
11
-40.2196010407632
21
5.54538589065526
31
0.000000000000000
  0
LINE
  5
F1083C
330
F1083D
100
AcDbEntity
8
Geo
100
AcDbLine
10
-40.2196010407632
20
5.54538589065526
30
0.000000000000000
11
-40.1196010407632
21
5.49252127950688
31
0.000000000000000
  0
LINE
  5
F1083E
330
F1083F
100
AcDbEntity
8
Geo
100
AcDbLine
10
-40.1196010407632
20
5.49252127950688
30
0.000000000000000
11
-40.0196010407632
21
5.44038789979314
31
0.000000000000000
  0
LINE
  5
F10840
330
F10841
100
AcDbEntity
8
Geo
100
AcDbLine
10
-40.0196010407632
20
5.44038789979314
30
0.000000000000000
11
-39.9196010407632
21
5.38905571468059
31
0.000000000000000
  0
LINE
  5
F10842
330
F10843
100
AcDbEntity
8
Geo
100
AcDbLine
10
-39.9196010407632
20
5.38905571468059
30
0.000000000000000
11
-39.8196010407632
21
5.33859439653294
31
0.000000000000000
  0
LINE
  5
F10844
330
F10845
100
AcDbEntity
8
Geo
100
AcDbLine
10
-39.8196010407632
20
5.33859439653294
30
0.000000000000000
11
-39.7196010407632
21
5.28907341724829
31
0.000000000000000
  0
LINE
  5
F10846
330
F10847
100
AcDbEntity
8
Geo
100
AcDbLine
10
-39.7196010407632
20
5.28907341724829
30
0.000000000000000
11
-39.6196010407632
21
5.24056213832235
31
0.000000000000000
  0
LINE
  5
F10848
330
F10849
100
AcDbEntity
8
Geo
100
AcDbLine
10
-39.6196010407632
20
5.24056213832235
30
0.000000000000000
11
-39.5196010407632
21
5.19312990149985
31
0.000000000000000
  0
LINE
  5
F1084A
330
F1084B
100
AcDbEntity
8
Geo
100
AcDbLine
10
-39.5196010407632
20
5.19312990149985
30
0.000000000000000
11
-39.4196010407632
21
5.14684612087455
31
0.000000000000000
  0
LINE
  5
F1084C
330
F1084D
100
AcDbEntity
8
Geo
100
AcDbLine
10
-39.4196010407632
20
5.14684612087455
30
0.000000000000000
11
-39.3196010407632
21
5.10178037731291
31
0.000000000000000
  0
LINE
  5
F1084E
330
F1084F
100
AcDbEntity
8
Geo
100
AcDbLine
10
-39.3196010407632
20
5.10178037731291
30
0.000000000000000
11
-39.2196010407632
21
5.05755417411272
31
0.000000000000000
  0
LINE
  5
F10850
330
F10851
100
AcDbEntity
8
Geo
100
AcDbLine
10
-39.2196010407632
20
5.05755417411272
30
0.000000000000000
11
-39.1196010407632
21
5.01374642709411
31
0.000000000000000
  0
LINE
  5
F10852
330
F10853
100
AcDbEntity
8
Geo
100
AcDbLine
10
-39.1196010407632
20
5.01374642709411
30
0.000000000000000
11
-39.0196010407632
21
4.97036297722514
31
0.000000000000000
  0
LINE
  5
F10854
330
F10855
100
AcDbEntity
8
Geo
100
AcDbLine
10
-39.0196010407632
20
4.97036297722514
30
0.000000000000000
11
-38.9196010407632
21
4.92740960890151
31
0.000000000000000
  0
LINE
  5
F10856
330
F10857
100
AcDbEntity
8
Geo
100
AcDbLine
10
-38.9196010407632
20
4.92740960890151
30
0.000000000000000
11
-38.8196010407632
21
4.88489204917536
31
0.000000000000000
  0
LINE
  5
F10858
330
F10859
100
AcDbEntity
8
Geo
100
AcDbLine
10
-38.8196010407632
20
4.88489204917536
30
0.000000000000000
11
-38.7196010407632
21
4.84281596699166
31
0.000000000000000
  0
LINE
  5
F1085A
330
F1085B
100
AcDbEntity
8
Geo
100
AcDbLine
10
-38.7196010407632
20
4.84281596699166
30
0.000000000000000
11
-38.6196010407632
21
4.80118697243237
31
0.000000000000000
  0
LINE
  5
F1085C
330
F1085D
100
AcDbEntity
8
Geo
100
AcDbLine
10
-38.6196010407632
20
4.80118697243237
30
0.000000000000000
11
-38.5196010407632
21
4.76001061596843
31
0.000000000000000
  0
LINE
  5
F1085E
330
F1085F
100
AcDbEntity
8
Geo
100
AcDbLine
10
-38.5196010407632
20
4.76001061596843
30
0.000000000000000
11
-38.4196010407632
21
4.71929238771970
31
0.000000000000000
  0
LINE
  5
F10860
330
F10861
100
AcDbEntity
8
Geo
100
AcDbLine
10
-38.4196010407632
20
4.71929238771970
30
0.000000000000000
11
-38.3196010407632
21
4.67903771672296
31
0.000000000000000
  0
LINE
  5
F10862
330
F10863
100
AcDbEntity
8
Geo
100
AcDbLine
10
-38.3196010407632
20
4.67903771672296
30
0.000000000000000
11
-38.2196010407632
21
4.63925197020802
31
0.000000000000000
  0
LINE
  5
F10864
330
F10865
100
AcDbEntity
8
Geo
100
AcDbLine
10
-38.2196010407632
20
4.63925197020802
30
0.000000000000000
11
-38.1196010407632
21
4.59994045288217
31
0.000000000000000
  0
LINE
  5
F10866
330
F10867
100
AcDbEntity
8
Geo
100
AcDbLine
10
-38.1196010407632
20
4.59994045288217
30
0.000000000000000
11
-38.0196010407632
21
4.56110840622279
31
0.000000000000000
  0
LINE
  5
F10868
330
F10869
100
AcDbEntity
8
Geo
100
AcDbLine
10
-38.0196010407632
20
4.56110840622279
30
0.000000000000000
11
-37.9196010407632
21
4.52276100777859
31
0.000000000000000
  0
LINE
  5
F1086A
330
F1086B
100
AcDbEntity
8
Geo
100
AcDbLine
10
-37.9196010407632
20
4.52276100777859
30
0.000000000000000
11
-37.8196010407632
21
4.48490337047920
31
0.000000000000000
  0
LINE
  5
F1086C
330
F1086D
100
AcDbEntity
8
Geo
100
AcDbLine
10
-37.8196010407632
20
4.48490337047920
30
0.000000000000000
11
-37.7196010407632
21
4.44754054195352
31
0.000000000000000
  0
LINE
  5
F1086E
330
F1086F
100
AcDbEntity
8
Geo
100
AcDbLine
10
-37.7196010407632
20
4.44754054195352
30
0.000000000000000
11
-37.6196010407632
21
4.41067750385668
31
0.000000000000000
  0
LINE
  5
F10870
330
F10871
100
AcDbEntity
8
Geo
100
AcDbLine
10
-37.6196010407632
20
4.41067750385668
30
0.000000000000000
11
-37.5196010407632
21
4.37431917120578
31
0.000000000000000
  0
LINE
  5
F10872
330
F10873
100
AcDbEntity
8
Geo
100
AcDbLine
10
-37.5196010407632
20
4.37431917120578
30
0.000000000000000
11
-37.4196010407632
21
4.33847039172468
31
0.000000000000000
  0
LINE
  5
F10874
330
F10875
100
AcDbEntity
8
Geo
100
AcDbLine
10
-37.4196010407632
20
4.33847039172468
30
0.000000000000000
11
-37.3196010407632
21
4.30313594519751
31
0.000000000000000
  0
LINE
  5
F10876
330
F10877
100
AcDbEntity
8
Geo
100
AcDbLine
10
-37.3196010407632
20
4.30313594519751
30
0.000000000000000
11
-37.2196010407632
21
4.26832054283147
31
0.000000000000000
  0
LINE
  5
F10878
330
F10879
100
AcDbEntity
8
Geo
100
AcDbLine
10
-37.2196010407632
20
4.26832054283147
30
0.000000000000000
11
-37.1196010407632
21
4.23402882662864
31
0.000000000000000
  0
LINE
  5
F1087A
330
F1087B
100
AcDbEntity
8
Geo
100
AcDbLine
10
-37.1196010407632
20
4.23402882662864
30
0.000000000000000
11
-37.0196010407632
21
4.20026536876702
31
0.000000000000000
  0
LINE
  5
F1087C
330
F1087D
100
AcDbEntity
8
Geo
100
AcDbLine
10
-37.0196010407632
20
4.20026536876702
30
0.000000000000000
11
-36.9196010407632
21
4.16703467099100
31
0.000000000000000
  0
LINE
  5
F1087E
330
F1087F
100
AcDbEntity
8
Geo
100
AcDbLine
10
-36.9196010407632
20
4.16703467099100
30
0.000000000000000
11
-36.8196010407632
21
4.13434116401103
31
0.000000000000000
  0
LINE
  5
F10880
330
F10881
100
AcDbEntity
8
Geo
100
AcDbLine
10
-36.8196010407632
20
4.13434116401103
30
0.000000000000000
11
-36.7196010407632
21
4.10218920691295
31
0.000000000000000
  0
LINE
  5
F10882
330
F10883
100
AcDbEntity
8
Geo
100
AcDbLine
10
-36.7196010407632
20
4.10218920691295
30
0.000000000000000
11
-36.6196010407632
21
4.07058308657674
31
0.000000000000000
  0
LINE
  5
F10884
330
F10885
100
AcDbEntity
8
Geo
100
AcDbLine
10
-36.6196010407632
20
4.07058308657674
30
0.000000000000000
11
-36.5196010407632
21
4.03952701710495
31
0.000000000000000
  0
LINE
  5
F10886
330
F10887
100
AcDbEntity
8
Geo
100
AcDbLine
10
-36.5196010407632
20
4.03952701710495
30
0.000000000000000
11
-36.4196010407632
21
4.00902513926084
31
0.000000000000000
  0
LINE
  5
F10888
330
F10889
100
AcDbEntity
8
Geo
100
AcDbLine
10
-36.4196010407632
20
4.00902513926084
30
0.000000000000000
11
-36.3196010407632
21
3.97908151991627
31
0.000000000000000
  0
LINE
  5
F1088A
330
F1088B
100
AcDbEntity
8
Geo
100
AcDbLine
10
-36.3196010407632
20
3.97908151991627
30
0.000000000000000
11
-36.2196010407632
21
3.94970015150945
31
0.000000000000000
  0
LINE
  5
F1088C
330
F1088D
100
AcDbEntity
8
Geo
100
AcDbLine
10
-36.2196010407632
20
3.94970015150945
30
0.000000000000000
11
-36.1196010407632
21
3.92088495151264
31
0.000000000000000
  0
LINE
  5
F1088E
330
F1088F
100
AcDbEntity
8
Geo
100
AcDbLine
10
-36.1196010407632
20
3.92088495151264
30
0.000000000000000
11
-36.0196010407632
21
3.89263976190983
31
0.000000000000000
  0
LINE
  5
F10890
330
F10891
100
AcDbEntity
8
Geo
100
AcDbLine
10
-36.0196010407632
20
3.89263976190983
30
0.000000000000000
11
-35.9196010407632
21
3.86496834868445
31
0.000000000000000
  0
LINE
  5
F10892
330
F10893
100
AcDbEntity
8
Geo
100
AcDbLine
10
-35.9196010407632
20
3.86496834868445
30
0.000000000000000
11
-35.8196010407632
21
3.83787440131726
31
0.000000000000000
  0
LINE
  5
F10894
330
F10895
100
AcDbEntity
8
Geo
100
AcDbLine
10
-35.8196010407632
20
3.83787440131726
30
0.000000000000000
11
-35.7196010407632
21
3.81136153229444
31
0.000000000000000
  0
LINE
  5
F10896
330
F10897
100
AcDbEntity
8
Geo
100
AcDbLine
10
-35.7196010407632
20
3.81136153229444
30
0.000000000000000
11
-35.6196010407632
21
3.78543327662592
31
0.000000000000000
  0
LINE
  5
F10898
330
F10899
100
AcDbEntity
8
Geo
100
AcDbLine
10
-35.6196010407632
20
3.78543327662592
30
0.000000000000000
11
-35.5196010407632
21
3.76009309137405
31
0.000000000000000
  0
LINE
  5
F1089A
330
F1089B
100
AcDbEntity
8
Geo
100
AcDbLine
10
-35.5196010407632
20
3.76009309137405
30
0.000000000000000
11
-35.4196010407632
21
3.73534435519264
31
0.000000000000000
  0
LINE
  5
F1089C
330
F1089D
100
AcDbEntity
8
Geo
100
AcDbLine
10
-35.4196010407632
20
3.73534435519264
30
0.000000000000000
11
-35.3196010407632
21
3.71119036787652
31
0.000000000000000
  0
LINE
  5
F1089E
330
F1089F
100
AcDbEntity
8
Geo
100
AcDbLine
10
-35.3196010407632
20
3.71119036787652
30
0.000000000000000
11
-35.2196010407632
21
3.68763434992156
31
0.000000000000000
  0
LINE
  5
F108A0
330
F108A1
100
AcDbEntity
8
Geo
100
AcDbLine
10
-35.2196010407632
20
3.68763434992156
30
0.000000000000000
11
-35.1196010407632
21
3.66467944209524
31
0.000000000000000
  0
LINE
  5
F108A2
330
F108A3
100
AcDbEntity
8
Geo
100
AcDbLine
10
-35.1196010407632
20
3.66467944209524
30
0.000000000000000
11
-35.0196010407632
21
3.64232870501795
31
0.000000000000000
  0
LINE
  5
F108A4
330
F108A5
100
AcDbEntity
8
Geo
100
AcDbLine
10
-35.0196010407632
20
3.64232870501795
30
0.000000000000000
11
-34.9196010407632
21
3.62058511875484
31
0.000000000000000
  0
LINE
  5
F108A6
330
F108A7
100
AcDbEntity
8
Geo
100
AcDbLine
10
-34.9196010407632
20
3.62058511875484
30
0.000000000000000
11
-34.8196010407632
21
3.59945158241853
31
0.000000000000000
  0
LINE
  5
F108A8
330
F108A9
100
AcDbEntity
8
Geo
100
AcDbLine
10
-34.8196010407632
20
3.59945158241853
30
0.000000000000000
11
-34.7196010407632
21
3.57893091378256
31
0.000000000000000
  0
LINE
  5
F108AA
330
F108AB
100
AcDbEntity
8
Geo
100
AcDbLine
10
-34.7196010407632
20
3.57893091378256
30
0.000000000000000
11
-34.6196010407632
21
3.55902584890569
31
0.000000000000000
  0
LINE
  5
F108AC
330
F108AD
100
AcDbEntity
8
Geo
100
AcDbLine
10
-34.6196010407632
20
3.55902584890569
30
0.000000000000000
11
-34.5196010407632
21
3.53973904176708
31
0.000000000000000
  0
LINE
  5
F108AE
330
F108AF
100
AcDbEntity
8
Geo
100
AcDbLine
10
-34.5196010407632
20
3.53973904176708
30
0.000000000000000
11
-34.4196010407632
21
3.52107306391242
31
0.000000000000000
  0
LINE
  5
F108B0
330
F108B1
100
AcDbEntity
8
Geo
100
AcDbLine
10
-34.4196010407632
20
3.52107306391242
30
0.000000000000000
11
-34.3196010407632
21
3.50303040411113
31
0.000000000000000
  0
LINE
  5
F108B2
330
F108B3
100
AcDbEntity
8
Geo
100
AcDbLine
10
-34.3196010407632
20
3.50303040411113
30
0.000000000000000
11
-34.2196010407632
21
3.48561346802444
31
0.000000000000000
  0
LINE
  5
F108B4
330
F108B5
100
AcDbEntity
8
Geo
100
AcDbLine
10
-34.2196010407632
20
3.48561346802444
30
0.000000000000000
11
-34.1196010407632
21
3.46882457788471
31
0.000000000000000
  0
LINE
  5
F108B6
330
F108B7
100
AcDbEntity
8
Geo
100
AcDbLine
10
-34.1196010407632
20
3.46882457788471
30
0.000000000000000
11
-34.0196010407632
21
3.45266597218572
31
0.000000000000000
  0
LINE
  5
F108B8
330
F108B9
100
AcDbEntity
8
Geo
100
AcDbLine
10
-34.0196010407632
20
3.45266597218572
30
0.000000000000000
11
-33.9196010407632
21
3.43713980538432
31
0.000000000000000
  0
LINE
  5
F108BA
330
F108BB
100
AcDbEntity
8
Geo
100
AcDbLine
10
-33.9196010407632
20
3.43713980538432
30
0.000000000000000
11
-33.8196010407632
21
3.42224814761307
31
0.000000000000000
  0
LINE
  5
F108BC
330
F108BD
100
AcDbEntity
8
Geo
100
AcDbLine
10
-33.8196010407632
20
3.42224814761307
30
0.000000000000000
11
-33.7196010407632
21
3.40799298440428
31
0.000000000000000
  0
LINE
  5
F108BE
330
F108BF
100
AcDbEntity
8
Geo
100
AcDbLine
10
-33.7196010407632
20
3.40799298440428
30
0.000000000000000
11
-33.6196010407632
21
3.39437621642527
31
0.000000000000000
  0
LINE
  5
F108C0
330
F108C1
100
AcDbEntity
8
Geo
100
AcDbLine
10
-33.6196010407632
20
3.39437621642527
30
0.000000000000000
11
-33.5196010407632
21
3.38139965922491
31
0.000000000000000
  0
LINE
  5
F108C2
330
F108C3
100
AcDbEntity
8
Geo
100
AcDbLine
10
-33.5196010407632
20
3.38139965922491
30
0.000000000000000
11
-33.4196010407632
21
3.36906504299161
31
0.000000000000000
  0
LINE
  5
F108C4
330
F108C5
100
AcDbEntity
8
Geo
100
AcDbLine
10
-33.4196010407632
20
3.36906504299161
30
0.000000000000000
11
-33.3196010407632
21
3.35737401232260
31
0.000000000000000
  0
LINE
  5
F108C6
330
F108C7
100
AcDbEntity
8
Geo
100
AcDbLine
10
-33.3196010407632
20
3.35737401232260
30
0.000000000000000
11
-33.2196010407632
21
3.34632812600465
31
0.000000000000000
  0
LINE
  5
F108C8
330
F108C9
100
AcDbEntity
8
Geo
100
AcDbLine
10
-33.2196010407632
20
3.34632812600465
30
0.000000000000000
11
-33.1196010407632
21
3.33592885680623
31
0.000000000000000
  0
LINE
  5
F108CA
330
F108CB
100
AcDbEntity
8
Geo
100
AcDbLine
10
-33.1196010407632
20
3.33592885680623
30
0.000000000000000
11
-33.0196010407632
21
3.32617759128117
31
0.000000000000000
  0
LINE
  5
F108CC
330
F108CD
100
AcDbEntity
8
Geo
100
AcDbLine
10
-33.0196010407632
20
3.32617759128117
30
0.000000000000000
11
-32.9196010407632
21
3.31707562958375
31
0.000000000000000
  0
LINE
  5
F108CE
330
F108CF
100
AcDbEntity
8
Geo
100
AcDbLine
10
-32.9196010407632
20
3.31707562958375
30
0.000000000000000
11
-32.8196010407632
21
3.30862418529538
31
0.000000000000000
  0
LINE
  5
F108D0
330
F108D1
100
AcDbEntity
8
Geo
100
AcDbLine
10
-32.8196010407632
20
3.30862418529538
30
0.000000000000000
11
-32.7196010407632
21
3.30082438526279
31
0.000000000000000
  0
LINE
  5
F108D2
330
F108D3
100
AcDbEntity
8
Geo
100
AcDbLine
10
-32.7196010407632
20
3.30082438526279
30
0.000000000000000
11
-32.6196010407632
21
3.29367726944775
31
0.000000000000000
  0
LINE
  5
F108D4
330
F108D5
100
AcDbEntity
8
Geo
100
AcDbLine
10
-32.6196010407632
20
3.29367726944775
30
0.000000000000000
11
-32.5196010407632
21
3.28718379078845
31
0.000000000000000
  0
LINE
  5
F108D6
330
F108D7
100
AcDbEntity
8
Geo
100
AcDbLine
10
-32.5196010407632
20
3.28718379078845
30
0.000000000000000
11
-32.4196010407632
21
3.28134481507243
31
0.000000000000000
  0
LINE
  5
F108D8
330
F108D9
100
AcDbEntity
8
Geo
100
AcDbLine
10
-32.4196010407632
20
3.28134481507243
30
0.000000000000000
11
-32.3196010407632
21
3.27616112082113
31
0.000000000000000
  0
LINE
  5
F108DA
330
F108DB
100
AcDbEntity
8
Geo
100
AcDbLine
10
-32.3196010407632
20
3.27616112082113
30
0.000000000000000
11
-32.2196010407632
21
3.27163339918610
31
0.000000000000000
  0
LINE
  5
F108DC
330
F108DD
100
AcDbEntity
8
Geo
100
AcDbLine
10
-32.2196010407632
20
3.27163339918610
30
0.000000000000000
11
-32.1196010407632
21
3.26776225385686
31
0.000000000000000
  0
LINE
  5
F108DE
330
F108DF
100
AcDbEntity
8
Geo
100
AcDbLine
10
-32.1196010407632
20
3.26776225385686
30
0.000000000000000
11
-32.0196010407632
21
3.26454820098038
31
0.000000000000000
  0
LINE
  5
F108E0
330
F108E1
100
AcDbEntity
8
Geo
100
AcDbLine
10
-32.0196010407632
20
3.26454820098038
30
0.000000000000000
11
-31.9196010407632
21
3.26199166909228
31
0.000000000000000
  0
LINE
  5
F108E2
330
F108E3
100
AcDbEntity
8
Geo
100
AcDbLine
10
-31.9196010407632
20
3.26199166909228
30
0.000000000000000
11
-31.8196010407632
21
3.26009299905970
31
0.000000000000000
  0
LINE
  5
F108E4
330
F108E5
100
AcDbEntity
8
Geo
100
AcDbLine
10
-31.8196010407632
20
3.26009299905970
30
0.000000000000000
11
-31.7196010407632
21
3.25885244403582
31
0.000000000000000
  0
LINE
  5
F108E6
330
F108E7
100
AcDbEntity
8
Geo
100
AcDbLine
10
-31.7196010407632
20
3.25885244403582
30
0.000000000000000
11
-31.6196010407632
21
3.25827016942615
31
0.000000000000000
  0
LINE
  5
F108E8
330
F108E9
100
AcDbEntity
8
Geo
100
AcDbLine
10
-31.6196010407632
20
3.25827016942615
30
0.000000000000000
11
-31.5811572889709
21
3.19601040763227
31
0.000000000000000
  0
LINE
  5
F108EA
330
F108EB
100
AcDbEntity
8
Geo
100
AcDbLine
10
-43.6196010407632
20
5.70502993919939
30
0.000000000000000
11
-43.6196010407632
21
5.64454024319766
31
0.000000000000000
  0
LINE
  5
F108EC
330
F108ED
100
AcDbEntity
8
Geo
100
AcDbLine
10
-31.5811572889708
20
13.1960104076323
30
0.000000000000000
11
-31.5196010407632
21
13.1336745623981
31
0.000000000000000
  0
LINE
  5
F108EE
330
F108EF
100
AcDbEntity
8
Geo
100
AcDbLine
10
-31.5196010407632
20
13.1336745623981
30
0.000000000000000
11
-31.4196010407632
21
13.1329401310522
31
0.000000000000000
  0
LINE
  5
F108F0
330
F108F1
100
AcDbEntity
8
Geo
100
AcDbLine
10
-31.4196010407632
20
13.1329401310522
30
0.000000000000000
11
-31.3196010407632
21
13.1315474497238
31
0.000000000000000
  0
LINE
  5
F108F2
330
F108F3
100
AcDbEntity
8
Geo
100
AcDbLine
10
-31.3196010407632
20
13.1315474497238
30
0.000000000000000
11
-31.2196010407632
21
13.1294967041017
31
0.000000000000000
  0
LINE
  5
F108F4
330
F108F5
100
AcDbEntity
8
Geo
100
AcDbLine
10
-31.2196010407632
20
13.1294967041017
30
0.000000000000000
11
-31.1196010407632
21
13.1267881676155
31
0.000000000000000
  0
LINE
  5
F108F6
330
F108F7
100
AcDbEntity
8
Geo
100
AcDbLine
10
-31.1196010407632
20
13.1267881676155
30
0.000000000000000
11
-31.0196010407632
21
13.1234222013995
31
0.000000000000000
  0
LINE
  5
F108F8
330
F108F9
100
AcDbEntity
8
Geo
100
AcDbLine
10
-31.0196010407632
20
13.1234222013995
30
0.000000000000000
11
-30.9196010407632
21
13.1193992542441
31
0.000000000000000
  0
LINE
  5
F108FA
330
F108FB
100
AcDbEntity
8
Geo
100
AcDbLine
10
-30.9196010407632
20
13.1193992542441
30
0.000000000000000
11
-30.8196010407632
21
13.1147198625364
31
0.000000000000000
  0
LINE
  5
F108FC
330
F108FD
100
AcDbEntity
8
Geo
100
AcDbLine
10
-30.8196010407632
20
13.1147198625364
30
0.000000000000000
11
-30.7196010407633
21
13.1093846501883
31
0.000000000000000
  0
LINE
  5
F108FE
330
F108FF
100
AcDbEntity
8
Geo
100
AcDbLine
10
-30.7196010407633
20
13.1093846501883
30
0.000000000000000
11
-30.6196010407632
21
13.1033943285537
31
0.000000000000000
  0
LINE
  5
F10900
330
F10901
100
AcDbEntity
8
Geo
100
AcDbLine
10
-30.6196010407632
20
13.1033943285537
30
0.000000000000000
11
-30.5196010407632
21
13.0967496963330
31
0.000000000000000
  0
LINE
  5
F10902
330
F10903
100
AcDbEntity
8
Geo
100
AcDbLine
10
-30.5196010407632
20
13.0967496963330
30
0.000000000000000
11
-30.4196010407633
21
13.0894516394675
31
0.000000000000000
  0
LINE
  5
F10904
330
F10905
100
AcDbEntity
8
Geo
100
AcDbLine
10
-30.4196010407633
20
13.0894516394675
30
0.000000000000000
11
-30.3196010407633
21
13.0815011310207
31
0.000000000000000
  0
LINE
  5
F10906
330
F10907
100
AcDbEntity
8
Geo
100
AcDbLine
10
-30.3196010407633
20
13.0815011310207
30
0.000000000000000
11
-30.2196010407633
21
13.0728992310484
31
0.000000000000000
  0
LINE
  5
F10908
330
F10909
100
AcDbEntity
8
Geo
100
AcDbLine
10
-30.2196010407633
20
13.0728992310484
30
0.000000000000000
11
-30.1196010407632
21
13.0636470864580
31
0.000000000000000
  0
LINE
  5
F1090A
330
F1090B
100
AcDbEntity
8
Geo
100
AcDbLine
10
-30.1196010407632
20
13.0636470864580
30
0.000000000000000
11
-30.0196010407633
21
13.0537459308550
31
0.000000000000000
  0
LINE
  5
F1090C
330
F1090D
100
AcDbEntity
8
Geo
100
AcDbLine
10
-30.0196010407633
20
13.0537459308550
30
0.000000000000000
11
-29.9196010407633
21
13.0431970843789
31
0.000000000000000
  0
LINE
  5
F1090E
330
F1090F
100
AcDbEntity
8
Geo
100
AcDbLine
10
-29.9196010407633
20
13.0431970843789
30
0.000000000000000
11
-29.8196010407633
21
13.0320019535268
31
0.000000000000000
  0
LINE
  5
F10910
330
F10911
100
AcDbEntity
8
Geo
100
AcDbLine
10
-29.8196010407633
20
13.0320019535268
30
0.000000000000000
11
-29.7196010407633
21
13.0201620309664
31
0.000000000000000
  0
LINE
  5
F10912
330
F10913
100
AcDbEntity
8
Geo
100
AcDbLine
10
-29.7196010407633
20
13.0201620309664
30
0.000000000000000
11
-29.6196010407633
21
13.0076788953364
31
0.000000000000000
  0
LINE
  5
F10914
330
F10915
100
AcDbEntity
8
Geo
100
AcDbLine
10
-29.6196010407633
20
13.0076788953364
30
0.000000000000000
11
-29.5196010407633
21
12.9945542110364
31
0.000000000000000
  0
LINE
  5
F10916
330
F10917
100
AcDbEntity
8
Geo
100
AcDbLine
10
-29.5196010407633
20
12.9945542110364
30
0.000000000000000
11
-29.4196010407633
21
12.9807897280049
31
0.000000000000000
  0
LINE
  5
F10918
330
F10919
100
AcDbEntity
8
Geo
100
AcDbLine
10
-29.4196010407633
20
12.9807897280049
30
0.000000000000000
11
-29.3196010407633
21
12.9663872814858
31
0.000000000000000
  0
LINE
  5
F1091A
330
F1091B
100
AcDbEntity
8
Geo
100
AcDbLine
10
-29.3196010407633
20
12.9663872814858
30
0.000000000000000
11
-29.2196010407633
21
12.9513487917841
31
0.000000000000000
  0
LINE
  5
F1091C
330
F1091D
100
AcDbEntity
8
Geo
100
AcDbLine
10
-29.2196010407633
20
12.9513487917841
30
0.000000000000000
11
-29.1196010407633
21
12.9356762640094
31
0.000000000000000
  0
LINE
  5
F1091E
330
F1091F
100
AcDbEntity
8
Geo
100
AcDbLine
10
-29.1196010407633
20
12.9356762640094
30
0.000000000000000
11
-29.0196010407633
21
12.9193717878089
31
0.000000000000000
  0
LINE
  5
F10920
330
F10921
100
AcDbEntity
8
Geo
100
AcDbLine
10
-29.0196010407633
20
12.9193717878089
30
0.000000000000000
11
-28.9196010407633
21
12.9024375370886
31
0.000000000000000
  0
LINE
  5
F10922
330
F10923
100
AcDbEntity
8
Geo
100
AcDbLine
10
-28.9196010407633
20
12.9024375370886
30
0.000000000000000
11
-28.8196010407633
21
12.8848757697235
31
0.000000000000000
  0
LINE
  5
F10924
330
F10925
100
AcDbEntity
8
Geo
100
AcDbLine
10
-28.8196010407633
20
12.8848757697235
30
0.000000000000000
11
-28.7196010407633
21
12.8666888272565
31
0.000000000000000
  0
LINE
  5
F10926
330
F10927
100
AcDbEntity
8
Geo
100
AcDbLine
10
-28.7196010407633
20
12.8666888272565
30
0.000000000000000
11
-28.6196010407633
21
12.8478791345864
31
0.000000000000000
  0
LINE
  5
F10928
330
F10929
100
AcDbEntity
8
Geo
100
AcDbLine
10
-28.6196010407633
20
12.8478791345864
30
0.000000000000000
11
-28.5196010407633
21
12.8284491996444
31
0.000000000000000
  0
LINE
  5
F1092A
330
F1092B
100
AcDbEntity
8
Geo
100
AcDbLine
10
-28.5196010407633
20
12.8284491996444
30
0.000000000000000
11
-28.4196010407633
21
12.8084016130596
31
0.000000000000000
  0
LINE
  5
F1092C
330
F1092D
100
AcDbEntity
8
Geo
100
AcDbLine
10
-28.4196010407633
20
12.8084016130596
30
0.000000000000000
11
-28.3196010407633
21
12.7877390478138
31
0.000000000000000
  0
LINE
  5
F1092E
330
F1092F
100
AcDbEntity
8
Geo
100
AcDbLine
10
-28.3196010407633
20
12.7877390478138
30
0.000000000000000
11
-28.2196010407633
21
12.7664642588853
31
0.000000000000000
  0
LINE
  5
F10930
330
F10931
100
AcDbEntity
8
Geo
100
AcDbLine
10
-28.2196010407633
20
12.7664642588853
30
0.000000000000000
11
-28.1196010407633
21
12.7445800828809
31
0.000000000000000
  0
LINE
  5
F10932
330
F10933
100
AcDbEntity
8
Geo
100
AcDbLine
10
-28.1196010407633
20
12.7445800828809
30
0.000000000000000
11
-28.0196010407633
21
12.7220894376584
31
0.000000000000000
  0
LINE
  5
F10934
330
F10935
100
AcDbEntity
8
Geo
100
AcDbLine
10
-28.0196010407633
20
12.7220894376584
30
0.000000000000000
11
-27.9196010407633
21
12.6989953219372
31
0.000000000000000
  0
LINE
  5
F10936
330
F10937
100
AcDbEntity
8
Geo
100
AcDbLine
10
-27.9196010407633
20
12.6989953219372
30
0.000000000000000
11
-27.8196010407633
21
12.6753008148985
31
0.000000000000000
  0
LINE
  5
F10938
330
F10939
100
AcDbEntity
8
Geo
100
AcDbLine
10
-27.8196010407633
20
12.6753008148985
30
0.000000000000000
11
-27.7196010407633
21
12.6510090757747
31
0.000000000000000
  0
LINE
  5
F1093A
330
F1093B
100
AcDbEntity
8
Geo
100
AcDbLine
10
-27.7196010407633
20
12.6510090757747
30
0.000000000000000
11
-27.6196010407632
21
12.6261233434285
31
0.000000000000000
  0
LINE
  5
F1093C
330
F1093D
100
AcDbEntity
8
Geo
100
AcDbLine
10
-27.6196010407632
20
12.6261233434285
30
0.000000000000000
11
-27.5196010407632
21
12.6006469359207
31
0.000000000000000
  0
LINE
  5
F1093E
330
F1093F
100
AcDbEntity
8
Geo
100
AcDbLine
10
-27.5196010407632
20
12.6006469359207
30
0.000000000000000
11
-27.4196010407632
21
12.5745832500677
31
0.000000000000000
  0
LINE
  5
F10940
330
F10941
100
AcDbEntity
8
Geo
100
AcDbLine
10
-27.4196010407632
20
12.5745832500677
30
0.000000000000000
11
-27.3196010407632
21
12.5479357609892
31
0.000000000000000
  0
LINE
  5
F10942
330
F10943
100
AcDbEntity
8
Geo
100
AcDbLine
10
-27.3196010407632
20
12.5479357609892
30
0.000000000000000
11
-27.2196010407632
21
12.5207080216441
31
0.000000000000000
  0
LINE
  5
F10944
330
F10945
100
AcDbEntity
8
Geo
100
AcDbLine
10
-27.2196010407632
20
12.5207080216441
30
0.000000000000000
11
-27.1196010407632
21
12.4929036623575
31
0.000000000000000
  0
LINE
  5
F10946
330
F10947
100
AcDbEntity
8
Geo
100
AcDbLine
10
-27.1196010407632
20
12.4929036623575
30
0.000000000000000
11
-27.0196010407632
21
12.4645263903360
31
0.000000000000000
  0
LINE
  5
F10948
330
F10949
100
AcDbEntity
8
Geo
100
AcDbLine
10
-27.0196010407632
20
12.4645263903360
30
0.000000000000000
11
-26.9196010407632
21
12.4355799891738
31
0.000000000000000
  0
LINE
  5
F1094A
330
F1094B
100
AcDbEntity
8
Geo
100
AcDbLine
10
-26.9196010407632
20
12.4355799891738
30
0.000000000000000
11
-26.8196010407632
21
12.4060683183482
31
0.000000000000000
  0
LINE
  5
F1094C
330
F1094D
100
AcDbEntity
8
Geo
100
AcDbLine
10
-26.8196010407632
20
12.4060683183482
30
0.000000000000000
11
-26.7196010407632
21
12.3759953127049
31
0.000000000000000
  0
LINE
  5
F1094E
330
F1094F
100
AcDbEntity
8
Geo
100
AcDbLine
10
-26.7196010407632
20
12.3759953127049
30
0.000000000000000
11
-26.6196010407632
21
12.3453649819336
31
0.000000000000000
  0
LINE
  5
F10950
330
F10951
100
AcDbEntity
8
Geo
100
AcDbLine
10
-26.6196010407632
20
12.3453649819336
30
0.000000000000000
11
-26.5196010407632
21
12.3141814100328
31
0.000000000000000
  0
LINE
  5
F10952
330
F10953
100
AcDbEntity
8
Geo
100
AcDbLine
10
-26.5196010407632
20
12.3141814100328
30
0.000000000000000
11
-26.4196010407632
21
12.2824487547659
31
0.000000000000000
  0
LINE
  5
F10954
330
F10955
100
AcDbEntity
8
Geo
100
AcDbLine
10
-26.4196010407632
20
12.2824487547659
30
0.000000000000000
11
-26.3196010407632
21
12.2501712471068
31
0.000000000000000
  0
LINE
  5
F10956
330
F10957
100
AcDbEntity
8
Geo
100
AcDbLine
10
-26.3196010407632
20
12.2501712471068
30
0.000000000000000
11
-26.2196010407632
21
12.2173531906752
31
0.000000000000000
  0
LINE
  5
F10958
330
F10959
100
AcDbEntity
8
Geo
100
AcDbLine
10
-26.2196010407632
20
12.2173531906752
30
0.000000000000000
11
-26.1196010407632
21
12.1839989611634
31
0.000000000000000
  0
LINE
  5
F1095A
330
F1095B
100
AcDbEntity
8
Geo
100
AcDbLine
10
-26.1196010407632
20
12.1839989611634
30
0.000000000000000
11
-26.0196010407632
21
12.1501130057525
31
0.000000000000000
  0
LINE
  5
F1095C
330
F1095D
100
AcDbEntity
8
Geo
100
AcDbLine
10
-26.0196010407632
20
12.1501130057525
30
0.000000000000000
11
-25.9196010407632
21
12.1156998425198
31
0.000000000000000
  0
LINE
  5
F1095E
330
F1095F
100
AcDbEntity
8
Geo
100
AcDbLine
10
-25.9196010407632
20
12.1156998425198
30
0.000000000000000
11
-25.8196010407632
21
12.0807640598361
31
0.000000000000000
  0
LINE
  5
F10960
330
F10961
100
AcDbEntity
8
Geo
100
AcDbLine
10
-25.8196010407632
20
12.0807640598361
30
0.000000000000000
11
-25.7196010407632
21
12.0453103157538
31
0.000000000000000
  0
LINE
  5
F10962
330
F10963
100
AcDbEntity
8
Geo
100
AcDbLine
10
-25.7196010407632
20
12.0453103157538
30
0.000000000000000
11
-25.6196010407632
21
12.0093433373865
31
0.000000000000000
  0
LINE
  5
F10964
330
F10965
100
AcDbEntity
8
Geo
100
AcDbLine
10
-25.6196010407632
20
12.0093433373865
30
0.000000000000000
11
-25.5196010407632
21
11.9728679202779
31
0.000000000000000
  0
LINE
  5
F10966
330
F10967
100
AcDbEntity
8
Geo
100
AcDbLine
10
-25.5196010407632
20
11.9728679202779
30
0.000000000000000
11
-25.4196010407632
21
11.9358889277629
31
0.000000000000000
  0
LINE
  5
F10968
330
F10969
100
AcDbEntity
8
Geo
100
AcDbLine
10
-25.4196010407632
20
11.9358889277629
30
0.000000000000000
11
-25.3196010407632
21
11.8984112903191
31
0.000000000000000
  0
LINE
  5
F1096A
330
F1096B
100
AcDbEntity
8
Geo
100
AcDbLine
10
-25.3196010407632
20
11.8984112903191
30
0.000000000000000
11
-25.2196010407632
21
11.8604400049093
31
0.000000000000000
  0
LINE
  5
F1096C
330
F1096D
100
AcDbEntity
8
Geo
100
AcDbLine
10
-25.2196010407632
20
11.8604400049093
30
0.000000000000000
11
-25.1196010407632
21
11.8219801343153
31
0.000000000000000
  0
LINE
  5
F1096E
330
F1096F
100
AcDbEntity
8
Geo
100
AcDbLine
10
-25.1196010407632
20
11.8219801343153
30
0.000000000000000
11
-25.0196010407632
21
11.7830368064628
31
0.000000000000000
  0
LINE
  5
F10970
330
F10971
100
AcDbEntity
8
Geo
100
AcDbLine
10
-25.0196010407632
20
11.7830368064628
30
0.000000000000000
11
-24.9196010407632
21
11.7436152137380
31
0.000000000000000
  0
LINE
  5
F10972
330
F10973
100
AcDbEntity
8
Geo
100
AcDbLine
10
-24.9196010407632
20
11.7436152137380
30
0.000000000000000
11
-24.8196010407632
21
11.7037206122946
31
0.000000000000000
  0
LINE
  5
F10974
330
F10975
100
AcDbEntity
8
Geo
100
AcDbLine
10
-24.8196010407632
20
11.7037206122946
30
0.000000000000000
11
-24.7196010407632
21
11.6633583213539
31
0.000000000000000
  0
LINE
  5
F10976
330
F10977
100
AcDbEntity
8
Geo
100
AcDbLine
10
-24.7196010407632
20
11.6633583213539
30
0.000000000000000
11
-24.6196010407632
21
11.6225337224948
31
0.000000000000000
  0
LINE
  5
F10978
330
F10979
100
AcDbEntity
8
Geo
100
AcDbLine
10
-24.6196010407632
20
11.6225337224948
30
0.000000000000000
11
-24.5196010407632
21
11.5812522589367
31
0.000000000000000
  0
LINE
  5
F1097A
330
F1097B
100
AcDbEntity
8
Geo
100
AcDbLine
10
-24.5196010407632
20
11.5812522589367
30
0.000000000000000
11
-24.4196010407632
21
11.5395194348136
31
0.000000000000000
  0
LINE
  5
F1097C
330
F1097D
100
AcDbEntity
8
Geo
100
AcDbLine
10
-43.6196010407632
20
10.7474805720669
30
0.000000000000000
11
-43.6196010407632
21
10.6783069009195
31
0.000000000000000
  0
LINE
  5
F1097E
330
F1097F
100
AcDbEntity
8
Geo
100
AcDbLine
10
-43.6196010407632
20
10.6783069009195
30
0.000000000000000
11
-43.5196010407632
21
10.7837995239222
31
0.000000000000000
  0
LINE
  5
F10980
330
F10981
100
AcDbEntity
8
Geo
100
AcDbLine
10
-43.5196010407632
20
10.7837995239222
30
0.000000000000000
11
-43.4196010407632
21
10.8911700812054
31
0.000000000000000
  0
LINE
  5
F10982
330
F10983
100
AcDbEntity
8
Geo
100
AcDbLine
10
-43.4196010407632
20
10.8911700812054
30
0.000000000000000
11
-43.3196010407632
21
10.9965069635594
31
0.000000000000000
  0
LINE
  5
F10984
330
F10985
100
AcDbEntity
8
Geo
100
AcDbLine
10
-43.3196010407632
20
10.9965069635594
30
0.000000000000000
11
-43.2196010407632
21
11.0988503928073
31
0.000000000000000
  0
LINE
  5
F10986
330
F10987
100
AcDbEntity
8
Geo
100
AcDbLine
10
-43.2196010407632
20
11.0988503928073
30
0.000000000000000
11
-43.1196010407632
21
11.1979482354080
31
0.000000000000000
  0
LINE
  5
F10988
330
F10989
100
AcDbEntity
8
Geo
100
AcDbLine
10
-43.1196010407632
20
11.1979482354080
30
0.000000000000000
11
-43.0196010407632
21
11.2938829592845
31
0.000000000000000
  0
LINE
  5
F1098A
330
F1098B
100
AcDbEntity
8
Geo
100
AcDbLine
10
-43.0196010407632
20
11.2938829592845
30
0.000000000000000
11
-42.9196010407632
21
11.3866374017008
31
0.000000000000000
  0
LINE
  5
F1098C
330
F1098D
100
AcDbEntity
8
Geo
100
AcDbLine
10
-42.9196010407632
20
11.3866374017008
30
0.000000000000000
11
-42.8196010407632
21
11.4762627545915
31
0.000000000000000
  0
LINE
  5
F1098E
330
F1098F
100
AcDbEntity
8
Geo
100
AcDbLine
10
-42.8196010407632
20
11.4762627545915
30
0.000000000000000
11
-42.7196010407632
21
11.5607744313881
31
0.000000000000000
  0
LINE
  5
F10990
330
F10991
100
AcDbEntity
8
Geo
100
AcDbLine
10
-42.7196010407632
20
11.5607744313881
30
0.000000000000000
11
-42.6196010407632
21
11.6392253028559
31
0.000000000000000
  0
LINE
  5
F10992
330
F10993
100
AcDbEntity
8
Geo
100
AcDbLine
10
-42.6196010407632
20
11.6392253028559
30
0.000000000000000
11
-42.5196010407632
21
11.7120081754129
31
0.000000000000000
  0
LINE
  5
F10994
330
F10995
100
AcDbEntity
8
Geo
100
AcDbLine
10
-42.5196010407632
20
11.7120081754129
30
0.000000000000000
11
-42.4196010407632
21
11.7794583234921
31
0.000000000000000
  0
LINE
  5
F10996
330
F10997
100
AcDbEntity
8
Geo
100
AcDbLine
10
-42.4196010407632
20
11.7794583234921
30
0.000000000000000
11
-42.3196010407632
21
11.8418646546273
31
0.000000000000000
  0
LINE
  5
F10998
330
F10999
100
AcDbEntity
8
Geo
100
AcDbLine
10
-42.3196010407632
20
11.8418646546273
30
0.000000000000000
11
-42.2196010407632
21
11.8994782718705
31
0.000000000000000
  0
LINE
  5
F1099A
330
F1099B
100
AcDbEntity
8
Geo
100
AcDbLine
10
-42.2196010407632
20
11.8994782718705
30
0.000000000000000
11
-42.1196010407632
21
11.9525191371661
31
0.000000000000000
  0
LINE
  5
F1099C
330
F1099D
100
AcDbEntity
8
Geo
100
AcDbLine
10
-42.1196010407632
20
11.9525191371661
30
0.000000000000000
11
-42.0196010407632
21
12.0011813252102
31
0.000000000000000
  0
LINE
  5
F1099E
330
F1099F
100
AcDbEntity
8
Geo
100
AcDbLine
10
-42.0196010407632
20
12.0011813252102
30
0.000000000000000
11
-41.9196010407632
21
12.0456372149738
31
0.000000000000000
  0
LINE
  5
F109A0
330
F109A1
100
AcDbEntity
8
Geo
100
AcDbLine
10
-41.9196010407632
20
12.0456372149738
30
0.000000000000000
11
-41.8196010407632
21
12.0860408694127
31
0.000000000000000
  0
LINE
  5
F109A2
330
F109A3
100
AcDbEntity
8
Geo
100
AcDbLine
10
-41.8196010407632
20
12.0860408694127
30
0.000000000000000
11
-41.7196010407632
21
12.1225307869715
31
0.000000000000000
  0
LINE
  5
F109A4
330
F109A5
100
AcDbEntity
8
Geo
100
AcDbLine
10
-41.7196010407632
20
12.1225307869715
30
0.000000000000000
11
-41.6196010407632
21
12.1552321613803
31
0.000000000000000
  0
LINE
  5
F109A6
330
F109A7
100
AcDbEntity
8
Geo
100
AcDbLine
10
-41.6196010407632
20
12.1552321613803
30
0.000000000000000
11
-41.5196010407632
21
12.1842587525288
31
0.000000000000000
  0
LINE
  5
F109A8
330
F109A9
100
AcDbEntity
8
Geo
100
AcDbLine
10
-41.5196010407632
20
12.1842587525288
30
0.000000000000000
11
-41.4196010407632
21
12.2097144467448
31
0.000000000000000
  0
LINE
  5
F109AA
330
F109AB
100
AcDbEntity
8
Geo
100
AcDbLine
10
-41.4196010407632
20
12.2097144467448
30
0.000000000000000
11
-41.3196010407632
21
12.2316945668147
31
0.000000000000000
  0
LINE
  5
F109AC
330
F109AD
100
AcDbEntity
8
Geo
100
AcDbLine
10
-41.3196010407632
20
12.2316945668147
30
0.000000000000000
11
-41.2196010407632
21
12.2502869786912
31
0.000000000000000
  0
LINE
  5
F109AE
330
F109AF
100
AcDbEntity
8
Geo
100
AcDbLine
10
-41.2196010407632
20
12.2502869786912
30
0.000000000000000
11
-41.1196010407632
21
12.2655730317600
31
0.000000000000000
  0
LINE
  5
F109B0
330
F109B1
100
AcDbEntity
8
Geo
100
AcDbLine
10
-41.1196010407632
20
12.2655730317600
30
0.000000000000000
11
-41.0196010407632
21
12.2776283618633
31
0.000000000000000
  0
LINE
  5
F109B2
330
F109B3
100
AcDbEntity
8
Geo
100
AcDbLine
10
-41.0196010407632
20
12.2776283618633
30
0.000000000000000
11
-40.9196010407632
21
12.2865235803977
31
0.000000000000000
  0
LINE
  5
F109B4
330
F109B5
100
AcDbEntity
8
Geo
100
AcDbLine
10
-40.9196010407632
20
12.2865235803977
30
0.000000000000000
11
-40.8196010407632
21
12.2923248682343
31
0.000000000000000
  0
LINE
  5
F109B6
330
F109B7
100
AcDbEntity
8
Geo
100
AcDbLine
10
-40.8196010407632
20
12.2923248682343
30
0.000000000000000
11
-40.7196010407632
21
12.2950944896452
31
0.000000000000000
  0
LINE
  5
F109B8
330
F109B9
100
AcDbEntity
8
Geo
100
AcDbLine
10
-40.7196010407632
20
12.2950944896452
30
0.000000000000000
11
-40.6196010407632
21
12.2948912386095
31
0.000000000000000
  0
LINE
  5
F109BA
330
F109BB
100
AcDbEntity
8
Geo
100
AcDbLine
10
-40.6196010407632
20
12.2948912386095
30
0.000000000000000
11
-40.5196010407632
21
12.2917708276405
31
0.000000000000000
  0
LINE
  5
F109BC
330
F109BD
100
AcDbEntity
8
Geo
100
AcDbLine
10
-40.5196010407632
20
12.2917708276405
30
0.000000000000000
11
-40.4196010407632
21
12.2857862274913
31
0.000000000000000
  0
LINE
  5
F109BE
330
F109BF
100
AcDbEntity
8
Geo
100
AcDbLine
10
-40.4196010407632
20
12.2857862274913
30
0.000000000000000
11
-40.3196010407632
21
12.2769879646619
31
0.000000000000000
  0
LINE
  5
F109C0
330
F109C1
100
AcDbEntity
8
Geo
100
AcDbLine
10
-40.3196010407632
20
12.2769879646619
30
0.000000000000000
11
-40.2196010407632
21
12.2654243824627
31
0.000000000000000
  0
LINE
  5
F109C2
330
F109C3
100
AcDbEntity
8
Geo
100
AcDbLine
10
-40.2196010407632
20
12.2654243824627
30
0.000000000000000
11
-40.1196010407632
21
12.2511418704442
31
0.000000000000000
  0
LINE
  5
F109C4
330
F109C5
100
AcDbEntity
8
Geo
100
AcDbLine
10
-40.1196010407632
20
12.2511418704442
30
0.000000000000000
11
-40.0196010407632
21
12.2341850662193
31
0.000000000000000
  0
LINE
  5
F109C6
330
F109C7
100
AcDbEntity
8
Geo
100
AcDbLine
10
-40.0196010407632
20
12.2341850662193
30
0.000000000000000
11
-39.9196010407632
21
12.2145970330629
31
0.000000000000000
  0
LINE
  5
F109C8
330
F109C9
100
AcDbEntity
8
Geo
100
AcDbLine
10
-39.9196010407632
20
12.2145970330629
30
0.000000000000000
11
-39.8196010407632
21
12.1924194161345
31
0.000000000000000
  0
LINE
  5
F109CA
330
F109CB
100
AcDbEntity
8
Geo
100
AcDbLine
10
-39.8196010407632
20
12.1924194161345
30
0.000000000000000
11
-39.7196010407632
21
12.1676925797252
31
0.000000000000000
  0
LINE
  5
F109CC
330
F109CD
100
AcDbEntity
8
Geo
100
AcDbLine
10
-39.7196010407632
20
12.1676925797252
30
0.000000000000000
11
-39.6196010407632
21
12.1404557275455
31
0.000000000000000
  0
LINE
  5
F109CE
330
F109CF
100
AcDbEntity
8
Geo
100
AcDbLine
10
-39.6196010407632
20
12.1404557275455
30
0.000000000000000
11
-39.5196010407632
21
12.1107470077531
31
0.000000000000000
  0
LINE
  5
F109D0
330
F109D1
100
AcDbEntity
8
Geo
100
AcDbLine
10
-39.5196010407632
20
12.1107470077531
30
0.000000000000000
11
-39.4196010407632
21
12.0786036041406
31
0.000000000000000
  0
LINE
  5
F109D2
330
F109D3
100
AcDbEntity
8
Geo
100
AcDbLine
10
-39.4196010407632
20
12.0786036041406
30
0.000000000000000
11
-39.3196010407632
21
12.0440618146609
31
0.000000000000000
  0
LINE
  5
F109D4
330
F109D5
100
AcDbEntity
8
Geo
100
AcDbLine
10
-39.3196010407632
20
12.0440618146609
30
0.000000000000000
11
-39.2196010407632
21
12.0080769839066
31
0.000000000000000
  0
LINE
  5
F109D6
330
F109D7
100
AcDbEntity
8
Geo
100
AcDbLine
10
-39.2196010407632
20
12.0080769839066
30
0.000000000000000
11
-39.1196010407632
21
11.9715838832562
31
0.000000000000000
  0
LINE
  5
F109D8
330
F109D9
100
AcDbEntity
8
Geo
100
AcDbLine
10
-39.1196010407632
20
11.9715838832562
30
0.000000000000000
11
-39.0196010407632
21
11.9345873784025
31
0.000000000000000
  0
LINE
  5
F109DA
330
F109DB
100
AcDbEntity
8
Geo
100
AcDbLine
10
-39.0196010407632
20
11.9345873784025
30
0.000000000000000
11
-38.9196010407632
21
11.8970924021579
31
0.000000000000000
  0
LINE
  5
F109DC
330
F109DD
100
AcDbEntity
8
Geo
100
AcDbLine
10
-38.9196010407632
20
11.8970924021579
30
0.000000000000000
11
-38.8196010407632
21
11.8591039537972
31
0.000000000000000
  0
LINE
  5
F109DE
330
F109DF
100
AcDbEntity
8
Geo
100
AcDbLine
10
-38.8196010407632
20
11.8591039537972
30
0.000000000000000
11
-38.7196010407632
21
11.8206270983904
31
0.000000000000000
  0
LINE
  5
F109E0
330
F109E1
100
AcDbEntity
8
Geo
100
AcDbLine
10
-38.7196010407632
20
11.8206270983904
30
0.000000000000000
11
-38.6196010407632
21
11.7816669661279
31
0.000000000000000
  0
LINE
  5
F109E2
330
F109E3
100
AcDbEntity
8
Geo
100
AcDbLine
10
-38.6196010407632
20
11.7816669661279
30
0.000000000000000
11
-38.5196010407632
21
11.7422287516364
31
0.000000000000000
  0
LINE
  5
F109E4
330
F109E5
100
AcDbEntity
8
Geo
100
AcDbLine
10
-38.5196010407632
20
11.7422287516364
30
0.000000000000000
11
-38.4196010407632
21
11.7023177132860
31
0.000000000000000
  0
LINE
  5
F109E6
330
F109E7
100
AcDbEntity
8
Geo
100
AcDbLine
10
-38.4196010407632
20
11.7023177132860
30
0.000000000000000
11
-38.3196010407632
21
11.6619391724893
31
0.000000000000000
  0
LINE
  5
F109E8
330
F109E9
100
AcDbEntity
8
Geo
100
AcDbLine
10
-38.3196010407632
20
11.6619391724893
30
0.000000000000000
11
-38.2196010407632
21
11.6210985129920
31
0.000000000000000
  0
LINE
  5
F109EA
330
F109EB
100
AcDbEntity
8
Geo
100
AcDbLine
10
-38.2196010407632
20
11.6210985129920
30
0.000000000000000
11
-38.1196010407632
21
11.5798011801549
31
0.000000000000000
  0
LINE
  5
F109EC
330
F109ED
100
AcDbEntity
8
Geo
100
AcDbLine
10
-38.1196010407632
20
11.5798011801549
30
0.000000000000000
11
-38.0196010407632
21
11.5380526802277
31
0.000000000000000
  0
LINE
  5
F109EE
330
F109EF
100
AcDbEntity
8
Geo
100
AcDbLine
10
-38.0196010407632
20
11.5380526802277
30
0.000000000000000
11
-37.9196010407632
21
11.4958585796153
31
0.000000000000000
  0
LINE
  5
F109F0
330
F109F1
100
AcDbEntity
8
Geo
100
AcDbLine
10
-37.9196010407632
20
11.4958585796153
30
0.000000000000000
11
-37.8196010407632
21
11.4532245041354
31
0.000000000000000
  0
LINE
  5
F109F2
330
F109F3
100
AcDbEntity
8
Geo
100
AcDbLine
10
-37.8196010407632
20
11.4532245041354
30
0.000000000000000
11
-37.7196010407632
21
11.4101561382680
31
0.000000000000000
  0
LINE
  5
F109F4
330
F109F5
100
AcDbEntity
8
Geo
100
AcDbLine
10
-37.7196010407632
20
11.4101561382680
30
0.000000000000000
11
-37.6196010407632
21
11.3666592243982
31
0.000000000000000
  0
LINE
  5
F109F6
330
F109F7
100
AcDbEntity
8
Geo
100
AcDbLine
10
-37.6196010407632
20
11.3666592243982
30
0.000000000000000
11
-37.5196010407632
21
11.3227395620501
31
0.000000000000000
  0
LINE
  5
F109F8
330
F109F9
100
AcDbEntity
8
Geo
100
AcDbLine
10
-37.5196010407632
20
11.3227395620501
30
0.000000000000000
11
-37.4196010407632
21
11.2784030071136
31
0.000000000000000
  0
LINE
  5
F109FA
330
F109FB
100
AcDbEntity
8
Geo
100
AcDbLine
10
-37.4196010407632
20
11.2784030071136
30
0.000000000000000
11
-37.3196010407632
21
11.2336554710636
31
0.000000000000000
  0
LINE
  5
F109FC
330
F109FD
100
AcDbEntity
8
Geo
100
AcDbLine
10
-37.3196010407632
20
11.2336554710636
30
0.000000000000000
11
-37.2196010407632
21
11.1885029201720
31
0.000000000000000
  0
LINE
  5
F109FE
330
F109FF
100
AcDbEntity
8
Geo
100
AcDbLine
10
-37.2196010407632
20
11.1885029201720
30
0.000000000000000
11
-37.1196010407632
21
11.1429513747121
31
0.000000000000000
  0
LINE
  5
F10A00
330
F10A01
100
AcDbEntity
8
Geo
100
AcDbLine
10
-37.1196010407632
20
11.1429513747121
30
0.000000000000000
11
-37.0196010407632
21
11.0970069081557
31
0.000000000000000
  0
LINE
  5
F10A02
330
F10A03
100
AcDbEntity
8
Geo
100
AcDbLine
10
-37.0196010407632
20
11.0970069081557
30
0.000000000000000
11
-36.9196010407632
21
11.0506756463637
31
0.000000000000000
  0
LINE
  5
F10A04
330
F10A05
100
AcDbEntity
8
Geo
100
AcDbLine
10
-36.9196010407632
20
11.0506756463637
30
0.000000000000000
11
-36.8196010407632
21
11.0039637667689
31
0.000000000000000
  0
LINE
  5
F10A06
330
F10A07
100
AcDbEntity
8
Geo
100
AcDbLine
10
-36.8196010407632
20
11.0039637667689
30
0.000000000000000
11
-36.7196010407632
21
10.9568774975528
31
0.000000000000000
  0
LINE
  5
F10A08
330
F10A09
100
AcDbEntity
8
Geo
100
AcDbLine
10
-36.7196010407632
20
10.9568774975528
30
0.000000000000000
11
-36.6196010407632
21
10.9094231168149
31
0.000000000000000
  0
LINE
  5
F10A0A
330
F10A0B
100
AcDbEntity
8
Geo
100
AcDbLine
10
-36.6196010407632
20
10.9094231168149
30
0.000000000000000
11
-36.5196010407632
21
10.8616069517357
31
0.000000000000000
  0
LINE
  5
F10A0C
330
F10A0D
100
AcDbEntity
8
Geo
100
AcDbLine
10
-36.5196010407632
20
10.8616069517357
30
0.000000000000000
11
-36.4196010407632
21
10.8134353777329
31
0.000000000000000
  0
LINE
  5
F10A0E
330
F10A0F
100
AcDbEntity
8
Geo
100
AcDbLine
10
-36.4196010407632
20
10.8134353777329
30
0.000000000000000
11
-36.3196010407632
21
10.7649148176117
31
0.000000000000000
  0
LINE
  5
F10A10
330
F10A11
100
AcDbEntity
8
Geo
100
AcDbLine
10
-36.3196010407632
20
10.7649148176117
30
0.000000000000000
11
-36.2196010407632
21
10.7160517407083
31
0.000000000000000
  0
LINE
  5
F10A12
330
F10A13
100
AcDbEntity
8
Geo
100
AcDbLine
10
-36.2196010407632
20
10.7160517407083
30
0.000000000000000
11
-36.1196010407632
21
10.6668526620272
31
0.000000000000000
  0
LINE
  5
F10A14
330
F10A15
100
AcDbEntity
8
Geo
100
AcDbLine
10
-36.1196010407632
20
10.6668526620272
30
0.000000000000000
11
-36.0196010407632
21
10.6173241413727
31
0.000000000000000
  0
LINE
  5
F10A16
330
F10A17
100
AcDbEntity
8
Geo
100
AcDbLine
10
-36.0196010407632
20
10.6173241413727
30
0.000000000000000
11
-35.9196010407632
21
10.5674727824741
31
0.000000000000000
  0
LINE
  5
F10A18
330
F10A19
100
AcDbEntity
8
Geo
100
AcDbLine
10
-35.9196010407632
20
10.5674727824741
30
0.000000000000000
11
-35.8196010407632
21
10.5173052321055
31
0.000000000000000
  0
LINE
  5
F10A1A
330
F10A1B
100
AcDbEntity
8
Geo
100
AcDbLine
10
-35.8196010407632
20
10.5173052321055
30
0.000000000000000
11
-35.7196010407632
21
10.4668281791992
31
0.000000000000000
  0
LINE
  5
F10A1C
330
F10A1D
100
AcDbEntity
8
Geo
100
AcDbLine
10
-35.7196010407632
20
10.4668281791992
30
0.000000000000000
11
-35.6196010407632
21
10.4160483539542
31
0.000000000000000
  0
LINE
  5
F10A1E
330
F10A1F
100
AcDbEntity
8
Geo
100
AcDbLine
10
-35.6196010407632
20
10.4160483539542
30
0.000000000000000
11
-35.5196010407632
21
10.3649725269386
31
0.000000000000000
  0
LINE
  5
F10A20
330
F10A21
100
AcDbEntity
8
Geo
100
AcDbLine
10
-35.5196010407632
20
10.3649725269386
30
0.000000000000000
11
-35.4196010407632
21
10.3136075081871
31
0.000000000000000
  0
LINE
  5
F10A22
330
F10A23
100
AcDbEntity
8
Geo
100
AcDbLine
10
-35.4196010407632
20
10.3136075081871
30
0.000000000000000
11
-35.3196010407632
21
10.2619601462926
31
0.000000000000000
  0
LINE
  5
F10A24
330
F10A25
100
AcDbEntity
8
Geo
100
AcDbLine
10
-35.3196010407632
20
10.2619601462926
30
0.000000000000000
11
-35.2196010407632
21
10.2100373274936
31
0.000000000000000
  0
LINE
  5
F10A26
330
F10A27
100
AcDbEntity
8
Geo
100
AcDbLine
10
-35.2196010407632
20
10.2100373274936
30
0.000000000000000
11
-35.1196010407632
21
10.1578459747557
31
0.000000000000000
  0
LINE
  5
F10A28
330
F10A29
100
AcDbEntity
8
Geo
100
AcDbLine
10
-35.1196010407632
20
10.1578459747557
30
0.000000000000000
11
-35.0196010407632
21
10.1053930468487
31
0.000000000000000
  0
LINE
  5
F10A2A
330
F10A2B
100
AcDbEntity
8
Geo
100
AcDbLine
10
-35.0196010407632
20
10.1053930468487
30
0.000000000000000
11
-34.9196010407632
21
10.0526855374184
31
0.000000000000000
  0
LINE
  5
F10A2C
330
F10A2D
100
AcDbEntity
8
Geo
100
AcDbLine
10
-34.9196010407632
20
10.0526855374184
30
0.000000000000000
11
-34.8196010407632
21
9.99973047405474
31
0.000000000000000
  0
LINE
  5
F10A2E
330
F10A2F
100
AcDbEntity
8
Geo
100
AcDbLine
10
-34.8196010407632
20
9.99973047405474
30
0.000000000000000
11
-34.7196010407632
21
9.94653491735441
31
0.000000000000000
  0
LINE
  5
F10A30
330
F10A31
100
AcDbEntity
8
Geo
100
AcDbLine
10
-34.7196010407632
20
9.94653491735441
30
0.000000000000000
11
-34.6196010407632
21
9.89310595997948
31
0.000000000000000
  0
LINE
  5
F10A32
330
F10A33
100
AcDbEntity
8
Geo
100
AcDbLine
10
-34.6196010407632
20
9.89310595997948
30
0.000000000000000
11
-34.5196010407632
21
9.83945072571178
31
0.000000000000000
  0
LINE
  5
F10A34
330
F10A35
100
AcDbEntity
8
Geo
100
AcDbLine
10
-34.5196010407632
20
9.83945072571178
30
0.000000000000000
11
-34.4196010407632
21
9.78557636850304
31
0.000000000000000
  0
LINE
  5
F10A36
330
F10A37
100
AcDbEntity
8
Geo
100
AcDbLine
10
-34.4196010407632
20
9.78557636850304
30
0.000000000000000
11
-34.3196010407632
21
9.73149007152109
31
0.000000000000000
  0
LINE
  5
F10A38
330
F10A39
100
AcDbEntity
8
Geo
100
AcDbLine
10
-34.3196010407632
20
9.73149007152109
30
0.000000000000000
11
-34.2196010407632
21
9.67719904619207
31
0.000000000000000
  0
LINE
  5
F10A3A
330
F10A3B
100
AcDbEntity
8
Geo
100
AcDbLine
10
-34.2196010407632
20
9.67719904619207
30
0.000000000000000
11
-34.1196010407632
21
9.62271053123891
31
0.000000000000000
  0
LINE
  5
F10A3C
330
F10A3D
100
AcDbEntity
8
Geo
100
AcDbLine
10
-34.1196010407632
20
9.62271053123891
30
0.000000000000000
11
-34.0196010407632
21
9.56803179171623
31
0.000000000000000
  0
LINE
  5
F10A3E
330
F10A3F
100
AcDbEntity
8
Geo
100
AcDbLine
10
-34.0196010407632
20
9.56803179171623
30
0.000000000000000
11
-33.9196010407632
21
9.51317011804162
31
0.000000000000000
  0
LINE
  5
F10A40
330
F10A41
100
AcDbEntity
8
Geo
100
AcDbLine
10
-33.9196010407632
20
9.51317011804162
30
0.000000000000000
11
-33.8196010407632
21
9.45813282502362
31
0.000000000000000
  0
LINE
  5
F10A42
330
F10A43
100
AcDbEntity
8
Geo
100
AcDbLine
10
-33.8196010407632
20
9.45813282502362
30
0.000000000000000
11
-33.7196010407632
21
9.40292725088644
31
0.000000000000000
  0
LINE
  5
F10A44
330
F10A45
100
AcDbEntity
8
Geo
100
AcDbLine
10
-33.7196010407632
20
9.40292725088644
30
0.000000000000000
11
-33.6196010407632
21
9.34756075629151
31
0.000000000000000
  0
LINE
  5
F10A46
330
F10A47
100
AcDbEntity
8
Geo
100
AcDbLine
10
-33.6196010407632
20
9.34756075629151
30
0.000000000000000
11
-33.5196010407632
21
9.29204072335609
31
0.000000000000000
  0
LINE
  5
F10A48
330
F10A49
100
AcDbEntity
8
Geo
100
AcDbLine
10
-33.5196010407632
20
9.29204072335609
30
0.000000000000000
11
-33.4196010407632
21
9.23637455466898
31
0.000000000000000
  0
LINE
  5
F10A4A
330
F10A4B
100
AcDbEntity
8
Geo
100
AcDbLine
10
-33.4196010407632
20
9.23637455466898
30
0.000000000000000
11
-33.3196010407632
21
9.18056967230354
31
0.000000000000000
  0
LINE
  5
F10A4C
330
F10A4D
100
AcDbEntity
8
Geo
100
AcDbLine
10
-33.3196010407632
20
9.18056967230354
30
0.000000000000000
11
-33.2196010407632
21
9.12463351682807
31
0.000000000000000
  0
LINE
  5
F10A4E
330
F10A4F
100
AcDbEntity
8
Geo
100
AcDbLine
10
-33.2196010407632
20
9.12463351682807
30
0.000000000000000
11
-33.1196010407632
21
9.06857354631378
31
0.000000000000000
  0
LINE
  5
F10A50
330
F10A51
100
AcDbEntity
8
Geo
100
AcDbLine
10
-33.1196010407632
20
9.06857354631378
30
0.000000000000000
11
-33.0196010407632
21
9.01239723534034
31
0.000000000000000
  0
LINE
  5
F10A52
330
F10A53
100
AcDbEntity
8
Geo
100
AcDbLine
10
-33.0196010407632
20
9.01239723534034
30
0.000000000000000
11
-32.9196010407632
21
8.95611207399933
31
0.000000000000000
  0
LINE
  5
F10A54
330
F10A55
100
AcDbEntity
8
Geo
100
AcDbLine
10
-32.9196010407632
20
8.95611207399933
30
0.000000000000000
11
-32.8196010407632
21
8.89972556689555
31
0.000000000000000
  0
LINE
  5
F10A56
330
F10A57
100
AcDbEntity
8
Geo
100
AcDbLine
10
-32.8196010407632
20
8.89972556689555
30
0.000000000000000
11
-32.7196010407632
21
8.84324523214640
31
0.000000000000000
  0
LINE
  5
F10A58
330
F10A59
100
AcDbEntity
8
Geo
100
AcDbLine
10
-32.7196010407632
20
8.84324523214640
30
0.000000000000000
11
-32.6196010407632
21
8.78667860037950
31
0.000000000000000
  0
LINE
  5
F10A5A
330
F10A5B
100
AcDbEntity
8
Geo
100
AcDbLine
10
-32.6196010407632
20
8.78667860037950
30
0.000000000000000
11
-32.5196010407632
21
8.73003321372864
31
0.000000000000000
  0
LINE
  5
F10A5C
330
F10A5D
100
AcDbEntity
8
Geo
100
AcDbLine
10
-32.5196010407632
20
8.73003321372864
30
0.000000000000000
11
-32.4196010407632
21
8.67331662482811
31
0.000000000000000
  0
LINE
  5
F10A5E
330
F10A5F
100
AcDbEntity
8
Geo
100
AcDbLine
10
-32.4196010407632
20
8.67331662482811
30
0.000000000000000
11
-32.3196010407632
21
8.61653639580573
31
0.000000000000000
  0
LINE
  5
F10A60
330
F10A61
100
AcDbEntity
8
Geo
100
AcDbLine
10
-32.3196010407632
20
8.61653639580573
30
0.000000000000000
11
-32.2196010407632
21
8.55970009727459
31
0.000000000000000
  0
LINE
  5
F10A62
330
F10A63
100
AcDbEntity
8
Geo
100
AcDbLine
10
-32.2196010407632
20
8.55970009727459
30
0.000000000000000
11
-32.1196010407632
21
8.50281530732363
31
0.000000000000000
  0
LINE
  5
F10A64
330
F10A65
100
AcDbEntity
8
Geo
100
AcDbLine
10
-32.1196010407632
20
8.50281530732363
30
0.000000000000000
11
-32.0196010407632
21
8.44588961050724
31
0.000000000000000
  0
LINE
  5
F10A66
330
F10A67
100
AcDbEntity
8
Geo
100
AcDbLine
10
-32.0196010407632
20
8.44588961050724
30
0.000000000000000
11
-31.9196010407632
21
8.38893059683399
31
0.000000000000000
  0
LINE
  5
F10A68
330
F10A69
100
AcDbEntity
8
Geo
100
AcDbLine
10
-31.9196010407632
20
8.38893059683399
30
0.000000000000000
11
-31.8196010407632
21
8.33194586075465
31
0.000000000000000
  0
LINE
  5
F10A6A
330
F10A6B
100
AcDbEntity
8
Geo
100
AcDbLine
10
-31.8196010407632
20
8.33194586075465
30
0.000000000000000
11
-31.7196010407632
21
8.27494300014961
31
0.000000000000000
  0
LINE
  5
F10A6C
330
F10A6D
100
AcDbEntity
8
Geo
100
AcDbLine
10
-31.7196010407632
20
8.27494300014961
30
0.000000000000000
11
-31.6196010407632
21
8.21792961531584
31
0.000000000000000
  0
LINE
  5
F10A6E
330
F10A6F
100
AcDbEntity
8
Geo
100
AcDbLine
10
-31.6196010407632
20
8.21792961531584
30
0.000000000000000
11
-31.5196010407632
21
8.16091330795352
31
0.000000000000000
  0
LINE
  5
F10A70
330
F10A71
100
AcDbEntity
8
Geo
100
AcDbLine
10
-31.5196010407632
20
8.16091330795352
30
0.000000000000000
11
-31.4196010407632
21
8.10390168015249
31
0.000000000000000
  0
LINE
  5
F10A72
330
F10A73
100
AcDbEntity
8
Geo
100
AcDbLine
10
-31.4196010407632
20
8.10390168015249
30
0.000000000000000
11
-31.3196010407632
21
8.04690233337868
31
0.000000000000000
  0
LINE
  5
F10A74
330
F10A75
100
AcDbEntity
8
Geo
100
AcDbLine
10
-31.3196010407632
20
8.04690233337868
30
0.000000000000000
11
-31.2196010407632
21
7.98992286746052
31
0.000000000000000
  0
LINE
  5
F10A76
330
F10A77
100
AcDbEntity
8
Geo
100
AcDbLine
10
-31.2196010407632
20
7.98992286746052
30
0.000000000000000
11
-31.1196010407632
21
7.93297087957575
31
0.000000000000000
  0
LINE
  5
F10A78
330
F10A79
100
AcDbEntity
8
Geo
100
AcDbLine
10
-31.1196010407632
20
7.93297087957575
30
0.000000000000000
11
-31.0196010407632
21
7.87605396323836
31
0.000000000000000
  0
LINE
  5
F10A7A
330
F10A7B
100
AcDbEntity
8
Geo
100
AcDbLine
10
-31.0196010407632
20
7.87605396323836
30
0.000000000000000
11
-30.9196010407632
21
7.81917970728621
31
0.000000000000000
  0
LINE
  5
F10A7C
330
F10A7D
100
AcDbEntity
8
Geo
100
AcDbLine
10
-30.9196010407632
20
7.81917970728621
30
0.000000000000000
11
-30.8196010407632
21
7.76235569486919
31
0.000000000000000
  0
LINE
  5
F10A7E
330
F10A7F
100
AcDbEntity
8
Geo
100
AcDbLine
10
-30.8196010407632
20
7.76235569486919
30
0.000000000000000
11
-30.7196010407633
21
7.70558950243808
31
0.000000000000000
  0
LINE
  5
F10A80
330
F10A81
100
AcDbEntity
8
Geo
100
AcDbLine
10
-30.7196010407633
20
7.70558950243808
30
0.000000000000000
11
-30.6196010407632
21
7.64888869873445
31
0.000000000000000
  0
LINE
  5
F10A82
330
F10A83
100
AcDbEntity
8
Geo
100
AcDbLine
10
-30.6196010407632
20
7.64888869873445
30
0.000000000000000
11
-30.5196010407632
21
7.59226084378146
31
0.000000000000000
  0
LINE
  5
F10A84
330
F10A85
100
AcDbEntity
8
Geo
100
AcDbLine
10
-30.5196010407632
20
7.59226084378146
30
0.000000000000000
11
-30.4196010407633
21
7.53571348787587
31
0.000000000000000
  0
LINE
  5
F10A86
330
F10A87
100
AcDbEntity
8
Geo
100
AcDbLine
10
-30.4196010407633
20
7.53571348787587
30
0.000000000000000
11
-30.3196010407633
21
7.47925417058138
31
0.000000000000000
  0
LINE
  5
F10A88
330
F10A89
100
AcDbEntity
8
Geo
100
AcDbLine
10
-30.3196010407633
20
7.47925417058138
30
0.000000000000000
11
-30.2196010407633
21
7.42289041972330
31
0.000000000000000
  0
LINE
  5
F10A8A
330
F10A8B
100
AcDbEntity
8
Geo
100
AcDbLine
10
-30.2196010407633
20
7.42289041972330
30
0.000000000000000
11
-30.1196010407632
21
7.36662975038492
31
0.000000000000000
  0
LINE
  5
F10A8C
330
F10A8D
100
AcDbEntity
8
Geo
100
AcDbLine
10
-30.1196010407632
20
7.36662975038492
30
0.000000000000000
11
-30.0196010407633
21
7.31047966390546
31
0.000000000000000
  0
LINE
  5
F10A8E
330
F10A8F
100
AcDbEntity
8
Geo
100
AcDbLine
10
-30.0196010407633
20
7.31047966390546
30
0.000000000000000
11
-29.9196010407633
21
7.25444764687994
31
0.000000000000000
  0
LINE
  5
F10A90
330
F10A91
100
AcDbEntity
8
Geo
100
AcDbLine
10
-29.9196010407633
20
7.25444764687994
30
0.000000000000000
11
-29.8196010407633
21
7.19854117016096
31
0.000000000000000
  0
LINE
  5
F10A92
330
F10A93
100
AcDbEntity
8
Geo
100
AcDbLine
10
-29.8196010407633
20
7.19854117016096
30
0.000000000000000
11
-29.7196010407633
21
7.14276768786258
31
0.000000000000000
  0
LINE
  5
F10A94
330
F10A95
100
AcDbEntity
8
Geo
100
AcDbLine
10
-29.7196010407633
20
7.14276768786258
30
0.000000000000000
11
-29.6196010407633
21
7.08713463636648
31
0.000000000000000
  0
LINE
  5
F10A96
330
F10A97
100
AcDbEntity
8
Geo
100
AcDbLine
10
-29.6196010407633
20
7.08713463636648
30
0.000000000000000
11
-29.5196010407633
21
7.03164943333045
31
0.000000000000000
  0
LINE
  5
F10A98
330
F10A99
100
AcDbEntity
8
Geo
100
AcDbLine
10
-29.5196010407633
20
7.03164943333045
30
0.000000000000000
11
-29.4196010407633
21
6.97631947669935
31
0.000000000000000
  0
LINE
  5
F10A9A
330
F10A9B
100
AcDbEntity
8
Geo
100
AcDbLine
10
-29.4196010407633
20
6.97631947669935
30
0.000000000000000
11
-29.3196010407633
21
6.92115214371876
31
0.000000000000000
  0
LINE
  5
F10A9C
330
F10A9D
100
AcDbEntity
8
Geo
100
AcDbLine
10
-29.3196010407633
20
6.92115214371876
30
0.000000000000000
11
-29.2196010407633
21
6.86615478995137
31
0.000000000000000
  0
LINE
  5
F10A9E
330
F10A9F
100
AcDbEntity
8
Geo
100
AcDbLine
10
-29.2196010407633
20
6.86615478995137
30
0.000000000000000
11
-29.1196010407633
21
6.81133474829618
31
0.000000000000000
  0
LINE
  5
F10AA0
330
F10AA1
100
AcDbEntity
8
Geo
100
AcDbLine
10
-29.1196010407633
20
6.81133474829618
30
0.000000000000000
11
-29.0196010407633
21
6.75669932801087
31
0.000000000000000
  0
LINE
  5
F10AA2
330
F10AA3
100
AcDbEntity
8
Geo
100
AcDbLine
10
-29.0196010407633
20
6.75669932801087
30
0.000000000000000
11
-28.9196010407633
21
6.70225581373721
31
0.000000000000000
  0
LINE
  5
F10AA4
330
F10AA5
100
AcDbEntity
8
Geo
100
AcDbLine
10
-28.9196010407633
20
6.70225581373721
30
0.000000000000000
11
-28.8196010407633
21
6.64801146452978
31
0.000000000000000
  0
LINE
  5
F10AA6
330
F10AA7
100
AcDbEntity
8
Geo
100
AcDbLine
10
-28.8196010407633
20
6.64801146452978
30
0.000000000000000
11
-28.7196010407633
21
6.59397351288811
31
0.000000000000000
  0
LINE
  5
F10AA8
330
F10AA9
100
AcDbEntity
8
Geo
100
AcDbLine
10
-28.7196010407633
20
6.59397351288811
30
0.000000000000000
11
-28.6196010407633
21
6.54014916379235
31
0.000000000000000
  0
LINE
  5
F10AAA
330
F10AAB
100
AcDbEntity
8
Geo
100
AcDbLine
10
-28.6196010407633
20
6.54014916379235
30
0.000000000000000
11
-28.5196010407633
21
6.48654559374266
31
0.000000000000000
  0
LINE
  5
F10AAC
330
F10AAD
100
AcDbEntity
8
Geo
100
AcDbLine
10
-28.5196010407633
20
6.48654559374266
30
0.000000000000000
11
-28.4196010407633
21
6.43316994980229
31
0.000000000000000
  0
LINE
  5
F10AAE
330
F10AAF
100
AcDbEntity
8
Geo
100
AcDbLine
10
-28.4196010407633
20
6.43316994980229
30
0.000000000000000
11
-28.3196010407633
21
6.38002934864470
31
0.000000000000000
  0
LINE
  5
F10AB0
330
F10AB1
100
AcDbEntity
8
Geo
100
AcDbLine
10
-28.3196010407633
20
6.38002934864470
30
0.000000000000000
11
-28.2196010407633
21
6.32713087560464
31
0.000000000000000
  0
LINE
  5
F10AB2
330
F10AB3
100
AcDbEntity
8
Geo
100
AcDbLine
10
-28.2196010407633
20
6.32713087560464
30
0.000000000000000
11
-28.1196010407633
21
6.27448158373348
31
0.000000000000000
  0
LINE
  5
F10AB4
330
F10AB5
100
AcDbEntity
8
Geo
100
AcDbLine
10
-28.1196010407633
20
6.27448158373348
30
0.000000000000000
11
-28.0196010407633
21
6.22208849285882
31
0.000000000000000
  0
LINE
  5
F10AB6
330
F10AB7
100
AcDbEntity
8
Geo
100
AcDbLine
10
-28.0196010407633
20
6.22208849285882
30
0.000000000000000
11
-27.9196010407633
21
6.16995858864847
31
0.000000000000000
  0
LINE
  5
F10AB8
330
F10AB9
100
AcDbEntity
8
Geo
100
AcDbLine
10
-27.9196010407633
20
6.16995858864847
30
0.000000000000000
11
-27.8196010407633
21
6.11809882167912
31
0.000000000000000
  0
LINE
  5
F10ABA
330
F10ABB
100
AcDbEntity
8
Geo
100
AcDbLine
10
-27.8196010407633
20
6.11809882167912
30
0.000000000000000
11
-27.7196010407633
21
6.06651610650951
31
0.000000000000000
  0
LINE
  5
F10ABC
330
F10ABD
100
AcDbEntity
8
Geo
100
AcDbLine
10
-27.7196010407633
20
6.06651610650951
30
0.000000000000000
11
-27.6196010407632
21
6.01521732075859
31
0.000000000000000
  0
LINE
  5
F10ABE
330
F10ABF
100
AcDbEntity
8
Geo
100
AcDbLine
10
-27.6196010407632
20
6.01521732075859
30
0.000000000000000
11
-27.5196010407632
21
5.96420930418847
31
0.000000000000000
  0
LINE
  5
F10AC0
330
F10AC1
100
AcDbEntity
8
Geo
100
AcDbLine
10
-27.5196010407632
20
5.96420930418847
30
0.000000000000000
11
-27.4196010407632
21
5.91349885779245
31
0.000000000000000
  0
LINE
  5
F10AC2
330
F10AC3
100
AcDbEntity
8
Geo
100
AcDbLine
10
-27.4196010407632
20
5.91349885779245
30
0.000000000000000
11
-27.3196010407632
21
5.86309274288826
31
0.000000000000000
  0
LINE
  5
F10AC4
330
F10AC5
100
AcDbEntity
8
Geo
100
AcDbLine
10
-27.3196010407632
20
5.86309274288826
30
0.000000000000000
11
-27.2196010407632
21
5.81299768021654
31
0.000000000000000
  0
LINE
  5
F10AC6
330
F10AC7
100
AcDbEntity
8
Geo
100
AcDbLine
10
-27.2196010407632
20
5.81299768021654
30
0.000000000000000
11
-27.1196010407632
21
5.76322034904478
31
0.000000000000000
  0
LINE
  5
F10AC8
330
F10AC9
100
AcDbEntity
8
Geo
100
AcDbLine
10
-27.1196010407632
20
5.76322034904478
30
0.000000000000000
11
-27.0196010407632
21
5.71376738627670
31
0.000000000000000
  0
LINE
  5
F10ACA
330
F10ACB
100
AcDbEntity
8
Geo
100
AcDbLine
10
-27.0196010407632
20
5.71376738627670
30
0.000000000000000
11
-26.9196010407632
21
5.66464538556743
31
0.000000000000000
  0
LINE
  5
F10ACC
330
F10ACD
100
AcDbEntity
8
Geo
100
AcDbLine
10
-26.9196010407632
20
5.66464538556743
30
0.000000000000000
11
-26.8196010407632
21
5.61586089644427
31
0.000000000000000
  0
LINE
  5
F10ACE
330
F10ACF
100
AcDbEntity
8
Geo
100
AcDbLine
10
-26.8196010407632
20
5.61586089644427
30
0.000000000000000
11
-26.7196010407632
21
5.56742042343352
31
0.000000000000000
  0
LINE
  5
F10AD0
330
F10AD1
100
AcDbEntity
8
Geo
100
AcDbLine
10
-26.7196010407632
20
5.56742042343352
30
0.000000000000000
11
-26.6196010407632
21
5.51933042519313
31
0.000000000000000
  0
LINE
  5
F10AD2
330
F10AD3
100
AcDbEntity
8
Geo
100
AcDbLine
10
-26.6196010407632
20
5.51933042519313
30
0.000000000000000
11
-26.5196010407632
21
5.47159731365164
31
0.000000000000000
  0
LINE
  5
F10AD4
330
F10AD5
100
AcDbEntity
8
Geo
100
AcDbLine
10
-26.5196010407632
20
5.47159731365164
30
0.000000000000000
11
-26.4196010407632
21
5.42422745315319
31
0.000000000000000
  0
LINE
  5
F10AD6
330
F10AD7
100
AcDbEntity
8
Geo
100
AcDbLine
10
-26.4196010407632
20
5.42422745315319
30
0.000000000000000
11
-26.3196010407632
21
5.37722715960902
31
0.000000000000000
  0
LINE
  5
F10AD8
330
F10AD9
100
AcDbEntity
8
Geo
100
AcDbLine
10
-26.3196010407632
20
5.37722715960902
30
0.000000000000000
11
-26.2196010407632
21
5.33060269965529
31
0.000000000000000
  0
LINE
  5
F10ADA
330
F10ADB
100
AcDbEntity
8
Geo
100
AcDbLine
10
-26.2196010407632
20
5.33060269965529
30
0.000000000000000
11
-26.1196010407632
21
5.28436028981759
31
0.000000000000000
  0
LINE
  5
F10ADC
330
F10ADD
100
AcDbEntity
8
Geo
100
AcDbLine
10
-26.1196010407632
20
5.28436028981759
30
0.000000000000000
11
-26.0196010407632
21
5.23850609568207
31
0.000000000000000
  0
LINE
  5
F10ADE
330
F10ADF
100
AcDbEntity
8
Geo
100
AcDbLine
10
-26.0196010407632
20
5.23850609568207
30
0.000000000000000
11
-25.9196010407632
21
5.19304623107334
31
0.000000000000000
  0
LINE
  5
F10AE0
330
F10AE1
100
AcDbEntity
8
Geo
100
AcDbLine
10
-25.9196010407632
20
5.19304623107334
30
0.000000000000000
11
-25.8196010407632
21
5.14798675723933
31
0.000000000000000
  0
LINE
  5
F10AE2
330
F10AE3
100
AcDbEntity
8
Geo
100
AcDbLine
10
-25.8196010407632
20
5.14798675723933
30
0.000000000000000
11
-25.7196010407632
21
5.10333368204314
31
0.000000000000000
  0
LINE
  5
F10AE4
330
F10AE5
100
AcDbEntity
8
Geo
100
AcDbLine
10
-25.7196010407632
20
5.10333368204314
30
0.000000000000000
11
-25.6196010407632
21
5.05909295916197
31
0.000000000000000
  0
LINE
  5
F10AE6
330
F10AE7
100
AcDbEntity
8
Geo
100
AcDbLine
10
-25.6196010407632
20
5.05909295916197
30
0.000000000000000
11
-25.5196010407632
21
5.01527048729333
31
0.000000000000000
  0
LINE
  5
F10AE8
330
F10AE9
100
AcDbEntity
8
Geo
100
AcDbLine
10
-25.5196010407632
20
5.01527048729333
30
0.000000000000000
11
-25.4196010407632
21
4.97187210936855
31
0.000000000000000
  0
LINE
  5
F10AEA
330
F10AEB
100
AcDbEntity
8
Geo
100
AcDbLine
10
-25.4196010407632
20
4.97187210936855
30
0.000000000000000
11
-25.3196010407632
21
4.92890361177373
31
0.000000000000000
  0
LINE
  5
F10AEC
330
F10AED
100
AcDbEntity
8
Geo
100
AcDbLine
10
-25.3196010407632
20
4.92890361177373
30
0.000000000000000
11
-25.2196010407632
21
4.88637072357822
31
0.000000000000000
  0
LINE
  5
F10AEE
330
F10AEF
100
AcDbEntity
8
Geo
100
AcDbLine
10
-25.2196010407632
20
4.88637072357822
30
0.000000000000000
11
-25.1196010407632
21
4.84427911577076
31
0.000000000000000
  0
LINE
  5
F10AF0
330
F10AF1
100
AcDbEntity
8
Geo
100
AcDbLine
10
-25.1196010407632
20
4.84427911577076
30
0.000000000000000
11
-25.0196010407632
21
4.80263440050338
31
0.000000000000000
  0
LINE
  5
F10AF2
330
F10AF3
100
AcDbEntity
8
Geo
100
AcDbLine
10
-25.0196010407632
20
4.80263440050338
30
0.000000000000000
11
-24.9196010407632
21
4.76144213034309
31
0.000000000000000
  0
LINE
  5
F10AF4
330
F10AF5
100
AcDbEntity
8
Geo
100
AcDbLine
10
-24.9196010407632
20
4.76144213034309
30
0.000000000000000
11
-24.8196010407632
21
4.72070779753154
31
0.000000000000000
  0
LINE
  5
F10AF6
330
F10AF7
100
AcDbEntity
8
Geo
100
AcDbLine
10
-24.8196010407632
20
4.72070779753154
30
0.000000000000000
11
-24.7196010407632
21
4.68043683325276
31
0.000000000000000
  0
LINE
  5
F10AF8
330
F10AF9
100
AcDbEntity
8
Geo
100
AcDbLine
10
-24.7196010407632
20
4.68043683325276
30
0.000000000000000
11
-24.6196010407632
21
4.64063460690900
31
0.000000000000000
  0
LINE
  5
F10AFA
330
F10AFB
100
AcDbEntity
8
Geo
100
AcDbLine
10
-24.6196010407632
20
4.64063460690900
30
0.000000000000000
11
-24.5196010407632
21
4.60130642540481
31
0.000000000000000
  0
LINE
  5
F10AFC
330
F10AFD
100
AcDbEntity
8
Geo
100
AcDbLine
10
-24.5196010407632
20
4.60130642540481
30
0.000000000000000
11
-24.4196010407632
21
4.56245753243944
31
0.000000000000000
  0
LINE
  5
F10AFE
330
F10AFF
100
AcDbEntity
8
Geo
100
AcDbLine
10
55.6803989592368
20
12.6960104076323
30
0.000000000000000
11
55.6803989592368
21
8.19601040763227
31
0.000000000000000
  0
ARC
  5
F10B00
330
F10B01
100
AcDbEntity
8
Geo
100
AcDbCircle
10
-39.3196010407632
20
8.19601040763227
30
0.000000000000000
 40
5.00000000000000
100
AcDbArc
 50
180.000000000000
 51
270.000000000000
  0
LINE
  5
F10B02
330
F10B03
100
AcDbEntity
8
Geo
100
AcDbLine
10
-39.3196010407632
20
3.19601040763227
30
0.000000000000000
11
-19.3196010407632
21
3.19601040763227
31
0.000000000000000
  0
LINE
  5
F10B04
330
F10B05
100
AcDbEntity
8
Geo
100
AcDbLine
10
-19.3196010407632
20
3.19601040763227
30
0.000000000000000
11
55.1803989592368
21
3.19601040763227
31
0.000000000000000
  0
LINE
  5
F10B06
330
F10B07
100
AcDbEntity
8
Geo
100
AcDbLine
10
55.1803989592368
20
3.19601040763227
30
0.000000000000000
11
55.6803989592368
21
3.69601040763227
31
0.000000000000000
  0
LINE
  5
F10B08
330
F10B09
100
AcDbEntity
8
Geo
100
AcDbLine
10
-39.3196010407632
20
13.1960104076323
30
0.000000000000000
11
-39.3196010407632
21
3.19601040763227
31
0.000000000000000
  0
LINE
  5
F10B0A
330
F10B0B
100
AcDbEntity
8
Geo
100
AcDbLine
10
-19.3196010407632
20
13.1960104076323
30
0.000000000000000
11
-19.3196010407632
21
3.19601040763227
31
0.000000000000000
  0
LINE
  5
F10B0C
330
F10B0D
100
AcDbEntity
8
Geo
100
AcDbLine
10
-19.3196010407632
20
13.1960104076323
30
0.000000000000000
11
-19.3196010407632
21
3.19601040763227
31
0.000000000000000
  0
LINE
  5
F10B0E
330
F10B0F
100
AcDbEntity
8
Geo
100
AcDbLine
10
55.1803989592368
20
13.1960104076323
30
0.000000000000000
11
55.1803989592368
21
3.19601040763227
31
0.000000000000000
  0
LINE
  5
F10B10
330
F10B11
100
AcDbEntity
8
Geo
100
AcDbLine
10
55.6803989592368
20
12.6960104076323
30
0.000000000000000
11
55.6803989592368
21
3.69601040763227
31
0.000000000000000
  0
LINE
  5
F10B12
330
F10B13
100
AcDbEntity
8
Geo
 6
Dashdot
100
AcDbLine
10
-44.3196010407632
20
8.19601040763227
30
0.000000000000000
11
55.6803989592368
21
8.19601040763227
31
0.000000000000000
  0
LWPOLYLINE
  5
F10B14
330
F10B15
100
AcDbEntity
8
Rahmen
100
AcDbPolyline
90
   4
70
   1
43
   0.0
 10
-134.596704249783
 20
99.9002601908066
 10
143.339115351258
 20
99.9002601908066
 10
143.339115351258
 20
-100.082393755421
 10
-134.596704249783
 20
-100.082393755421
  0
TEXT
  5
F10B16
330
F10B17
 100
AcDbEntity
8
Text
100
AcDbText
10
-133.503902862099
20
-99.5823937554206
30
0.000000000000000
40
1.00000000000000
1
ISBESketcher - ©ISBE GmbH      lizensiert für: Schmid Werkzeuge
100
AcDbText
  0
LWPOLYLINE
  5
F10B18
330
F10B19
100
AcDbEntity
8
Rahmen
100
AcDbPolyline
90
   4
70
   1
43
   0.0
 10
103.451864700781
 20
-97.1682567215958
 10
143.339115351258
 20
-97.1682567215958
 10
143.339115351258
 20
-100.082393755421
 10
103.451864700781
 20
-100.082393755421
  0
TEXT
  5
F10B1A
330
F10B1B
 100
AcDbEntity
8
Text
100
AcDbText
10
104.500000000000
20
-99.4570685169124
30
0.000000000000000
40
1.50000000000000
1
Ers. durch:
100
AcDbText
  0
TEXT
  5
F10B1C
330
F10B1D
 100
AcDbEntity
8
Text
100
AcDbText
10
0.000000000000000
20
0.500000000000000
30
0.000000000000000
40
1.50000000000000
1

100
AcDbText
  0
LWPOLYLINE
  5
F10B1E
330
F10B1F
100
AcDbEntity
8
Rahmen
100
AcDbPolyline
90
   4
70
   1
43
   0.0
 10
63.3824804856895
 20
-97.1682567215958
 10
103.451864700781
 20
-97.1682567215958
 10
103.451864700781
 20
-100.082393755421
 10
63.3824804856895
 20
-100.082393755421
  0
TEXT
  5
F10B20
330
F10B21
 100
AcDbEntity
8
Text
100
AcDbText
10
64.5000000000000
20
-99.4570685169124
30
0.000000000000000
40
1.50000000000000
1
Ers. für:
100
AcDbText
  0
TEXT
  5
F10B22
330
F10B23
 100
AcDbEntity
8
Text
100
AcDbText
10
0.000000000000000
20
0.500000000000000
30
0.000000000000000
40
1.50000000000000
1

100
AcDbText
  0
LWPOLYLINE
  5
F10B24
330
F10B25
100
AcDbEntity
8
Rahmen
100
AcDbPolyline
90
   4
70
   1
43
   0.0
 10
130.043365134432
 20
-94.0719861231570
 10
143.339115351258
 20
-94.0719861231570
 10
143.339115351258
 20
-97.1682567215958
 10
130.043365134432
 20
-97.1682567215958
  0
TEXT
  5
F10B26
330
F10B27
 100
AcDbEntity
8
Text
100
AcDbText
10
131.166666666667
20
-96.4570685169124
30
0.000000000000000
40
1.50000000000000
1
Blätter
100
AcDbText
  0
TEXT
  5
F10B28
330
F10B29
 100
AcDbEntity
8
Text
100
AcDbText
10
0.000000000000000
20
0.500000000000000
30
0.000000000000000
40
1.50000000000000
1

100
AcDbText
  0
LWPOLYLINE
  5
F10B2A
330
F10B2B
100
AcDbEntity
8
Rahmen
100
AcDbPolyline
90
   4
70
   1
43
   0.0
 10
130.043365134432
 20
-91.1578490893322
 10
143.339115351258
 20
-91.1578490893322
 10
143.339115351258
 20
-94.0719861231570
 10
130.043365134432
 20
-94.0719861231570
  0
TEXT
  5
F10B2C
330
F10B2D
 100
AcDbEntity
8
Text
100
AcDbText
10
131.166666666667
20
-93.4570685169124
30
0.000000000000000
40
1.50000000000000
1
Blatt
100
AcDbText
  0
TEXT
  5
F10B2E
330
F10B2F
 100
AcDbEntity
8
Text
100
AcDbText
10
0.000000000000000
20
0.500000000000000
30
0.000000000000000
40
1.50000000000000
1

100
AcDbText
  0
LWPOLYLINE
  5
F10B30
330
F10B31
100
AcDbEntity
8
Rahmen
100
AcDbPolyline
90
   4
70
   1
43
   0.0
 10
63.3824804856895
 20
-91.1578490893322
 10
130.043365134432
 20
-91.1578490893322
 10
130.043365134432
 20
-97.1682567215958
 10
63.3824804856895
 20
-97.1682567215958
  0
TEXT
  5
F10B32
330
F10B33
 100
AcDbEntity
8
Text
100
AcDbText
10
64.5000000000000
20
-93.4570685169124
30
0.000000000000000
40
1.50000000000000
1
Datum:
100
AcDbText
  0
TEXT
  5
F10B34
330
F10B35
 100
AcDbEntity
8
Text
100
AcDbText
10
90.9139924833767
20
-96.4570685169124
30
0.000000000000000
40
1.50000000000000
1
30.09.2021
100
AcDbText
  0
LWPOLYLINE
  5
F10B36
330
F10B37
100
AcDbEntity
8
Rahmen
100
AcDbPolyline
90
   4
70
   1
43
   0.0
 10
63.3824804856895
 20
-85.1474414570685
 10
143.339115351258
 20
-85.1474414570685
 10
143.339115351258
 20
-91.1578490893322
 10
63.3824804856895
 20
-91.1578490893322
  0
TEXT
  5
F10B38
330
F10B39
 100
AcDbEntity
8
Text
100
AcDbText
10
0.000000000000000
20
0.500000000000000
30
0.000000000000000
40
1.50000000000000
1

100
AcDbText
  0
TEXT
  5
F10B3A
330
F10B3B
 100
AcDbEntity
8
Text
100
AcDbText
10
73.6300954032958
20
-89.6254697889564
30
0.000000000000000
40
2.50000000000000
1
VHM-Radiusfräser R0141-10-b
100
AcDbText
  0
LWPOLYLINE
  5
F10B3C
330
F10B3D
100
AcDbEntity
8
Rahmen
100
AcDbPolyline
90
   4
70
   1
43
   0.0
 10
103.451864700781
 20
-79.1370338248049
 10
143.339115351258
 20
-79.1370338248049
 10
143.339115351258
 20
-85.1474414570685
 10
103.451864700781
 20
-85.1474414570685
  0
TEXT
  5
F10B3E
330
F10B3F
 100
AcDbEntity
8
Text
100
AcDbText
10
104.500000000000
20
-81.4570685169124
30
0.000000000000000
40
1.50000000000000
1
Zu bearb. Material:
100
AcDbText
  0
TEXT
  5
F10B40
330
F10B41
 100
AcDbEntity
8
Text
100
AcDbText
10
0.000000000000000
20
0.500000000000000
30
0.000000000000000
40
1.50000000000000
1

100
AcDbText
  0
LWPOLYLINE
  5
F10B42
330
F10B43
100
AcDbEntity
8
Rahmen
100
AcDbPolyline
90
   4
70
   1
43
   0.0
 10
63.3824804856895
 20
-79.1370338248049
 10
103.451864700781
 20
-79.1370338248049
 10
103.451864700781
 20
-85.1474414570685
 10
63.3824804856895
 20
-85.1474414570685
  0
TEXT
  5
F10B44
330
F10B45
 100
AcDbEntity
8
Text
100
AcDbText
10
64.5000000000000
20
-81.4570685169124
30
0.000000000000000
40
1.50000000000000
1
Werkstoff:
100
AcDbText
  0
TEXT
  5
F10B46
330
F10B47
 100
AcDbEntity
8
Text
100
AcDbText
10
80.7679965307892
20
-84.4570685169124
30
0.000000000000000
40
1.50000000000000
1
VHM
100
AcDbText
  0
LWPOLYLINE
  5
F10B48
330
F10B49
100
AcDbEntity
8
Rahmen
100
AcDbPolyline
90
   4
70
   1
43
   0.0
 10
103.451864700781
 20
-76.0407632263660
 10
143.339115351258
 20
-76.0407632263660
 10
143.339115351258
 20
-79.1370338248049
 10
103.451864700781
 20
-79.1370338248049
  0
TEXT
  5
F10B4A
330
F10B4B
 100
AcDbEntity
8
Text
100
AcDbText
10
0.000000000000000
20
0.500000000000000
30
0.000000000000000
40
1.50000000000000
1

100
AcDbText
  0
TEXT
  5
F10B4C
330
F10B4D
 100
AcDbEntity
8
Text
100
AcDbText
10
0.000000000000000
20
0.500000000000000
30
0.000000000000000
40
1.50000000000000
1

100
AcDbText
  0
LWPOLYLINE
  5
F10B4E
330
F10B4F
100
AcDbEntity
8
Rahmen
100
AcDbPolyline
90
   4
70
   1
43
   0.0
 10
63.3824804856895
 20
-76.0407632263660
 10
103.451864700781
 20
-76.0407632263660
 10
103.451864700781
 20
-79.1370338248049
 10
63.3824804856895
 20
-79.1370338248049
  0
TEXT
  5
F10B50
330
F10B51
 100
AcDbEntity
8
Text
100
AcDbText
10
64.5000000000000
20
-78.4570685169124
30
0.000000000000000
40
1.50000000000000
1
Maßstab:
100
AcDbText
  0
TEXT
  5
F10B52
330
F10B53
 100
AcDbEntity
8
Text
100
AcDbText
10
89.0411968777103
20
-78.4570685169124
30
0.000000000000000
40
1.50000000000000
1
1 : 1
100
AcDbText
0
VIEWPORT
5
294
102
{ACAD_XDICTIONARY
360
58A
102
}
330
25D
100
AcDbEntity
67
1
8
0
60
1
100
AcDbViewport
10
0.0
20
0.0
30
0.0
40
10.0
41
10.0
68
-1
69
1
12
0.0
22
0.0
13
0.0
23
0.0
14
1.0
24
1.0
15
0.0
25
0.0
16
0.0
26
0.0
36
1.0
17
0.0
27
0.0
37
0.0
42
0.0
43
0.0
44
0.0
45
10.0
50
0.0
51
0.0000000000007958
72
100
90
32800
1

281
0
71
0
74
0
110
0.0
120
0.0
130
0.0
111
1.0
121
0.0
131
0.0
112
0.0
122
1.0
132
0.0
79
0
146
0.0
1001
VD_INVISIBLE_NOT_FOR_READ
1000
VD_INVISIBLE_NOT_FOR_READ
0
VIEWPORT
5
295
102
{ACAD_XDICTIONARY
360
58C
102
}
330
25D
100
AcDbEntity
67
1
8
0
60
1
100
AcDbViewport
10
0.0
20
0.0
30
0.0
40
10.0
41
10.0
68
0
69
2
12
0.0
22
0.0
13
0.0
23
0.0
14
1.0
24
1.0
15
0.0
25
0.0
16
0.0
26
0.0
36
1.0
17
0.0
27
0.0
37
0.0
42
0.0
43
0.0
44
0.0
45
10.0
50
0.0
51
0.0000000000007958
72
100
90
163872
1

281
0
71
0
74
0
110
0.0
120
0.0
130
0.0
111
1.0
121
0.0
131
0.0
112
0.0
122
1.0
132
0.0
79
0
146
0.0
1001
VD_INVISIBLE_NOT_FOR_READ
1000
VD_INVISIBLE_NOT_FOR_READ
0
ENDSEC
0
SECTION
2
OBJECTS
0
DICTIONARY
5
13
330
0
100
AcDbDictionary
281
1
3
ACAD_COLOR
350
FA7
3
ACAD_GROUP
350
14
3
ACAD_LAYOUT
350
FCF
3
ACAD_MATERIAL
350
F7A
3
ACAD_MLEADERSTYLE
350
FCD
3
ACAD_MLINESTYLE
350
16
3
ACAD_PLOTSETTINGS
350
17
3
ACAD_PLOTSTYLENAME
350
18
3
ACAD_SCALELIST
350
FAB
3
ACAD_TABLESTYLE
350
FA8
3
ACAD_VISUALSTYLE
350
F93
3
ACDB_RECOMPOSE_DATA
350
107E
3
AcDbVariableDictionary
350
FF0
3
DWGPROPS
350
107F
0
DICTIONARY
5
F10014
330
F10013
100
AcDbDictionary
280
1
281
1
3
ACAD_MTEXT_2008_RT
360
F10015
0
DICTIONARY
5
F10019
330
F10018
100
AcDbDictionary
280
1
281
1
3
ACAD_MTEXT_2008_RT
360
F1001A
0
DICTIONARY
5
F1000A
330
F10009
100
AcDbDictionary
280
1
281
1
3
ACAD_MTEXT_2008_RT
360
F1000B
0
DICTIONARY
5
F10005
330
F10004
100
AcDbDictionary
280
1
281
1
3
ACAD_MTEXT_2008_RT
360
F10006
0
DICTIONARY
5
F1000F
330
F1000E
100
AcDbDictionary
280
1
281
1
3
ACAD_MTEXT_2008_RT
360
F10010
0
DICTIONARY
5
FA7
102
{ACAD_REACTORS
330
13
102
}
330
13
100
AcDbDictionary
281
1
0
DICTIONARY
5
14
330
13
100
AcDbDictionary
281
1
0
DICTIONARY
5
FCF
102
{ACAD_REACTORS
330
13
102
}
330
13
100
AcDbDictionary
281
1
3
Layout1
350
FD1
3
Model
350
FD0
0
DICTIONARY
5
F7A
102
{ACAD_REACTORS
330
13
102
}
330
13
100
AcDbDictionary
281
1
3
ByBlock
350
F83
3
ByLayer
350
F7B
3
Global
350
F8B
0
DICTIONARY
5
FCD
102
{ACAD_REACTORS
330
13
102
}
330
13
100
AcDbDictionary
281
1
3
Standard
350
FCE
0
DICTIONARY
5
16
330
13
100
AcDbDictionary
281
1
3
Standard
350
FAA
0
DICTIONARY
5
17
102
{ACAD_REACTORS
330
13
102
}
330
13
100
AcDbDictionary
281
1
0
ACDBDICTIONARYWDFLT
5
18
102
{ACAD_REACTORS
330
13
102
}
330
13
100
AcDbDictionary
281
1
3
Normal
350
19
100
AcDbDictionaryWithDefault
340
19
0
DICTIONARY
5
FAB
102
{ACAD_REACTORS
330
13
102
}
330
13
100
AcDbDictionary
281
1
3
A0
350
FAC
3
A1
350
FAD
3
A2
350
FAE
3
A3
350
FAF
3
A4
350
FB0
3
A5
350
FB1
3
A6
350
FB2
3
A7
350
FB3
3
A8
350
FB4
3
A9
350
FB5
3
B0
350
FB6
3
B1
350
FB7
3
B2
350
FB8
3
B3
350
FB9
3
B4
350
FBA
3
B5
350
FBB
3
B6
350
FBC
3
B7
350
FBD
3
B8
350
FBE
3
B9
350
FBF
3
C0
350
FC0
3
C1
350
FC1
3
C2
350
FC2
3
C3
350
FC3
3
C4
350
FC4
3
C5
350
FC5
3
C6
350
FC6
3
C7
350
FC7
3
C8
350
FC8
3
C9
350
FC9
3
D0
350
FCA
3
D1
350
FCB
3
D2
350
FCC
0
DICTIONARY
5
FA8
102
{ACAD_REACTORS
330
13
102
}
330
13
100
AcDbDictionary
281
1
3
Standard
350
FA9
0
DICTIONARY
5
F93
102
{ACAD_REACTORS
330
13
102
}
330
13
100
AcDbDictionary
281
1
3
2dWireframe
350
F99
3
3D Hidden
350
F9B
3
3dWireframe
350
F9A
3
Basic
350
F98
3
Brighten
350
F9F
3
ColorChange
350
FA3
3
Conceptual
350
F9C
3
Dim
350
F9E
3
EdgeColorOff
350
FA6
3
Facepattern
350
FA2
3
Flat
350
F94
3
FlatWithEdges
350
F95
3
Gouraud
350
F96
3
GouraudWithEdges
350
F97
3
JitterOff
350
FA4
3
Linepattern
350
FA1
3
OverhangOff
350
FA5
3
Realistic
350
F9D
3
Thicken
350
FA0
0
XRECORD
5
107E
102
{ACAD_REACTORS
330
13
102
}
330
13
100
AcDbXrecord
280
1
90
1
330
FA9
330
F10013
330
F10018
330
F10009
330
F10004
330
F1000E
0
DICTIONARY
5
FF0
102
{ACAD_REACTORS
330
13
102
}
330
13
100
AcDbDictionary
281
1
3
CANNOSCALE
350
FF3
3
CMLEADERSTYLE
350
FF2
3
CTABLESTYLE
350
FF1
3
DIMASSOC
350
FF6
3
INDEXCTL
350
FF5
3
SORTENTS
350
FF4
3
XCLIPFRAME
350
1078
0
XRECORD
5
107F
102
{ACAD_REACTORS
330
13
102
}
330
13
100
AcDbXrecord
280
1
1
DWGPROPS COOKIE
2

3

4

6

7

8

9

300
=
301
=
302
=
303
=
304
=
305
=
306
=
307
=
308
=
309
=
40
0.0
41
0.0
42
0.0
1

90
0
0
XRECORD
5
F10015
102
{ACAD_REACTORS
330
F10014
102
}
330
F10014
100
AcDbXrecord
280
1
40
48458.0
1
25
0
XRECORD
5
F1001A
102
{ACAD_REACTORS
330
F10019
102
}
330
F10019
100
AcDbXrecord
280
1
40
48458.0
1
100
0
XRECORD
5
F1000B
102
{ACAD_REACTORS
330
F1000A
102
}
330
F1000A
100
AcDbXrecord
280
1
40
48458.0
1
R5
0
XRECORD
5
F10006
102
{ACAD_REACTORS
330
F10005
102
}
330
F10005
100
AcDbXrecord
280
1
40
48458.0
1
Ø10
0
LAYOUT
5
FD1
102
{ACAD_XDICTIONARY
360
10A9
102
}
102
{ACAD_REACTORS
330
FCF
102
}
330
FCF
100
AcDbPlotSettings
1

2
Microsoft XPS Document Writer
4

6

40
0.0
41
0.0
42
0.0
43
0.0
44
0.0
45
0.0
46
0.0
47
0.0
48
0.0
49
0.0
140
0.0
141
0.0
142
1.0
143
1.0
70
688
72
0
73
0
74
5
7

75
16
147
1.0
148
0.0
149
0.0
100
AcDbLayout
1
Layout1
70
1
71
1
10
0.0
20
0.0
11
12.0
21
9.0
12
0.0
22
0.0
32
0.0
14
1.000000000000000E+20
24
1.000000000000000E+20
34
1.000000000000000E+20
15
-1.000000000000000E+20
25
-1.000000000000000E+20
35
-1.000000000000000E+20
146
0.0
13
0.0
23
0.0
33
0.0
16
1.0
26
0.0
36
0.0
17
0.0
27
1.0
37
0.0
76
0
330
25D
0
LAYOUT
5
FD0
102
{ACAD_XDICTIONARY
360
10A7
102
}
102
{ACAD_REACTORS
330
FCF
102
}
330
FCF
100
AcDbPlotSettings
1

2
Microsoft XPS Document Writer
4

6

40
0.0
41
0.0
42
0.0
43
0.0
44
0.0
45
0.0
46
0.0
47
0.0
48
0.0
49
0.0
140
0.0
141
0.0
142
1.0
143
1.0
70
1712
72
0
73
0
74
0
7

75
0
147
1.0
148
0.0
149
0.0
100
AcDbLayout
1
Model
70
1
71
0
10
0.0
20
0.0
11
12.0
21
9.0
12
0.0
22
0.0
32
0.0
14
0.0
24
0.0
34
0.0
15
0.0
25
0.0
35
0.0
146
0.0
13
0.0
23
0.0
33
0.0
16
1.0
26
0.0
36
0.0
17
0.0
27
1.0
37
0.0
76
0
330
261
331
26B
0
MATERIAL
5
F83
102
{ACAD_XDICTIONARY
360
F84
102
}
102
{ACAD_REACTORS
330
F7A
102
}
330
F7A
100
AcDbMaterial
1
ByBlock
72
0
43
0.0208333333333333
43
0.0
43
0.0
43
0.0
43
0.0
43
0.0208333333333333
43
0.0
43
0.0
43
0.0
43
0.0
43
1.0
43
0.0
43
0.0
43
0.0
43
0.0
43
1.0
77
0
47
0.0208333333333333
47
0.0
47
0.0
47
0.0
47
0.0
47
0.0208333333333333
47
0.0
47
0.0
47
0.0
47
0.0
47
1.0
47
0.0
47
0.0
47
0.0
47
0.0
47
1.0
171
0
49
0.0208333333333333
49
0.0
49
0.0
49
0.0
49
0.0
49
0.0208333333333333
49
0.0
49
0.0
49
0.0
49
0.0
49
1.0
49
0.0
49
0.0
49
0.0
49
0.0
49
1.0
175
0
142
0.0208333333333333
142
0.0
142
0.0
142
0.0
142
0.0
142
0.0208333333333333
142
0.0
142
0.0
142
0.0
142
0.0
142
1.0
142
0.0
142
0.0
142
0.0
142
0.0
142
1.0
179
0
144
0.0208333333333333
144
0.0
144
0.0
144
0.0
144
0.0
144
0.0208333333333333
144
0.0
144
0.0
144
0.0
144
0.0
144
1.0
144
0.0
144
0.0
144
0.0
144
0.0
144
1.0
147
0.0208333333333333
147
0.0
147
0.0
147
0.0
147
0.0
147
0.0208333333333333
147
0.0
147
0.0
147
0.0
147
0.0
147
1.0
147
0.0
147
0.0
147
0.0
147
0.0
147
1.0
0
MATERIAL
5
F7B
102
{ACAD_XDICTIONARY
360
F7C
102
}
102
{ACAD_REACTORS
330
F7A
102
}
330
F7A
100
AcDbMaterial
1
ByLayer
72
0
43
0.0208333333333333
43
0.0
43
0.0
43
0.0
43
0.0
43
0.0208333333333333
43
0.0
43
0.0
43
0.0
43
0.0
43
1.0
43
0.0
43
0.0
43
0.0
43
0.0
43
1.0
77
0
47
0.0208333333333333
47
0.0
47
0.0
47
0.0
47
0.0
47
0.0208333333333333
47
0.0
47
0.0
47
0.0
47
0.0
47
1.0
47
0.0
47
0.0
47
0.0
47
0.0
47
1.0
171
0
49
0.0208333333333333
49
0.0
49
0.0
49
0.0
49
0.0
49
0.0208333333333333
49
0.0
49
0.0
49
0.0
49
0.0
49
1.0
49
0.0
49
0.0
49
0.0
49
0.0
49
1.0
175
0
142
0.0208333333333333
142
0.0
142
0.0
142
0.0
142
0.0
142
0.0208333333333333
142
0.0
142
0.0
142
0.0
142
0.0
142
1.0
142
0.0
142
0.0
142
0.0
142
0.0
142
1.0
179
0
144
0.0208333333333333
144
0.0
144
0.0
144
0.0
144
0.0
144
0.0208333333333333
144
0.0
144
0.0
144
0.0
144
0.0
144
1.0
144
0.0
144
0.0
144
0.0
144
0.0
144
1.0
147
0.0208333333333333
147
0.0
147
0.0
147
0.0
147
0.0
147
0.0208333333333333
147
0.0
147
0.0
147
0.0
147
0.0
147
1.0
147
0.0
147
0.0
147
0.0
147
0.0
147
1.0
0
MATERIAL
5
F8B
102
{ACAD_XDICTIONARY
360
F8C
102
}
102
{ACAD_REACTORS
330
F7A
102
}
330
F7A
100
AcDbMaterial
1
Global
72
0
43
0.0208333333333333
43
0.0
43
0.0
43
0.0
43
0.0
43
0.0208333333333333
43
0.0
43
0.0
43
0.0
43
0.0
43
1.0
43
0.0
43
0.0
43
0.0
43
0.0
43
1.0
77
0
47
0.0208333333333333
47
0.0
47
0.0
47
0.0
47
0.0
47
0.0208333333333333
47
0.0
47
0.0
47
0.0
47
0.0
47
1.0
47
0.0
47
0.0
47
0.0
47
0.0
47
1.0
171
0
49
0.0208333333333333
49
0.0
49
0.0
49
0.0
49
0.0
49
0.0208333333333333
49
0.0
49
0.0
49
0.0
49
0.0
49
1.0
49
0.0
49
0.0
49
0.0
49
0.0
49
1.0
175
0
142
0.0208333333333333
142
0.0
142
0.0
142
0.0
142
0.0
142
0.0208333333333333
142
0.0
142
0.0
142
0.0
142
0.0
142
1.0
142
0.0
142
0.0
142
0.0
142
0.0
142
1.0
179
0
144
0.0208333333333333
144
0.0
144
0.0
144
0.0
144
0.0
144
0.0208333333333333
144
0.0
144
0.0
144
0.0
144
0.0
144
1.0
144
0.0
144
0.0
144
0.0
144
0.0
144
1.0
147
0.0208333333333333
147
0.0
147
0.0
147
0.0
147
0.0
147
0.0208333333333333
147
0.0
147
0.0
147
0.0
147
0.0
147
1.0
147
0.0
147
0.0
147
0.0
147
0.0
147
1.0
0
MLEADERSTYLE
5
FCE
102
{ACAD_REACTORS
330
FCD
102
}
330
FCD
100
AcDbMLeaderStyle
170
2
171
1
172
0
90
2
40
0.0
41
0.0
173
1
91
-1056964608
340
256
92
-2
290
1
42
0.09
291
1
43
0.36
3
Standard
44
0.18
300

342
253
174
1
178
6
175
1
176
0
93
-1056964608
45
0.18
292
0
297
0
46
0.18
94
-1056964608
47
1.0
49
1.0
140
1.0
293
1
141
0.0
294
1
177
0
142
1.0
295
0
296
0
143
0.125
1001
ACAD_MLEADERVER
1070
2
0
MLINESTYLE
5
FAA
102
{ACAD_REACTORS
330
16
102
}
330
16
100
AcDbMlineStyle
2
STANDARD
70
0
3

62
256
51
90.0
52
90.0
71
2
49
0.5
62
256
6
BYLAYER
49
-0.5
62
256
6
BYLAYER
0
ACDBPLACEHOLDER
5
19
102
{ACAD_REACTORS
330
18
102
}
330
18
0
SCALE
5
FAC
102
{ACAD_REACTORS
330
FAB
102
}
330
FAB
100
AcDbScale
70
0
300
1:1
140
1.0
141
1.0
290
1
0
SCALE
5
FAD
102
{ACAD_REACTORS
330
FAB
102
}
330
FAB
100
AcDbScale
70
0
300
1:2
140
1.0
141
2.0
290
0
0
SCALE
5
FAE
102
{ACAD_REACTORS
330
FAB
102
}
330
FAB
100
AcDbScale
70
0
300
1:4
140
1.0
141
4.0
290
0
0
SCALE
5
FAF
102
{ACAD_REACTORS
330
FAB
102
}
330
FAB
100
AcDbScale
70
0
300
1:5
140
1.0
141
5.0
290
0
0
SCALE
5
FB0
102
{ACAD_REACTORS
330
FAB
102
}
330
FAB
100
AcDbScale
70
0
300
1:8
140
1.0
141
8.0
290
0
0
SCALE
5
FB1
102
{ACAD_REACTORS
330
FAB
102
}
330
FAB
100
AcDbScale
70
0
300
1:10
140
1.0
141
10.0
290
0
0
SCALE
5
FB2
102
{ACAD_REACTORS
330
FAB
102
}
330
FAB
100
AcDbScale
70
0
300
1:16
140
1.0
141
16.0
290
0
0
SCALE
5
FB3
102
{ACAD_REACTORS
330
FAB
102
}
330
FAB
100
AcDbScale
70
0
300
1:20
140
1.0
141
20.0
290
0
0
SCALE
5
FB4
102
{ACAD_REACTORS
330
FAB
102
}
330
FAB
100
AcDbScale
70
0
300
1:30
140
1.0
141
30.0
290
0
0
SCALE
5
FB5
102
{ACAD_REACTORS
330
FAB
102
}
330
FAB
100
AcDbScale
70
0
300
1:40
140
1.0
141
40.0
290
0
0
SCALE
5
FB6
102
{ACAD_REACTORS
330
FAB
102
}
330
FAB
100
AcDbScale
70
0
300
1:50
140
1.0
141
50.0
290
0
0
SCALE
5
FB7
102
{ACAD_REACTORS
330
FAB
102
}
330
FAB
100
AcDbScale
70
0
300
1:100
140
1.0
141
100.0
290
0
0
SCALE
5
FB8
102
{ACAD_REACTORS
330
FAB
102
}
330
FAB
100
AcDbScale
70
0
300
2:1
140
2.0
141
1.0
290
0
0
SCALE
5
FB9
102
{ACAD_REACTORS
330
FAB
102
}
330
FAB
100
AcDbScale
70
0
300
4:1
140
4.0
141
1.0
290
0
0
SCALE
5
FBA
102
{ACAD_REACTORS
330
FAB
102
}
330
FAB
100
AcDbScale
70
0
300
8:1
140
8.0
141
1.0
290
0
0
SCALE
5
FBB
102
{ACAD_REACTORS
330
FAB
102
}
330
FAB
100
AcDbScale
70
0
300
10:1
140
10.0
141
1.0
290
0
0
SCALE
5
FBC
102
{ACAD_REACTORS
330
FAB
102
}
330
FAB
100
AcDbScale
70
0
300
100:1
140
100.0
141
1.0
290
0
0
SCALE
5
FBD
102
{ACAD_REACTORS
330
FAB
102
}
330
FAB
100
AcDbScale
70
0
300
1/128" = 1'-0"
140
0.0078125
141
12.0
290
0
0
SCALE
5
FBE
102
{ACAD_REACTORS
330
FAB
102
}
330
FAB
100
AcDbScale
70
0
300
1/64" = 1'-0"
140
0.015625
141
12.0
290
0
0
SCALE
5
FBF
102
{ACAD_REACTORS
330
FAB
102
}
330
FAB
100
AcDbScale
70
0
300
1/32" = 1'-0"
140
0.03125
141
12.0
290
0
0
SCALE
5
FC0
102
{ACAD_REACTORS
330
FAB
102
}
330
FAB
100
AcDbScale
70
0
300
1/16" = 1'-0"
140
0.0625
141
12.0
290
0
0
SCALE
5
FC1
102
{ACAD_REACTORS
330
FAB
102
}
330
FAB
100
AcDbScale
70
0
300
3/32" = 1'-0"
140
0.09375
141
12.0
290
0
0
SCALE
5
FC2
102
{ACAD_REACTORS
330
FAB
102
}
330
FAB
100
AcDbScale
70
0
300
1/8" = 1'-0"
140
0.125
141
12.0
290
0
0
SCALE
5
FC3
102
{ACAD_REACTORS
330
FAB
102
}
330
FAB
100
AcDbScale
70
0
300
3/16" = 1'-0"
140
0.1875
141
12.0
290
0
0
SCALE
5
FC4
102
{ACAD_REACTORS
330
FAB
102
}
330
FAB
100
AcDbScale
70
0
300
1/4" = 1'-0"
140
0.25
141
12.0
290
0
0
SCALE
5
FC5
102
{ACAD_REACTORS
330
FAB
102
}
330
FAB
100
AcDbScale
70
0
300
3/8" = 1'-0"
140
0.375
141
12.0
290
0
0
SCALE
5
FC6
102
{ACAD_REACTORS
330
FAB
102
}
330
FAB
100
AcDbScale
70
0
300
1/2" = 1'-0"
140
0.5
141
12.0
290
0
0
SCALE
5
FC7
102
{ACAD_REACTORS
330
FAB
102
}
330
FAB
100
AcDbScale
70
0
300
3/4" = 1'-0"
140
0.75
141
12.0
290
0
0
SCALE
5
FC8
102
{ACAD_REACTORS
330
FAB
102
}
330
FAB
100
AcDbScale
70
0
300
1" = 1'-0"
140
1.0
141
12.0
290
0
0
SCALE
5
FC9
102
{ACAD_REACTORS
330
FAB
102
}
330
FAB
100
AcDbScale
70
0
300
1-1/2" = 1'-0"
140
1.5
141
12.0
290
0
0
SCALE
5
FCA
102
{ACAD_REACTORS
330
FAB
102
}
330
FAB
100
AcDbScale
70
0
300
3" = 1'-0"
140
3.0
141
12.0
290
0
0
SCALE
5
FCB
102
{ACAD_REACTORS
330
FAB
102
}
330
FAB
100
AcDbScale
70
0
300
6" = 1'-0"
140
6.0
141
12.0
290
0
0
SCALE
5
FCC
102
{ACAD_REACTORS
330
FAB
102
}
330
FAB
100
AcDbScale
70
0
300
1'-0" = 1'-0"
140
12.0
141
12.0
290
0
0
TABLESTYLE
5
FA9
102
{ACAD_XDICTIONARY
360
FF8
102
}
102
{ACAD_REACTORS
330
FA8
102
}
330
FA8
100
AcDbTableStyle
3
Standard
70
0
71
0
40
0.06
41
0.06
280
0
281
0
7
Standard
140
0.18
170
2
62
0
63
7
283
0
274
-2
284
1
64
0
275
-2
285
1
65
0
276
-2
286
1
66
0
277
-2
287
1
67
0
278
-2
288
1
68
0
279
-2
289
1
69
0
7
Standard
140
0.25
170
5
62
0
63
7
283
0
274
-2
284
1
64
0
275
-2
285
1
65
0
276
-2
286
1
66
0
277
-2
287
1
67
0
278
-2
288
1
68
0
279
-2
289
1
69
0
7
Standard
140
0.18
170
5
62
0
63
7
283
0
274
-2
284
1
64
0
275
-2
285
1
65
0
276
-2
286
1
66
0
277
-2
287
1
67
0
278
-2
288
1
68
0
279
-2
289
1
69
0
0
VISUALSTYLE
5
F99
102
{ACAD_XDICTIONARY
360
108A
102
}
102
{ACAD_REACTORS
330
F93
102
}
330
F93
100
AcDbVisualStyle
2

70
4
71
0
72
2
73
0
90
0
40
-0.6
41
-30.0
62
5
63
7
74
1
91
4
64
7
65
257
75
1
175
1
42
1.0
92
0
66
257
43
1.0
76
1
77
6
78
2
67
7
79
5
170
0
171
0
290
0
174
0
93
1
44
0.0
173
0
291
0
45
0.0
1001
ACAD
1000
AcDbSavedByObjectVersion
1070
0
0
VISUALSTYLE
5
F9B
102
{ACAD_XDICTIONARY
360
108E
102
}
102
{ACAD_REACTORS
330
F93
102
}
330
F93
100
AcDbVisualStyle
2

70
6
71
1
72
2
73
2
90
0
40
-0.6
41
-30.0
62
5
63
7
74
2
91
2
64
7
65
257
75
2
175
1
42
179.0
92
0
66
257
43
1.0
76
1
77
6
78
2
67
7
79
3
170
0
171
0
290
0
174
0
93
1
44
0.0
173
0
291
0
45
0.0
1001
ACAD
1000
AcDbSavedByObjectVersion
1070
0
0
VISUALSTYLE
5
F9A
102
{ACAD_XDICTIONARY
360
108C
102
}
102
{ACAD_REACTORS
330
F93
102
}
330
F93
100
AcDbVisualStyle
2

70
5
71
0
72
2
73
0
90
0
40
-0.6
41
-30.0
62
5
63
7
74
1
91
4
64
7
65
257
75
1
175
1
42
1.0
92
0
66
257
43
1.0
76
1
77
6
78
2
67
7
79
5
170
0
171
0
290
0
174
0
93
1
44
0.0
173
0
291
0
45
0.0
1001
ACAD
1000
AcDbSavedByObjectVersion
1070
0
0
VISUALSTYLE
5
F98
102
{ACAD_XDICTIONARY
360
1088
102
}
102
{ACAD_REACTORS
330
F93
102
}
330
F93
100
AcDbVisualStyle
2

70
7
71
1
72
0
73
1
90
0
40
-0.6
41
-30.0
62
5
63
7
74
0
91
4
64
7
65
257
75
1
175
1
42
1.0
92
8
66
7
43
1.0
76
1
77
6
78
2
67
7
79
5
170
0
171
0
290
0
174
0
93
1
44
0.0
173
0
291
1
45
0.0
1001
ACAD
1000
AcDbSavedByObjectVersion
1070
0
0
VISUALSTYLE
5
F9F
102
{ACAD_XDICTIONARY
360
1096
102
}
102
{ACAD_REACTORS
330
F93
102
}
330
F93
100
AcDbVisualStyle
2

70
12
71
2
72
2
73
0
90
0
40
-0.6
41
-30.0
62
5
63
7
74
1
91
4
64
7
65
257
75
1
175
1
42
1.0
92
8
66
7
43
1.0
76
1
77
6
78
2
67
7
79
5
170
0
171
0
290
0
174
0
93
1
44
50.0
173
0
291
1
45
0.0
1001
ACAD
1000
AcDbSavedByObjectVersion
1070
0
0
VISUALSTYLE
5
FA3
102
{ACAD_XDICTIONARY
360
109E
102
}
102
{ACAD_REACTORS
330
F93
102
}
330
F93
100
AcDbVisualStyle
2

70
16
71
2
72
2
73
3
90
0
40
-0.6
41
-30.0
62
5
63
8
74
1
91
4
64
7
65
257
75
1
175
1
42
1.0
92
8
66
8
43
1.0
76
1
77
6
78
2
67
7
79
5
170
0
171
0
290
0
174
0
93
1
44
0.0
173
0
291
1
45
0.0
1001
ACAD
1000
AcDbSavedByObjectVersion
1070
0
0
VISUALSTYLE
5
F9C
102
{ACAD_XDICTIONARY
360
1090
102
}
102
{ACAD_REACTORS
330
F93
102
}
330
F93
100
AcDbVisualStyle
2

70
9
71
3
72
2
73
0
90
0
40
-0.6
41
-30.0
62
5
63
7
74
2
91
2
64
7
65
257
75
1
175
1
42
179.0
92
8
66
7
43
1.0
76
1
77
6
78
2
67
7
79
3
170
0
171
0
290
0
174
0
93
1
44
0.0
173
0
291
0
45
0.0
1001
ACAD
1000
AcDbSavedByObjectVersion
1070
0
0
VISUALSTYLE
5
F9E
102
{ACAD_XDICTIONARY
360
1094
102
}
102
{ACAD_REACTORS
330
F93
102
}
330
F93
100
AcDbVisualStyle
2

70
11
71
2
72
2
73
0
90
0
40
-0.6
41
-30.0
62
5
63
7
74
1
91
4
64
7
65
257
75
1
175
1
42
1.0
92
8
66
7
43
1.0
76
1
77
6
78
2
67
7
79
5
170
0
171
0
290
0
174
0
93
1
44
-50.0
173
0
291
1
45
0.0
1001
ACAD
1000
AcDbSavedByObjectVersion
1070
0
0
VISUALSTYLE
5
FA6
102
{ACAD_XDICTIONARY
360
10A4
102
}
102
{ACAD_REACTORS
330
F93
102
}
330
F93
100
AcDbVisualStyle
2

70
22
71
2
72
2
73
0
90
0
40
-0.6
41
-30.0
62
5
63
7
74
1
91
4
64
7
65
257
75
1
175
1
42
1.0
92
8
66
7
43
1.0
76
1
77
6
78
2
67
7
79
5
170
0
171
0
290
0
174
0
93
1
44
0.0
173
0
291
1
45
0.0
1001
ACAD
1000
AcDbSavedByObjectVersion
1070
0
0
VISUALSTYLE
5
FA2
102
{ACAD_XDICTIONARY
360
109C
102
}
102
{ACAD_REACTORS
330
F93
102
}
330
F93
100
AcDbVisualStyle
2

70
15
71
2
72
2
73
0
90
0
40
-0.6
41
-30.0
62
5
63
7
74
1
91
4
64
7
65
257
75
1
175
1
42
1.0
92
8
66
7
43
1.0
76
1
77
6
78
2
67
7
79
5
170
0
171
0
290
0
174
0
93
1
44
0.0
173
0
291
1
45
0.0
1001
ACAD
1000
AcDbSavedByObjectVersion
1070
0
0
VISUALSTYLE
5
F94
102
{ACAD_XDICTIONARY
360
1080
102
}
102
{ACAD_REACTORS
330
F93
102
}
330
F93
100
AcDbVisualStyle
2

70
0
71
2
72
1
73
1
90
2
40
-0.6
41
30.0
62
5
63
7
74
0
91
4
64
7
65
257
75
1
175
1
42
1.0
92
8
66
7
43
1.0
76
1
77
6
78
2
67
7
79
5
170
0
171
0
290
0
174
0
93
13
44
0.0
173
0
291
1
45
0.0
1001
ACAD
1000
AcDbSavedByObjectVersion
1070
0
0
VISUALSTYLE
5
F95
102
{ACAD_XDICTIONARY
360
1082
102
}
102
{ACAD_REACTORS
330
F93
102
}
330
F93
100
AcDbVisualStyle
2

70
1
71
2
72
1
73
1
90
2
40
-0.6
41
30.0
62
5
63
7
74
1
91
4
64
7
65
257
75
1
175
1
42
1.0
92
0
66
257
43
1.0
76
1
77
6
78
2
67
7
79
5
170
0
171
0
290
0
174
0
93
13
44
0.0
173
0
291
1
45
0.0
1001
ACAD
1000
AcDbSavedByObjectVersion
1070
0
0
VISUALSTYLE
5
F96
102
{ACAD_XDICTIONARY
360
1084
102
}
102
{ACAD_REACTORS
330
F93
102
}
330
F93
100
AcDbVisualStyle
2

70
2
71
2
72
2
73
1
90
2
40
-0.6
41
30.0
62
5
63
7
74
0
91
4
64
7
65
257
75
1
175
1
42
1.0
92
0
66
7
43
1.0
76
1
77
6
78
2
67
7
79
5
170
0
171
0
290
0
174
0
93
13
44
0.0
173
0
291
1
45
0.0
1001
ACAD
1000
AcDbSavedByObjectVersion
1070
0
0
VISUALSTYLE
5
F97
102
{ACAD_XDICTIONARY
360
1086
102
}
102
{ACAD_REACTORS
330
F93
102
}
330
F93
100
AcDbVisualStyle
2

70
3
71
2
72
2
73
1
90
2
40
-0.6
41
30.0
62
5
63
7
74
1
91
4
64
7
65
257
75
1
175
1
42
1.0
92
0
66
257
43
1.0
76
1
77
6
78
2
67
7
79
5
170
0
171
0
290
0
174
0
93
13
44
0.0
173
0
291
1
45
0.0
1001
ACAD
1000
AcDbSavedByObjectVersion
1070
0
0
VISUALSTYLE
5
FA4
102
{ACAD_XDICTIONARY
360
10A0
102
}
102
{ACAD_REACTORS
330
F93
102
}
330
F93
100
AcDbVisualStyle
2

70
20
71
2
72
2
73
0
90
0
40
-0.6
41
-30.0
62
5
63
7
74
1
91
4
64
7
65
257
75
1
175
1
42
1.0
92
10
66
7
43
1.0
76
1
77
6
78
2
67
7
79
5
170
0
171
0
290
0
174
0
93
1
44
0.0
173
0
291
1
45
0.0
1001
ACAD
1000
AcDbSavedByObjectVersion
1070
0
0
VISUALSTYLE
5
FA1
102
{ACAD_XDICTIONARY
360
109A
102
}
102
{ACAD_REACTORS
330
F93
102
}
330
F93
100
AcDbVisualStyle
2

70
14
71
2
72
2
73
0
90
0
40
-0.6
41
-30.0
62
5
63
7
74
1
91
4
64
7
65
257
75
7
175
7
42
1.0
92
8
66
7
43
1.0
76
1
77
6
78
2
67
7
79
5
170
0
171
0
290
0
174
0
93
1
44
0.0
173
0
291
1
45
0.0
1001
ACAD
1000
AcDbSavedByObjectVersion
1070
0
0
VISUALSTYLE
5
FA5
102
{ACAD_XDICTIONARY
360
10A2
102
}
102
{ACAD_REACTORS
330
F93
102
}
330
F93
100
AcDbVisualStyle
2

70
21
71
2
72
2
73
0
90
0
40
-0.6
41
-30.0
62
5
63
7
74
1
91
4
64
7
65
257
75
1
175
1
42
1.0
92
9
66
7
43
1.0
76
1
77
6
78
2
67
7
79
5
170
0
171
0
290
0
174
0
93
1
44
0.0
173
0
291
1
45
0.0
1001
ACAD
1000
AcDbSavedByObjectVersion
1070
0
0
VISUALSTYLE
5
F9D
102
{ACAD_XDICTIONARY
360
1092
102
}
102
{ACAD_REACTORS
330
F93
102
}
330
F93
100
AcDbVisualStyle
2

70
8
71
2
72
2
73
0
90
0
40
-0.6
41
-30.0
62
5
63
7
74
1
91
0
64
7
65
257
75
1
175
1
42
1.0
92
8
66
8
43
1.0
76
1
77
6
78
2
67
7
79
5
170
0
171
0
290
0
174
0
93
13
44
0.0
173
0
291
0
45
0.0
1001
ACAD
1000
AcDbSavedByObjectVersion
1070
0
0
VISUALSTYLE
5
FA0
102
{ACAD_XDICTIONARY
360
1098
102
}
102
{ACAD_REACTORS
330
F93
102
}
330
F93
100
AcDbVisualStyle
2

70
13
71
2
72
2
73
0
90
0
40
-0.6
41
-30.0
62
5
63
7
74
1
91
4
64
7
65
257
75
1
175
1
42
1.0
92
12
66
7
43
1.0
76
1
77
6
78
2
67
7
79
5
170
0
171
0
290
0
174
0
93
1
44
0.0
173
0
291
1
45
0.0
1001
ACAD
1000
AcDbSavedByObjectVersion
1070
0
0
DICTIONARYVAR
5
FF3
102
{ACAD_REACTORS
330
FF0
102
}
330
FF0
100
DictionaryVariables
280
0
1
1:1
0
DICTIONARYVAR
5
FF2
102
{ACAD_REACTORS
330
FF0
102
}
330
FF0
100
DictionaryVariables
280
0
1
STANDARD
0
DICTIONARYVAR
5
FF1
102
{ACAD_REACTORS
330
FF0
102
}
330
FF0
100
DictionaryVariables
280
0
1
STANDARD
0
DICTIONARYVAR
5
FF6
102
{ACAD_REACTORS
330
FF0
102
}
330
FF0
100
DictionaryVariables
280
0
1
1
0
DICTIONARYVAR
5
FF5
102
{ACAD_REACTORS
330
FF0
102
}
330
FF0
100
DictionaryVariables
280
0
1
0
0
DICTIONARYVAR
5
FF4
102
{ACAD_REACTORS
330
FF0
102
}
330
FF0
100
DictionaryVariables
280
0
1
127
0
DICTIONARYVAR
5
1078
102
{ACAD_REACTORS
330
FF0
102
}
330
FF0
100
DictionaryVariables
280
0
1
2
0
DICTIONARY
5
10A9
330
FD1
100
AcDbDictionary
280
1
281
1
3
ACAD_XREC_ROUNDTRIP
360
10AA
0
DICTIONARY
5
10A7
330
FD0
100
AcDbDictionary
280
1
281
1
3
ACAD_XREC_ROUNDTRIP
360
10A8
0
DICTIONARY
5
F84
330
F83
100
AcDbDictionary
280
1
281
1
3
ACAD_XREC_ROUNDTRIP
360
FFF
3
BUMPTILE
360
F86
3
DIFFUSETILE
360
F85
3
OPACITYTILE
360
F89
3
REFLECTIONTILE
360
F88
3
REFRACTIONTILE
360
F8A
3
SPECULARTILE
360
F87
0
DICTIONARY
5
F7C
330
F7B
100
AcDbDictionary
280
1
281
1
3
ACAD_XREC_ROUNDTRIP
360
FFE
3
BUMPTILE
360
F7E
3
DIFFUSETILE
360
F7D
3
OPACITYTILE
360
F81
3
REFLECTIONTILE
360
F80
3
REFRACTIONTILE
360
F82
3
SPECULARTILE
360
F7F
0
DICTIONARY
5
F8C
330
F8B
100
AcDbDictionary
280
1
281
1
3
ACAD_XREC_ROUNDTRIP
360
1000
3
BUMPTILE
360
F8E
3
DIFFUSETILE
360
F8D
3
OPACITYTILE
360
F91
3
REFLECTIONTILE
360
F90
3
REFRACTIONTILE
360
F92
3
SPECULARTILE
360
F8F
0
DICTIONARY
5
FF8
330
FA9
100
AcDbDictionary
280
1
281
1
3
ACAD_ROUNDTRIP_2008_TABLESTYLE_CELLSTYLEMAP
360
1079
3
ACAD_XREC_ROUNDTRIP
360
10A6
0
DICTIONARY
5
108A
330
F99
100
AcDbDictionary
280
1
281
1
3
ACAD_XREC_ROUNDTRIP
360
108B
0
DICTIONARY
5
108E
330
F9B
100
AcDbDictionary
280
1
281
1
3
ACAD_XREC_ROUNDTRIP
360
108F
0
DICTIONARY
5
108C
330
F9A
100
AcDbDictionary
280
1
281
1
3
ACAD_XREC_ROUNDTRIP
360
108D
0
DICTIONARY
5
1088
330
F98
100
AcDbDictionary
280
1
281
1
3
ACAD_XREC_ROUNDTRIP
360
1089
0
DICTIONARY
5
1096
330
F9F
100
AcDbDictionary
280
1
281
1
3
ACAD_XREC_ROUNDTRIP
360
1097
0
DICTIONARY
5
109E
330
FA3
100
AcDbDictionary
280
1
281
1
3
ACAD_XREC_ROUNDTRIP
360
109F
0
DICTIONARY
5
1090
330
F9C
100
AcDbDictionary
280
1
281
1
3
ACAD_XREC_ROUNDTRIP
360
1091
0
DICTIONARY
5
1094
330
F9E
100
AcDbDictionary
280
1
281
1
3
ACAD_XREC_ROUNDTRIP
360
1095
0
DICTIONARY
5
10A4
330
FA6
100
AcDbDictionary
280
1
281
1
3
ACAD_XREC_ROUNDTRIP
360
10A5
0
DICTIONARY
5
109C
330
FA2
100
AcDbDictionary
280
1
281
1
3
ACAD_XREC_ROUNDTRIP
360
109D
0
DICTIONARY
5
1080
330
F94
100
AcDbDictionary
280
1
281
1
3
ACAD_XREC_ROUNDTRIP
360
1081
0
DICTIONARY
5
1082
330
F95
100
AcDbDictionary
280
1
281
1
3
ACAD_XREC_ROUNDTRIP
360
1083
0
DICTIONARY
5
1084
330
F96
100
AcDbDictionary
280
1
281
1
3
ACAD_XREC_ROUNDTRIP
360
1085
0
DICTIONARY
5
1086
330
F97
100
AcDbDictionary
280
1
281
1
3
ACAD_XREC_ROUNDTRIP
360
1087
0
DICTIONARY
5
10A0
330
FA4
100
AcDbDictionary
280
1
281
1
3
ACAD_XREC_ROUNDTRIP
360
10A1
0
DICTIONARY
5
109A
330
FA1
100
AcDbDictionary
280
1
281
1
3
ACAD_XREC_ROUNDTRIP
360
109B
0
DICTIONARY
5
10A2
330
FA5
100
AcDbDictionary
280
1
281
1
3
ACAD_XREC_ROUNDTRIP
360
10A3
0
DICTIONARY
5
1092
330
F9D
100
AcDbDictionary
280
1
281
1
3
ACAD_XREC_ROUNDTRIP
360
1093
0
DICTIONARY
5
1098
330
FA0
100
AcDbDictionary
280
1
281
1
3
ACAD_XREC_ROUNDTRIP
360
1099
0
XRECORD
5
10AA
102
{ACAD_REACTORS
330
10A9
102
}
330
10A9
100
AcDbXrecord
280
1
102
SHADEPLOT
70
0
102
SHADEPLOTRESLEVEL
70
2
102
SHADEPLOTCUSTOMDPI
70
300
0
XRECORD
5
10A8
102
{ACAD_REACTORS
330
10A7
102
}
330
10A7
100
AcDbXrecord
280
1
102
SHADEPLOT
70
0
102
SHADEPLOTRESLEVEL
70
2
102
SHADEPLOTCUSTOMDPI
70
300
0
XRECORD
5
FFF
102
{ACAD_REACTORS
330
F84
102
}
330
F84
100
AcDbXrecord
280
1
102
MATERIAL
148
0.0
149
0.0
149
0.0
93
0
94
127
282
0
72
0
77
0
171
0
175
0
179
0
273
0
0
XRECORD
5
F86
102
{ACAD_REACTORS
330
F84
102
}
330
F84
100
AcDbXrecord
280
1
270
1
271
1
0
XRECORD
5
F85
102
{ACAD_REACTORS
330
F84
102
}
330
F84
100
AcDbXrecord
280
1
270
1
271
1
0
XRECORD
5
F89
102
{ACAD_REACTORS
330
F84
102
}
330
F84
100
AcDbXrecord
280
1
270
1
271
1
0
XRECORD
5
F88
102
{ACAD_REACTORS
330
F84
102
}
330
F84
100
AcDbXrecord
280
1
270
1
271
1
0
XRECORD
5
F8A
102
{ACAD_REACTORS
330
F84
102
}
330
F84
100
AcDbXrecord
280
1
270
1
271
1
0
XRECORD
5
F87
102
{ACAD_REACTORS
330
F84
102
}
330
F84
100
AcDbXrecord
280
1
270
1
271
1
0
XRECORD
5
FFE
102
{ACAD_REACTORS
330
F7C
102
}
330
F7C
100
AcDbXrecord
280
1
102
MATERIAL
148
0.0
149
0.0
149
0.0
93
0
94
127
282
0
72
0
77
0
171
0
175
0
179
0
273
0
0
XRECORD
5
F7E
102
{ACAD_REACTORS
330
F7C
102
}
330
F7C
100
AcDbXrecord
280
1
270
1
271
1
0
XRECORD
5
F7D
102
{ACAD_REACTORS
330
F7C
102
}
330
F7C
100
AcDbXrecord
280
1
270
1
271
1
0
XRECORD
5
F81
102
{ACAD_REACTORS
330
F7C
102
}
330
F7C
100
AcDbXrecord
280
1
270
1
271
1
0
XRECORD
5
F80
102
{ACAD_REACTORS
330
F7C
102
}
330
F7C
100
AcDbXrecord
280
1
270
1
271
1
0
XRECORD
5
F82
102
{ACAD_REACTORS
330
F7C
102
}
330
F7C
100
AcDbXrecord
280
1
270
1
271
1
0
XRECORD
5
F7F
102
{ACAD_REACTORS
330
F7C
102
}
330
F7C
100
AcDbXrecord
280
1
270
1
271
1
0
XRECORD
5
1000
102
{ACAD_REACTORS
330
F8C
102
}
330
F8C
100
AcDbXrecord
280
1
102
MATERIAL
148
0.0
149
0.0
149
0.0
93
0
94
127
282
0
72
0
77
0
171
0
175
0
179
0
273
0
0
XRECORD
5
F8E
102
{ACAD_REACTORS
330
F8C
102
}
330
F8C
100
AcDbXrecord
280
1
270
1
271
1
0
XRECORD
5
F8D
102
{ACAD_REACTORS
330
F8C
102
}
330
F8C
100
AcDbXrecord
280
1
270
1
271
1
0
XRECORD
5
F91
102
{ACAD_REACTORS
330
F8C
102
}
330
F8C
100
AcDbXrecord
280
1
270
1
271
1
0
XRECORD
5
F90
102
{ACAD_REACTORS
330
F8C
102
}
330
F8C
100
AcDbXrecord
280
1
270
1
271
1
0
XRECORD
5
F92
102
{ACAD_REACTORS
330
F8C
102
}
330
F8C
100
AcDbXrecord
280
1
270
1
271
1
0
XRECORD
5
F8F
102
{ACAD_REACTORS
330
F8C
102
}
330
F8C
100
AcDbXrecord
280
1
270
1
271
1
0
CELLSTYLEMAP
5
1079
102
{ACAD_REACTORS
330
FF8
102
}
330
FF8
100
AcDbCellStyleMap
90
3
300
CELLSTYLE
1
TABLEFORMAT_BEGIN
90
5
170
1
91
0
92
32768
62
257
93
1
300
CONTENTFORMAT
1
CONTENTFORMAT_BEGIN
90
0
91
0
92
512
93
0
300

40
0.0
140
1.0
94
5
62
0
340
253
144
0.25
309
CONTENTFORMAT_END
171
1
301
MARGIN
1
CELLMARGIN_BEGIN
40
0.06
40
0.06
40
0.06
40
0.06
40
0.18
40
0.18
309
CELLMARGIN_END
94
6
95
1
302
GRIDFORMAT
1
GRIDFORMAT_BEGIN
90
0
91
1
62
0
92
-2
340
0
93
0
40
0.045
309
GRIDFORMAT_END
95
2
302
GRIDFORMAT
1
GRIDFORMAT_BEGIN
90
0
91
1
62
0
92
-2
340
0
93
0
40
0.045
309
GRIDFORMAT_END
95
4
302
GRIDFORMAT
1
GRIDFORMAT_BEGIN
90
0
91
1
62
0
92
-2
340
0
93
0
40
0.045
309
GRIDFORMAT_END
95
8
302
GRIDFORMAT
1
GRIDFORMAT_BEGIN
90
0
91
1
62
0
92
-2
340
0
93
0
40
0.045
309
GRIDFORMAT_END
95
16
302
GRIDFORMAT
1
GRIDFORMAT_BEGIN
90
0
91
1
62
0
92
-2
340
0
93
0
40
0.045
309
GRIDFORMAT_END
95
32
302
GRIDFORMAT
1
GRIDFORMAT_BEGIN
90
0
91
1
62
0
92
-2
340
0
93
0
40
0.045
309
GRIDFORMAT_END
309
TABLEFORMAT_END
1
CELLSTYLE_BEGIN
90
1
91
1
300
_TITLE
309
CELLSTYLE_END
300
CELLSTYLE
1
TABLEFORMAT_BEGIN
90
5
170
1
91
0
92
0
62
257
93
1
300
CONTENTFORMAT
1
CONTENTFORMAT_BEGIN
90
0
91
0
92
512
93
0
300

40
0.0
140
1.0
94
5
62
0
340
253
144
0.18
309
CONTENTFORMAT_END
171
1
301
MARGIN
1
CELLMARGIN_BEGIN
40
0.06
40
0.06
40
0.06
40
0.06
40
0.18
40
0.18
309
CELLMARGIN_END
94
6
95
1
302
GRIDFORMAT
1
GRIDFORMAT_BEGIN
90
0
91
1
62
0
92
-2
340
0
93
0
40
0.045
309
GRIDFORMAT_END
95
2
302
GRIDFORMAT
1
GRIDFORMAT_BEGIN
90
0
91
1
62
0
92
-2
340
0
93
0
40
0.045
309
GRIDFORMAT_END
95
4
302
GRIDFORMAT
1
GRIDFORMAT_BEGIN
90
0
91
1
62
0
92
-2
340
0
93
0
40
0.045
309
GRIDFORMAT_END
95
8
302
GRIDFORMAT
1
GRIDFORMAT_BEGIN
90
0
91
1
62
0
92
-2
340
0
93
0
40
0.045
309
GRIDFORMAT_END
95
16
302
GRIDFORMAT
1
GRIDFORMAT_BEGIN
90
0
91
1
62
0
92
-2
340
0
93
0
40
0.045
309
GRIDFORMAT_END
95
32
302
GRIDFORMAT
1
GRIDFORMAT_BEGIN
90
0
91
1
62
0
92
-2
340
0
93
0
40
0.045
309
GRIDFORMAT_END
309
TABLEFORMAT_END
1
CELLSTYLE_BEGIN
90
2
91
1
300
_HEADER
309
CELLSTYLE_END
300
CELLSTYLE
1
TABLEFORMAT_BEGIN
90
5
170
1
91
0
92
0
62
257
93
1
300
CONTENTFORMAT
1
CONTENTFORMAT_BEGIN
90
0
91
0
92
512
93
0
300

40
0.0
140
1.0
94
2
62
0
340
253
144
0.18
309
CONTENTFORMAT_END
171
1
301
MARGIN
1
CELLMARGIN_BEGIN
40
0.06
40
0.06
40
0.06
40
0.06
40
0.18
40
0.18
309
CELLMARGIN_END
94
6
95
1
302
GRIDFORMAT
1
GRIDFORMAT_BEGIN
90
0
91
1
62
0
92
-2
340
0
93
0
40
0.045
309
GRIDFORMAT_END
95
2
302
GRIDFORMAT
1
GRIDFORMAT_BEGIN
90
0
91
1
62
0
92
-2
340
0
93
0
40
0.045
309
GRIDFORMAT_END
95
4
302
GRIDFORMAT
1
GRIDFORMAT_BEGIN
90
0
91
1
62
0
92
-2
340
0
93
0
40
0.045
309
GRIDFORMAT_END
95
8
302
GRIDFORMAT
1
GRIDFORMAT_BEGIN
90
0
91
1
62
0
92
-2
340
0
93
0
40
0.045
309
GRIDFORMAT_END
95
16
302
GRIDFORMAT
1
GRIDFORMAT_BEGIN
90
0
91
1
62
0
92
-2
340
0
93
0
40
0.045
309
GRIDFORMAT_END
95
32
302
GRIDFORMAT
1
GRIDFORMAT_BEGIN
90
0
91
1
62
0
92
-2
340
0
93
0
40
0.045
309
GRIDFORMAT_END
309
TABLEFORMAT_END
1
CELLSTYLE_BEGIN
90
3
91
2
300
_DATA
309
CELLSTYLE_END
0
XRECORD
5
10A6
102
{ACAD_REACTORS
330
FF8
102
}
330
FF8
100
AcDbXrecord
280
1
102
ACAD_ROUNDTRIP_PRE2007_TABLESTYLE
90
512
91
0
1

92
512
93
0
2

94
512
95
0
3

0
XRECORD
5
108B
102
{ACAD_REACTORS
330
108A
102
}
330
108A
100
AcDbXrecord
280
1
102
RTVSPropertyOp0
70
1
102
RTVSPropertyOp1
70
1
102
RTVSPropertyOp2
70
1
102
RTVSPropertyOp3
70
1
102
RTVSPropertyOp4
70
1
102
RTVSPropertyOp5
70
1
102
RTVSPropertyOp6
70
1
102
RTVSPropertyOp7
70
1
102
RTVSPropertyOp8
70
1
102
RTVSPropertyOp9
70
1
102
RTVSPropertyOp10
70
1
102
RTVSPropertyOp11
70
1
102
RTVSPropertyOp12
70
1
102
RTVSPropertyOp13
70
1
102
RTVSPropertyOp14
70
1
102
RTVSPropertyOp15
70
1
102
RTVSPropertyOp16
70
1
102
RTVSPropertyOp17
70
1
102
RTVSPropertyOp18
70
1
102
RTVSPropertyOp19
70
1
102
RTVSPropertyOp20
70
1
102
RTVSPropertyOp21
70
1
102
RTVSPropertyOp22
70
1
102
RTVSPropertyOp23
70
1
102
RTVSPropertyOp24
70
1
102
RTVSPropertyOp25
70
1
102
RTVSPropertyOp26
70
1
102
RTVSPropertyOp27
70
1
0
XRECORD
5
108F
102
{ACAD_REACTORS
330
108E
102
}
330
108E
100
AcDbXrecord
280
1
102
RTVSPropertyOp0
70
1
102
RTVSPropertyOp1
70
1
102
RTVSPropertyOp2
70
1
102
RTVSPropertyOp3
70
1
102
RTVSPropertyOp4
70
1
102
RTVSPropertyOp5
70
1
102
RTVSPropertyOp6
70
1
102
RTVSPropertyOp7
70
1
102
RTVSPropertyOp8
70
1
102
RTVSPropertyOp9
70
1
102
RTVSPropertyOp10
70
1
102
RTVSPropertyOp11
70
1
102
RTVSPropertyOp12
70
1
102
RTVSPropertyOp13
70
1
102
RTVSPropertyOp14
70
1
102
RTVSPropertyOp15
70
1
102
RTVSPropertyOp16
70
1
102
RTVSPropertyOp17
70
1
102
RTVSPropertyOp18
70
1
102
RTVSPropertyOp19
70
1
102
RTVSPropertyOp20
70
1
102
RTVSPropertyOp21
70
1
102
RTVSPropertyOp22
70
1
102
RTVSPropertyOp23
70
1
102
RTVSPropertyOp24
70
1
102
RTVSPropertyOp25
70
1
102
RTVSPropertyOp26
70
1
102
RTVSPropertyOp27
70
1
0
XRECORD
5
108D
102
{ACAD_REACTORS
330
108C
102
}
330
108C
100
AcDbXrecord
280
1
102
RTVSPropertyOp0
70
1
102
RTVSPropertyOp1
70
1
102
RTVSPropertyOp2
70
1
102
RTVSPropertyOp3
70
1
102
RTVSPropertyOp4
70
1
102
RTVSPropertyOp5
70
1
102
RTVSPropertyOp6
70
1
102
RTVSPropertyOp7
70
1
102
RTVSPropertyOp8
70
1
102
RTVSPropertyOp9
70
1
102
RTVSPropertyOp10
70
1
102
RTVSPropertyOp11
70
1
102
RTVSPropertyOp12
70
1
102
RTVSPropertyOp13
70
1
102
RTVSPropertyOp14
70
1
102
RTVSPropertyOp15
70
1
102
RTVSPropertyOp16
70
1
102
RTVSPropertyOp17
70
1
102
RTVSPropertyOp18
70
1
102
RTVSPropertyOp19
70
1
102
RTVSPropertyOp20
70
1
102
RTVSPropertyOp21
70
1
102
RTVSPropertyOp22
70
1
102
RTVSPropertyOp23
70
1
102
RTVSPropertyOp24
70
1
102
RTVSPropertyOp25
70
1
102
RTVSPropertyOp26
70
1
102
RTVSPropertyOp27
70
1
0
XRECORD
5
1089
102
{ACAD_REACTORS
330
1088
102
}
330
1088
100
AcDbXrecord
280
1
102
RTVSPropertyOp0
70
1
102
RTVSPropertyOp1
70
1
102
RTVSPropertyOp2
70
1
102
RTVSPropertyOp3
70
1
102
RTVSPropertyOp4
70
1
102
RTVSPropertyOp5
70
1
102
RTVSPropertyOp6
70
1
102
RTVSPropertyOp7
70
1
102
RTVSPropertyOp8
70
1
102
RTVSPropertyOp9
70
1
102
RTVSPropertyOp10
70
1
102
RTVSPropertyOp11
70
1
102
RTVSPropertyOp12
70
1
102
RTVSPropertyOp13
70
1
102
RTVSPropertyOp14
70
1
102
RTVSPropertyOp15
70
1
102
RTVSPropertyOp16
70
1
102
RTVSPropertyOp17
70
1
102
RTVSPropertyOp18
70
1
102
RTVSPropertyOp19
70
1
102
RTVSPropertyOp20
70
1
102
RTVSPropertyOp21
70
1
102
RTVSPropertyOp22
70
1
102
RTVSPropertyOp23
70
1
102
RTVSPropertyOp24
70
1
102
RTVSPropertyOp25
70
1
102
RTVSPropertyOp26
70
1
102
RTVSPropertyOp27
70
1
0
XRECORD
5
1097
102
{ACAD_REACTORS
330
1096
102
}
330
1096
100
AcDbXrecord
280
1
102
RTVSPropertyOp0
70
1
102
RTVSPropertyOp1
70
1
102
RTVSPropertyOp2
70
1
102
RTVSPropertyOp3
70
1
102
RTVSPropertyOp4
70
1
102
RTVSPropertyOp5
70
1
102
RTVSPropertyOp6
70
1
102
RTVSPropertyOp7
70
1
102
RTVSPropertyOp8
70
1
102
RTVSPropertyOp9
70
1
102
RTVSPropertyOp10
70
1
102
RTVSPropertyOp11
70
1
102
RTVSPropertyOp12
70
1
102
RTVSPropertyOp13
70
1
102
RTVSPropertyOp14
70
1
102
RTVSPropertyOp15
70
1
102
RTVSPropertyOp16
70
1
102
RTVSPropertyOp17
70
1
102
RTVSPropertyOp18
70
1
102
RTVSPropertyOp19
70
1
102
RTVSPropertyOp20
70
1
102
RTVSPropertyOp21
70
1
102
RTVSPropertyOp22
70
1
102
RTVSPropertyOp23
70
1
102
RTVSPropertyOp24
70
1
102
RTVSPropertyOp25
70
1
102
RTVSPropertyOp26
70
1
102
RTVSPropertyOp27
70
1
0
XRECORD
5
109F
102
{ACAD_REACTORS
330
109E
102
}
330
109E
100
AcDbXrecord
280
1
102
RTVSPropertyOp0
70
1
102
RTVSPropertyOp1
70
1
102
RTVSPropertyOp2
70
1
102
RTVSPropertyOp3
70
1
102
RTVSPropertyOp4
70
1
102
RTVSPropertyOp5
70
1
102
RTVSPropertyOp6
70
1
102
RTVSPropertyOp7
70
1
102
RTVSPropertyOp8
70
1
102
RTVSPropertyOp9
70
1
102
RTVSPropertyOp10
70
1
102
RTVSPropertyOp11
70
1
102
RTVSPropertyOp12
70
1
102
RTVSPropertyOp13
70
1
102
RTVSPropertyOp14
70
1
102
RTVSPropertyOp15
70
1
102
RTVSPropertyOp16
70
1
102
RTVSPropertyOp17
70
1
102
RTVSPropertyOp18
70
1
102
RTVSPropertyOp19
70
1
102
RTVSPropertyOp20
70
1
102
RTVSPropertyOp21
70
1
102
RTVSPropertyOp22
70
1
102
RTVSPropertyOp23
70
1
102
RTVSPropertyOp24
70
1
102
RTVSPropertyOp25
70
1
102
RTVSPropertyOp26
70
1
102
RTVSPropertyOp27
70
1
0
XRECORD
5
1091
102
{ACAD_REACTORS
330
1090
102
}
330
1090
100
AcDbXrecord
280
1
102
RTVSPropertyOp0
70
1
102
RTVSPropertyOp1
70
1
102
RTVSPropertyOp2
70
1
102
RTVSPropertyOp3
70
1
102
RTVSPropertyOp4
70
1
102
RTVSPropertyOp5
70
1
102
RTVSPropertyOp6
70
1
102
RTVSPropertyOp7
70
1
102
RTVSPropertyOp8
70
1
102
RTVSPropertyOp9
70
1
102
RTVSPropertyOp10
70
1
102
RTVSPropertyOp11
70
1
102
RTVSPropertyOp12
70
1
102
RTVSPropertyOp13
70
1
102
RTVSPropertyOp14
70
1
102
RTVSPropertyOp15
70
1
102
RTVSPropertyOp16
70
1
102
RTVSPropertyOp17
70
1
102
RTVSPropertyOp18
70
1
102
RTVSPropertyOp19
70
1
102
RTVSPropertyOp20
70
1
102
RTVSPropertyOp21
70
1
102
RTVSPropertyOp22
70
1
102
RTVSPropertyOp23
70
1
102
RTVSPropertyOp24
70
1
102
RTVSPropertyOp25
70
1
102
RTVSPropertyOp26
70
1
102
RTVSPropertyOp27
70
1
0
XRECORD
5
1095
102
{ACAD_REACTORS
330
1094
102
}
330
1094
100
AcDbXrecord
280
1
102
RTVSPropertyOp0
70
1
102
RTVSPropertyOp1
70
1
102
RTVSPropertyOp2
70
1
102
RTVSPropertyOp3
70
1
102
RTVSPropertyOp4
70
1
102
RTVSPropertyOp5
70
1
102
RTVSPropertyOp6
70
1
102
RTVSPropertyOp7
70
1
102
RTVSPropertyOp8
70
1
102
RTVSPropertyOp9
70
1
102
RTVSPropertyOp10
70
1
102
RTVSPropertyOp11
70
1
102
RTVSPropertyOp12
70
1
102
RTVSPropertyOp13
70
1
102
RTVSPropertyOp14
70
1
102
RTVSPropertyOp15
70
1
102
RTVSPropertyOp16
70
1
102
RTVSPropertyOp17
70
1
102
RTVSPropertyOp18
70
1
102
RTVSPropertyOp19
70
1
102
RTVSPropertyOp20
70
1
102
RTVSPropertyOp21
70
1
102
RTVSPropertyOp22
70
1
102
RTVSPropertyOp23
70
1
102
RTVSPropertyOp24
70
1
102
RTVSPropertyOp25
70
1
102
RTVSPropertyOp26
70
1
102
RTVSPropertyOp27
70
1
0
XRECORD
5
10A5
102
{ACAD_REACTORS
330
10A4
102
}
330
10A4
100
AcDbXrecord
280
1
102
RTVSPropertyOp0
70
0
102
RTVSPropertyOp1
70
0
102
RTVSPropertyOp2
70
0
102
RTVSPropertyOp3
70
0
102
RTVSPropertyOp4
70
0
102
RTVSPropertyOp5
70
0
102
RTVSPropertyOp6
70
0
102
RTVSPropertyOp7
70
0
102
RTVSPropertyOp8
70
0
102
RTVSPropertyOp9
70
0
102
RTVSPropertyOp10
70
0
102
RTVSPropertyOp11
70
0
102
RTVSPropertyOp12
70
0
102
RTVSPropertyOp13
70
0
102
RTVSPropertyOp14
70
2
102
RTVSPropertyOp15
70
0
102
RTVSPropertyOp16
70
0
102
RTVSPropertyOp17
70
0
102
RTVSPropertyOp18
70
0
102
RTVSPropertyOp19
70
0
102
RTVSPropertyOp20
70
0
102
RTVSPropertyOp21
70
0
102
RTVSPropertyOp22
70
0
102
RTVSPropertyOp23
70
0
102
RTVSPropertyOp24
70
0
102
RTVSPropertyOp25
70
0
102
RTVSPropertyOp26
70
0
102
RTVSPropertyOp27
70
0
0
XRECORD
5
109D
102
{ACAD_REACTORS
330
109C
102
}
330
109C
100
AcDbXrecord
280
1
102
RTVSPropertyOp0
70
1
102
RTVSPropertyOp1
70
1
102
RTVSPropertyOp2
70
1
102
RTVSPropertyOp3
70
1
102
RTVSPropertyOp4
70
1
102
RTVSPropertyOp5
70
1
102
RTVSPropertyOp6
70
1
102
RTVSPropertyOp7
70
1
102
RTVSPropertyOp8
70
1
102
RTVSPropertyOp9
70
1
102
RTVSPropertyOp10
70
1
102
RTVSPropertyOp11
70
1
102
RTVSPropertyOp12
70
1
102
RTVSPropertyOp13
70
1
102
RTVSPropertyOp14
70
1
102
RTVSPropertyOp15
70
1
102
RTVSPropertyOp16
70
1
102
RTVSPropertyOp17
70
1
102
RTVSPropertyOp18
70
1
102
RTVSPropertyOp19
70
1
102
RTVSPropertyOp20
70
1
102
RTVSPropertyOp21
70
1
102
RTVSPropertyOp22
70
1
102
RTVSPropertyOp23
70
1
102
RTVSPropertyOp24
70
1
102
RTVSPropertyOp25
70
1
102
RTVSPropertyOp26
70
1
102
RTVSPropertyOp27
70
1
0
XRECORD
5
1081
102
{ACAD_REACTORS
330
1080
102
}
330
1080
100
AcDbXrecord
280
1
102
RTVSPropertyOp0
70
1
102
RTVSPropertyOp1
70
1
102
RTVSPropertyOp2
70
1
102
RTVSPropertyOp3
70
1
102
RTVSPropertyOp4
70
1
102
RTVSPropertyOp5
70
1
102
RTVSPropertyOp6
70
1
102
RTVSPropertyOp7
70
1
102
RTVSPropertyOp8
70
1
102
RTVSPropertyOp9
70
1
102
RTVSPropertyOp10
70
1
102
RTVSPropertyOp11
70
1
102
RTVSPropertyOp12
70
1
102
RTVSPropertyOp13
70
1
102
RTVSPropertyOp14
70
1
102
RTVSPropertyOp15
70
1
102
RTVSPropertyOp16
70
1
102
RTVSPropertyOp17
70
1
102
RTVSPropertyOp18
70
1
102
RTVSPropertyOp19
70
1
102
RTVSPropertyOp20
70
1
102
RTVSPropertyOp21
70
1
102
RTVSPropertyOp22
70
1
102
RTVSPropertyOp23
70
1
102
RTVSPropertyOp24
70
1
102
RTVSPropertyOp25
70
1
102
RTVSPropertyOp26
70
1
102
RTVSPropertyOp27
70
1
0
XRECORD
5
1083
102
{ACAD_REACTORS
330
1082
102
}
330
1082
100
AcDbXrecord
280
1
102
RTVSPropertyOp0
70
1
102
RTVSPropertyOp1
70
1
102
RTVSPropertyOp2
70
1
102
RTVSPropertyOp3
70
1
102
RTVSPropertyOp4
70
1
102
RTVSPropertyOp5
70
1
102
RTVSPropertyOp6
70
1
102
RTVSPropertyOp7
70
1
102
RTVSPropertyOp8
70
1
102
RTVSPropertyOp9
70
1
102
RTVSPropertyOp10
70
1
102
RTVSPropertyOp11
70
1
102
RTVSPropertyOp12
70
1
102
RTVSPropertyOp13
70
1
102
RTVSPropertyOp14
70
1
102
RTVSPropertyOp15
70
1
102
RTVSPropertyOp16
70
1
102
RTVSPropertyOp17
70
1
102
RTVSPropertyOp18
70
1
102
RTVSPropertyOp19
70
1
102
RTVSPropertyOp20
70
1
102
RTVSPropertyOp21
70
1
102
RTVSPropertyOp22
70
1
102
RTVSPropertyOp23
70
1
102
RTVSPropertyOp24
70
1
102
RTVSPropertyOp25
70
1
102
RTVSPropertyOp26
70
1
102
RTVSPropertyOp27
70
1
0
XRECORD
5
1085
102
{ACAD_REACTORS
330
1084
102
}
330
1084
100
AcDbXrecord
280
1
102
RTVSPropertyOp0
70
1
102
RTVSPropertyOp1
70
1
102
RTVSPropertyOp2
70
1
102
RTVSPropertyOp3
70
1
102
RTVSPropertyOp4
70
1
102
RTVSPropertyOp5
70
1
102
RTVSPropertyOp6
70
1
102
RTVSPropertyOp7
70
1
102
RTVSPropertyOp8
70
1
102
RTVSPropertyOp9
70
1
102
RTVSPropertyOp10
70
1
102
RTVSPropertyOp11
70
1
102
RTVSPropertyOp12
70
1
102
RTVSPropertyOp13
70
1
102
RTVSPropertyOp14
70
1
102
RTVSPropertyOp15
70
1
102
RTVSPropertyOp16
70
1
102
RTVSPropertyOp17
70
1
102
RTVSPropertyOp18
70
1
102
RTVSPropertyOp19
70
1
102
RTVSPropertyOp20
70
1
102
RTVSPropertyOp21
70
1
102
RTVSPropertyOp22
70
1
102
RTVSPropertyOp23
70
1
102
RTVSPropertyOp24
70
1
102
RTVSPropertyOp25
70
1
102
RTVSPropertyOp26
70
1
102
RTVSPropertyOp27
70
1
0
XRECORD
5
1087
102
{ACAD_REACTORS
330
1086
102
}
330
1086
100
AcDbXrecord
280
1
102
RTVSPropertyOp0
70
1
102
RTVSPropertyOp1
70
1
102
RTVSPropertyOp2
70
1
102
RTVSPropertyOp3
70
1
102
RTVSPropertyOp4
70
1
102
RTVSPropertyOp5
70
1
102
RTVSPropertyOp6
70
1
102
RTVSPropertyOp7
70
1
102
RTVSPropertyOp8
70
1
102
RTVSPropertyOp9
70
1
102
RTVSPropertyOp10
70
1
102
RTVSPropertyOp11
70
1
102
RTVSPropertyOp12
70
1
102
RTVSPropertyOp13
70
1
102
RTVSPropertyOp14
70
1
102
RTVSPropertyOp15
70
1
102
RTVSPropertyOp16
70
1
102
RTVSPropertyOp17
70
1
102
RTVSPropertyOp18
70
1
102
RTVSPropertyOp19
70
1
102
RTVSPropertyOp20
70
1
102
RTVSPropertyOp21
70
1
102
RTVSPropertyOp22
70
1
102
RTVSPropertyOp23
70
1
102
RTVSPropertyOp24
70
1
102
RTVSPropertyOp25
70
1
102
RTVSPropertyOp26
70
1
102
RTVSPropertyOp27
70
1
0
XRECORD
5
10A1
102
{ACAD_REACTORS
330
10A0
102
}
330
10A0
100
AcDbXrecord
280
1
102
RTVSPropertyOp0
70
0
102
RTVSPropertyOp1
70
0
102
RTVSPropertyOp2
70
0
102
RTVSPropertyOp3
70
0
102
RTVSPropertyOp4
70
0
102
RTVSPropertyOp5
70
0
102
RTVSPropertyOp6
70
0
102
RTVSPropertyOp7
70
0
102
RTVSPropertyOp8
70
0
102
RTVSPropertyOp9
70
0
102
RTVSPropertyOp10
70
0
102
RTVSPropertyOp11
70
0
102
RTVSPropertyOp12
70
0
102
RTVSPropertyOp13
70
0
102
RTVSPropertyOp14
70
2
102
RTVSPropertyOp15
70
0
102
RTVSPropertyOp16
70
0
102
RTVSPropertyOp17
70
0
102
RTVSPropertyOp18
70
0
102
RTVSPropertyOp19
70
0
102
RTVSPropertyOp20
70
0
102
RTVSPropertyOp21
70
0
102
RTVSPropertyOp22
70
0
102
RTVSPropertyOp23
70
0
102
RTVSPropertyOp24
70
0
102
RTVSPropertyOp25
70
0
102
RTVSPropertyOp26
70
0
102
RTVSPropertyOp27
70
0
0
XRECORD
5
109B
102
{ACAD_REACTORS
330
109A
102
}
330
109A
100
AcDbXrecord
280
1
102
RTVSPropertyOp0
70
1
102
RTVSPropertyOp1
70
1
102
RTVSPropertyOp2
70
1
102
RTVSPropertyOp3
70
1
102
RTVSPropertyOp4
70
1
102
RTVSPropertyOp5
70
1
102
RTVSPropertyOp6
70
1
102
RTVSPropertyOp7
70
1
102
RTVSPropertyOp8
70
1
102
RTVSPropertyOp9
70
1
102
RTVSPropertyOp10
70
1
102
RTVSPropertyOp11
70
1
102
RTVSPropertyOp12
70
1
102
RTVSPropertyOp13
70
1
102
RTVSPropertyOp14
70
1
102
RTVSPropertyOp15
70
1
102
RTVSPropertyOp16
70
1
102
RTVSPropertyOp17
70
1
102
RTVSPropertyOp18
70
1
102
RTVSPropertyOp19
70
1
102
RTVSPropertyOp20
70
1
102
RTVSPropertyOp21
70
1
102
RTVSPropertyOp22
70
1
102
RTVSPropertyOp23
70
1
102
RTVSPropertyOp24
70
1
102
RTVSPropertyOp25
70
1
102
RTVSPropertyOp26
70
1
102
RTVSPropertyOp27
70
1
0
XRECORD
5
10A3
102
{ACAD_REACTORS
330
10A2
102
}
330
10A2
100
AcDbXrecord
280
1
102
RTVSPropertyOp0
70
0
102
RTVSPropertyOp1
70
0
102
RTVSPropertyOp2
70
0
102
RTVSPropertyOp3
70
0
102
RTVSPropertyOp4
70
0
102
RTVSPropertyOp5
70
0
102
RTVSPropertyOp6
70
0
102
RTVSPropertyOp7
70
0
102
RTVSPropertyOp8
70
0
102
RTVSPropertyOp9
70
0
102
RTVSPropertyOp10
70
0
102
RTVSPropertyOp11
70
0
102
RTVSPropertyOp12
70
0
102
RTVSPropertyOp13
70
0
102
RTVSPropertyOp14
70
2
102
RTVSPropertyOp15
70
0
102
RTVSPropertyOp16
70
0
102
RTVSPropertyOp17
70
0
102
RTVSPropertyOp18
70
0
102
RTVSPropertyOp19
70
0
102
RTVSPropertyOp20
70
0
102
RTVSPropertyOp21
70
0
102
RTVSPropertyOp22
70
0
102
RTVSPropertyOp23
70
0
102
RTVSPropertyOp24
70
0
102
RTVSPropertyOp25
70
0
102
RTVSPropertyOp26
70
0
102
RTVSPropertyOp27
70
0
0
XRECORD
5
1093
102
{ACAD_REACTORS
330
1092
102
}
330
1092
100
AcDbXrecord
280
1
102
RTVSPropertyOp0
70
1
102
RTVSPropertyOp1
70
1
102
RTVSPropertyOp2
70
1
102
RTVSPropertyOp3
70
1
102
RTVSPropertyOp4
70
1
102
RTVSPropertyOp5
70
1
102
RTVSPropertyOp6
70
1
102
RTVSPropertyOp7
70
1
102
RTVSPropertyOp8
70
1
102
RTVSPropertyOp9
70
1
102
RTVSPropertyOp10
70
1
102
RTVSPropertyOp11
70
1
102
RTVSPropertyOp12
70
1
102
RTVSPropertyOp13
70
1
102
RTVSPropertyOp14
70
1
102
RTVSPropertyOp15
70
1
102
RTVSPropertyOp16
70
1
102
RTVSPropertyOp17
70
1
102
RTVSPropertyOp18
70
1
102
RTVSPropertyOp19
70
1
102
RTVSPropertyOp20
70
1
102
RTVSPropertyOp21
70
1
102
RTVSPropertyOp22
70
1
102
RTVSPropertyOp23
70
1
102
RTVSPropertyOp24
70
1
102
RTVSPropertyOp25
70
1
102
RTVSPropertyOp26
70
1
102
RTVSPropertyOp27
70
1
0
XRECORD
5
1099
102
{ACAD_REACTORS
330
1098
102
}
330
1098
100
AcDbXrecord
280
1
102
RTVSPropertyOp0
70
1
102
RTVSPropertyOp1
70
1
102
RTVSPropertyOp2
70
1
102
RTVSPropertyOp3
70
1
102
RTVSPropertyOp4
70
1
102
RTVSPropertyOp5
70
1
102
RTVSPropertyOp6
70
1
102
RTVSPropertyOp7
70
1
102
RTVSPropertyOp8
70
1
102
RTVSPropertyOp9
70
1
102
RTVSPropertyOp10
70
1
102
RTVSPropertyOp11
70
1
102
RTVSPropertyOp12
70
1
102
RTVSPropertyOp13
70
1
102
RTVSPropertyOp14
70
1
102
RTVSPropertyOp15
70
1
102
RTVSPropertyOp16
70
1
102
RTVSPropertyOp17
70
1
102
RTVSPropertyOp18
70
1
102
RTVSPropertyOp19
70
1
102
RTVSPropertyOp20
70
1
102
RTVSPropertyOp21
70
1
102
RTVSPropertyOp22
70
1
102
RTVSPropertyOp23
70
1
102
RTVSPropertyOp24
70
1
102
RTVSPropertyOp25
70
1
102
RTVSPropertyOp26
70
1
102
RTVSPropertyOp27
70
1
0
ENDSEC
0
EOF
