0
SECTION
2
HEADER
9
$ACADVER
1
AC1015
9
$ACADMAINTVER
70
20
9
$DWGCODEPAGE
3
ANSI_1252
9
$INSBASE
10
0.0
20
0.0
30
0.0
9
$EXTMIN
10
-150.000000000000
20
-105.000000000000
30
0.0
9
$EXTMAX
10
150.000000000000
20
105.000000000000
30
0.0
9
$LIMMIN
10
0.0
20
0.0
9
$LIMMAX
10
12.0
20
9.0
9
$ORTHOMODE
70
0
9
$REGENMODE
70
1
9
$FILLMODE
70
1
9
$QTEXTMODE
70
0
9
$MIRRTEXT
70
1
9
$LTSCALE
40
1.0
9
$ATTMODE
70
1
9
$TEXTSIZE
40
0.2
9
$TRACEWID
40
0.05
9
$TEXTSTYLE
7
Standard
9
$CLAYER
8
0
9
$CELTYPE
6
ByLayer
9
$CECOLOR
62
256
9
$CELTSCALE
40
1.0
9
$DISPSILH
70
0
9
$DIMSCALE
40
1.0
9
$DIMASZ
40
2.5
9
$DIMEXO
40
0.625
9
$DIMDLI
40
0.38
9
$DIMRND
40
0.0
9
$DIMDLE
40
0.0
9
$DIMEXE
40
1.25
9
$DIMTP
40
0.0
9
$DIMTM
40
0.000000001
9
$DIMTXT
40
2.5
9
$DIMCEN
40
0.09
9
$DIMTSZ
40
0.0
9
$DIMTOL
70
1
9
$DIMLIM
70
0
9
$DIMTIH
70
0
9
$DIMTOH
70
0
9
$DIMSE1
70
0
9
$DIMSE2
70
0
9
$DIMTAD
70
1
9
$DIMZIN
70
0
9
$DIMBLK
1
VDDIM_DEFAULT
9
$DIMASO
70
1
9
$DIMSHO
70
1
9
$DIMPOST
1

9
$DIMAPOST
1

9
$DIMALT
70
0
9
$DIMALTD
70
2
9
$DIMALTF
40
25.4
9
$DIMLFAC
40
1.00000000000000
9
$DIMTOFL
70
0
9
$DIMTVP
40
0.0
9
$DIMTIX
70
0
9
$DIMSOXD
70
0
9
$DIMSAH
70
0
9
$DIMBLK1
1

9
$DIMBLK2
1

9
$DIMSTYLE
2
BEM-ISBE
9
$DIMCLRD
70
0
9
$DIMCLRE
70
0
9
$DIMCLRT
70
0
9
$DIMTFAC
40
0.5
9
$DIMGAP
40
0.625
9
$DIMJUST
70
0
9
$DIMSD1
70
0
9
$DIMSD2
70
0
9
$DIMTOLJ
70
1
9
$DIMTZIN
70
0
9
$DIMALTZ
70
0
9
$DIMALTTZ
70
0
9
$DIMUPT
70
0
9
$DIMDEC
70
3
9
$DIMTDEC
70
3
9
$DIMALTU
70
2
9
$DIMALTTD
70
2
9
$DIMTXSTY
7
Standard
9
$DIMAUNIT
70
0
9
$DIMADEC
70
3
9
$DIMALTRND
40
0.0
9
$DIMAZIN
70
0
9
$DIMDSEP
70
46
9
$DIMATFIT
70
3
9
$DIMFRAC
70
0
9
$DIMLDRBLK
1

9
$DIMLUNIT
70
2
9
$DIMLWD
70
-2
9
$DIMLWE
70
-2
9
$DIMTMOVE
70
0
9
$LUNITS
70
2
9
$LUPREC
70
4
9
$SKETCHINC
40
0.1
9
$FILLETRAD
40
0.5
9
$AUNITS
70
0
9
$AUPREC
70
0
9
$MENU
1
.
9
$ELEVATION
40
0.0
9
$PELEVATION
40
0.0
9
$THICKNESS
40
0.0
9
$LIMCHECK
70
0
9
$CHAMFERA
40
0.5
9
$CHAMFERB
40
0.5
9
$CHAMFERC
40
1.0
9
$CHAMFERD
40
0.0
9
$SKPOLY
70
0
9
$TDCREATE
40
0.0
9
$TDUCREATE
40
0.0
9
$TDUPDATE
40
0.0
9
$TDUUPDATE
40
0.0
9
$TDINDWG
40
0.0
9
$TDUSRTIMER
40
0.0
9
$USRTIMER
70
1
9
$ANGBASE
50
0.0
9
$ANGDIR
70
0
9
$PDMODE
70
0
9
$PDSIZE
40
0.0
9
$PLINEWID
40
0.0
9
$SPLFRAME
70
0
9
$SPLINETYPE
70
6
9
$SPLINESEGS
70
8
9
$HANDSEED
5
10AB
9
$SURFTAB1
70
6
9
$SURFTAB2
70
6
9
$SURFTYPE
70
6
9
$SURFU
70
6
9
$SURFV
70
6
9
$UCSBASE
2

9
$UCSNAME
2

9
$UCSORG
10
0.0
20
0.0
30
0.0
9
$UCSXDIR
10
1.0
20
0.0
30
0.0
9
$UCSYDIR
10
0.0
20
1.0
30
0.0
9
$UCSORTHOREF
2

9
$UCSORTHOVIEW
70
0
9
$UCSORGTOP
10
0.0
20
0.0
30
0.0
9
$UCSORGBOTTOM
10
0.0
20
0.0
30
0.0
9
$UCSORGLEFT
10
0.0
20
0.0
30
0.0
9
$UCSORGRIGHT
10
0.0
20
0.0
30
0.0
9
$UCSORGFRONT
10
0.0
20
0.0
30
0.0
9
$UCSORGBACK
10
0.0
20
0.0
30
0.0
9
$PUCSBASE
2

9
$PUCSNAME
2

9
$PUCSORG
10
0.0
20
0.0
30
0.0
9
$PUCSXDIR
10
1.0
20
0.0
30
0.0
9
$PUCSYDIR
10
0.0
20
1.0
30
0.0
9
$PUCSORTHOREF
2

9
$PUCSORTHOVIEW
70
0
9
$PUCSORGTOP
10
0.0
20
0.0
30
0.0
9
$PUCSORGBOTTOM
10
0.0
20
0.0
30
0.0
9
$PUCSORGLEFT
10
0.0
20
0.0
30
0.0
9
$PUCSORGRIGHT
10
0.0
20
0.0
30
0.0
9
$PUCSORGFRONT
10
0.0
20
0.0
30
0.0
9
$PUCSORGBACK
10
0.0
20
0.0
30
0.0
9
$USERI1
70
0
9
$USERI2
70
0
9
$USERI3
70
0
9
$USERI4
70
0
9
$USERI5
70
0
9
$USERR1
40
0.0
9
$USERR2
40
0.0
9
$USERR3
40
0.0
9
$USERR4
40
0.0
9
$USERR5
40
0.0
9
$WORLDVIEW
70
1
9
$SHADEDGE
70
3
9
$SHADEDIF
70
70
9
$TILEMODE
70
1
9
$MAXACTVP
70
64
9
$PINSBASE
10
0.0
20
0.0
30
0.0
9
$PLIMCHECK
70
0
9
$PEXTMIN
10
1.000000000000000E+20
20
1.000000000000000E+20
30
1.000000000000000E+20
9
$PEXTMAX
10
-1.000000000000000E+20
20
-1.000000000000000E+20
30
-1.000000000000000E+20
9
$PLIMMIN
10
0.0
20
0.0
9
$PLIMMAX
10
12.0
20
9.0
9
$UNITMODE
70
0
9
$VISRETAIN
70
1
9
$PLINEGEN
70
0
9
$PSLTSCALE
70
1
9
$TREEDEPTH
70
3020
9
$CMLSTYLE
2
Standard
9
$CMLJUST
70
0
9
$CMLSCALE
40
1.0
9
$PROXYGRAPHICS
70
1
9
$MEASUREMENT
70
0
9
$CELWEIGHT
370
-1
9
$ENDCAPS
280
0
9
$JOINSTYLE
280
0
9
$LWDISPLAY
290
0
9
$INSUNITS
70
4
9
$HYPERLINKBASE
1

9
$STYLESHEET
1

9
$XEDIT
290
1
9
$CEPSNTYPE
380
0
9
$PSTYLEMODE
290
0
9
$FINGERPRINTGUID
2
{FAEB1C30-E019-11D5-929B-00C0DF256EC4}
9
$VERSIONGUID
2
{04C5C4E4-4947-4D90-8812-D401569E61F7}
9
$EXTNAMES
290
1
9
$PSVPSCALE
40
0.0
9
$OLESTARTUP
290
0
0
ENDSEC
0
SECTION
2
CLASSES
0
CLASS
1
ACDBDICTIONARYWDFLT
2
AcDbDictionaryWithDefault
3
ObjectDBX Classes
90
0
280
0
281
0
0
CLASS
1
ACDBPLACEHOLDER
2
AcDbPlaceHolder
3
ObjectDBX Classes
90
0
280
0
281
0
0
CLASS
1
LAYOUT
2
AcDbLayout
3
ObjectDBX Classes
90
0
280
0
281
0
0
CLASS
1
MATERIAL
2
AcDbMaterial
3
ObjectDBX Classes
90
1153
280
0
281
0
0
CLASS
1
VISUALSTYLE
2
AcDbVisualStyle
3
ObjectDBX Classes
90
4095
280
0
281
0
0
CLASS
1
TABLESTYLE
2
AcDbTableStyle
3
ObjectDBX Classes
90
4095
280
0
281
0
0
CLASS
1
SCALE
2
AcDbScale
3
ObjectDBX Classes
90
1153
280
0
281
0
0
CLASS
1
MLEADERSTYLE
2
AcDbMLeaderStyle
3
ACDB_MLEADERSTYLE_CLASS
90
4095
280
0
281
0
0
CLASS
1
DICTIONARYVAR
2
AcDbDictionaryVar
3
ObjectDBX Classes
90
0
280
0
281
0
0
CLASS
1
CELLSTYLEMAP
2
AcDbCellStyleMap
3
ObjectDBX Classes
90
1152
280
0
281
0
0
ENDSEC
0
SECTION
2
TABLES
0
TABLE
2
VPORT
5
24A
330
0
100
AcDbSymbolTable
70
1
0
VPORT
5
26B
330
24A
100
AcDbSymbolTableRecord
100
AcDbViewportTableRecord
2
*Active
70
0
10
0.0
20
0.0
11
1.0
21
1.0
12
0.000000000000000
22
0.000000000000000
13
0.0
23
0.0
14
10.0
24
10.0
15
10.0
25
10.0
16
0.0
26
0.0
36
1.0
17
0.0
27
0.0
37
0.0
40
210.000000000000
41
1.42857142857143
42
1.0
43
0.0
44
0.0
50
0.0
51
0.0000000000007958
71
0
72
100
73
1
74
3
75
0
76
0
77
0
78
1
281
0
65
1
110
0.0
120
0.0
130
0.0
111
1.0
121
0.0
131
0.0
112
0.0
122
1.0
132
0.0
79
0
146
0.0
0
ENDTAB
0
TABLE
2
LTYPE
5
247
330
0
100
AcDbSymbolTable
70
25
0
LTYPE
5
256
330
247
100
AcDbSymbolTableRecord
100
AcDbLinetypeTableRecord
2
ByBlock
70
0
3

72
65
73
0
40
0.0
0
LTYPE
5
257
330
247
100
AcDbSymbolTableRecord
100
AcDbLinetypeTableRecord
2
ByLayer
70
0
3

72
65
73
0
40
0.0
0
LTYPE
5
258
330
247
100
AcDbSymbolTableRecord
100
AcDbLinetypeTableRecord
2
Continuous
70
0
3
Solid line
72
65
73
0
40
0.0
0
LTYPE
5
273
330
247
100
AcDbSymbolTableRecord
100
AcDbLinetypeTableRecord
2
CENTER
70
0
3
Center ____ _ ____ _ ____ _ ____ _ ____ _ ____
72
65
73
4
40
2.0
49
1.25
74
0
49
-0.25
74
0
49
0.25
74
0
49
-0.25
74
0
0
LTYPE
5
274
330
247
100
AcDbSymbolTableRecord
100
AcDbLinetypeTableRecord
2
DASHDOT
70
0
3
Dashdot __ . __ . __ . __ . __ . __ . __ . __
72
65
73
4
40
1.0
49
0.5
74
0
49
-0.25
74
0
49
0.0
74
0
49
-0.25
74
0
0
LTYPE
5
275
330
247
100
AcDbSymbolTableRecord
100
AcDbLinetypeTableRecord
2
DASHED
70
0
3
Dashed __ __ __ __ __ __ __ __ __ __ __ __ __ _
72
65
73
2
40
0.75
49
0.5
74
0
49
-0.25
74
0
0
LTYPE
5
276
330
247
100
AcDbSymbolTableRecord
100
AcDbLinetypeTableRecord
2
HIDDEN
70
0
3
Hidden __ __ __ __ __ __ __ __ __ __ __ __ __ __
72
65
73
2
40
0.375
49
0.25
74
0
49
-0.125
74
0
0
LTYPE
5
277
330
247
100
AcDbSymbolTableRecord
100
AcDbLinetypeTableRecord
2
HIDDEN2
70
0
3
Hidden2 _ _ _ _ _ _ _ _ _ _ _ _ _ _ _ _ _
72
65
73
2
40
0.1875
49
0.125
74
0
49
-0.0625
74
0
0
LTYPE
5
278
330
247
100
AcDbSymbolTableRecord
100
AcDbLinetypeTableRecord
2
BORDER
70
0
3
Border __ __ . __ __ . __ __ . __ __ . __ __ .
72
65
73
6
40
1.75
49
0.5
74
0
49
-0.25
74
0
49
0.5
74
0
49
-0.25
74
0
49
0.0
74
0
49
-0.25
74
0
0
LTYPE
5
279
330
247
100
AcDbSymbolTableRecord
100
AcDbLinetypeTableRecord
2
BORDER2
70
0
3
Border2 __.__.__.__.__.__.__.__.__.__.__.
72
65
73
6
40
0.875
49
0.25
74
0
49
-0.125
74
0
49
0.25
74
0
49
-0.125
74
0
49
0.0
74
0
49
-0.125
74
0
0
LTYPE
5
27A
330
247
100
AcDbSymbolTableRecord
100
AcDbLinetypeTableRecord
2
BORDERX2
70
0
3
Borderx2  ____  ____  .  ____  ____  .  ___
72
65
73
6
40
3.5
49
1.0
74
0
49
-0.5
74
0
49
1.0
74
0
49
-0.5
74
0
49
0.0
74
0
49
-0.5
74
0
0
LTYPE
5
27B
330
247
100
AcDbSymbolTableRecord
100
AcDbLinetypeTableRecord
2
CENTER2
70
0
3
Center2  ___ _ ___ _ ___ _ ___ _ ___ _ ___
72
65
73
4
40
1.125
49
0.75
74
0
49
-0.125
74
0
49
0.125
74
0
49
-0.125
74
0
0
LTYPE
5
27C
330
247
100
AcDbSymbolTableRecord
100
AcDbLinetypeTableRecord
2
CENTERX2
70
0
3
Centerx2  ________  __  ________  __  _____
72
65
73
4
40
4.0
49
2.5
74
0
49
-0.5
74
0
49
0.5
74
0
49
-0.5
74
0
0
LTYPE
5
27D
330
247
100
AcDbSymbolTableRecord
100
AcDbLinetypeTableRecord
2
DASHDOT2
70
0
3
Dashdot2  _._._._._._._._._._._._._._._.
72
65
73
4
40
0.5
49
0.25
74
0
49
-0.125
74
0
49
0.0
74
0
49
-0.125
74
0
0
LTYPE
5
27E
330
247
100
AcDbSymbolTableRecord
100
AcDbLinetypeTableRecord
2
DASHDOTX2
70
0
3
Dashdotx2 ____  .  ____  .  ____  .  ___
72
65
73
4
40
2.0
49
1.0
74
0
49
-0.5
74
0
49
0.0
74
0
49
-0.5
74
0
0
LTYPE
5
27F
330
247
100
AcDbSymbolTableRecord
100
AcDbLinetypeTableRecord
2
DASHED2
70
0
3
Dashed2 _ _ _ _ _ _ _ _ _ _ _ _ _ _ _ _ _
72
65
73
2
40
0.375
49
0.25
74
0
49
-0.125
74
0
0
LTYPE
5
280
330
247
100
AcDbSymbolTableRecord
100
AcDbLinetypeTableRecord
2
DASHEDX2
70
0
3
Dashedx2 ____  ____  ____  ____  ____  ___
72
65
73
2
40
1.5
49
1.0
74
0
49
-0.5
74
0
0
LTYPE
5
281
330
247
100
AcDbSymbolTableRecord
100
AcDbLinetypeTableRecord
2
DIVIDE
70
0
3
Divide ____ . . ____ . . ____ . . ____ . . ____
72
65
73
6
40
1.25
49
0.5
74
0
49
-0.25
74
0
49
0.0
74
0
49
-0.25
74
0
49
0.0
74
0
49
-0.25
74
0
0
LTYPE
5
282
330
247
100
AcDbSymbolTableRecord
100
AcDbLinetypeTableRecord
2
DIVIDE2
70
0
3
Divide2 __..__..__..__..__..__..__..__.._
72
65
73
6
40
0.625
49
0.25
74
0
49
-0.125
74
0
49
0.0
74
0
49
-0.125
74
0
49
0.0
74
0
49
-0.125
74
0
0
LTYPE
5
283
330
247
100
AcDbSymbolTableRecord
100
AcDbLinetypeTableRecord
2
DIVIDEX2
70
0
3
Dividex2 ________  .  .  ________  .  .  _
72
65
73
6
40
2.5
49
1.0
74
0
49
-0.5
74
0
49
0.0
74
0
49
-0.5
74
0
49
0.0
74
0
49
-0.5
74
0
0
LTYPE
5
284
330
247
100
AcDbSymbolTableRecord
100
AcDbLinetypeTableRecord
2
DOT
70
0
3
Dot . . . . . . . . . . . . . . . . . . . . . . . .
72
65
73
2
40
0.25
49
0.0
74
0
49
-0.25
74
0
0
LTYPE
5
285
330
247
100
AcDbSymbolTableRecord
100
AcDbLinetypeTableRecord
2
DOT2
70
0
3
Dot2 ........................................
72
65
73
2
40
0.125
49
0.0
74
0
49
-0.125
74
0
0
LTYPE
5
286
330
247
100
AcDbSymbolTableRecord
100
AcDbLinetypeTableRecord
2
DOTX2
70
0
3
Dotx2 .  .  .  .  .  .  .  .  .  .  .  .  .  .
72
65
73
2
40
0.5
49
0.0
74
0
49
-0.5
74
0
0
LTYPE
5
287
330
247
100
AcDbSymbolTableRecord
100
AcDbLinetypeTableRecord
2
HIDDENX2
70
0
3
Hiddenx2 ____ ____ ____ ____ ____ ____ ____
72
65
73
2
40
0.75
49
0.5
74
0
49
-0.25
74
0
0
LTYPE
5
288
330
247
100
AcDbSymbolTableRecord
100
AcDbLinetypeTableRecord
2
PHANTOM
70
0
3
Phantom ______  __  __  ______  __  __  ______
72
65
73
6
40
2.5
49
1.25
74
0
49
-0.25
74
0
49
0.25
74
0
49
-0.25
74
0
49
0.25
74
0
49
-0.25
74
0
0
LTYPE
5
289
330
247
100
AcDbSymbolTableRecord
100
AcDbLinetypeTableRecord
2
PHANTOM2
70
0
3
Phantom2 ___ _ _ ___ _ _ ___ _ _ ___ _ _
72
65
73
6
40
1.25
49
0.625
74
0
49
-0.125
74
0
49
0.125
74
0
49
-0.125
74
0
49
0.125
74
0
49
-0.125
74
0
0
LTYPE
5
28A
330
247
100
AcDbSymbolTableRecord
100
AcDbLinetypeTableRecord
2
PHANTOMX2
70
0
3
Phantomx2 ____________    ____    ____   _
72
65
73
6
40
5.0
49
2.5
74
0
49
-0.5
74
0
49
0.5
74
0
49
-0.5
74
0
49
0.5
74
0
49
-0.5
74
0
0
ENDTAB
0
TABLE
2
LAYER
5
244
330
0
100
AcDbSymbolTable
70
6
0
LAYER
5
252
330
244
100
AcDbSymbolTableRecord
100
AcDbLayerTableRecord
2
0
70
0
62
7
6
Continuous
370
0
390
251
0
LAYER
5
23F
330
244
100
AcDbSymbolTableRecord
100
AcDbLayerTableRecord
2
Bemassung
70
0
 62
   7
6
Continuous
370
0
390
251
0
LAYER
5
240
330
244
100
AcDbSymbolTableRecord
100
AcDbLayerTableRecord
2
Rahmen
70
0
 62
   7
6
Continuous
370
0
390
251
0
LAYER
5
241
330
244
100
AcDbSymbolTableRecord
100
AcDbLayerTableRecord
2
Geo
70
0
 62
   7
6
Continuous
370
0
390
251
0
LAYER
5
33A
330
244
100
AcDbSymbolTableRecord
100
AcDbLayerTableRecord
2
Defpoints
70
0
62
7
6
Continuous
290
0
370
-3
390
251
0
LAYER
5
57E
330
244
100
AcDbSymbolTableRecord
100
AcDbLayerTableRecord
2
Text
70
0
 62
   7
6
Continuous
370
0
390
251
1001
AcAecLayerStandard
1000

1000

0
ENDTAB
0
TABLE
2
STYLE
5
245
330
0
100
AcDbSymbolTable
70
2
0
STYLE
5
253
330
245
100
AcDbSymbolTableRecord
100
AcDbTextStyleTableRecord
2
Standard
70
0
40
0.0
41
1.0
50
0.0
71
0
42
0.2
3
Arial
4

1001
ACAD
1000
Arial
1071
0
0
STYLE
5
132
330
245
100
AcDbSymbolTableRecord
100
AcDbTextStyleTableRecord
2
Beschriftung
70
0
40
0.0
41
1.0
50
0.0
71
0
42
0.2
3
Arial
4

1001
ACAD
1000
Arial
1071
0
1001
AcadAnnotative
1000
AnnotativeData
1070
1
1070
1
0
ENDTAB
0
TABLE
2
VIEW
5
248
330
0
100
AcDbSymbolTable
70
0
0
ENDTAB
0
TABLE
2
UCS
5
249
330
0
100
AcDbSymbolTable
70
0
0
ENDTAB
0
TABLE
2
APPID
5
24B
330
0
100
AcDbSymbolTable
70
13
0
APPID
5
254
330
24B
100
AcDbSymbolTableRecord
100
AcDbRegAppTableRecord
2
ACAD
70
0
0
APPID
5
26C
330
24B
100
AcDbSymbolTableRecord
100
AcDbRegAppTableRecord
2
VD_INVISIBLE_NOT_FOR_READ
70
0
0
APPID
5
26D
330
24B
100
AcDbSymbolTableRecord
100
AcDbRegAppTableRecord
2
VD_TEMPHATCH
70
0
0
APPID
5
26E
330
24B
100
AcDbSymbolTableRecord
100
AcDbRegAppTableRecord
2
VDEXTRAPARAM
70
0
0
APPID
5
26F
330
24B
100
AcDbSymbolTableRecord
100
AcDbRegAppTableRecord
2
PE_URL
70
0
0
APPID
5
270
330
24B
100
AcDbSymbolTableRecord
100
AcDbRegAppTableRecord
2
VD_UNKNOWN
70
0
0
APPID
5
28F
330
24B
100
AcDbSymbolTableRecord
100
AcDbRegAppTableRecord
2
AcadAnnotative
70
0
0
APPID
5
290
330
24B
100
AcDbSymbolTableRecord
100
AcDbRegAppTableRecord
2
ACAD_DSTYLE_DIMJAG
70
0
0
APPID
5
291
330
24B
100
AcDbSymbolTableRecord
100
AcDbRegAppTableRecord
2
ACAD_DSTYLE_DIMTALN
70
0
0
APPID
5
293
330
24B
100
AcDbSymbolTableRecord
100
AcDbRegAppTableRecord
2
ACAD_PSEXT
70
0
0
APPID
5
42A
330
24B
100
AcDbSymbolTableRecord
100
AcDbRegAppTableRecord
2
ACAD_MLEADERVER
70
0
0
APPID
5
532
330
24B
100
AcDbSymbolTableRecord
100
AcDbRegAppTableRecord
2
ACAD_EXEMPT_FROM_CAD_STANDARDS
70
0
0
APPID
5
57F
330
24B
100
AcDbSymbolTableRecord
100
AcDbRegAppTableRecord
2
AcAecLayerStandard
70
0
0
ENDTAB
0
TABLE
2
DIMSTYLE
5
24C
330
0
100
AcDbSymbolTable
70
3
100
AcDbDimStyleTable
71
2
340
27
340
269
0
DIMSTYLE
105
269
330
24C
100
AcDbSymbolTableRecord
100
AcDbDimStyleTableRecord
2
Standard
70
0
172
1
174
1
288
1
340
253
342
23C
0
DIMSTYLE
105
137
330
24C
100
AcDbSymbolTableRecord
100
AcDbDimStyleTableRecord
2
Beschriftung
70
0
41
2.5
42
0.625
44
1.25
73
0
74
0
77
1
140
2.5
147
0.625
172
1
174
1
271
2
288
1
340
253
342
23C
1001
AcadAnnotative
1000
AnnotativeData
1070
1
1070
1
1001
ACAD_DSTYLE_DIMJAG
1070
388
1040
1.5
1001
ACAD_DSTYLE_DIMTALN
1070
392
1070
0
0
DIMSTYLE
105
27
102
{ACAD_REACTORS
330
F1000D
330
F10012
330
F10003
330
F10008
102
}
330
24C
100
AcDbSymbolTableRecord
100
AcDbDimStyleTableRecord
2
BEM-ISBE
70
0
41
2.5
42
0.625
44
1.25
48
0.000000001
71
1
73
0
74
0
77
1
140
2.5
144
1.00000000000000
146
0.5
147
0.625
171
 3
172
 1
179
 3
271
 3
272
 3
274
 3
340
253
342
23C
1001
ACAD_DSTYLE_DIMJAG
1070
388
1040
1.5
1001
ACAD_DSTYLE_DIMTALN
1070
392
1070
1
0
ENDTAB
0
TABLE
2
BLOCK_RECORD
5
243
330
0
100
AcDbSymbolTable
70
5
0
BLOCK_RECORD
5
261
330
243
100
AcDbSymbolTableRecord
100
AcDbBlockTableRecord
2
*Model_Space
340
FD0
0
BLOCK_RECORD
5
25D
330
243
100
AcDbSymbolTableRecord
100
AcDbBlockTableRecord
2
*Paper_Space
340
FD1
0
BLOCK_RECORD
5
265
330
243
100
AcDbSymbolTableRecord
100
AcDbBlockTableRecord
2
*Paper_Space0
340
0
0
BLOCK_RECORD
5
23C
330
243
100
AcDbSymbolTableRecord
100
AcDbBlockTableRecord
2
VDDIM_DEFAULT
340
0
102
{BLKREFS
102
}
0
BLOCK_RECORD
5
23E
330
243
100
AcDbSymbolTableRecord
100
AcDbBlockTableRecord
2
VDDIM_NONE
340
0
0
BLOCK_RECORD
5
F1000C
330
243
100
AcDbSymbolTableRecord
100
AcDbBlockTableRecord
2
*D5
340
0
0
BLOCK_RECORD
5
F10011
330
243
100
AcDbSymbolTableRecord
100
AcDbBlockTableRecord
2
*D6
340
0
0
BLOCK_RECORD
5
F10002
330
243
100
AcDbSymbolTableRecord
100
AcDbBlockTableRecord
2
*D3
340
0
0
BLOCK_RECORD
5
F10007
330
243
100
AcDbSymbolTableRecord
100
AcDbBlockTableRecord
2
*D4
340
0
0
ENDTAB
0
ENDSEC
0
SECTION
2
BLOCKS
0
BLOCK
5
262
330
261
100
AcDbEntity
8
0
100
AcDbBlockBegin
2
*Model_Space
70
0
10
0.0
20
0.0
30
0.0
3
*Model_Space
1

0
ENDBLK
5
263
330
261
100
AcDbEntity
8
0
100
AcDbBlockEnd
0
BLOCK
5
25E
330
25D
100
AcDbEntity
67
1
8
0
100
AcDbBlockBegin
2
*Paper_Space
70
0
10
0.0
20
0.0
30
0.0
3
*Paper_Space
1

0
ENDBLK
5
25F
330
25D
100
AcDbEntity
67
1
8
0
100
AcDbBlockEnd
0
BLOCK
5
266
330
265
100
AcDbEntity
8
0
100
AcDbBlockBegin
2
*Paper_Space0
70
0
10
0.0
20
0.0
30
0.0
3
*Paper_Space0
1

0
VIEWPORT
5
296
102
{ACAD_XDICTIONARY
360
58E
102
}
330
265
100
AcDbEntity
8
0
60
1
100
AcDbViewport
10
0.0
20
0.0
30
0.0
40
10.0
41
10.0
69
0
12
0.0
22
0.0
13
0.0
23
0.0
14
1.0
24
1.0
15
0.0
25
0.0
16
0.0
26
0.0
36
1.0
17
0.0
27
0.0
37
0.0
42
0.0
43
0.0
44
0.0
45
10.0
50
0.0
51
0.0000000000007958
72
100
90
163872
1

281
0
71
0
74
0
110
0.0
120
0.0
130
0.0
111
1.0
121
0.0
131
0.0
112
0.0
122
1.0
132
0.0
79
0
146
0.0
1001
VD_INVISIBLE_NOT_FOR_READ
1000
VD_INVISIBLE_NOT_FOR_READ
0
VIEWPORT
5
297
102
{ACAD_XDICTIONARY
360
590
102
}
330
265
100
AcDbEntity
8
0
60
1
100
AcDbViewport
10
0.0
20
0.0
30
0.0
40
10.0
41
10.0
69
0
12
0.0
22
0.0
13
0.0
23
0.0
14
1.0
24
1.0
15
0.0
25
0.0
16
0.0
26
0.0
36
1.0
17
0.0
27
0.0
37
0.0
42
0.0
43
0.0
44
0.0
45
10.0
50
0.0
51
0.0000000000007958
72
100
90
163872
1

281
0
71
0
74
0
110
0.0
120
0.0
130
0.0
111
1.0
121
0.0
131
0.0
112
0.0
122
1.0
132
0.0
79
0
146
0.0
1001
VD_INVISIBLE_NOT_FOR_READ
1000
VD_INVISIBLE_NOT_FOR_READ
0
ENDBLK
5
267
330
265
100
AcDbEntity
8
0
100
AcDbBlockEnd
0
BLOCK
5
28B
330
23C
100
AcDbEntity
8
0
100
AcDbBlockBegin
2
VDDIM_DEFAULT
70
0
10
0.0
20
0.0
30
0.0
3
VDDIM_DEFAULT
1

0
LWPOLYLINE
5
23D
330
23C
100
AcDbEntity
8
0
6
Continuous
62
0
100
AcDbPolyline
90
4
70
0
43
0.0
10
0.0
20
0.0
10
-1.0
20
-0.1665
10
-1.0
20
0.1665
10
0.0
20
0.0
1001
VDEXTRAPARAM
1071
1
1071
0
1071
0
1040
1.0
1000

1000

1040
0.0
1040
0.0
0
HATCH
5
292
330
23C
100
AcDbEntity
8
0
6
Continuous
62
0
100
AcDbHatch
10
0.0
20
0.0
30
0.0
210
0.0
220
0.0
230
1.0
2
SOLID
70
1
71
0
91
1
92
2
72
0
73
1
93
3
10
0.0
20
0.0
10
-1.0
20
-0.1665
10
-1.0
20
0.1665
97
0
75
0
76
1
98
1
10
0.0
20
0.0
1001
VDEXTRAPARAM
1071
1
1071
0
1071
0
1040
1.0
1000

1000

1040
0.0
1040
0.0
1001
VD_TEMPHATCH
1000
VD_TEMPHATCH
0
ENDBLK
5
28C
330
23C
100
AcDbEntity
8
0
100
AcDbBlockEnd
0
BLOCK
5
28D
330
23E
100
AcDbEntity
8
0
100
AcDbBlockBegin
2
VDDIM_NONE
70
0
10
0.0
20
0.0
30
0.0
3
VDDIM_NONE
1

0
ENDBLK
5
28E
330
23E
100
AcDbEntity
8
0
100
AcDbBlockEnd
  0
BLOCK
  5
F10016
330
F1000C
100
AcDbEntity
  8
0
100
AcDbBlockBegin
  2
*D5
 70
     1
 10
0.0
 20
0.0
 30
0.0
  3
*D5
  1

  0
LINE
  5
F10017
330
F1000C
100
AcDbEntity
  8
Bemassung
 62
     0
370
    -2
100
AcDbLine
10
-11.3057241977450
20
3.64960971379011
30
0.000000000000000
11
-11.3057241977450
21
-5.85039028620989
31
0.000000000000000
  0
LINE
  5
F10018
330
F1000C
100
AcDbEntity
  8
Bemassung
 62
     0
370
    -2
100
AcDbLine
10
-36.3057241977450
20
-5.85039028620989
30
0.000000000000000
11
-36.3057241977450
21
23.6496097137901
31
0.000000000000000
  0
LINE
  5
F10019
330
F1000C
100
AcDbEntity
  8
Bemassung
 62
     0
370
    -2
100
AcDbLine
10
-11.3057241977450
20
-3.85039028620989
30
0.000000000000000
11
-36.3057241977450
21
-3.85039028620989
31
0.000000000000000
  0
INSERT
  5
F1001A
330
F1000C
100
AcDbEntity
  8
Bemassung
 62
     0
370
    -2
100
AcDbBlockReference
  2
VDDIM_DEFAULT
10
-11.3057241977450
20
-3.85039028620989
30
0.000000000000000
 41
2.50000000000000
 42
2.50000000000000
 43
2.50000000000000
  0
INSERT
  5
F1001B
330
F1000C
100
AcDbEntity
  8
Bemassung
 62
     0
370
    -2
100
AcDbBlockReference
  2
VDDIM_DEFAULT
10
-36.3057241977450
20
-3.85039028620989
30
0.000000000000000
 41
2.50000000000000
 42
2.50000000000000
 43
2.50000000000000
 50
180.000000000000
  0
MTEXT
  5
F1001C
330
F1000C
100
AcDbEntity
  8
Bemassung
 62
     0
100
AcDbMText
10
-23.8057241977450
20
-3.18372361954322
30
0.000000000000000
 40
2.50000000000000
 41
0.0
 71
     8
 72
     1
  1
25
 11
1.00000000000000
 21
0.000000000000000
 31
0.0
 73
     1
 44
1.0
1001
ACAD
1000
MTEXTBEGIN
1070
73
1070
1
1070
44
1040
1.0
1070
74
1070
0
1000
MTEXTEND
  0
POINT
  5
F1001D
330
F1000C
100
AcDbEntity
  8
Bemassung
 62
     0
100
AcDbPoint
10
-11.3057241977450
20
3.64960971379011
30
0.000000000000000
  0
POINT
  5
F1001E
330
F1000C
100
AcDbEntity
  8
Bemassung
 62
     0
100
AcDbPoint
10
-36.3057241977450
20
-5.85039028620989
30
0.000000000000000
  0
ENDBLK
  5
F1001F
330
F1000C
100
AcDbEntity
  8
0
100
AcDbBlockEnd
  0
BLOCK
  5
F10020
330
F10011
100
AcDbEntity
  8
0
100
AcDbBlockBegin
  2
*D6
 70
     1
 10
0.0
 20
0.0
 30
0.0
  3
*D6
  1

  0
LINE
  5
F10021
330
F10011
100
AcDbEntity
  8
Bemassung
 62
     0
370
    -2
100
AcDbLine
10
32.6942758022550
20
11.1496097137901
30
0.000000000000000
11
32.6942758022550
21
23.6496097137901
31
0.000000000000000
  0
LINE
  5
F10022
330
F10011
100
AcDbEntity
  8
Bemassung
 62
     0
370
    -2
100
AcDbLine
10
-36.3057241977450
20
-5.85039028620989
30
0.000000000000000
11
-36.3057241977450
21
23.6496097137901
31
0.000000000000000
  0
LINE
  5
F10023
330
F10011
100
AcDbEntity
  8
Bemassung
 62
     0
370
    -2
100
AcDbLine
10
32.6942758022550
20
21.6496097137901
30
0.000000000000000
11
-36.3057241977450
21
21.6496097137901
31
0.000000000000000
  0
INSERT
  5
F10024
330
F10011
100
AcDbEntity
  8
Bemassung
 62
     0
370
    -2
100
AcDbBlockReference
  2
VDDIM_DEFAULT
10
32.6942758022550
20
21.6496097137901
30
0.000000000000000
 41
2.50000000000000
 42
2.50000000000000
 43
2.50000000000000
  0
INSERT
  5
F10025
330
F10011
100
AcDbEntity
  8
Bemassung
 62
     0
370
    -2
100
AcDbBlockReference
  2
VDDIM_DEFAULT
10
-36.3057241977450
20
21.6496097137901
30
0.000000000000000
 41
2.50000000000000
 42
2.50000000000000
 43
2.50000000000000
 50
180.000000000000
  0
MTEXT
  5
F10026
330
F10011
100
AcDbEntity
  8
Bemassung
 62
     0
100
AcDbMText
10
-1.80572419774501
20
22.3162763804568
30
0.000000000000000
 40
2.50000000000000
 41
0.0
 71
     8
 72
     1
  1
69
 11
1.00000000000000
 21
0.000000000000000
 31
0.0
 73
     1
 44
1.0
1001
ACAD
1000
MTEXTBEGIN
1070
73
1070
1
1070
44
1040
1.0
1070
74
1070
0
1000
MTEXTEND
  0
POINT
  5
F10027
330
F10011
100
AcDbEntity
  8
Bemassung
 62
     0
100
AcDbPoint
10
32.6942758022550
20
11.1496097137901
30
0.000000000000000
  0
POINT
  5
F10028
330
F10011
100
AcDbEntity
  8
Bemassung
 62
     0
100
AcDbPoint
10
-36.3057241977450
20
-5.85039028620989
30
0.000000000000000
  0
ENDBLK
  5
F10029
330
F10011
100
AcDbEntity
  8
0
100
AcDbBlockEnd
  0
BLOCK
  5
F1002A
330
F10002
100
AcDbEntity
  8
0
100
AcDbBlockBegin
  2
*D3
 70
     1
 10
0.0
 20
0.0
 30
0.0
  3
*D3
  1

  0
LINE
  5
F1002B
330
F10002
100
AcDbEntity
  8
Bemassung
 62
     0
370
    -2
100
AcDbLine
10
-32.3057241977450
20
3.64960971379011
30
0.000000000000000
11
-48.3057241977450
21
3.64960971379011
31
0.000000000000000
  0
LINE
  5
F1002C
330
F10002
100
AcDbEntity
  8
Bemassung
 62
     0
370
    -2
100
AcDbLine
10
-32.3057241977450
20
11.6496097137901
30
0.000000000000000
11
-48.3057241977450
21
11.6496097137901
31
0.000000000000000
  0
LINE
  5
F1002D
330
F10002
100
AcDbEntity
  8
Bemassung
 62
     0
370
    -2
100
AcDbLine
10
-46.3057241977450
20
3.64960971379011
30
0.000000000000000
11
-46.3057241977450
21
11.6496097137901
31
0.000000000000000
  0
INSERT
  5
F1002E
330
F10002
100
AcDbEntity
  8
Bemassung
 62
     0
370
    -2
100
AcDbBlockReference
  2
VDDIM_DEFAULT
10
-46.3057241977450
20
3.64960971379011
30
0.000000000000000
 41
2.50000000000000
 42
2.50000000000000
 43
2.50000000000000
 50
90.0000000000000
  0
INSERT
  5
F1002F
330
F10002
100
AcDbEntity
  8
Bemassung
 62
     0
370
    -2
100
AcDbBlockReference
  2
VDDIM_DEFAULT
10
-46.3057241977450
20
11.6496097137901
30
0.000000000000000
 41
2.50000000000000
 42
2.50000000000000
 43
2.50000000000000
 50
270.000000000000
  0
MTEXT
  5
F10030
330
F10002
100
AcDbEntity
  8
Bemassung
 62
     0
100
AcDbMText
10
-46.9723908644117
20
7.64960971379011
30
0.000000000000000
 40
2.50000000000000
 41
0.0
 71
     8
 72
     1
  1
Ø8
 11
6.12323399573677e-17
 21
1.00000000000000
 31
0.0
 73
     1
 44
1.0
1001
ACAD
1000
MTEXTBEGIN
1070
73
1070
1
1070
44
1040
1.0
1070
74
1070
0
1000
MTEXTEND
  0
POINT
  5
F10031
330
F10002
100
AcDbEntity
  8
Bemassung
 62
     0
100
AcDbPoint
10
-32.3057241977450
20
3.64960971379011
30
0.000000000000000
  0
POINT
  5
F10032
330
F10002
100
AcDbEntity
  8
Bemassung
 62
     0
100
AcDbPoint
10
-32.3057241977450
20
11.6496097137901
30
0.000000000000000
  0
ENDBLK
  5
F10033
330
F10002
100
AcDbEntity
  8
0
100
AcDbBlockEnd
  0
BLOCK
  5
F10034
330
F10007
100
AcDbEntity
  8
0
100
AcDbBlockBegin
  2
*D4
 70
     1
 10
0.0
 20
0.0
 30
0.0
  3
*D4
  1

  0
LINE
  5
F10035
330
F10007
100
AcDbEntity
  8
Bemassung
 62
     0
370
    -2
100
AcDbLine
10
32.1942758022550
20
3.64960971379011
30
0.000000000000000
11
43.1942758022550
21
3.64960971379011
31
0.000000000000000
  0
LINE
  5
F10036
330
F10007
100
AcDbEntity
  8
Bemassung
 62
     0
370
    -2
100
AcDbLine
10
32.1942758022550
20
11.6496097137901
30
0.000000000000000
11
43.1942758022550
21
11.6496097137901
31
0.000000000000000
  0
LINE
  5
F10037
330
F10007
100
AcDbEntity
  8
Bemassung
 62
     0
370
    -2
100
AcDbLine
10
41.1942758022550
20
3.64960971379011
30
0.000000000000000
11
41.1942758022550
21
11.6496097137901
31
0.000000000000000
  0
INSERT
  5
F10038
330
F10007
100
AcDbEntity
  8
Bemassung
 62
     0
370
    -2
100
AcDbBlockReference
  2
VDDIM_DEFAULT
10
41.1942758022550
20
3.64960971379011
30
0.000000000000000
 41
2.50000000000000
 42
2.50000000000000
 43
2.50000000000000
 50
90.0000000000000
  0
INSERT
  5
F10039
330
F10007
100
AcDbEntity
  8
Bemassung
 62
     0
370
    -2
100
AcDbBlockReference
  2
VDDIM_DEFAULT
10
41.1942758022550
20
11.6496097137901
30
0.000000000000000
 41
2.50000000000000
 42
2.50000000000000
 43
2.50000000000000
 50
270.000000000000
  0
MTEXT
  5
F1003A
330
F10007
100
AcDbEntity
  8
Bemassung
 62
     0
100
AcDbMText
10
40.5276091355883
20
6.92107545533392
30
0.000000000000000
 40
2.50000000000000
 41
0.0
 71
     8
 72
     1
  1
Ø8h6
 11
6.12323399573677e-17
 21
1.00000000000000
 31
0.0
 73
     1
 44
1.0
  0
POINT
  5
F1003B
330
F10007
100
AcDbEntity
  8
Bemassung
 62
     0
100
AcDbPoint
10
32.1942758022550
20
3.64960971379011
30
0.000000000000000
  0
POINT
  5
F1003C
330
F10007
100
AcDbEntity
  8
Bemassung
 62
     0
100
AcDbPoint
10
32.1942758022550
20
11.6496097137901
30
0.000000000000000
  0
ENDBLK
  5
F1003D
330
F10007
100
AcDbEntity
  8
0
100
AcDbBlockEnd
0
ENDSEC
0
SECTION
2
ENTITIES
  0
DIMENSION
  5
F1000D
330
261
100
AcDbEntity
  8
Bemassung
100
AcDbDimension
  2
*D5
10
-36.3057241977450
20
-3.85039028620989
30
0.000000000000000
11
-23.8057241977450
21
-3.18372361954322
31
0.000000000000000
 70
32
 1
25
 71
     8
  3
BEM-ISBE
100
AcDbAlignedDimension
13
-11.3057241977450
23
3.64960971379011
33
0.000000000000000
14
-36.3057241977450
24
-5.85039028620989
34
0.000000000000000
100
AcDbRotatedDimension
1001
ACAD
1000
DSTYLE
1002
{
1070
284
1070
8
1070
78
1070
8
1070
144
1040
1.00000000000000
1070
147
1040
0.625
1070
 72
1070
 0
1070
 71
1070
 0
1002
}
  0
DIMENSION
  5
F10012
330
261
100
AcDbEntity
  8
Bemassung
100
AcDbDimension
  2
*D6
10
-36.3057241977450
20
21.6496097137901
30
0.000000000000000
11
-1.80572419774501
21
22.3162763804568
31
0.000000000000000
 70
32
 1
69
 71
     8
  3
BEM-ISBE
100
AcDbAlignedDimension
13
32.6942758022550
23
11.1496097137901
33
0.000000000000000
14
-36.3057241977450
24
-5.85039028620989
34
0.000000000000000
100
AcDbRotatedDimension
1001
ACAD
1000
DSTYLE
1002
{
1070
284
1070
8
1070
78
1070
8
1070
144
1040
1.00000000000000
1070
147
1040
0.625
1070
 72
1070
 0
1070
 71
1070
 0
1002
}
  0
DIMENSION
  5
F10003
330
261
100
AcDbEntity
  8
Bemassung
100
AcDbDimension
  2
*D3
10
-46.3057241977450
20
11.6496097137901
30
0.000000000000000
11
-46.9723908644117
21
7.64960971379011
31
0.000000000000000
 70
32
 1
Ø8
 71
     8
  3
BEM-ISBE
100
AcDbAlignedDimension
13
-32.3057241977450
23
3.64960971379011
33
0.000000000000000
14
-32.3057241977450
24
11.6496097137901
34
0.000000000000000
50
90.0000000000000
100
AcDbRotatedDimension
1001
ACAD
1000
DSTYLE
1002
{
1070
284
1070
8
1070
78
1070
8
1070
144
1040
1.00000000000000
1070
147
1040
0.625
1070
 72
1070
 0
1070
 71
1070
 0
1002
}
  0
DIMENSION
  5
F10008
330
261
100
AcDbEntity
  8
Bemassung
100
AcDbDimension
  2
*D4
10
41.1942758022550
20
11.6496097137901
30
0.000000000000000
11
40.5276091355883
21
6.92107545533392
31
0.000000000000000
 70
32
 1
Ø8h6
 71
     8
  3
BEM-ISBE
100
AcDbAlignedDimension
13
32.1942758022550
23
3.64960971379011
33
0.000000000000000
14
32.1942758022550
24
11.6496097137901
34
0.000000000000000
50
90.0000000000000
100
AcDbRotatedDimension
1001
ACAD
1000
DSTYLE
1002
{
1070
284
1070
8
1070
78
1070
8
1070
144
1040
1.00000000000000
1070
147
1040
0.625
1070
 72
1070
 0
1070
 71
1070
 0
1002
}
  0
LINE
  5
F1003E
330
F1003F
100
AcDbEntity
8
Geo
100
AcDbLine
10
-36.3057241977450
20
7.64960971379011
30
0.000000000000000
11
-32.3057241977450
21
11.6496097137901
31
0.000000000000000
  0
LINE
  5
F10040
330
F10041
100
AcDbEntity
8
Geo
100
AcDbLine
10
-32.3057241977450
20
11.6496097137901
30
0.000000000000000
11
-11.3057241977450
21
11.6496097137901
31
0.000000000000000
  0
LINE
  5
F10042
330
F10043
100
AcDbEntity
8
Geo
100
AcDbLine
10
-11.3057241977450
20
11.6496097137901
30
0.000000000000000
11
32.1942758022550
21
11.6496097137901
31
0.000000000000000
  0
LINE
  5
F10044
330
F10045
100
AcDbEntity
8
Geo
100
AcDbLine
10
32.1942758022550
20
11.6496097137901
30
0.000000000000000
11
32.6942758022550
21
11.1496097137901
31
0.000000000000000
  0
LINE
  5
F10046
330
F10047
100
AcDbEntity
8
Geo
100
AcDbLine
10
-35.1303516153106
20
8.82498229622448
30
0.000000000000000
11
-35.1057241977450
21
8.84956789327878
31
0.000000000000000
  0
LINE
  5
F10048
330
F10049
100
AcDbEntity
8
Geo
100
AcDbLine
10
-35.1057241977450
20
8.84956789327878
30
0.000000000000000
11
-35.0057241977450
21
8.94851008681798
31
0.000000000000000
  0
LINE
  5
F1004A
330
F1004B
100
AcDbEntity
8
Geo
100
AcDbLine
10
-35.0057241977450
20
8.94851008681798
30
0.000000000000000
11
-34.9057241977450
21
9.04605882607584
31
0.000000000000000
  0
LINE
  5
F1004C
330
F1004D
100
AcDbEntity
8
Geo
100
AcDbLine
10
-34.9057241977450
20
9.04605882607584
30
0.000000000000000
11
-34.8057241977450
21
9.14223343805665
31
0.000000000000000
  0
LINE
  5
F1004E
330
F1004F
100
AcDbEntity
8
Geo
100
AcDbLine
10
-34.8057241977450
20
9.14223343805665
30
0.000000000000000
11
-34.7057241977450
21
9.23703288484156
31
0.000000000000000
  0
LINE
  5
F10050
330
F10051
100
AcDbEntity
8
Geo
100
AcDbLine
10
-34.7057241977450
20
9.23703288484156
30
0.000000000000000
11
-34.6057241977450
21
9.33044218777045
31
0.000000000000000
  0
LINE
  5
F10052
330
F10053
100
AcDbEntity
8
Geo
100
AcDbLine
10
-34.6057241977450
20
9.33044218777045
30
0.000000000000000
11
-34.5057241977450
21
9.42243660569932
31
0.000000000000000
  0
LINE
  5
F10054
330
F10055
100
AcDbEntity
8
Geo
100
AcDbLine
10
-34.5057241977450
20
9.42243660569932
30
0.000000000000000
11
-34.4057241977450
21
9.51298443963191
31
0.000000000000000
  0
LINE
  5
F10056
330
F10057
100
AcDbEntity
8
Geo
100
AcDbLine
10
-34.4057241977450
20
9.51298443963191
30
0.000000000000000
11
-34.3057241977450
21
9.60204896765485
31
0.000000000000000
  0
LINE
  5
F10058
330
F10059
100
AcDbEntity
8
Geo
100
AcDbLine
10
-34.3057241977450
20
9.60204896765485
30
0.000000000000000
11
-34.2057241977450
21
9.68958981255916
31
0.000000000000000
  0
LINE
  5
F1005A
330
F1005B
100
AcDbEntity
8
Geo
100
AcDbLine
10
-34.2057241977450
20
9.68958981255916
30
0.000000000000000
11
-34.1057241977450
21
9.77556392963723
31
0.000000000000000
  0
LINE
  5
F1005C
330
F1005D
100
AcDbEntity
8
Geo
100
AcDbLine
10
-34.1057241977450
20
9.77556392963723
30
0.000000000000000
11
-34.0057241977450
21
9.85992633428156
31
0.000000000000000
  0
LINE
  5
F1005E
330
F1005F
100
AcDbEntity
8
Geo
100
AcDbLine
10
-34.0057241977450
20
9.85992633428156
30
0.000000000000000
11
-33.9057241977450
21
9.94263064766208
31
0.000000000000000
  0
LINE
  5
F10060
330
F10061
100
AcDbEntity
8
Geo
100
AcDbLine
10
-33.9057241977450
20
9.94263064766208
30
0.000000000000000
11
-33.8057241977450
21
10.0236295128641
31
0.000000000000000
  0
LINE
  5
F10062
330
F10063
100
AcDbEntity
8
Geo
100
AcDbLine
10
-33.8057241977450
20
10.0236295128641
30
0.000000000000000
11
-33.7057241977450
21
10.1028749172516
31
0.000000000000000
  0
LINE
  5
F10064
330
F10065
100
AcDbEntity
8
Geo
100
AcDbLine
10
-33.7057241977450
20
10.1028749172516
30
0.000000000000000
11
-33.6057241977450
21
10.1803184459205
31
0.000000000000000
  0
LINE
  5
F10066
330
F10067
100
AcDbEntity
8
Geo
100
AcDbLine
10
-33.6057241977450
20
10.1803184459205
30
0.000000000000000
11
-33.5057241977450
21
10.2559114838140
31
0.000000000000000
  0
LINE
  5
F10068
330
F10069
100
AcDbEntity
8
Geo
100
AcDbLine
10
-33.5057241977450
20
10.2559114838140
30
0.000000000000000
11
-33.4057241977450
21
10.3296053791057
31
0.000000000000000
  0
LINE
  5
F1006A
330
F1006B
100
AcDbEntity
8
Geo
100
AcDbLine
10
-33.4057241977450
20
10.3296053791057
30
0.000000000000000
11
-33.3057241977450
21
10.4013515770167
31
0.000000000000000
  0
LINE
  5
F1006C
330
F1006D
100
AcDbEntity
8
Geo
100
AcDbLine
10
-33.3057241977450
20
10.4013515770167
30
0.000000000000000
11
-33.2057241977450
21
10.4711017308159
31
0.000000000000000
  0
LINE
  5
F1006E
330
F1006F
100
AcDbEntity
8
Geo
100
AcDbLine
10
-33.2057241977450
20
10.4711017308159
30
0.000000000000000
11
-33.1057241977450
21
10.5388077950332
31
0.000000000000000
  0
LINE
  5
F10070
330
F10071
100
AcDbEntity
8
Geo
100
AcDbLine
10
-33.1057241977450
20
10.5388077950332
30
0.000000000000000
11
-33.0057241977450
21
10.6044221046682
31
0.000000000000000
  0
LINE
  5
F10072
330
F10073
100
AcDbEntity
8
Geo
100
AcDbLine
10
-33.0057241977450
20
10.6044221046682
30
0.000000000000000
11
-32.9057241977450
21
10.6678974432749
31
0.000000000000000
  0
LINE
  5
F10074
330
F10075
100
AcDbEntity
8
Geo
100
AcDbLine
10
-32.9057241977450
20
10.6678974432749
30
0.000000000000000
11
-32.8057241977450
21
10.7291871021293
31
0.000000000000000
  0
LINE
  5
F10076
330
F10077
100
AcDbEntity
8
Geo
100
AcDbLine
10
-32.8057241977450
20
10.7291871021293
30
0.000000000000000
11
-32.7057241977450
21
10.7882449321888
31
0.000000000000000
  0
LINE
  5
F10078
330
F10079
100
AcDbEntity
8
Geo
100
AcDbLine
10
-32.7057241977450
20
10.7882449321888
30
0.000000000000000
11
-32.6057241977450
21
10.8450253901781
31
0.000000000000000
  0
LINE
  5
F1007A
330
F1007B
100
AcDbEntity
8
Geo
100
AcDbLine
10
-32.6057241977450
20
10.8450253901781
30
0.000000000000000
11
-32.5057241977450
21
10.8994835798469
31
0.000000000000000
  0
LINE
  5
F1007C
330
F1007D
100
AcDbEntity
8
Geo
100
AcDbLine
10
-32.5057241977450
20
10.8994835798469
30
0.000000000000000
11
-32.4057241977450
21
10.9515752892302
31
0.000000000000000
  0
LINE
  5
F1007E
330
F1007F
100
AcDbEntity
8
Geo
100
AcDbLine
10
-32.4057241977450
20
10.9515752892302
30
0.000000000000000
11
-32.3057241977450
21
11.0012570245701
31
0.000000000000000
  0
LINE
  5
F10080
330
F10081
100
AcDbEntity
8
Geo
100
AcDbLine
10
-32.3057241977450
20
11.0012570245701
30
0.000000000000000
11
-32.2057241977450
21
10.9693968930062
31
0.000000000000000
  0
LINE
  5
F10082
330
F10083
100
AcDbEntity
8
Geo
100
AcDbLine
10
-32.2057241977450
20
10.9693968930062
30
0.000000000000000
11
-32.1057241977450
21
10.9368451511207
31
0.000000000000000
  0
LINE
  5
F10084
330
F10085
100
AcDbEntity
8
Geo
100
AcDbLine
10
-32.1057241977450
20
10.9368451511207
30
0.000000000000000
11
-32.0057241977450
21
10.9036085804085
31
0.000000000000000
  0
LINE
  5
F10086
330
F10087
100
AcDbEntity
8
Geo
100
AcDbLine
10
-32.0057241977450
20
10.9036085804085
30
0.000000000000000
11
-31.9057241977450
21
10.8696941050350
31
0.000000000000000
  0
LINE
  5
F10088
330
F10089
100
AcDbEntity
8
Geo
100
AcDbLine
10
-31.9057241977450
20
10.8696941050350
30
0.000000000000000
11
-31.8057241977450
21
10.8351087903934
31
0.000000000000000
  0
LINE
  5
F1008A
330
F1008B
100
AcDbEntity
8
Geo
100
AcDbLine
10
-31.8057241977450
20
10.8351087903934
30
0.000000000000000
11
-31.7057241977450
21
10.7998598416323
31
0.000000000000000
  0
LINE
  5
F1008C
330
F1008D
100
AcDbEntity
8
Geo
100
AcDbLine
10
-31.7057241977450
20
10.7998598416323
30
0.000000000000000
11
-31.6057241977450
21
10.7639546021554
31
0.000000000000000
  0
LINE
  5
F1008E
330
F1008F
100
AcDbEntity
8
Geo
100
AcDbLine
10
-31.6057241977450
20
10.7639546021554
30
0.000000000000000
11
-31.5057241977450
21
10.7274005520908
31
0.000000000000000
  0
LINE
  5
F10090
330
F10091
100
AcDbEntity
8
Geo
100
AcDbLine
10
-31.5057241977450
20
10.7274005520908
30
0.000000000000000
11
-31.4057241977450
21
10.6902053067336
31
0.000000000000000
  0
LINE
  5
F10092
330
F10093
100
AcDbEntity
8
Geo
100
AcDbLine
10
-31.4057241977450
20
10.6902053067336
30
0.000000000000000
11
-31.3057241977450
21
10.6523766149587
31
0.000000000000000
  0
LINE
  5
F10094
330
F10095
100
AcDbEntity
8
Geo
100
AcDbLine
10
-31.3057241977450
20
10.6523766149587
30
0.000000000000000
11
-31.2057241977450
21
10.6139223576067
31
0.000000000000000
  0
LINE
  5
F10096
330
F10097
100
AcDbEntity
8
Geo
100
AcDbLine
10
-31.2057241977450
20
10.6139223576067
30
0.000000000000000
11
-31.1057241977450
21
10.5748505458420
31
0.000000000000000
  0
LINE
  5
F10098
330
F10099
100
AcDbEntity
8
Geo
100
AcDbLine
10
-31.1057241977450
20
10.5748505458420
30
0.000000000000000
11
-31.0057241977450
21
10.5351693194843
31
0.000000000000000
  0
LINE
  5
F1009A
330
F1009B
100
AcDbEntity
8
Geo
100
AcDbLine
10
-31.0057241977450
20
10.5351693194843
30
0.000000000000000
11
-30.9057241977450
21
10.4948869453120
31
0.000000000000000
  0
LINE
  5
F1009C
330
F1009D
100
AcDbEntity
8
Geo
100
AcDbLine
10
-30.9057241977450
20
10.4948869453120
30
0.000000000000000
11
-30.8057241977450
21
10.4540118153409
31
0.000000000000000
  0
LINE
  5
F1009E
330
F1009F
100
AcDbEntity
8
Geo
100
AcDbLine
10
-30.8057241977450
20
10.4540118153409
30
0.000000000000000
11
-30.7057241977450
21
10.4125524450751
31
0.000000000000000
  0
LINE
  5
F100A0
330
F100A1
100
AcDbEntity
8
Geo
100
AcDbLine
10
-30.7057241977450
20
10.4125524450751
30
0.000000000000000
11
-30.6057241977450
21
10.3705174717335
31
0.000000000000000
  0
LINE
  5
F100A2
330
F100A3
100
AcDbEntity
8
Geo
100
AcDbLine
10
-30.6057241977450
20
10.3705174717335
30
0.000000000000000
11
-30.5057241977450
21
10.3279156524502
31
0.000000000000000
  0
LINE
  5
F100A4
330
F100A5
100
AcDbEntity
8
Geo
100
AcDbLine
10
-30.5057241977450
20
10.3279156524502
30
0.000000000000000
11
-30.4057241977450
21
10.2847558624500
31
0.000000000000000
  0
LINE
  5
F100A6
330
F100A7
100
AcDbEntity
8
Geo
100
AcDbLine
10
-30.4057241977450
20
10.2847558624500
30
0.000000000000000
11
-30.3057241977450
21
10.2410470931999
31
0.000000000000000
  0
LINE
  5
F100A8
330
F100A9
100
AcDbEntity
8
Geo
100
AcDbLine
10
-30.3057241977450
20
10.2410470931999
30
0.000000000000000
11
-30.2057241977450
21
10.1967984505354
31
0.000000000000000
  0
LINE
  5
F100AA
330
F100AB
100
AcDbEntity
8
Geo
100
AcDbLine
10
-30.2057241977450
20
10.1967984505354
30
0.000000000000000
11
-30.1057241977450
21
10.1520191527635
31
0.000000000000000
  0
LINE
  5
F100AC
330
F100AD
100
AcDbEntity
8
Geo
100
AcDbLine
10
-30.1057241977450
20
10.1520191527635
30
0.000000000000000
11
-30.0057241977450
21
10.1067185287427
31
0.000000000000000
  0
LINE
  5
F100AE
330
F100AF
100
AcDbEntity
8
Geo
100
AcDbLine
10
-30.0057241977450
20
10.1067185287427
30
0.000000000000000
11
-29.9057241977450
21
10.0609060159392
31
0.000000000000000
  0
LINE
  5
F100B0
330
F100B1
100
AcDbEntity
8
Geo
100
AcDbLine
10
-29.9057241977450
20
10.0609060159392
30
0.000000000000000
11
-29.8057241977450
21
10.0145911584608
31
0.000000000000000
  0
LINE
  5
F100B2
330
F100B3
100
AcDbEntity
8
Geo
100
AcDbLine
10
-29.8057241977450
20
10.0145911584608
30
0.000000000000000
11
-29.7057241977450
21
9.96778360506858
31
0.000000000000000
  0
LINE
  5
F100B4
330
F100B5
100
AcDbEntity
8
Geo
100
AcDbLine
10
-29.7057241977450
20
9.96778360506858
30
0.000000000000000
11
-29.6057241977450
21
9.92049310716688
31
0.000000000000000
  0
LINE
  5
F100B6
330
F100B7
100
AcDbEntity
8
Geo
100
AcDbLine
10
-29.6057241977450
20
9.92049310716688
30
0.000000000000000
11
-29.5057241977450
21
9.87272951677172
31
0.000000000000000
  0
LINE
  5
F100B8
330
F100B9
100
AcDbEntity
8
Geo
100
AcDbLine
10
-29.5057241977450
20
9.87272951677172
30
0.000000000000000
11
-29.4057241977450
21
9.82450278445835
31
0.000000000000000
  0
LINE
  5
F100BA
330
F100BB
100
AcDbEntity
8
Geo
100
AcDbLine
10
-29.4057241977450
20
9.82450278445835
30
0.000000000000000
11
-29.3057241977450
21
9.77582295728823
31
0.000000000000000
  0
LINE
  5
F100BC
330
F100BD
100
AcDbEntity
8
Geo
100
AcDbLine
10
-29.3057241977450
20
9.77582295728823
30
0.000000000000000
11
-29.2057241977450
21
9.72670017671597
31
0.000000000000000
  0
LINE
  5
F100BE
330
F100BF
100
AcDbEntity
8
Geo
100
AcDbLine
10
-29.2057241977450
20
9.72670017671597
30
0.000000000000000
11
-29.1057241977450
21
9.67714467647649
31
0.000000000000000
  0
LINE
  5
F100C0
330
F100C1
100
AcDbEntity
8
Geo
100
AcDbLine
10
-29.1057241977450
20
9.67714467647649
30
0.000000000000000
11
-29.0057241977450
21
9.62716678045313
31
0.000000000000000
  0
LINE
  5
F100C2
330
F100C3
100
AcDbEntity
8
Geo
100
AcDbLine
10
-29.0057241977450
20
9.62716678045313
30
0.000000000000000
11
-28.9057241977450
21
9.57677690052679
31
0.000000000000000
  0
LINE
  5
F100C4
330
F100C5
100
AcDbEntity
8
Geo
100
AcDbLine
10
-28.9057241977450
20
9.57677690052679
30
0.000000000000000
11
-28.8057241977450
21
9.52598553440687
31
0.000000000000000
  0
LINE
  5
F100C6
330
F100C7
100
AcDbEntity
8
Geo
100
AcDbLine
10
-28.8057241977450
20
9.52598553440687
30
0.000000000000000
11
-28.7057241977450
21
9.47480326344426
31
0.000000000000000
  0
LINE
  5
F100C8
330
F100C9
100
AcDbEntity
8
Geo
100
AcDbLine
10
-28.7057241977450
20
9.47480326344426
30
0.000000000000000
11
-28.6057241977450
21
9.42324075042696
31
0.000000000000000
  0
LINE
  5
F100CA
330
F100CB
100
AcDbEntity
8
Geo
100
AcDbLine
10
-28.6057241977450
20
9.42324075042696
30
0.000000000000000
11
-28.5057241977450
21
9.37130873735870
31
0.000000000000000
  0
LINE
  5
F100CC
330
F100CD
100
AcDbEntity
8
Geo
100
AcDbLine
10
-28.5057241977450
20
9.37130873735870
30
0.000000000000000
11
-28.4057241977450
21
9.31901804322103
31
0.000000000000000
  0
LINE
  5
F100CE
330
F100CF
100
AcDbEntity
8
Geo
100
AcDbLine
10
-28.4057241977450
20
9.31901804322103
30
0.000000000000000
11
-28.3057241977450
21
9.26637956171943
31
0.000000000000000
  0
LINE
  5
F100D0
330
F100D1
100
AcDbEntity
8
Geo
100
AcDbLine
10
-28.3057241977450
20
9.26637956171943
30
0.000000000000000
11
-28.2057241977450
21
9.21340425901383
31
0.000000000000000
  0
LINE
  5
F100D2
330
F100D3
100
AcDbEntity
8
Geo
100
AcDbLine
10
-28.2057241977450
20
9.21340425901383
30
0.000000000000000
11
-28.1057241977450
21
9.16010317143403
31
0.000000000000000
  0
LINE
  5
F100D4
330
F100D5
100
AcDbEntity
8
Geo
100
AcDbLine
10
-28.1057241977450
20
9.16010317143403
30
0.000000000000000
11
-28.0057241977450
21
9.10648740318047
31
0.000000000000000
  0
LINE
  5
F100D6
330
F100D7
100
AcDbEntity
8
Geo
100
AcDbLine
10
-28.0057241977450
20
9.10648740318047
30
0.000000000000000
11
-27.9057241977450
21
9.05256812401097
31
0.000000000000000
  0
LINE
  5
F100D8
330
F100D9
100
AcDbEntity
8
Geo
100
AcDbLine
10
-27.9057241977450
20
9.05256812401097
30
0.000000000000000
11
-27.8057241977450
21
8.99835656691366
31
0.000000000000000
  0
LINE
  5
F100DA
330
F100DB
100
AcDbEntity
8
Geo
100
AcDbLine
10
-27.8057241977450
20
8.99835656691366
30
0.000000000000000
11
-27.7057241977450
21
8.94386402576687
31
0.000000000000000
  0
LINE
  5
F100DC
330
F100DD
100
AcDbEntity
8
Geo
100
AcDbLine
10
-27.7057241977450
20
8.94386402576687
30
0.000000000000000
11
-27.6057241977450
21
8.88910185298623
31
0.000000000000000
  0
LINE
  5
F100DE
330
F100DF
100
AcDbEntity
8
Geo
100
AcDbLine
10
-27.6057241977450
20
8.88910185298623
30
0.000000000000000
11
-27.5057241977450
21
8.83408145715968
31
0.000000000000000
  0
LINE
  5
F100E0
330
F100E1
100
AcDbEntity
8
Geo
100
AcDbLine
10
-27.5057241977450
20
8.83408145715968
30
0.000000000000000
11
-27.4057241977450
21
8.77881430067067
31
0.000000000000000
  0
LINE
  5
F100E2
330
F100E3
100
AcDbEntity
8
Geo
100
AcDbLine
10
-27.4057241977450
20
8.77881430067067
30
0.000000000000000
11
-27.3057241977450
21
8.72331189731026
31
0.000000000000000
  0
LINE
  5
F100E4
330
F100E5
100
AcDbEntity
8
Geo
100
AcDbLine
10
-27.3057241977450
20
8.72331189731026
30
0.000000000000000
11
-27.2057241977450
21
8.66758580987839
31
0.000000000000000
  0
LINE
  5
F100E6
330
F100E7
100
AcDbEntity
8
Geo
100
AcDbLine
10
-27.2057241977450
20
8.66758580987839
30
0.000000000000000
11
-27.1057241977450
21
8.61164764777506
31
0.000000000000000
  0
LINE
  5
F100E8
330
F100E9
100
AcDbEntity
8
Geo
100
AcDbLine
10
-27.1057241977450
20
8.61164764777506
30
0.000000000000000
11
-27.0057241977450
21
8.55550906458172
31
0.000000000000000
  0
LINE
  5
F100EA
330
F100EB
100
AcDbEntity
8
Geo
100
AcDbLine
10
-27.0057241977450
20
8.55550906458172
30
0.000000000000000
11
-26.9057241977450
21
8.49918175563349
31
0.000000000000000
  0
LINE
  5
F100EC
330
F100ED
100
AcDbEntity
8
Geo
100
AcDbLine
10
-26.9057241977450
20
8.49918175563349
30
0.000000000000000
11
-26.8057241977450
21
8.44267745558266
31
0.000000000000000
  0
LINE
  5
F100EE
330
F100EF
100
AcDbEntity
8
Geo
100
AcDbLine
10
-26.8057241977450
20
8.44267745558266
30
0.000000000000000
11
-26.7057241977450
21
8.38600793595406
31
0.000000000000000
  0
LINE
  5
F100F0
330
F100F1
100
AcDbEntity
8
Geo
100
AcDbLine
10
-26.7057241977450
20
8.38600793595406
30
0.000000000000000
11
-26.6057241977450
21
8.32918500269263
31
0.000000000000000
  0
LINE
  5
F100F2
330
F100F3
100
AcDbEntity
8
Geo
100
AcDbLine
10
-26.6057241977450
20
8.32918500269263
30
0.000000000000000
11
-26.5057241977450
21
8.27222049370395
31
0.000000000000000
  0
LINE
  5
F100F4
330
F100F5
100
AcDbEntity
8
Geo
100
AcDbLine
10
-26.5057241977450
20
8.27222049370395
30
0.000000000000000
11
-26.4057241977450
21
8.21512627638802
31
0.000000000000000
  0
LINE
  5
F100F6
330
F100F7
100
AcDbEntity
8
Geo
100
AcDbLine
10
-26.4057241977450
20
8.21512627638802
30
0.000000000000000
11
-26.3057241977450
21
8.15791424516696
31
0.000000000000000
  0
LINE
  5
F100F8
330
F100F9
100
AcDbEntity
8
Geo
100
AcDbLine
10
-26.3057241977450
20
8.15791424516696
30
0.000000000000000
11
-26.2057241977450
21
8.10059631900700
31
0.000000000000000
  0
LINE
  5
F100FA
330
F100FB
100
AcDbEntity
8
Geo
100
AcDbLine
10
-26.2057241977450
20
8.10059631900700
30
0.000000000000000
11
-26.1057241977450
21
8.04318443893544
31
0.000000000000000
  0
LINE
  5
F100FC
330
F100FD
100
AcDbEntity
8
Geo
100
AcDbLine
10
-26.1057241977450
20
8.04318443893544
30
0.000000000000000
11
-26.0057241977450
21
7.98569056555299
31
0.000000000000000
  0
LINE
  5
F100FE
330
F100FF
100
AcDbEntity
8
Geo
100
AcDbLine
10
-26.0057241977450
20
7.98569056555299
30
0.000000000000000
11
-25.9057241977450
21
7.92812667654199
31
0.000000000000000
  0
LINE
  5
F10100
330
F10101
100
AcDbEntity
8
Geo
100
AcDbLine
10
-25.9057241977450
20
7.92812667654199
30
0.000000000000000
11
-25.8057241977450
21
7.87050476417110
31
0.000000000000000
  0
LINE
  5
F10102
330
F10103
100
AcDbEntity
8
Geo
100
AcDbLine
10
-25.8057241977450
20
7.87050476417110
30
0.000000000000000
11
-25.7057241977450
21
7.81283683279700
31
0.000000000000000
  0
LINE
  5
F10104
330
F10105
100
AcDbEntity
8
Geo
100
AcDbLine
10
-25.7057241977450
20
7.81283683279700
30
0.000000000000000
11
-25.6057241977450
21
7.75513489636349
31
0.000000000000000
  0
LINE
  5
F10106
330
F10107
100
AcDbEntity
8
Geo
100
AcDbLine
10
-25.6057241977450
20
7.75513489636349
30
0.000000000000000
11
-25.5057241977450
21
7.69741097589860
31
0.000000000000000
  0
LINE
  5
F10108
330
F10109
100
AcDbEntity
8
Geo
100
AcDbLine
10
-25.5057241977450
20
7.69741097589860
30
0.000000000000000
11
-25.4057241977450
21
7.63967709701034
31
0.000000000000000
  0
LINE
  5
F1010A
330
F1010B
100
AcDbEntity
8
Geo
100
AcDbLine
10
-25.4057241977450
20
7.63967709701034
30
0.000000000000000
11
-25.3057241977450
21
7.58194528738131
31
0.000000000000000
  0
LINE
  5
F1010C
330
F1010D
100
AcDbEntity
8
Geo
100
AcDbLine
10
-25.3057241977450
20
7.58194528738131
30
0.000000000000000
11
-25.2057241977450
21
7.52422757426305
31
0.000000000000000
  0
LINE
  5
F1010E
330
F1010F
100
AcDbEntity
8
Geo
100
AcDbLine
10
-25.2057241977450
20
7.52422757426305
30
0.000000000000000
11
-25.1057241977450
21
7.46653598197036
31
0.000000000000000
  0
LINE
  5
F10110
330
F10111
100
AcDbEntity
8
Geo
100
AcDbLine
10
-25.1057241977450
20
7.46653598197036
30
0.000000000000000
11
-25.0057241977450
21
7.40888252937632
31
0.000000000000000
  0
LINE
  5
F10112
330
F10113
100
AcDbEntity
8
Geo
100
AcDbLine
10
-25.0057241977450
20
7.40888252937632
30
0.000000000000000
11
-24.9057241977450
21
7.35127922740835
31
0.000000000000000
  0
LINE
  5
F10114
330
F10115
100
AcDbEntity
8
Geo
100
AcDbLine
10
-24.9057241977450
20
7.35127922740835
30
0.000000000000000
11
-24.8057241977450
21
7.29373807654602
31
0.000000000000000
  0
LINE
  5
F10116
330
F10117
100
AcDbEntity
8
Geo
100
AcDbLine
10
-24.8057241977450
20
7.29373807654602
30
0.000000000000000
11
-24.7057241977450
21
7.23627106432098
31
0.000000000000000
  0
LINE
  5
F10118
330
F10119
100
AcDbEntity
8
Geo
100
AcDbLine
10
-24.7057241977450
20
7.23627106432098
30
0.000000000000000
11
-24.6057241977450
21
7.17889016281958
31
0.000000000000000
  0
LINE
  5
F1011A
330
F1011B
100
AcDbEntity
8
Geo
100
AcDbLine
10
-24.6057241977450
20
7.17889016281958
30
0.000000000000000
11
-24.5057241977450
21
7.12160732618876
31
0.000000000000000
  0
LINE
  5
F1011C
330
F1011D
100
AcDbEntity
8
Geo
100
AcDbLine
10
-24.5057241977450
20
7.12160732618876
30
0.000000000000000
11
-24.4057241977450
21
7.06443448814565
31
0.000000000000000
  0
LINE
  5
F1011E
330
F1011F
100
AcDbEntity
8
Geo
100
AcDbLine
10
-24.4057241977450
20
7.06443448814565
30
0.000000000000000
11
-24.3057241977450
21
7.00738355949137
31
0.000000000000000
  0
LINE
  5
F10120
330
F10121
100
AcDbEntity
8
Geo
100
AcDbLine
10
-24.3057241977450
20
7.00738355949137
30
0.000000000000000
11
-24.2057241977450
21
6.95046642562972
31
0.000000000000000
  0
LINE
  5
F10122
330
F10123
100
AcDbEntity
8
Geo
100
AcDbLine
10
-24.2057241977450
20
6.95046642562972
30
0.000000000000000
11
-24.1057241977450
21
6.89369494409106
31
0.000000000000000
  0
LINE
  5
F10124
330
F10125
100
AcDbEntity
8
Geo
100
AcDbLine
10
-24.1057241977450
20
6.89369494409106
30
0.000000000000000
11
-24.0057241977450
21
6.83708094206204
31
0.000000000000000
  0
LINE
  5
F10126
330
F10127
100
AcDbEntity
8
Geo
100
AcDbLine
10
-24.0057241977450
20
6.83708094206204
30
0.000000000000000
11
-23.9057241977450
21
6.78063621392165
31
0.000000000000000
  0
LINE
  5
F10128
330
F10129
100
AcDbEntity
8
Geo
100
AcDbLine
10
-23.9057241977450
20
6.78063621392165
30
0.000000000000000
11
-23.8057241977450
21
6.72437251878410
31
0.000000000000000
  0
LINE
  5
F1012A
330
F1012B
100
AcDbEntity
8
Geo
100
AcDbLine
10
-23.8057241977450
20
6.72437251878410
30
0.000000000000000
11
-23.7057241977450
21
6.66830157804904
31
0.000000000000000
  0
LINE
  5
F1012C
330
F1012D
100
AcDbEntity
8
Geo
100
AcDbLine
10
-23.7057241977450
20
6.66830157804904
30
0.000000000000000
11
-23.6057241977450
21
6.61243507295966
31
0.000000000000000
  0
LINE
  5
F1012E
330
F1012F
100
AcDbEntity
8
Geo
100
AcDbLine
10
-23.6057241977450
20
6.61243507295966
30
0.000000000000000
11
-23.5057241977450
21
6.55678464216913
31
0.000000000000000
  0
LINE
  5
F10130
330
F10131
100
AcDbEntity
8
Geo
100
AcDbLine
10
-23.5057241977450
20
6.55678464216913
30
0.000000000000000
11
-23.4057241977450
21
6.50136187931590
31
0.000000000000000
  0
LINE
  5
F10132
330
F10133
100
AcDbEntity
8
Geo
100
AcDbLine
10
-23.4057241977450
20
6.50136187931590
30
0.000000000000000
11
-23.3057241977450
21
6.44617833060846
31
0.000000000000000
  0
LINE
  5
F10134
330
F10135
100
AcDbEntity
8
Geo
100
AcDbLine
10
-23.3057241977450
20
6.44617833060846
30
0.000000000000000
11
-23.2057241977450
21
6.39124549241986
31
0.000000000000000
  0
LINE
  5
F10136
330
F10137
100
AcDbEntity
8
Geo
100
AcDbLine
10
-23.2057241977450
20
6.39124549241986
30
0.000000000000000
11
-23.1057241977450
21
6.33657480889270
31
0.000000000000000
  0
LINE
  5
F10138
330
F10139
100
AcDbEntity
8
Geo
100
AcDbLine
10
-23.1057241977450
20
6.33657480889270
30
0.000000000000000
11
-23.0057241977450
21
6.28217766955498
31
0.000000000000000
  0
LINE
  5
F1013A
330
F1013B
100
AcDbEntity
8
Geo
100
AcDbLine
10
-23.0057241977450
20
6.28217766955498
30
0.000000000000000
11
-22.9057241977450
21
6.22806540694731
31
0.000000000000000
  0
LINE
  5
F1013C
330
F1013D
100
AcDbEntity
8
Geo
100
AcDbLine
10
-22.9057241977450
20
6.22806540694731
30
0.000000000000000
11
-22.8057241977450
21
6.17424929426202
31
0.000000000000000
  0
LINE
  5
F1013E
330
F1013F
100
AcDbEntity
8
Geo
100
AcDbLine
10
-22.8057241977450
20
6.17424929426202
30
0.000000000000000
11
-22.7057241977450
21
6.12074054299461
31
0.000000000000000
  0
LINE
  5
F10140
330
F10141
100
AcDbEntity
8
Geo
100
AcDbLine
10
-22.7057241977450
20
6.12074054299461
30
0.000000000000000
11
-22.6057241977450
21
6.06755030060806
31
0.000000000000000
  0
LINE
  5
F10142
330
F10143
100
AcDbEntity
8
Geo
100
AcDbLine
10
-22.6057241977450
20
6.06755030060806
30
0.000000000000000
11
-22.5057241977450
21
6.01468964821048
31
0.000000000000000
  0
LINE
  5
F10144
330
F10145
100
AcDbEntity
8
Geo
100
AcDbLine
10
-22.5057241977450
20
6.01468964821048
30
0.000000000000000
11
-22.4057241977450
21
5.96216959824659
31
0.000000000000000
  0
LINE
  5
F10146
330
F10147
100
AcDbEntity
8
Geo
100
AcDbLine
10
-22.4057241977450
20
5.96216959824659
30
0.000000000000000
11
-22.3057241977450
21
5.91000109220352
31
0.000000000000000
  0
LINE
  5
F10148
330
F10149
100
AcDbEntity
8
Geo
100
AcDbLine
10
-22.3057241977450
20
5.91000109220352
30
0.000000000000000
11
-22.2057241977450
21
5.85819499833134
31
0.000000000000000
  0
LINE
  5
F1014A
330
F1014B
100
AcDbEntity
8
Geo
100
AcDbLine
10
-22.2057241977450
20
5.85819499833134
30
0.000000000000000
11
-22.1057241977450
21
5.80676210937889
31
0.000000000000000
  0
LINE
  5
F1014C
330
F1014D
100
AcDbEntity
8
Geo
100
AcDbLine
10
-22.1057241977450
20
5.80676210937889
30
0.000000000000000
11
-22.0057241977450
21
5.75571314034535
31
0.000000000000000
  0
LINE
  5
F1014E
330
F1014F
100
AcDbEntity
8
Geo
100
AcDbLine
10
-22.0057241977450
20
5.75571314034535
30
0.000000000000000
11
-21.9057241977450
21
5.70505872624796
31
0.000000000000000
  0
LINE
  5
F10150
330
F10151
100
AcDbEntity
8
Geo
100
AcDbLine
10
-21.9057241977450
20
5.70505872624796
30
0.000000000000000
11
-21.8057241977450
21
5.65480941990645
31
0.000000000000000
  0
LINE
  5
F10152
330
F10153
100
AcDbEntity
8
Geo
100
AcDbLine
10
-21.8057241977450
20
5.65480941990645
30
0.000000000000000
11
-21.7057241977450
21
5.60497568974455
31
0.000000000000000
  0
LINE
  5
F10154
330
F10155
100
AcDbEntity
8
Geo
100
AcDbLine
10
-21.7057241977450
20
5.60497568974455
30
0.000000000000000
11
-21.6057241977450
21
5.55556791760915
31
0.000000000000000
  0
LINE
  5
F10156
330
F10157
100
AcDbEntity
8
Geo
100
AcDbLine
10
-21.6057241977450
20
5.55556791760915
30
0.000000000000000
11
-21.5057241977450
21
5.50659639660741
31
0.000000000000000
  0
LINE
  5
F10158
330
F10159
100
AcDbEntity
8
Geo
100
AcDbLine
10
-21.5057241977450
20
5.50659639660741
30
0.000000000000000
11
-21.4057241977450
21
5.45807132896240
31
0.000000000000000
  0
LINE
  5
F1015A
330
F1015B
100
AcDbEntity
8
Geo
100
AcDbLine
10
-21.4057241977450
20
5.45807132896240
30
0.000000000000000
11
-21.3057241977450
21
5.41000282388772
31
0.000000000000000
  0
LINE
  5
F1015C
330
F1015D
100
AcDbEntity
8
Geo
100
AcDbLine
10
-21.3057241977450
20
5.41000282388772
30
0.000000000000000
11
-21.2057241977450
21
5.36240089548139
31
0.000000000000000
  0
LINE
  5
F1015E
330
F1015F
100
AcDbEntity
8
Geo
100
AcDbLine
10
-21.2057241977450
20
5.36240089548139
30
0.000000000000000
11
-21.1057241977450
21
5.31527546063967
31
0.000000000000000
  0
LINE
  5
F10160
330
F10161
100
AcDbEntity
8
Geo
100
AcDbLine
10
-21.1057241977450
20
5.31527546063967
30
0.000000000000000
11
-21.0057241977450
21
5.26863633699103
31
0.000000000000000
  0
LINE
  5
F10162
330
F10163
100
AcDbEntity
8
Geo
100
AcDbLine
10
-21.0057241977450
20
5.26863633699103
30
0.000000000000000
11
-20.9057241977450
21
5.22249324085088
31
0.000000000000000
  0
LINE
  5
F10164
330
F10165
100
AcDbEntity
8
Geo
100
AcDbLine
10
-20.9057241977450
20
5.22249324085088
30
0.000000000000000
11
-20.8057241977450
21
5.17685578519735
31
0.000000000000000
  0
LINE
  5
F10166
330
F10167
100
AcDbEntity
8
Geo
100
AcDbLine
10
-20.8057241977450
20
5.17685578519735
30
0.000000000000000
11
-20.7057241977450
21
5.13173347766864
31
0.000000000000000
  0
LINE
  5
F10168
330
F10169
100
AcDbEntity
8
Geo
100
AcDbLine
10
-20.7057241977450
20
5.13173347766864
30
0.000000000000000
11
-20.6057241977450
21
5.08713571858229
31
0.000000000000000
  0
LINE
  5
F1016A
330
F1016B
100
AcDbEntity
8
Geo
100
AcDbLine
10
-20.6057241977450
20
5.08713571858229
30
0.000000000000000
11
-20.5057241977450
21
5.04307179897679
31
0.000000000000000
  0
LINE
  5
F1016C
330
F1016D
100
AcDbEntity
8
Geo
100
AcDbLine
10
-20.5057241977450
20
5.04307179897679
30
0.000000000000000
11
-20.4057241977450
21
4.99955089867603
31
0.000000000000000
  0
LINE
  5
F1016E
330
F1016F
100
AcDbEntity
8
Geo
100
AcDbLine
10
-20.4057241977450
20
4.99955089867603
30
0.000000000000000
11
-20.3057241977451
21
4.95658208437682
31
0.000000000000000
  0
LINE
  5
F10170
330
F10171
100
AcDbEntity
8
Geo
100
AcDbLine
10
-20.3057241977451
20
4.95658208437682
30
0.000000000000000
11
-20.2057241977450
21
4.91417430776007
31
0.000000000000000
  0
LINE
  5
F10172
330
F10173
100
AcDbEntity
8
Geo
100
AcDbLine
10
-20.2057241977450
20
4.91417430776007
30
0.000000000000000
11
-20.1057241977450
21
4.87233640362586
31
0.000000000000000
  0
LINE
  5
F10174
330
F10175
100
AcDbEntity
8
Geo
100
AcDbLine
10
-20.1057241977450
20
4.87233640362586
30
0.000000000000000
11
-20.0057241977450
21
4.83107708805288
31
0.000000000000000
  0
LINE
  5
F10176
330
F10177
100
AcDbEntity
8
Geo
100
AcDbLine
10
-20.0057241977450
20
4.83107708805288
30
0.000000000000000
11
-19.9057241977450
21
4.79040495658265
31
0.000000000000000
  0
LINE
  5
F10178
330
F10179
100
AcDbEntity
8
Geo
100
AcDbLine
10
-19.9057241977450
20
4.79040495658265
30
0.000000000000000
11
-19.8057241977450
21
4.75032848242880
31
0.000000000000000
  0
LINE
  5
F1017A
330
F1017B
100
AcDbEntity
8
Geo
100
AcDbLine
10
-19.8057241977450
20
4.75032848242880
30
0.000000000000000
11
-19.7057241977450
21
4.71085601471181
31
0.000000000000000
  0
LINE
  5
F1017C
330
F1017D
100
AcDbEntity
8
Geo
100
AcDbLine
10
-19.7057241977450
20
4.71085601471181
30
0.000000000000000
11
-19.6057241977450
21
4.67199577671971
31
0.000000000000000
  0
LINE
  5
F1017E
330
F1017F
100
AcDbEntity
8
Geo
100
AcDbLine
10
-19.6057241977450
20
4.67199577671971
30
0.000000000000000
11
-19.5057241977450
21
4.63375586419483
31
0.000000000000000
  0
LINE
  5
F10180
330
F10181
100
AcDbEntity
8
Geo
100
AcDbLine
10
-19.5057241977450
20
4.63375586419483
30
0.000000000000000
11
-19.4057241977450
21
4.59614424364734
31
0.000000000000000
  0
LINE
  5
F10182
330
F10183
100
AcDbEntity
8
Geo
100
AcDbLine
10
-19.4057241977450
20
4.59614424364734
30
0.000000000000000
11
-19.3057241977450
21
4.55916875069545
31
0.000000000000000
  0
LINE
  5
F10184
330
F10185
100
AcDbEntity
8
Geo
100
AcDbLine
10
-19.3057241977450
20
4.55916875069545
30
0.000000000000000
11
-19.2057241977450
21
4.52283708843315
31
0.000000000000000
  0
LINE
  5
F10186
330
F10187
100
AcDbEntity
8
Geo
100
AcDbLine
10
-19.2057241977450
20
4.52283708843315
30
0.000000000000000
11
-19.1057241977450
21
4.48715682582532
31
0.000000000000000
  0
LINE
  5
F10188
330
F10189
100
AcDbEntity
8
Geo
100
AcDbLine
10
-19.1057241977450
20
4.48715682582532
30
0.000000000000000
11
-19.0057241977450
21
4.45213539613096
31
0.000000000000000
  0
LINE
  5
F1018A
330
F1018B
100
AcDbEntity
8
Geo
100
AcDbLine
10
-19.0057241977450
20
4.45213539613096
30
0.000000000000000
11
-18.9057241977450
21
4.41778009535459
31
0.000000000000000
  0
LINE
  5
F1018C
330
F1018D
100
AcDbEntity
8
Geo
100
AcDbLine
10
-18.9057241977450
20
4.41778009535459
30
0.000000000000000
11
-18.8057241977450
21
4.38409808072628
31
0.000000000000000
  0
LINE
  5
F1018E
330
F1018F
100
AcDbEntity
8
Geo
100
AcDbLine
10
-18.8057241977450
20
4.38409808072628
30
0.000000000000000
11
-18.7057241977450
21
4.35109636921058
31
0.000000000000000
  0
LINE
  5
F10190
330
F10191
100
AcDbEntity
8
Geo
100
AcDbLine
10
-18.7057241977450
20
4.35109636921058
30
0.000000000000000
11
-18.6057241977450
21
4.31878183604469
31
0.000000000000000
  0
LINE
  5
F10192
330
F10193
100
AcDbEntity
8
Geo
100
AcDbLine
10
-18.6057241977450
20
4.31878183604469
30
0.000000000000000
11
-18.5057241977450
21
4.28716121330616
31
0.000000000000000
  0
LINE
  5
F10194
330
F10195
100
AcDbEntity
8
Geo
100
AcDbLine
10
-18.5057241977450
20
4.28716121330616
30
0.000000000000000
11
-18.4057241977450
21
4.25624108851034
31
0.000000000000000
  0
LINE
  5
F10196
330
F10197
100
AcDbEntity
8
Geo
100
AcDbLine
10
-18.4057241977450
20
4.25624108851034
30
0.000000000000000
11
-18.3057241977450
21
4.22602790323807
31
0.000000000000000
  0
LINE
  5
F10198
330
F10199
100
AcDbEntity
8
Geo
100
AcDbLine
10
-18.3057241977450
20
4.22602790323807
30
0.000000000000000
11
-18.2057241977450
21
4.19652795179367
31
0.000000000000000
  0
LINE
  5
F1019A
330
F1019B
100
AcDbEntity
8
Geo
100
AcDbLine
10
-18.2057241977450
20
4.19652795179367
30
0.000000000000000
11
-18.1057241977450
21
4.16774737989367
31
0.000000000000000
  0
LINE
  5
F1019C
330
F1019D
100
AcDbEntity
8
Geo
100
AcDbLine
10
-18.1057241977450
20
4.16774737989367
30
0.000000000000000
11
-18.0057241977450
21
4.13969218338644
31
0.000000000000000
  0
LINE
  5
F1019E
330
F1019F
100
AcDbEntity
8
Geo
100
AcDbLine
10
-18.0057241977450
20
4.13969218338644
30
0.000000000000000
11
-17.9057241977450
21
4.11236820700312
31
0.000000000000000
  0
LINE
  5
F101A0
330
F101A1
100
AcDbEntity
8
Geo
100
AcDbLine
10
-17.9057241977450
20
4.11236820700312
30
0.000000000000000
11
-17.8057241977450
21
4.08578114313995
31
0.000000000000000
  0
LINE
  5
F101A2
330
F101A3
100
AcDbEntity
8
Geo
100
AcDbLine
10
-17.8057241977450
20
4.08578114313995
30
0.000000000000000
11
-17.7057241977450
21
4.05993653067243
31
0.000000000000000
  0
LINE
  5
F101A4
330
F101A5
100
AcDbEntity
8
Geo
100
AcDbLine
10
-17.7057241977450
20
4.05993653067243
30
0.000000000000000
11
-17.6057241977450
21
4.03483975380133
31
0.000000000000000
  0
LINE
  5
F101A6
330
F101A7
100
AcDbEntity
8
Geo
100
AcDbLine
10
-17.6057241977450
20
4.03483975380133
30
0.000000000000000
11
-17.5057241977450
21
4.01049604093106
31
0.000000000000000
  0
LINE
  5
F101A8
330
F101A9
100
AcDbEntity
8
Geo
100
AcDbLine
10
-17.5057241977450
20
4.01049604093106
30
0.000000000000000
11
-17.4057241977450
21
3.98691046358043
31
0.000000000000000
  0
LINE
  5
F101AA
330
F101AB
100
AcDbEntity
8
Geo
100
AcDbLine
10
-17.4057241977450
20
3.98691046358043
30
0.000000000000000
11
-17.3057241977450
21
3.96408793532607
31
0.000000000000000
  0
LINE
  5
F101AC
330
F101AD
100
AcDbEntity
8
Geo
100
AcDbLine
10
-17.3057241977450
20
3.96408793532607
30
0.000000000000000
11
-17.2057241977450
21
3.94203321077882
31
0.000000000000000
  0
LINE
  5
F101AE
330
F101AF
100
AcDbEntity
8
Geo
100
AcDbLine
10
-17.2057241977450
20
3.94203321077882
30
0.000000000000000
11
-17.1057241977450
21
3.92075088459321
31
0.000000000000000
  0
LINE
  5
F101B0
330
F101B1
100
AcDbEntity
8
Geo
100
AcDbLine
10
-17.1057241977450
20
3.92075088459321
30
0.000000000000000
11
-17.0057241977450
21
3.90024539051020
31
0.000000000000000
  0
LINE
  5
F101B2
330
F101B3
100
AcDbEntity
8
Geo
100
AcDbLine
10
-17.0057241977450
20
3.90024539051020
30
0.000000000000000
11
-16.9057241977450
21
3.88052100043357
31
0.000000000000000
  0
LINE
  5
F101B4
330
F101B5
100
AcDbEntity
8
Geo
100
AcDbLine
10
-16.9057241977450
20
3.88052100043357
30
0.000000000000000
11
-16.8057241977450
21
3.86158182353990
31
0.000000000000000
  0
LINE
  5
F101B6
330
F101B7
100
AcDbEntity
8
Geo
100
AcDbLine
10
-16.8057241977450
20
3.86158182353990
30
0.000000000000000
11
-16.7057241977450
21
3.84343180542256
31
0.000000000000000
  0
LINE
  5
F101B8
330
F101B9
100
AcDbEntity
8
Geo
100
AcDbLine
10
-16.7057241977450
20
3.84343180542256
30
0.000000000000000
11
-16.6057241977450
21
3.82607472726966
31
0.000000000000000
  0
LINE
  5
F101BA
330
F101BB
100
AcDbEntity
8
Geo
100
AcDbLine
10
-16.6057241977450
20
3.82607472726966
30
0.000000000000000
11
-16.5057241977450
21
3.80951420507638
31
0.000000000000000
  0
LINE
  5
F101BC
330
F101BD
100
AcDbEntity
8
Geo
100
AcDbLine
10
-16.5057241977450
20
3.80951420507638
30
0.000000000000000
11
-16.4057241977450
21
3.79375368889161
31
0.000000000000000
  0
LINE
  5
F101BE
330
F101BF
100
AcDbEntity
8
Geo
100
AcDbLine
10
-35.5057241977450
20
6.91789989378513
30
0.000000000000000
11
-35.5057241977450
21
6.91789989378513
31
0.000000000000000
  0
LINE
  5
F101C0
330
F101C1
100
AcDbEntity
8
Geo
100
AcDbLine
10
-35.5057241977450
20
6.91789989378513
30
0.000000000000000
11
-35.4057241977450
21
6.75925831026802
31
0.000000000000000
  0
LINE
  5
F101C2
330
F101C3
100
AcDbEntity
8
Geo
100
AcDbLine
10
-35.4057241977450
20
6.75925831026802
30
0.000000000000000
11
-35.3057241977450
21
6.65204385639090
31
0.000000000000000
  0
LINE
  5
F101C4
330
F101C5
100
AcDbEntity
8
Geo
100
AcDbLine
10
-35.3057241977450
20
6.65204385639090
30
0.000000000000000
11
-35.2057241977450
21
6.55003712288178
31
0.000000000000000
  0
LINE
  5
F101C6
330
F101C7
100
AcDbEntity
8
Geo
100
AcDbLine
10
-35.2057241977450
20
6.55003712288178
30
0.000000000000000
11
-35.1303516153106
21
6.47423713135574
31
0.000000000000000
  0
LINE
  5
F101C8
330
F101C9
100
AcDbEntity
8
Geo
100
AcDbLine
10
-25.4229283367550
20
11.6496097137901
30
0.000000000000000
11
-25.4057241977450
21
11.6495973816616
31
0.000000000000000
  0
LINE
  5
F101CA
330
F101CB
100
AcDbEntity
8
Geo
100
AcDbLine
10
-25.4057241977450
20
11.6495973816616
30
0.000000000000000
11
-25.3057241977450
21
11.6490373635169
31
0.000000000000000
  0
LINE
  5
F101CC
330
F101CD
100
AcDbEntity
8
Geo
100
AcDbLine
10
-25.3057241977450
20
11.6490373635169
30
0.000000000000000
11
-25.2057241977450
21
11.6476441457438
31
0.000000000000000
  0
LINE
  5
F101CE
330
F101CF
100
AcDbEntity
8
Geo
100
AcDbLine
10
-25.2057241977450
20
11.6476441457438
30
0.000000000000000
11
-25.1057241977450
21
11.6454180185912
31
0.000000000000000
  0
LINE
  5
F101D0
330
F101D1
100
AcDbEntity
8
Geo
100
AcDbLine
10
-25.1057241977450
20
11.6454180185912
30
0.000000000000000
11
-25.0057241977450
21
11.6423594458274
31
0.000000000000000
  0
LINE
  5
F101D2
330
F101D3
100
AcDbEntity
8
Geo
100
AcDbLine
10
-25.0057241977450
20
11.6423594458274
30
0.000000000000000
11
-24.9057241977450
21
11.6384690646441
31
0.000000000000000
  0
LINE
  5
F101D4
330
F101D5
100
AcDbEntity
8
Geo
100
AcDbLine
10
-24.9057241977450
20
11.6384690646441
30
0.000000000000000
11
-24.8057241977450
21
11.6337476855232
31
0.000000000000000
  0
LINE
  5
F101D6
330
F101D7
100
AcDbEntity
8
Geo
100
AcDbLine
10
-24.8057241977450
20
11.6337476855232
30
0.000000000000000
11
-24.7057241977450
21
11.6281962920683
31
0.000000000000000
  0
LINE
  5
F101D8
330
F101D9
100
AcDbEntity
8
Geo
100
AcDbLine
10
-24.7057241977450
20
11.6281962920683
30
0.000000000000000
11
-24.6057241977450
21
11.6218160407996
31
0.000000000000000
  0
LINE
  5
F101DA
330
F101DB
100
AcDbEntity
8
Geo
100
AcDbLine
10
-24.6057241977450
20
11.6218160407996
30
0.000000000000000
11
-24.5057241977450
21
11.6146082609131
31
0.000000000000000
  0
LINE
  5
F101DC
330
F101DD
100
AcDbEntity
8
Geo
100
AcDbLine
10
-24.5057241977450
20
11.6146082609131
30
0.000000000000000
11
-24.4057241977450
21
11.6065744540035
31
0.000000000000000
  0
LINE
  5
F101DE
330
F101DF
100
AcDbEntity
8
Geo
100
AcDbLine
10
-24.4057241977450
20
11.6065744540035
30
0.000000000000000
11
-24.3057241977450
21
11.5977162937515
31
0.000000000000000
  0
LINE
  5
F101E0
330
F101E1
100
AcDbEntity
8
Geo
100
AcDbLine
10
-24.3057241977450
20
11.5977162937515
30
0.000000000000000
11
-24.2057241977450
21
11.5880356255752
31
0.000000000000000
  0
LINE
  5
F101E2
330
F101E3
100
AcDbEntity
8
Geo
100
AcDbLine
10
-24.2057241977450
20
11.5880356255752
30
0.000000000000000
11
-24.1057241977450
21
11.5775344662454
31
0.000000000000000
  0
LINE
  5
F101E4
330
F101E5
100
AcDbEntity
8
Geo
100
AcDbLine
10
-24.1057241977450
20
11.5775344662454
30
0.000000000000000
11
-24.0057241977450
21
11.5662150034656
31
0.000000000000000
  0
LINE
  5
F101E6
330
F101E7
100
AcDbEntity
8
Geo
100
AcDbLine
10
-24.0057241977450
20
11.5662150034656
30
0.000000000000000
11
-23.9057241977450
21
11.5540795954163
31
0.000000000000000
  0
LINE
  5
F101E8
330
F101E9
100
AcDbEntity
8
Geo
100
AcDbLine
10
-23.9057241977450
20
11.5540795954163
30
0.000000000000000
11
-23.8057241977450
21
11.5411307702637
31
0.000000000000000
  0
LINE
  5
F101EA
330
F101EB
100
AcDbEntity
8
Geo
100
AcDbLine
10
-23.8057241977450
20
11.5411307702637
30
0.000000000000000
11
-23.7057241977450
21
11.5273712256328
31
0.000000000000000
  0
LINE
  5
F101EC
330
F101ED
100
AcDbEntity
8
Geo
100
AcDbLine
10
-23.7057241977450
20
11.5273712256328
30
0.000000000000000
11
-23.6057241977450
21
11.5128038280456
31
0.000000000000000
  0
LINE
  5
F101EE
330
F101EF
100
AcDbEntity
8
Geo
100
AcDbLine
10
-23.6057241977450
20
11.5128038280456
30
0.000000000000000
11
-23.5057241977450
21
11.4974316123240
31
0.000000000000000
  0
LINE
  5
F101F0
330
F101F1
100
AcDbEntity
8
Geo
100
AcDbLine
10
-23.5057241977450
20
11.4974316123240
30
0.000000000000000
11
-23.4057241977450
21
11.4812577809572
31
0.000000000000000
  0
LINE
  5
F101F2
330
F101F3
100
AcDbEntity
8
Geo
100
AcDbLine
10
-23.4057241977450
20
11.4812577809572
30
0.000000000000000
11
-23.3057241977450
21
11.4642857034350
31
0.000000000000000
  0
LINE
  5
F101F4
330
F101F5
100
AcDbEntity
8
Geo
100
AcDbLine
10
-23.3057241977450
20
11.4642857034350
30
0.000000000000000
11
-23.2057241977450
21
11.4465189155456
31
0.000000000000000
  0
LINE
  5
F101F6
330
F101F7
100
AcDbEntity
8
Geo
100
AcDbLine
10
-23.2057241977450
20
11.4465189155456
30
0.000000000000000
11
-23.1057241977450
21
11.4279611186387
31
0.000000000000000
  0
LINE
  5
F101F8
330
F101F9
100
AcDbEntity
8
Geo
100
AcDbLine
10
-23.1057241977450
20
11.4279611186387
30
0.000000000000000
11
-23.0057241977450
21
11.4086161788549
31
0.000000000000000
  0
LINE
  5
F101FA
330
F101FB
100
AcDbEntity
8
Geo
100
AcDbLine
10
-23.0057241977450
20
11.4086161788549
30
0.000000000000000
11
-22.9057241977450
21
11.3884881263201
31
0.000000000000000
  0
LINE
  5
F101FC
330
F101FD
100
AcDbEntity
8
Geo
100
AcDbLine
10
-22.9057241977450
20
11.3884881263201
30
0.000000000000000
11
-22.8057241977450
21
11.3675811543057
31
0.000000000000000
  0
LINE
  5
F101FE
330
F101FF
100
AcDbEntity
8
Geo
100
AcDbLine
10
-22.8057241977450
20
11.3675811543057
30
0.000000000000000
11
-22.7057241977450
21
11.3458996183554
31
0.000000000000000
  0
LINE
  5
F10200
330
F10201
100
AcDbEntity
8
Geo
100
AcDbLine
10
-22.7057241977450
20
11.3458996183554
30
0.000000000000000
11
-22.6057241977450
21
11.3234480353772
31
0.000000000000000
  0
LINE
  5
F10202
330
F10203
100
AcDbEntity
8
Geo
100
AcDbLine
10
-22.6057241977450
20
11.3234480353772
30
0.000000000000000
11
-22.5057241977450
21
11.3002310827032
31
0.000000000000000
  0
LINE
  5
F10204
330
F10205
100
AcDbEntity
8
Geo
100
AcDbLine
10
-22.5057241977450
20
11.3002310827032
30
0.000000000000000
11
-22.4057241977450
21
11.2762535971145
31
0.000000000000000
  0
LINE
  5
F10206
330
F10207
100
AcDbEntity
8
Geo
100
AcDbLine
10
-22.4057241977450
20
11.2762535971145
30
0.000000000000000
11
-22.3057241977450
21
11.2515205738339
31
0.000000000000000
  0
LINE
  5
F10208
330
F10209
100
AcDbEntity
8
Geo
100
AcDbLine
10
-22.3057241977450
20
11.2515205738339
30
0.000000000000000
11
-22.2057241977450
21
11.2260371654851
31
0.000000000000000
  0
LINE
  5
F1020A
330
F1020B
100
AcDbEntity
8
Geo
100
AcDbLine
10
-22.2057241977450
20
11.2260371654851
30
0.000000000000000
11
-22.1057241977450
21
11.1998086810194
31
0.000000000000000
  0
LINE
  5
F1020C
330
F1020D
100
AcDbEntity
8
Geo
100
AcDbLine
10
-22.1057241977450
20
11.1998086810194
30
0.000000000000000
11
-22.0057241977450
21
11.1728405846094
31
0.000000000000000
  0
LINE
  5
F1020E
330
F1020F
100
AcDbEntity
8
Geo
100
AcDbLine
10
-22.0057241977450
20
11.1728405846094
30
0.000000000000000
11
-21.9057241977450
21
11.1451384945111
31
0.000000000000000
  0
LINE
  5
F10210
330
F10211
100
AcDbEntity
8
Geo
100
AcDbLine
10
-21.9057241977450
20
11.1451384945111
30
0.000000000000000
11
-21.8057241977450
21
11.1167081818930
31
0.000000000000000
  0
LINE
  5
F10212
330
F10213
100
AcDbEntity
8
Geo
100
AcDbLine
10
-21.8057241977450
20
11.1167081818930
30
0.000000000000000
11
-21.7057241977450
21
11.0875555696342
31
0.000000000000000
  0
LINE
  5
F10214
330
F10215
100
AcDbEntity
8
Geo
100
AcDbLine
10
-21.7057241977450
20
11.0875555696342
30
0.000000000000000
11
-21.6057241977450
21
11.0576867310899
31
0.000000000000000
  0
LINE
  5
F10216
330
F10217
100
AcDbEntity
8
Geo
100
AcDbLine
10
-21.6057241977450
20
11.0576867310899
30
0.000000000000000
11
-21.5057241977450
21
11.0271078888270
31
0.000000000000000
  0
LINE
  5
F10218
330
F10219
100
AcDbEntity
8
Geo
100
AcDbLine
10
-21.5057241977450
20
11.0271078888270
30
0.000000000000000
11
-21.4057241977450
21
10.9958254133269
31
0.000000000000000
  0
LINE
  5
F1021A
330
F1021B
100
AcDbEntity
8
Geo
100
AcDbLine
10
-21.4057241977450
20
10.9958254133269
30
0.000000000000000
11
-21.3057241977450
21
10.9638458216590
31
0.000000000000000
  0
LINE
  5
F1021C
330
F1021D
100
AcDbEntity
8
Geo
100
AcDbLine
10
-21.3057241977450
20
10.9638458216590
30
0.000000000000000
11
-21.2057241977450
21
10.9311757761224
31
0.000000000000000
  0
LINE
  5
F1021E
330
F1021F
100
AcDbEntity
8
Geo
100
AcDbLine
10
-21.2057241977450
20
10.9311757761224
30
0.000000000000000
11
-21.1057241977450
21
10.8978220828585
31
0.000000000000000
  0
LINE
  5
F10220
330
F10221
100
AcDbEntity
8
Geo
100
AcDbLine
10
-21.1057241977450
20
10.8978220828585
30
0.000000000000000
11
-21.0057241977450
21
10.8637916904327
31
0.000000000000000
  0
LINE
  5
F10222
330
F10223
100
AcDbEntity
8
Geo
100
AcDbLine
10
-21.0057241977450
20
10.8637916904327
30
0.000000000000000
11
-20.9057241977450
21
10.8290916883871
31
0.000000000000000
  0
LINE
  5
F10224
330
F10225
100
AcDbEntity
8
Geo
100
AcDbLine
10
-20.9057241977450
20
10.8290916883871
30
0.000000000000000
11
-20.8057241977450
21
10.7937293057632
31
0.000000000000000
  0
LINE
  5
F10226
330
F10227
100
AcDbEntity
8
Geo
100
AcDbLine
10
-20.8057241977450
20
10.7937293057632
30
0.000000000000000
11
-20.7057241977450
21
10.7577119095962
31
0.000000000000000
  0
LINE
  5
F10228
330
F10229
100
AcDbEntity
8
Geo
100
AcDbLine
10
-20.7057241977450
20
10.7577119095962
30
0.000000000000000
11
-20.6057241977450
21
10.7210470033801
31
0.000000000000000
  0
LINE
  5
F1022A
330
F1022B
100
AcDbEntity
8
Geo
100
AcDbLine
10
-20.6057241977450
20
10.7210470033801
30
0.000000000000000
11
-20.5057241977450
21
10.6837422255042
31
0.000000000000000
  0
LINE
  5
F1022C
330
F1022D
100
AcDbEntity
8
Geo
100
AcDbLine
10
-20.5057241977450
20
10.6837422255042
30
0.000000000000000
11
-20.4057241977450
21
10.6458053476625
31
0.000000000000000
  0
LINE
  5
F1022E
330
F1022F
100
AcDbEntity
8
Geo
100
AcDbLine
10
-20.4057241977450
20
10.6458053476625
30
0.000000000000000
11
-20.3057241977451
21
10.6072442732340
31
0.000000000000000
  0
LINE
  5
F10230
330
F10231
100
AcDbEntity
8
Geo
100
AcDbLine
10
-20.3057241977451
20
10.6072442732340
30
0.000000000000000
11
-20.2057241977450
21
10.5680670356362
31
0.000000000000000
  0
LINE
  5
F10232
330
F10233
100
AcDbEntity
8
Geo
100
AcDbLine
10
-20.2057241977450
20
10.5680670356362
30
0.000000000000000
11
-20.1057241977450
21
10.5282817966522
31
0.000000000000000
  0
LINE
  5
F10234
330
F10235
100
AcDbEntity
8
Geo
100
AcDbLine
10
-20.1057241977450
20
10.5282817966522
30
0.000000000000000
11
-20.0057241977450
21
10.4878968447293
31
0.000000000000000
  0
LINE
  5
F10236
330
F10237
100
AcDbEntity
8
Geo
100
AcDbLine
10
-20.0057241977450
20
10.4878968447293
30
0.000000000000000
11
-19.9057241977450
21
10.4469205932531
31
0.000000000000000
  0
LINE
  5
F10238
330
F10239
100
AcDbEntity
8
Geo
100
AcDbLine
10
-19.9057241977450
20
10.4469205932531
30
0.000000000000000
11
-19.8057241977450
21
10.4053615787947
31
0.000000000000000
  0
LINE
  5
F1023A
330
F1023B
100
AcDbEntity
8
Geo
100
AcDbLine
10
-19.8057241977450
20
10.4053615787947
30
0.000000000000000
11
-19.7057241977450
21
10.3632284593315
31
0.000000000000000
  0
LINE
  5
F1023C
330
F1023D
100
AcDbEntity
8
Geo
100
AcDbLine
10
-19.7057241977450
20
10.3632284593315
30
0.000000000000000
11
-19.6057241977450
21
10.3205300124445
31
0.000000000000000
  0
LINE
  5
F1023E
330
F1023F
100
AcDbEntity
8
Geo
100
AcDbLine
10
-19.6057241977450
20
10.3205300124445
30
0.000000000000000
11
-19.5057241977450
21
10.2772751334890
31
0.000000000000000
  0
LINE
  5
F10240
330
F10241
100
AcDbEntity
8
Geo
100
AcDbLine
10
-19.5057241977450
20
10.2772751334890
30
0.000000000000000
11
-19.4057241977450
21
10.2334728337417
31
0.000000000000000
  0
LINE
  5
F10242
330
F10243
100
AcDbEntity
8
Geo
100
AcDbLine
10
-19.4057241977450
20
10.2334728337417
30
0.000000000000000
11
-19.3057241977450
21
10.1891322385232
31
0.000000000000000
  0
LINE
  5
F10244
330
F10245
100
AcDbEntity
8
Geo
100
AcDbLine
10
-19.3057241977450
20
10.1891322385232
30
0.000000000000000
11
-19.2057241977450
21
10.1442625852972
31
0.000000000000000
  0
LINE
  5
F10246
330
F10247
100
AcDbEntity
8
Geo
100
AcDbLine
10
-19.2057241977450
20
10.1442625852972
30
0.000000000000000
11
-19.1057241977450
21
10.0988732217457
31
0.000000000000000
  0
LINE
  5
F10248
330
F10249
100
AcDbEntity
8
Geo
100
AcDbLine
10
-19.1057241977450
20
10.0988732217457
30
0.000000000000000
11
-19.0057241977450
21
10.0529736038222
31
0.000000000000000
  0
LINE
  5
F1024A
330
F1024B
100
AcDbEntity
8
Geo
100
AcDbLine
10
-19.0057241977450
20
10.0529736038222
30
0.000000000000000
11
-18.9057241977450
21
10.0065732937809
31
0.000000000000000
  0
LINE
  5
F1024C
330
F1024D
100
AcDbEntity
8
Geo
100
AcDbLine
10
-18.9057241977450
20
10.0065732937809
30
0.000000000000000
11
-18.8057241977450
21
9.95968195818524
31
0.000000000000000
  0
LINE
  5
F1024E
330
F1024F
100
AcDbEntity
8
Geo
100
AcDbLine
10
-18.8057241977450
20
9.95968195818524
30
0.000000000000000
11
-18.7057241977450
21
9.91230936589392
31
0.000000000000000
  0
LINE
  5
F10250
330
F10251
100
AcDbEntity
8
Geo
100
AcDbLine
10
-18.7057241977450
20
9.91230936589392
30
0.000000000000000
11
-18.6057241977450
21
9.86446538602565
31
0.000000000000000
  0
LINE
  5
F10252
330
F10253
100
AcDbEntity
8
Geo
100
AcDbLine
10
-18.6057241977450
20
9.86446538602565
30
0.000000000000000
11
-18.5057241977450
21
9.81615998590317
31
0.000000000000000
  0
LINE
  5
F10254
330
F10255
100
AcDbEntity
8
Geo
100
AcDbLine
10
-18.5057241977450
20
9.81615998590317
30
0.000000000000000
11
-18.4057241977450
21
9.76740322897681
31
0.000000000000000
  0
LINE
  5
F10256
330
F10257
100
AcDbEntity
8
Geo
100
AcDbLine
10
-18.4057241977450
20
9.76740322897681
30
0.000000000000000
11
-18.3057241977450
21
9.71820527272792
31
0.000000000000000
  0
LINE
  5
F10258
330
F10259
100
AcDbEntity
8
Geo
100
AcDbLine
10
-18.3057241977450
20
9.71820527272792
30
0.000000000000000
11
-18.2057241977450
21
9.66857636655275
31
0.000000000000000
  0
LINE
  5
F1025A
330
F1025B
100
AcDbEntity
8
Geo
100
AcDbLine
10
-18.2057241977450
20
9.66857636655275
30
0.000000000000000
11
-18.1057241977450
21
9.61852684962727
31
0.000000000000000
  0
LINE
  5
F1025C
330
F1025D
100
AcDbEntity
8
Geo
100
AcDbLine
10
-18.1057241977450
20
9.61852684962727
30
0.000000000000000
11
-18.0057241977450
21
9.56806714875315
31
0.000000000000000
  0
LINE
  5
F1025E
330
F1025F
100
AcDbEntity
8
Geo
100
AcDbLine
10
-18.0057241977450
20
9.56806714875315
30
0.000000000000000
11
-17.9057241977450
21
9.51720777618557
31
0.000000000000000
  0
LINE
  5
F10260
330
F10261
100
AcDbEntity
8
Geo
100
AcDbLine
10
-17.9057241977450
20
9.51720777618557
30
0.000000000000000
11
-17.8057241977450
21
9.46595932744318
31
0.000000000000000
  0
LINE
  5
F10262
330
F10263
100
AcDbEntity
8
Geo
100
AcDbLine
10
-17.8057241977450
20
9.46595932744318
30
0.000000000000000
11
-17.7057241977450
21
9.41433247910079
31
0.000000000000000
  0
LINE
  5
F10264
330
F10265
100
AcDbEntity
8
Geo
100
AcDbLine
10
-17.7057241977450
20
9.41433247910079
30
0.000000000000000
11
-17.6057241977450
21
9.36233798656506
31
0.000000000000000
  0
LINE
  5
F10266
330
F10267
100
AcDbEntity
8
Geo
100
AcDbLine
10
-17.6057241977450
20
9.36233798656506
30
0.000000000000000
11
-17.5057241977450
21
9.30998668183390
31
0.000000000000000
  0
LINE
  5
F10268
330
F10269
100
AcDbEntity
8
Geo
100
AcDbLine
10
-17.5057241977450
20
9.30998668183390
30
0.000000000000000
11
-17.4057241977450
21
9.25728947123977
31
0.000000000000000
  0
LINE
  5
F1026A
330
F1026B
100
AcDbEntity
8
Geo
100
AcDbLine
10
-17.4057241977450
20
9.25728947123977
30
0.000000000000000
11
-17.3057241977450
21
9.20425733317761
31
0.000000000000000
  0
LINE
  5
F1026C
330
F1026D
100
AcDbEntity
8
Geo
100
AcDbLine
10
-17.3057241977450
20
9.20425733317761
30
0.000000000000000
11
-17.2057241977450
21
9.15090131581771
31
0.000000000000000
  0
LINE
  5
F1026E
330
F1026F
100
AcDbEntity
8
Geo
100
AcDbLine
10
-17.2057241977450
20
9.15090131581771
30
0.000000000000000
11
-17.1057241977450
21
9.09723253480403
31
0.000000000000000
  0
LINE
  5
F10270
330
F10271
100
AcDbEntity
8
Geo
100
AcDbLine
10
-17.1057241977450
20
9.09723253480403
30
0.000000000000000
11
-17.0057241977450
21
9.04326217093851
31
0.000000000000000
  0
LINE
  5
F10272
330
F10273
100
AcDbEntity
8
Geo
100
AcDbLine
10
-17.0057241977450
20
9.04326217093851
30
0.000000000000000
11
-16.9057241977450
21
8.98900146785175
31
0.000000000000000
  0
LINE
  5
F10274
330
F10275
100
AcDbEntity
8
Geo
100
AcDbLine
10
-16.9057241977450
20
8.98900146785175
30
0.000000000000000
11
-16.8057241977450
21
8.93446172966063
31
0.000000000000000
  0
LINE
  5
F10276
330
F10277
100
AcDbEntity
8
Geo
100
AcDbLine
10
-16.8057241977450
20
8.93446172966063
30
0.000000000000000
11
-16.7057241977450
21
8.87965431861335
31
0.000000000000000
  0
LINE
  5
F10278
330
F10279
100
AcDbEntity
8
Geo
100
AcDbLine
10
-16.7057241977450
20
8.87965431861335
30
0.000000000000000
11
-16.6057241977450
21
8.82459065272232
31
0.000000000000000
  0
LINE
  5
F1027A
330
F1027B
100
AcDbEntity
8
Geo
100
AcDbLine
10
-16.6057241977450
20
8.82459065272232
30
0.000000000000000
11
-16.5057241977450
21
8.76928220338544
31
0.000000000000000
  0
LINE
  5
F1027C
330
F1027D
100
AcDbEntity
8
Geo
100
AcDbLine
10
-16.5057241977450
20
8.76928220338544
30
0.000000000000000
11
-16.4057241977450
21
8.71374049299627
31
0.000000000000000
  0
LINE
  5
F1027E
330
F1027F
100
AcDbEntity
8
Geo
100
AcDbLine
10
-35.5057241977450
20
6.91789989378513
30
0.000000000000000
11
-35.5057241977450
21
6.91789989378513
31
0.000000000000000
  0
LINE
  5
F10280
330
F10281
100
AcDbEntity
8
Geo
100
AcDbLine
10
-35.5057241977450
20
6.91789989378513
30
0.000000000000000
11
-35.4057241977450
21
6.95093005662829
31
0.000000000000000
  0
LINE
  5
F10282
330
F10283
100
AcDbEntity
8
Geo
100
AcDbLine
10
-35.4057241977450
20
6.95093005662829
30
0.000000000000000
11
-35.3057241977450
21
6.94885235350703
31
0.000000000000000
  0
LINE
  5
F10284
330
F10285
100
AcDbEntity
8
Geo
100
AcDbLine
10
-35.3057241977450
20
6.94885235350703
30
0.000000000000000
11
-35.2057241977450
21
6.94199167352049
31
0.000000000000000
  0
LINE
  5
F10286
330
F10287
100
AcDbEntity
8
Geo
100
AcDbLine
10
-35.2057241977450
20
6.94199167352049
30
0.000000000000000
11
-35.1057241977450
21
6.93117179362745
31
0.000000000000000
  0
LINE
  5
F10288
330
F10289
100
AcDbEntity
8
Geo
100
AcDbLine
10
-35.1057241977450
20
6.93117179362745
30
0.000000000000000
11
-35.0057241977450
21
6.91679863783499
31
0.000000000000000
  0
LINE
  5
F1028A
330
F1028B
100
AcDbEntity
8
Geo
100
AcDbLine
10
-35.0057241977450
20
6.91679863783499
30
0.000000000000000
11
-34.9057241977450
21
6.89910755094190
31
0.000000000000000
  0
LINE
  5
F1028C
330
F1028D
100
AcDbEntity
8
Geo
100
AcDbLine
10
-34.9057241977450
20
6.89910755094190
30
0.000000000000000
11
-34.8057241977450
21
6.87824964877598
31
0.000000000000000
  0
LINE
  5
F1028E
330
F1028F
100
AcDbEntity
8
Geo
100
AcDbLine
10
-34.8057241977450
20
6.87824964877598
30
0.000000000000000
11
-34.7057241977450
21
6.85432941255688
31
0.000000000000000
  0
LINE
  5
F10290
330
F10291
100
AcDbEntity
8
Geo
100
AcDbLine
10
-34.7057241977450
20
6.85432941255688
30
0.000000000000000
11
-34.6057241977450
21
6.82742347344455
31
0.000000000000000
  0
LINE
  5
F10292
330
F10293
100
AcDbEntity
8
Geo
100
AcDbLine
10
-34.6057241977450
20
6.82742347344455
30
0.000000000000000
11
-34.5057241977450
21
6.79759093805804
31
0.000000000000000
  0
LINE
  5
F10294
330
F10295
100
AcDbEntity
8
Geo
100
AcDbLine
10
-34.5057241977450
20
6.79759093805804
30
0.000000000000000
11
-34.4057241977450
21
6.76487947813562
31
0.000000000000000
  0
LINE
  5
F10296
330
F10297
100
AcDbEntity
8
Geo
100
AcDbLine
10
-34.4057241977450
20
6.76487947813562
30
0.000000000000000
11
-34.3057241977450
21
6.72932912218918
31
0.000000000000000
  0
LINE
  5
F10298
330
F10299
100
AcDbEntity
8
Geo
100
AcDbLine
10
-34.3057241977450
20
6.72932912218918
30
0.000000000000000
11
-34.2057241977450
21
6.69097472039463
31
0.000000000000000
  0
LINE
  5
F1029A
330
F1029B
100
AcDbEntity
8
Geo
100
AcDbLine
10
-34.2057241977450
20
6.69097472039463
30
0.000000000000000
11
-34.1057241977450
21
6.64984760427808
31
0.000000000000000
  0
LINE
  5
F1029C
330
F1029D
100
AcDbEntity
8
Geo
100
AcDbLine
10
-34.1057241977450
20
6.64984760427808
30
0.000000000000000
11
-34.0057241977450
21
6.60597673728714
31
0.000000000000000
  0
LINE
  5
F1029E
330
F1029F
100
AcDbEntity
8
Geo
100
AcDbLine
10
-34.0057241977450
20
6.60597673728714
30
0.000000000000000
11
-33.9057241977450
21
6.55938953221740
31
0.000000000000000
  0
LINE
  5
F102A0
330
F102A1
100
AcDbEntity
8
Geo
100
AcDbLine
10
-33.9057241977450
20
6.55938953221740
30
0.000000000000000
11
-33.8057241977450
21
6.51011244417637
31
0.000000000000000
  0
LINE
  5
F102A2
330
F102A3
100
AcDbEntity
8
Geo
100
AcDbLine
10
-33.8057241977450
20
6.51011244417637
30
0.000000000000000
11
-33.7057241977450
21
6.45817140844599
31
0.000000000000000
  0
LINE
  5
F102A4
330
F102A5
100
AcDbEntity
8
Geo
100
AcDbLine
10
-33.7057241977450
20
6.45817140844599
30
0.000000000000000
11
-33.6057241977450
21
6.40359216878078
31
0.000000000000000
  0
LINE
  5
F102A6
330
F102A7
100
AcDbEntity
8
Geo
100
AcDbLine
10
-33.6057241977450
20
6.40359216878078
30
0.000000000000000
11
-33.5057241977450
21
6.34640052678502
31
0.000000000000000
  0
LINE
  5
F102A8
330
F102A9
100
AcDbEntity
8
Geo
100
AcDbLine
10
-33.5057241977450
20
6.34640052678502
30
0.000000000000000
11
-33.4057241977450
21
6.28662253344386
31
0.000000000000000
  0
LINE
  5
F102AA
330
F102AB
100
AcDbEntity
8
Geo
100
AcDbLine
10
-33.4057241977450
20
6.28662253344386
30
0.000000000000000
11
-33.3057241977450
21
6.22428463758516
31
0.000000000000000
  0
LINE
  5
F102AC
330
F102AD
100
AcDbEntity
8
Geo
100
AcDbLine
10
-33.3057241977450
20
6.22428463758516
30
0.000000000000000
11
-33.2057241977450
21
6.15941380181387
31
0.000000000000000
  0
LINE
  5
F102AE
330
F102AF
100
AcDbEntity
8
Geo
100
AcDbLine
10
-33.2057241977450
20
6.15941380181387
30
0.000000000000000
11
-33.1057241977450
21
6.09203759355759
31
0.000000000000000
  0
LINE
  5
F102B0
330
F102B1
100
AcDbEntity
8
Geo
100
AcDbLine
10
-33.1057241977450
20
6.09203759355759
30
0.000000000000000
11
-33.0057241977450
21
6.02218425683686
31
0.000000000000000
  0
LINE
  5
F102B2
330
F102B3
100
AcDbEntity
8
Geo
100
AcDbLine
10
-33.0057241977450
20
6.02218425683686
30
0.000000000000000
11
-32.9057241977450
21
5.94988276893916
31
0.000000000000000
  0
LINE
  5
F102B4
330
F102B5
100
AcDbEntity
8
Geo
100
AcDbLine
10
-32.9057241977450
20
5.94988276893916
30
0.000000000000000
11
-32.8057241977450
21
5.87516288514422
31
0.000000000000000
  0
LINE
  5
F102B6
330
F102B7
100
AcDbEntity
8
Geo
100
AcDbLine
10
-32.8057241977450
20
5.87516288514422
30
0.000000000000000
11
-32.7057241977450
21
5.79805517389752
31
0.000000000000000
  0
LINE
  5
F102B8
330
F102B9
100
AcDbEntity
8
Geo
100
AcDbLine
10
-32.7057241977450
20
5.79805517389752
30
0.000000000000000
11
-32.6057241977450
21
5.71859104427522
31
0.000000000000000
  0
LINE
  5
F102BA
330
F102BB
100
AcDbEntity
8
Geo
100
AcDbLine
10
-32.6057241977450
20
5.71859104427522
30
0.000000000000000
11
-32.5057241977450
21
5.63680276717160
31
0.000000000000000
  0
LINE
  5
F102BC
330
F102BD
100
AcDbEntity
8
Geo
100
AcDbLine
10
-32.5057241977450
20
5.63680276717160
30
0.000000000000000
11
-32.4057241977450
21
5.55272349132932
31
0.000000000000000
  0
LINE
  5
F102BE
330
F102BF
100
AcDbEntity
8
Geo
100
AcDbLine
10
-32.4057241977450
20
5.55272349132932
30
0.000000000000000
11
-32.3057241977450
21
5.46638725509715
31
0.000000000000000
  0
LINE
  5
F102C0
330
F102C1
100
AcDbEntity
8
Geo
100
AcDbLine
10
-32.3057241977450
20
5.46638725509715
30
0.000000000000000
11
-32.2057241977450
21
5.41823948796201
31
0.000000000000000
  0
LINE
  5
F102C2
330
F102C3
100
AcDbEntity
8
Geo
100
AcDbLine
10
-32.2057241977450
20
5.41823948796201
30
0.000000000000000
11
-32.1057241977450
21
5.37055658155334
31
0.000000000000000
  0
LINE
  5
F102C4
330
F102C5
100
AcDbEntity
8
Geo
100
AcDbLine
10
-32.1057241977450
20
5.37055658155334
30
0.000000000000000
11
-32.0057241977450
21
5.32334846963750
31
0.000000000000000
  0
LINE
  5
F102C6
330
F102C7
100
AcDbEntity
8
Geo
100
AcDbLine
10
-32.0057241977450
20
5.32334846963750
30
0.000000000000000
11
-31.9057241977450
21
5.27662498706707
31
0.000000000000000
  0
LINE
  5
F102C8
330
F102C9
100
AcDbEntity
8
Geo
100
AcDbLine
10
-31.9057241977450
20
5.27662498706707
30
0.000000000000000
11
-31.8057241977450
21
5.23039586773192
31
0.000000000000000
  0
LINE
  5
F102CA
330
F102CB
100
AcDbEntity
8
Geo
100
AcDbLine
10
-31.8057241977450
20
5.23039586773192
30
0.000000000000000
11
-31.7057241977450
21
5.18467074253138
31
0.000000000000000
  0
LINE
  5
F102CC
330
F102CD
100
AcDbEntity
8
Geo
100
AcDbLine
10
-31.7057241977450
20
5.18467074253138
30
0.000000000000000
11
-31.6057241977450
21
5.13945913736781
31
0.000000000000000
  0
LINE
  5
F102CE
330
F102CF
100
AcDbEntity
8
Geo
100
AcDbLine
10
-31.6057241977450
20
5.13945913736781
30
0.000000000000000
11
-31.5057241977450
21
5.09477047116210
31
0.000000000000000
  0
LINE
  5
F102D0
330
F102D1
100
AcDbEntity
8
Geo
100
AcDbLine
10
-31.5057241977450
20
5.09477047116210
30
0.000000000000000
11
-31.4057241977450
21
5.05061405389141
31
0.000000000000000
  0
LINE
  5
F102D2
330
F102D3
100
AcDbEntity
8
Geo
100
AcDbLine
10
-31.4057241977450
20
5.05061405389141
30
0.000000000000000
11
-31.3057241977450
21
5.00699908464962
31
0.000000000000000
  0
LINE
  5
F102D4
330
F102D5
100
AcDbEntity
8
Geo
100
AcDbLine
10
-31.3057241977450
20
5.00699908464962
30
0.000000000000000
11
-31.2057241977450
21
4.96393464973093
31
0.000000000000000
  0
LINE
  5
F102D6
330
F102D7
100
AcDbEntity
8
Geo
100
AcDbLine
10
-31.2057241977450
20
4.96393464973093
30
0.000000000000000
11
-31.1057241977450
21
4.92142972073683
31
0.000000000000000
  0
LINE
  5
F102D8
330
F102D9
100
AcDbEntity
8
Geo
100
AcDbLine
10
-31.1057241977450
20
4.92142972073683
30
0.000000000000000
11
-31.0057241977450
21
4.87949315270713
31
0.000000000000000
  0
LINE
  5
F102DA
330
F102DB
100
AcDbEntity
8
Geo
100
AcDbLine
10
-31.0057241977450
20
4.87949315270713
30
0.000000000000000
11
-30.9057241977450
21
4.83813368227517
31
0.000000000000000
  0
LINE
  5
F102DC
330
F102DD
100
AcDbEntity
8
Geo
100
AcDbLine
10
-30.9057241977450
20
4.83813368227517
30
0.000000000000000
11
-30.8057241977450
21
4.79735992584769
31
0.000000000000000
  0
LINE
  5
F102DE
330
F102DF
100
AcDbEntity
8
Geo
100
AcDbLine
10
-30.8057241977450
20
4.79735992584769
30
0.000000000000000
11
-30.7057241977450
21
4.75718037780981
31
0.000000000000000
  0
LINE
  5
F102E0
330
F102E1
100
AcDbEntity
8
Geo
100
AcDbLine
10
-30.7057241977450
20
4.75718037780981
30
0.000000000000000
11
-30.6057241977450
21
4.71760340875537
31
0.000000000000000
  0
LINE
  5
F102E2
330
F102E3
100
AcDbEntity
8
Geo
100
AcDbLine
10
-30.6057241977450
20
4.71760340875537
30
0.000000000000000
11
-30.5057241977450
21
4.67863726374312
31
0.000000000000000
  0
LINE
  5
F102E4
330
F102E5
100
AcDbEntity
8
Geo
100
AcDbLine
10
-30.5057241977450
20
4.67863726374312
30
0.000000000000000
11
-30.4057241977450
21
4.64029006057900
31
0.000000000000000
  0
LINE
  5
F102E6
330
F102E7
100
AcDbEntity
8
Geo
100
AcDbLine
10
-30.4057241977450
20
4.64029006057900
30
0.000000000000000
11
-30.3057241977450
21
4.60256978812497
31
0.000000000000000
  0
LINE
  5
F102E8
330
F102E9
100
AcDbEntity
8
Geo
100
AcDbLine
10
-30.3057241977450
20
4.60256978812497
30
0.000000000000000
11
-30.2057241977450
21
4.56548430463469
31
0.000000000000000
  0
LINE
  5
F102EA
330
F102EB
100
AcDbEntity
8
Geo
100
AcDbLine
10
-30.2057241977450
20
4.56548430463469
30
0.000000000000000
11
-30.1057241977450
21
4.52904133611644
31
0.000000000000000
  0
LINE
  5
F102EC
330
F102ED
100
AcDbEntity
8
Geo
100
AcDbLine
10
-30.1057241977450
20
4.52904133611644
30
0.000000000000000
11
-30.0057241977450
21
4.49324847472350
31
0.000000000000000
  0
LINE
  5
F102EE
330
F102EF
100
AcDbEntity
8
Geo
100
AcDbLine
10
-30.0057241977450
20
4.49324847472350
30
0.000000000000000
11
-29.9057241977450
21
4.45811317717254
31
0.000000000000000
  0
LINE
  5
F102F0
330
F102F1
100
AcDbEntity
8
Geo
100
AcDbLine
10
-29.9057241977450
20
4.45811317717254
30
0.000000000000000
11
-29.8057241977450
21
4.42364276319014
31
0.000000000000000
  0
LINE
  5
F102F2
330
F102F3
100
AcDbEntity
8
Geo
100
AcDbLine
10
-29.8057241977450
20
4.42364276319014
30
0.000000000000000
11
-29.7057241977450
21
4.38984441398787
31
0.000000000000000
  0
LINE
  5
F102F4
330
F102F5
100
AcDbEntity
8
Geo
100
AcDbLine
10
-29.7057241977450
20
4.38984441398787
30
0.000000000000000
11
-29.6057241977450
21
4.35672517076623
31
0.000000000000000
  0
LINE
  5
F102F6
330
F102F7
100
AcDbEntity
8
Geo
100
AcDbLine
10
-29.6057241977450
20
4.35672517076623
30
0.000000000000000
11
-29.5057241977450
21
4.32429193324778
31
0.000000000000000
  0
LINE
  5
F102F8
330
F102F9
100
AcDbEntity
8
Geo
100
AcDbLine
10
-29.5057241977450
20
4.32429193324778
30
0.000000000000000
11
-29.4057241977450
21
4.29255145823969
31
0.000000000000000
  0
LINE
  5
F102FA
330
F102FB
100
AcDbEntity
8
Geo
100
AcDbLine
10
-29.4057241977450
20
4.29255145823969
30
0.000000000000000
11
-29.3057241977450
21
4.26151035822612
31
0.000000000000000
  0
LINE
  5
F102FC
330
F102FD
100
AcDbEntity
8
Geo
100
AcDbLine
10
-29.3057241977450
20
4.26151035822612
30
0.000000000000000
11
-29.2057241977450
21
4.23117509999063
31
0.000000000000000
  0
LINE
  5
F102FE
330
F102FF
100
AcDbEntity
8
Geo
100
AcDbLine
10
-29.2057241977450
20
4.23117509999063
30
0.000000000000000
11
-29.1057241977450
21
4.20155200326897
31
0.000000000000000
  0
LINE
  5
F10300
330
F10301
100
AcDbEntity
8
Geo
100
AcDbLine
10
-29.1057241977450
20
4.20155200326897
30
0.000000000000000
11
-29.0057241977450
21
4.17264723943249
31
0.000000000000000
  0
LINE
  5
F10302
330
F10303
100
AcDbEntity
8
Geo
100
AcDbLine
10
-29.0057241977450
20
4.17264723943249
30
0.000000000000000
11
-28.9057241977450
21
4.14446683020243
31
0.000000000000000
  0
LINE
  5
F10304
330
F10305
100
AcDbEntity
8
Geo
100
AcDbLine
10
-28.9057241977450
20
4.14446683020243
30
0.000000000000000
11
-28.8057241977450
21
4.11701664639546
31
0.000000000000000
  0
LINE
  5
F10306
330
F10307
100
AcDbEntity
8
Geo
100
AcDbLine
10
-28.8057241977450
20
4.11701664639546
30
0.000000000000000
11
-28.7057241977450
21
4.09030240670059
31
0.000000000000000
  0
LINE
  5
F10308
330
F10309
100
AcDbEntity
8
Geo
100
AcDbLine
10
-28.7057241977450
20
4.09030240670059
30
0.000000000000000
11
-28.6057241977450
21
4.06432967648780
31
0.000000000000000
  0
LINE
  5
F1030A
330
F1030B
100
AcDbEntity
8
Geo
100
AcDbLine
10
-28.6057241977450
20
4.06432967648780
30
0.000000000000000
11
-28.5057241977450
21
4.03910386664862
31
0.000000000000000
  0
LINE
  5
F1030C
330
F1030D
100
AcDbEntity
8
Geo
100
AcDbLine
10
-28.5057241977450
20
4.03910386664862
30
0.000000000000000
11
-28.4057241977450
21
4.01463023246884
31
0.000000000000000
  0
LINE
  5
F1030E
330
F1030F
100
AcDbEntity
8
Geo
100
AcDbLine
10
-28.4057241977450
20
4.01463023246884
30
0.000000000000000
11
-28.3057241977450
21
3.99091387253376
31
0.000000000000000
  0
LINE
  5
F10310
330
F10311
100
AcDbEntity
8
Geo
100
AcDbLine
10
-28.3057241977450
20
3.99091387253376
30
0.000000000000000
11
-28.2057241977450
21
3.96795972766589
31
0.000000000000000
  0
LINE
  5
F10312
330
F10313
100
AcDbEntity
8
Geo
100
AcDbLine
10
-28.2057241977450
20
3.96795972766589
30
0.000000000000000
11
-28.1057241977450
21
3.94577257989574
31
0.000000000000000
  0
LINE
  5
F10314
330
F10315
100
AcDbEntity
8
Geo
100
AcDbLine
10
-28.1057241977450
20
3.94577257989574
30
0.000000000000000
11
-28.0057241977450
21
3.92435705146551
31
0.000000000000000
  0
LINE
  5
F10316
330
F10317
100
AcDbEntity
8
Geo
100
AcDbLine
10
-28.0057241977450
20
3.92435705146551
30
0.000000000000000
11
-27.9057241977450
21
3.90371760386616
31
0.000000000000000
  0
LINE
  5
F10318
330
F10319
100
AcDbEntity
8
Geo
100
AcDbLine
10
-27.9057241977450
20
3.90371760386616
30
0.000000000000000
11
-27.8057241977450
21
3.88385853690796
31
0.000000000000000
  0
LINE
  5
F1031A
330
F1031B
100
AcDbEntity
8
Geo
100
AcDbLine
10
-27.8057241977450
20
3.88385853690796
30
0.000000000000000
11
-27.7057241977450
21
3.86478398782471
31
0.000000000000000
  0
LINE
  5
F1031C
330
F1031D
100
AcDbEntity
8
Geo
100
AcDbLine
10
-27.7057241977450
20
3.86478398782471
30
0.000000000000000
11
-27.6057241977450
21
3.84649793041180
31
0.000000000000000
  0
LINE
  5
F1031E
330
F1031F
100
AcDbEntity
8
Geo
100
AcDbLine
10
-27.6057241977450
20
3.84649793041180
30
0.000000000000000
11
-27.5057241977450
21
3.82900417419838
31
0.000000000000000
  0
LINE
  5
F10320
330
F10321
100
AcDbEntity
8
Geo
100
AcDbLine
10
-27.5057241977450
20
3.82900417419838
30
0.000000000000000
11
-27.4057241977450
21
3.81230636365373
31
0.000000000000000
  0
LINE
  5
F10322
330
F10323
100
AcDbEntity
8
Geo
100
AcDbLine
10
-27.4057241977450
20
3.81230636365373
30
0.000000000000000
11
-27.3057241977450
21
3.79640797742800
31
0.000000000000000
  0
LINE
  5
F10324
330
F10325
100
AcDbEntity
8
Geo
100
AcDbLine
10
-27.3057241977450
20
3.79640797742800
30
0.000000000000000
11
-27.2057241977450
21
3.78131232762746
31
0.000000000000000
  0
LINE
  5
F10326
330
F10327
100
AcDbEntity
8
Geo
100
AcDbLine
10
-27.2057241977450
20
3.78131232762746
30
0.000000000000000
11
-27.1057241977450
21
3.76702255912456
31
0.000000000000000
  0
LINE
  5
F10328
330
F10329
100
AcDbEntity
8
Geo
100
AcDbLine
10
-27.1057241977450
20
3.76702255912456
30
0.000000000000000
11
-27.0057241977450
21
3.75354164890273
31
0.000000000000000
  0
LINE
  5
F1032A
330
F1032B
100
AcDbEntity
8
Geo
100
AcDbLine
10
-27.0057241977450
20
3.75354164890273
30
0.000000000000000
11
-26.9057241977450
21
3.74087240543617
31
0.000000000000000
  0
LINE
  5
F1032C
330
F1032D
100
AcDbEntity
8
Geo
100
AcDbLine
10
-26.9057241977450
20
3.74087240543617
30
0.000000000000000
11
-26.8057241977450
21
3.72901746810477
31
0.000000000000000
  0
LINE
  5
F1032E
330
F1032F
100
AcDbEntity
8
Geo
100
AcDbLine
10
-26.8057241977450
20
3.72901746810477
30
0.000000000000000
11
-26.7057241977450
21
3.71797930664427
31
0.000000000000000
  0
LINE
  5
F10330
330
F10331
100
AcDbEntity
8
Geo
100
AcDbLine
10
-26.7057241977450
20
3.71797930664427
30
0.000000000000000
11
-26.6057241977450
21
3.70776022063172
31
0.000000000000000
  0
LINE
  5
F10332
330
F10333
100
AcDbEntity
8
Geo
100
AcDbLine
10
-26.6057241977450
20
3.70776022063172
30
0.000000000000000
11
-26.5057241977450
21
3.69836233900641
31
0.000000000000000
  0
LINE
  5
F10334
330
F10335
100
AcDbEntity
8
Geo
100
AcDbLine
10
-26.5057241977450
20
3.69836233900641
30
0.000000000000000
11
-26.4057241977450
21
3.68978761962636
31
0.000000000000000
  0
LINE
  5
F10336
330
F10337
100
AcDbEntity
8
Geo
100
AcDbLine
10
-26.4057241977450
20
3.68978761962636
30
0.000000000000000
11
-26.3057241977450
21
3.68203784886041
31
0.000000000000000
  0
LINE
  5
F10338
330
F10339
100
AcDbEntity
8
Geo
100
AcDbLine
10
-26.3057241977450
20
3.68203784886041
30
0.000000000000000
11
-26.2057241977450
21
3.67511464121612
31
0.000000000000000
  0
LINE
  5
F1033A
330
F1033B
100
AcDbEntity
8
Geo
100
AcDbLine
10
-26.2057241977450
20
3.67511464121612
30
0.000000000000000
11
-26.1057241977450
21
3.66901943900337
31
0.000000000000000
  0
LINE
  5
F1033C
330
F1033D
100
AcDbEntity
8
Geo
100
AcDbLine
10
-26.1057241977450
20
3.66901943900337
30
0.000000000000000
11
-26.0057241977450
21
3.66375351203392
31
0.000000000000000
  0
LINE
  5
F1033E
330
F1033F
100
AcDbEntity
8
Geo
100
AcDbLine
10
-26.0057241977450
20
3.66375351203392
30
0.000000000000000
11
-25.9057241977450
21
3.65931795735682
31
0.000000000000000
  0
LINE
  5
F10340
330
F10341
100
AcDbEntity
8
Geo
100
AcDbLine
10
-25.9057241977450
20
3.65931795735682
30
0.000000000000000
11
-25.8057241977450
21
3.65571369902994
31
0.000000000000000
  0
LINE
  5
F10342
330
F10343
100
AcDbEntity
8
Geo
100
AcDbLine
10
-25.8057241977450
20
3.65571369902994
30
0.000000000000000
11
-25.7057241977450
21
3.65294148792739
31
0.000000000000000
  0
LINE
  5
F10344
330
F10345
100
AcDbEntity
8
Geo
100
AcDbLine
10
-25.7057241977450
20
3.65294148792739
30
0.000000000000000
11
-25.6057241977450
21
3.65100190158311
31
0.000000000000000
  0
LINE
  5
F10346
330
F10347
100
AcDbEntity
8
Geo
100
AcDbLine
10
-25.6057241977450
20
3.65100190158311
30
0.000000000000000
11
-25.5057241977450
21
3.64989534407059
31
0.000000000000000
  0
LINE
  5
F10348
330
F10349
100
AcDbEntity
8
Geo
100
AcDbLine
10
-25.5057241977450
20
3.64989534407059
30
0.000000000000000
11
-25.4229283367550
21
3.64960971379011
31
0.000000000000000
  0
LINE
  5
F1034A
330
F1034B
100
AcDbEntity
8
Geo
100
AcDbLine
10
-16.4057241977450
20
3.79375368889161
30
0.000000000000000
11
-16.2057241977450
21
3.76464564073402
31
0.000000000000000
  0
LINE
  5
F1034C
330
F1034D
100
AcDbEntity
8
Geo
100
AcDbLine
10
-16.2057241977450
20
3.76464564073402
30
0.000000000000000
11
-16.1057241977450
21
3.75130417283262
31
0.000000000000000
  0
LINE
  5
F1034E
330
F1034F
100
AcDbEntity
8
Geo
100
AcDbLine
10
-16.1057241977450
20
3.75130417283262
30
0.000000000000000
11
-16.0057241977450
21
3.73877483781925
31
0.000000000000000
  0
LINE
  5
F10350
330
F10351
100
AcDbEntity
8
Geo
100
AcDbLine
10
-16.0057241977450
20
3.73877483781925
30
0.000000000000000
11
-15.9057241977450
21
3.72706024592675
31
0.000000000000000
  0
LINE
  5
F10352
330
F10353
100
AcDbEntity
8
Geo
100
AcDbLine
10
-15.9057241977450
20
3.72706024592675
30
0.000000000000000
11
-15.8057241977450
21
3.71616283765306
31
0.000000000000000
  0
LINE
  5
F10354
330
F10355
100
AcDbEntity
8
Geo
100
AcDbLine
10
-15.8057241977450
20
3.71616283765306
30
0.000000000000000
11
-15.7057241977450
21
3.70608488325459
31
0.000000000000000
  0
LINE
  5
F10356
330
F10357
100
AcDbEntity
8
Geo
100
AcDbLine
10
-15.7057241977450
20
3.70608488325459
30
0.000000000000000
11
-15.6057241977450
21
3.69682848228034
31
0.000000000000000
  0
LINE
  5
F10358
330
F10359
100
AcDbEntity
8
Geo
100
AcDbLine
10
-15.6057241977450
20
3.69682848228034
30
0.000000000000000
11
-15.5057241977450
21
3.68839556315619
31
0.000000000000000
  0
LINE
  5
F1035A
330
F1035B
100
AcDbEntity
8
Geo
100
AcDbLine
10
-15.5057241977450
20
3.68839556315619
30
0.000000000000000
11
-15.4057241977450
21
3.68078788283579
31
0.000000000000000
  0
LINE
  5
F1035C
330
F1035D
100
AcDbEntity
8
Geo
100
AcDbLine
10
-15.4057241977450
20
3.68078788283579
30
0.000000000000000
11
-15.3057241977450
21
3.67400702653839
31
0.000000000000000
  0
LINE
  5
F1035E
330
F1035F
100
AcDbEntity
8
Geo
100
AcDbLine
10
-15.3057241977450
20
3.67400702653839
30
0.000000000000000
11
-15.2057241977450
21
3.66805440758291
31
0.000000000000000
  0
LINE
  5
F10360
330
F10361
100
AcDbEntity
8
Geo
100
AcDbLine
10
-15.2057241977450
20
3.66805440758291
30
0.000000000000000
11
-15.1057241977450
21
3.66293126727735
31
0.000000000000000
  0
LINE
  5
F10362
330
F10363
100
AcDbEntity
8
Geo
100
AcDbLine
10
-15.1057241977450
20
3.66293126727735
30
0.000000000000000
11
-15.0057241977450
21
3.65863867469311
31
0.000000000000000
  0
LINE
  5
F10364
330
F10365
100
AcDbEntity
8
Geo
100
AcDbLine
10
-15.0057241977450
20
3.65863867469311
30
0.000000000000000
11
-14.9057241977450
21
3.65517752588216
31
0.000000000000000
  0
LINE
  5
F10366
330
F10367
100
AcDbEntity
8
Geo
100
AcDbLine
10
-14.9057241977450
20
3.65517752588216
30
0.000000000000000
11
-14.8057241977450
21
3.65254854158893
31
0.000000000000000
  0
LINE
  5
F10368
330
F10369
100
AcDbEntity
8
Geo
100
AcDbLine
10
-14.8057241977450
20
3.65254854158893
30
0.000000000000000
11
-14.7057241977450
21
3.65075226163916
31
0.000000000000000
  0
LINE
  5
F1036A
330
F1036B
100
AcDbEntity
8
Geo
100
AcDbLine
10
-14.7057241977450
20
3.65075226163916
30
0.000000000000000
11
-14.6057241977450
21
3.64978903278101
31
0.000000000000000
  0
LINE
  5
F1036C
330
F1036D
100
AcDbEntity
8
Geo
100
AcDbLine
10
-14.6057241977450
20
3.64978903278101
30
0.000000000000000
11
-14.5401153934443
21
3.64960971379011
31
0.000000000000000
  0
LINE
  5
F1036E
330
F1036F
100
AcDbEntity
8
Geo
100
AcDbLine
10
-11.4368692111626
20
3.64960971379011
30
0.000000000000000
11
-11.4057241977449
21
3.65121285696560
31
0.000000000000000
  0
LINE
  5
F10370
330
F10371
100
AcDbEntity
8
Geo
100
AcDbLine
10
-11.4057241977449
20
3.65121285696560
30
0.000000000000000
11
-11.3057241977450
21
3.69202883669304
31
0.000000000000000
  0
LINE
  5
F10372
330
F10373
100
AcDbEntity
8
Geo
100
AcDbLine
10
-11.3057241977450
20
3.69202883669304
30
0.000000000000000
11
-11.3057241977450
21
3.71223111497622
31
0.000000000000000
  0
LINE
  5
F10374
330
F10375
100
AcDbEntity
8
Geo
100
AcDbLine
10
-11.3057241977450
20
3.71223111497622
30
0.000000000000000
11
-11.4057241977449
21
3.82521681633221
31
0.000000000000000
  0
LINE
  5
F10376
330
F10377
100
AcDbEntity
8
Geo
100
AcDbLine
10
-11.4057241977449
20
3.82521681633221
30
0.000000000000000
11
-11.5057241977449
21
3.97696318608114
31
0.000000000000000
  0
LINE
  5
F10378
330
F10379
100
AcDbEntity
8
Geo
100
AcDbLine
10
-11.5057241977449
20
3.97696318608114
30
0.000000000000000
11
-11.6057241977449
21
4.15453979698517
31
0.000000000000000
  0
LINE
  5
F1037A
330
F1037B
100
AcDbEntity
8
Geo
100
AcDbLine
10
-11.6057241977449
20
4.15453979698517
30
0.000000000000000
11
-11.7057241977449
21
4.34766501470338
31
0.000000000000000
  0
LINE
  5
F1037C
330
F1037D
100
AcDbEntity
8
Geo
100
AcDbLine
10
-11.7057241977449
20
4.34766501470338
30
0.000000000000000
11
-11.8057241977449
21
4.54838120141176
31
0.000000000000000
  0
LINE
  5
F1037E
330
F1037F
100
AcDbEntity
8
Geo
100
AcDbLine
10
-11.8057241977449
20
4.54838120141176
30
0.000000000000000
11
-11.9057241977449
21
4.75069735829154
31
0.000000000000000
  0
LINE
  5
F10380
330
F10381
100
AcDbEntity
8
Geo
100
AcDbLine
10
-11.9057241977449
20
4.75069735829154
30
0.000000000000000
11
-12.0057241977449
21
4.95024064386099
31
0.000000000000000
  0
LINE
  5
F10382
330
F10383
100
AcDbEntity
8
Geo
100
AcDbLine
10
-12.0057241977449
20
4.95024064386099
30
0.000000000000000
11
-12.1057241977449
21
5.14393914032469
31
0.000000000000000
  0
LINE
  5
F10384
330
F10385
100
AcDbEntity
8
Geo
100
AcDbLine
10
-12.1057241977449
20
5.14393914032469
30
0.000000000000000
11
-12.2057241977449
21
5.32974579047650
31
0.000000000000000
  0
LINE
  5
F10386
330
F10387
100
AcDbEntity
8
Geo
100
AcDbLine
10
-12.2057241977449
20
5.32974579047650
30
0.000000000000000
11
-12.3057241977449
21
5.50640576256373
31
0.000000000000000
  0
LINE
  5
F10388
330
F10389
100
AcDbEntity
8
Geo
100
AcDbLine
10
-12.3057241977449
20
5.50640576256373
30
0.000000000000000
11
-12.4057241977449
21
5.67326512993658
31
0.000000000000000
  0
LINE
  5
F1038A
330
F1038B
100
AcDbEntity
8
Geo
100
AcDbLine
10
-12.4057241977449
20
5.67326512993658
30
0.000000000000000
11
-12.5057241977449
21
5.83011654811691
31
0.000000000000000
  0
LINE
  5
F1038C
330
F1038D
100
AcDbEntity
8
Geo
100
AcDbLine
10
-12.5057241977449
20
5.83011654811691
30
0.000000000000000
11
-12.6057241977449
21
5.97707676395524
31
0.000000000000000
  0
LINE
  5
F1038E
330
F1038F
100
AcDbEntity
8
Geo
100
AcDbLine
10
-12.6057241977449
20
5.97707676395524
30
0.000000000000000
11
-12.7057241977449
21
6.11449074289525
31
0.000000000000000
  0
LINE
  5
F10390
330
F10391
100
AcDbEntity
8
Geo
100
AcDbLine
10
-12.7057241977449
20
6.11449074289525
30
0.000000000000000
11
-12.8057241977449
21
6.24285758339305
31
0.000000000000000
  0
LINE
  5
F10392
330
F10393
100
AcDbEntity
8
Geo
100
AcDbLine
10
-12.8057241977449
20
6.24285758339305
30
0.000000000000000
11
-12.9057241977449
21
6.36277396953984
31
0.000000000000000
  0
LINE
  5
F10394
330
F10395
100
AcDbEntity
8
Geo
100
AcDbLine
10
-12.9057241977449
20
6.36277396953984
30
0.000000000000000
11
-13.0057241977449
21
6.47489155372120
31
0.000000000000000
  0
LINE
  5
F10396
330
F10397
100
AcDbEntity
8
Geo
100
AcDbLine
10
-13.0057241977449
20
6.47489155372120
30
0.000000000000000
11
-13.1057241977449
21
6.57988528172599
31
0.000000000000000
  0
LINE
  5
F10398
330
F10399
100
AcDbEntity
8
Geo
100
AcDbLine
10
-13.1057241977449
20
6.57988528172599
30
0.000000000000000
11
-13.2057241977449
21
6.67843023314098
31
0.000000000000000
  0
LINE
  5
F1039A
330
F1039B
100
AcDbEntity
8
Geo
100
AcDbLine
10
-13.2057241977449
20
6.67843023314098
30
0.000000000000000
11
-13.3057241977450
21
6.77118503406978
31
0.000000000000000
  0
LINE
  5
F1039C
330
F1039D
100
AcDbEntity
8
Geo
100
AcDbLine
10
-13.3057241977450
20
6.77118503406978
30
0.000000000000000
11
-13.4057241977450
21
6.85878030498130
31
0.000000000000000
  0
LINE
  5
F1039E
330
F1039F
100
AcDbEntity
8
Geo
100
AcDbLine
10
-13.4057241977450
20
6.85878030498130
30
0.000000000000000
11
-13.5057241977450
21
6.94181093902494
31
0.000000000000000
  0
LINE
  5
F103A0
330
F103A1
100
AcDbEntity
8
Geo
100
AcDbLine
10
-13.5057241977450
20
6.94181093902494
30
0.000000000000000
11
-13.6057241977450
21
7.02083127407700
31
0.000000000000000
  0
LINE
  5
F103A2
330
F103A3
100
AcDbEntity
8
Geo
100
AcDbLine
10
-13.6057241977450
20
7.02083127407700
30
0.000000000000000
11
-13.7057241977450
21
7.09635243480488
31
0.000000000000000
  0
LINE
  5
F103A4
330
F103A5
100
AcDbEntity
8
Geo
100
AcDbLine
10
-13.7057241977450
20
7.09635243480488
30
0.000000000000000
11
-13.8057241977450
21
7.16884128860849
31
0.000000000000000
  0
LINE
  5
F103A6
330
F103A7
100
AcDbEntity
8
Geo
100
AcDbLine
10
-13.8057241977450
20
7.16884128860849
30
0.000000000000000
11
-13.9057241977450
21
7.23872058997662
31
0.000000000000000
  0
LINE
  5
F103A8
330
F103A9
100
AcDbEntity
8
Geo
100
AcDbLine
10
-13.9057241977450
20
7.23872058997662
30
0.000000000000000
11
-14.0057241977450
21
7.30636998896706
31
0.000000000000000
  0
LINE
  5
F103AA
330
F103AB
100
AcDbEntity
8
Geo
100
AcDbLine
10
-14.0057241977450
20
7.30636998896706
30
0.000000000000000
11
-14.1057241977450
21
7.37212765736516
31
0.000000000000000
  0
LINE
  5
F103AC
330
F103AD
100
AcDbEntity
8
Geo
100
AcDbLine
10
-14.1057241977450
20
7.37212765736516
30
0.000000000000000
11
-14.2057241977450
21
7.43629234565482
31
0.000000000000000
  0
LINE
  5
F103AE
330
F103AF
100
AcDbEntity
8
Geo
100
AcDbLine
10
-14.2057241977450
20
7.43629234565482
30
0.000000000000000
11
-14.3057241977450
21
7.49912572931511
31
0.000000000000000
  0
LINE
  5
F103B0
330
F103B1
100
AcDbEntity
8
Geo
100
AcDbLine
10
-14.3057241977450
20
7.49912572931511
30
0.000000000000000
11
-14.4057241977450
21
7.56085493736733
31
0.000000000000000
  0
LINE
  5
F103B2
330
F103B3
100
AcDbEntity
8
Geo
100
AcDbLine
10
-14.4057241977450
20
7.56085493736733
30
0.000000000000000
11
-14.5057241977450
21
7.62167518208043
31
0.000000000000000
  0
LINE
  5
F103B4
330
F103B5
100
AcDbEntity
8
Geo
100
AcDbLine
10
-14.5057241977450
20
7.62167518208043
30
0.000000000000000
11
-14.6057241977450
21
7.68175242828236
31
0.000000000000000
  0
LINE
  5
F103B6
330
F103B7
100
AcDbEntity
8
Geo
100
AcDbLine
10
-14.6057241977450
20
7.68175242828236
30
0.000000000000000
11
-14.7057241977450
21
7.74122605536065
31
0.000000000000000
  0
LINE
  5
F103B8
330
F103B9
100
AcDbEntity
8
Geo
100
AcDbLine
10
-14.7057241977450
20
7.74122605536065
30
0.000000000000000
11
-14.8057241977450
21
7.80021147595976
31
0.000000000000000
  0
LINE
  5
F103BA
330
F103BB
100
AcDbEntity
8
Geo
100
AcDbLine
10
-14.8057241977450
20
7.80021147595976
30
0.000000000000000
11
-14.9057241977450
21
7.85880268351397
31
0.000000000000000
  0
LINE
  5
F103BC
330
F103BD
100
AcDbEntity
8
Geo
100
AcDbLine
10
-14.9057241977450
20
7.85880268351397
30
0.000000000000000
11
-15.0057241977450
21
7.91707470680157
31
0.000000000000000
  0
LINE
  5
F103BE
330
F103BF
100
AcDbEntity
8
Geo
100
AcDbLine
10
-15.0057241977450
20
7.91707470680157
30
0.000000000000000
11
-15.1057241977450
21
7.97508595421120
31
0.000000000000000
  0
LINE
  5
F103C0
330
F103C1
100
AcDbEntity
8
Geo
100
AcDbLine
10
-15.1057241977450
20
7.97508595421120
30
0.000000000000000
11
-15.2057241977450
21
8.03288043379069
31
0.000000000000000
  0
LINE
  5
F103C2
330
F103C3
100
AcDbEntity
8
Geo
100
AcDbLine
10
-15.2057241977450
20
8.03288043379069
30
0.000000000000000
11
-15.3057241977450
21
8.09048983771980
31
0.000000000000000
  0
LINE
  5
F103C4
330
F103C5
100
AcDbEntity
8
Geo
100
AcDbLine
10
-15.3057241977450
20
8.09048983771980
30
0.000000000000000
11
-15.4057241977450
21
8.14793548185007
31
0.000000000000000
  0
LINE
  5
F103C6
330
F103C7
100
AcDbEntity
8
Geo
100
AcDbLine
10
-15.4057241977450
20
8.14793548185007
30
0.000000000000000
11
-15.5057241977450
21
8.20523009256637
31
0.000000000000000
  0
LINE
  5
F103C8
330
F103C9
100
AcDbEntity
8
Geo
100
AcDbLine
10
-15.5057241977450
20
8.20523009256637
30
0.000000000000000
11
-15.6057241977450
21
8.26237943457819
31
0.000000000000000
  0
LINE
  5
F103CA
330
F103CB
100
AcDbEntity
8
Geo
100
AcDbLine
10
-15.6057241977450
20
8.26237943457819
30
0.000000000000000
11
-15.7057241977450
21
8.31938377443806
31
0.000000000000000
  0
LINE
  5
F103CC
330
F103CD
100
AcDbEntity
8
Geo
100
AcDbLine
10
-15.7057241977450
20
8.31938377443806
30
0.000000000000000
11
-15.8057241977450
21
8.37623917567593
31
0.000000000000000
  0
LINE
  5
F103CE
330
F103CF
100
AcDbEntity
8
Geo
100
AcDbLine
10
-15.8057241977450
20
8.37623917567593
30
0.000000000000000
11
-15.9057241977450
21
8.43293862247549
31
0.000000000000000
  0
LINE
  5
F103D0
330
F103D1
100
AcDbEntity
8
Geo
100
AcDbLine
10
-15.9057241977450
20
8.43293862247549
30
0.000000000000000
11
-16.0057241977450
21
8.48947296982930
31
0.000000000000000
  0
LINE
  5
F103D2
330
F103D3
100
AcDbEntity
8
Geo
100
AcDbLine
10
-16.0057241977450
20
8.48947296982930
30
0.000000000000000
11
-16.1057241977450
21
8.54583171910759
31
0.000000000000000
  0
LINE
  5
F103D4
330
F103D5
100
AcDbEntity
8
Geo
100
AcDbLine
10
-16.1057241977450
20
8.54583171910759
30
0.000000000000000
11
-16.2057241977450
21
8.60200361897037
31
0.000000000000000
  0
LINE
  5
F103D6
330
F103D7
100
AcDbEntity
8
Geo
100
AcDbLine
10
-16.2057241977450
20
8.60200361897037
30
0.000000000000000
11
-16.4057241977450
21
8.71374049299627
31
0.000000000000000
  0
LINE
  5
F103D8
330
F103D9
100
AcDbEntity
8
Geo
100
AcDbLine
10
-14.5401153934443
20
11.6496097137901
30
0.000000000000000
11
-14.5057241977450
21
11.6495604429995
31
0.000000000000000
  0
LINE
  5
F103DA
330
F103DB
100
AcDbEntity
8
Geo
100
AcDbLine
10
-14.5057241977450
20
11.6495604429995
30
0.000000000000000
11
-14.4057241977450
21
11.6488574428338
31
0.000000000000000
  0
LINE
  5
F103DC
330
F103DD
100
AcDbEntity
8
Geo
100
AcDbLine
10
-14.4057241977450
20
11.6488574428338
30
0.000000000000000
11
-14.3057241977450
21
11.6473218669757
31
0.000000000000000
  0
LINE
  5
F103DE
330
F103DF
100
AcDbEntity
8
Geo
100
AcDbLine
10
-14.3057241977450
20
11.6473218669757
30
0.000000000000000
11
-14.2057241977450
21
11.6449546606376
31
0.000000000000000
  0
LINE
  5
F103E0
330
F103E1
100
AcDbEntity
8
Geo
100
AcDbLine
10
-14.2057241977450
20
11.6449546606376
30
0.000000000000000
11
-14.1057241977450
21
11.6417574560483
31
0.000000000000000
  0
LINE
  5
F103E2
330
F103E3
100
AcDbEntity
8
Geo
100
AcDbLine
10
-14.1057241977450
20
11.6417574560483
30
0.000000000000000
11
-14.0057241977450
21
11.6377329098452
31
0.000000000000000
  0
LINE
  5
F103E4
330
F103E5
100
AcDbEntity
8
Geo
100
AcDbLine
10
-14.0057241977450
20
11.6377329098452
30
0.000000000000000
11
-13.9057241977450
21
11.6328852195721
31
0.000000000000000
  0
LINE
  5
F103E6
330
F103E7
100
AcDbEntity
8
Geo
100
AcDbLine
10
-13.9057241977450
20
11.6328852195721
30
0.000000000000000
11
-13.8057241977450
21
11.6272208955000
31
0.000000000000000
  0
LINE
  5
F103E8
330
F103E9
100
AcDbEntity
8
Geo
100
AcDbLine
10
-13.8057241977450
20
11.6272208955000
30
0.000000000000000
11
-13.7057241977450
21
11.6207498891600
31
0.000000000000000
  0
LINE
  5
F103EA
330
F103EB
100
AcDbEntity
8
Geo
100
AcDbLine
10
-13.7057241977450
20
11.6207498891600
30
0.000000000000000
11
-13.6057241977450
21
11.6134872108668
31
0.000000000000000
  0
LINE
  5
F103EC
330
F103ED
100
AcDbEntity
8
Geo
100
AcDbLine
10
-13.6057241977450
20
11.6134872108668
30
0.000000000000000
11
-13.5057241977450
21
11.6054552053659
31
0.000000000000000
  0
LINE
  5
F103EE
330
F103EF
100
AcDbEntity
8
Geo
100
AcDbLine
10
-13.5057241977450
20
11.6054552053659
30
0.000000000000000
11
-13.4057241977450
21
11.5966866970528
31
0.000000000000000
  0
LINE
  5
F103F0
330
F103F1
100
AcDbEntity
8
Geo
100
AcDbLine
10
-13.4057241977450
20
11.5966866970528
30
0.000000000000000
11
-13.3057241977450
21
11.5872292622010
31
0.000000000000000
  0
LINE
  5
F103F2
330
F103F3
100
AcDbEntity
8
Geo
100
AcDbLine
10
-13.3057241977450
20
11.5872292622010
30
0.000000000000000
11
-13.2057241977449
21
11.5771509311926
31
0.000000000000000
  0
LINE
  5
F103F4
330
F103F5
100
AcDbEntity
8
Geo
100
AcDbLine
10
-13.2057241977449
20
11.5771509311926
30
0.000000000000000
11
-13.1057241977449
21
11.5665476609309
31
0.000000000000000
  0
LINE
  5
F103F6
330
F103F7
100
AcDbEntity
8
Geo
100
AcDbLine
10
-13.1057241977449
20
11.5665476609309
30
0.000000000000000
11
-13.0057241977449
21
11.5555529322112
31
0.000000000000000
  0
LINE
  5
F103F8
330
F103F9
100
AcDbEntity
8
Geo
100
AcDbLine
10
-13.0057241977449
20
11.5555529322112
30
0.000000000000000
11
-12.9057241977449
21
11.5443497946376
31
0.000000000000000
  0
LINE
  5
F103FA
330
F103FB
100
AcDbEntity
8
Geo
100
AcDbLine
10
-12.9057241977449
20
11.5443497946376
30
0.000000000000000
11
-12.8057241977449
21
11.5331855627546
31
0.000000000000000
  0
LINE
  5
F103FC
330
F103FD
100
AcDbEntity
8
Geo
100
AcDbLine
10
-12.8057241977449
20
11.5331855627546
30
0.000000000000000
11
-12.7057241977449
21
11.5223890970558
31
0.000000000000000
  0
LINE
  5
F103FE
330
F103FF
100
AcDbEntity
8
Geo
100
AcDbLine
10
-12.7057241977449
20
11.5223890970558
30
0.000000000000000
11
-12.6057241977449
21
11.5123900803216
31
0.000000000000000
  0
LINE
  5
F10400
330
F10401
100
AcDbEntity
8
Geo
100
AcDbLine
10
-12.6057241977449
20
11.5123900803216
30
0.000000000000000
11
-12.5057241977449
21
11.5037387630615
31
0.000000000000000
  0
LINE
  5
F10402
330
F10403
100
AcDbEntity
8
Geo
100
AcDbLine
10
-12.5057241977449
20
11.5037387630615
30
0.000000000000000
11
-12.4057241977449
21
11.4971230519033
31
0.000000000000000
  0
LINE
  5
F10404
330
F10405
100
AcDbEntity
8
Geo
100
AcDbLine
10
-12.4057241977449
20
11.4971230519033
30
0.000000000000000
11
-12.3057241977449
21
11.4933771635872
31
0.000000000000000
  0
LINE
  5
F10406
330
F10407
100
AcDbEntity
8
Geo
100
AcDbLine
10
-12.3057241977449
20
11.4933771635872
30
0.000000000000000
11
-12.2057241977449
21
11.4934717635594
31
0.000000000000000
  0
LINE
  5
F10408
330
F10409
100
AcDbEntity
8
Geo
100
AcDbLine
10
-12.2057241977449
20
11.4934717635594
30
0.000000000000000
11
-12.1057241977449
21
11.4984686236445
31
0.000000000000000
  0
LINE
  5
F1040A
330
F1040B
100
AcDbEntity
8
Geo
100
AcDbLine
10
-12.1057241977449
20
11.4984686236445
30
0.000000000000000
11
-12.0057241977449
21
11.5094119473216
31
0.000000000000000
  0
LINE
  5
F1040C
330
F1040D
100
AcDbEntity
8
Geo
100
AcDbLine
10
-12.0057241977449
20
11.5094119473216
30
0.000000000000000
11
-11.9057241977449
21
11.5271114964996
31
0.000000000000000
  0
LINE
  5
F1040E
330
F1040F
100
AcDbEntity
8
Geo
100
AcDbLine
10
-11.9057241977449
20
11.5271114964996
30
0.000000000000000
11
-11.8057241977449
21
11.5517464723650
31
0.000000000000000
  0
LINE
  5
F10410
330
F10411
100
AcDbEntity
8
Geo
100
AcDbLine
10
-11.8057241977449
20
11.5517464723650
30
0.000000000000000
11
-11.7057241977449
21
11.5821798503110
31
0.000000000000000
  0
LINE
  5
F10412
330
F10413
100
AcDbEntity
8
Geo
100
AcDbLine
10
-11.7057241977449
20
11.5821798503110
30
0.000000000000000
11
-11.6057241977449
21
11.6148167877399
31
0.000000000000000
  0
LINE
  5
F10414
330
F10415
100
AcDbEntity
8
Geo
100
AcDbLine
10
-11.6057241977449
20
11.6148167877399
30
0.000000000000000
11
-11.5057241977449
21
11.6417681094025
31
0.000000000000000
  0
LINE
  5
F10416
330
F10417
100
AcDbEntity
8
Geo
100
AcDbLine
10
-11.5057241977449
20
11.6417681094025
30
0.000000000000000
11
-11.4368692111626
21
11.6496097137901
31
0.000000000000000
  0
LINE
  5
F10418
330
F10419
100
AcDbEntity
8
Geo
100
AcDbLine
10
-36.3057241977450
20
7.64960971379011
30
0.000000000000000
11
-36.3057241977450
21
7.64960971379011
31
0.000000000000000
  0
LINE
  5
F1041A
330
F1041B
100
AcDbEntity
8
Geo
100
AcDbLine
10
-36.3057241977450
20
7.64960971379011
30
0.000000000000000
11
-36.3057241977450
21
7.64960971379011
31
0.000000000000000
  0
LINE
  5
F1041C
330
F1041D
100
AcDbEntity
8
Geo
100
AcDbLine
10
-36.3057241977450
20
7.64960971379011
30
0.000000000000000
11
-36.3057241977450
21
7.64960971379011
31
0.000000000000000
  0
LINE
  5
F1041E
330
F1041F
100
AcDbEntity
8
Geo
100
AcDbLine
10
-36.3057241977450
20
7.64960971379011
30
0.000000000000000
11
-36.3057241977450
21
7.64960971379011
31
0.000000000000000
  0
LINE
  5
F10420
330
F10421
100
AcDbEntity
8
Geo
100
AcDbLine
10
-36.3057241977450
20
7.64960971379011
30
0.000000000000000
11
-36.3057241977450
21
7.64960971379011
31
0.000000000000000
  0
LINE
  5
F10422
330
F10423
100
AcDbEntity
8
Geo
100
AcDbLine
10
-36.3057241977450
20
7.64960971379011
30
0.000000000000000
11
-36.3057241977450
21
7.64960971379011
31
0.000000000000000
  0
LINE
  5
F10424
330
F10425
100
AcDbEntity
8
Geo
100
AcDbLine
10
-36.3057241977450
20
7.64960971379011
30
0.000000000000000
11
-36.3057241977450
21
7.64960971379011
31
0.000000000000000
  0
LINE
  5
F10426
330
F10427
100
AcDbEntity
8
Geo
100
AcDbLine
10
-36.3057241977450
20
7.64960971379011
30
0.000000000000000
11
-36.3057241977450
21
7.64960971379011
31
0.000000000000000
  0
LINE
  5
F10428
330
F10429
100
AcDbEntity
8
Geo
100
AcDbLine
10
-36.3057241977450
20
7.64960971379011
30
0.000000000000000
11
-36.3057241977450
21
7.64960971379011
31
0.000000000000000
  0
LINE
  5
F1042A
330
F1042B
100
AcDbEntity
8
Geo
100
AcDbLine
10
-36.3057241977450
20
7.64960971379011
30
0.000000000000000
11
-36.3057241977450
21
7.64960971379011
31
0.000000000000000
  0
LINE
  5
F1042C
330
F1042D
100
AcDbEntity
8
Geo
100
AcDbLine
10
-36.3057241977450
20
7.64960971379011
30
0.000000000000000
11
-36.3057241977450
21
7.64960971379011
31
0.000000000000000
  0
LINE
  5
F1042E
330
F1042F
100
AcDbEntity
8
Geo
100
AcDbLine
10
-36.3057241977450
20
7.64960971379011
30
0.000000000000000
11
-36.3057241977450
21
7.64960971379011
31
0.000000000000000
  0
LINE
  5
F10430
330
F10431
100
AcDbEntity
8
Geo
100
AcDbLine
10
-36.3057241977450
20
7.64960971379011
30
0.000000000000000
11
-36.3057241977450
21
7.64960971379011
31
0.000000000000000
  0
LINE
  5
F10432
330
F10433
100
AcDbEntity
8
Geo
100
AcDbLine
10
-36.3057241977450
20
7.64960971379011
30
0.000000000000000
11
-36.3057241977450
21
7.64960971379011
31
0.000000000000000
  0
LINE
  5
F10434
330
F10435
100
AcDbEntity
8
Geo
100
AcDbLine
10
-36.3057241977450
20
7.64960971379011
30
0.000000000000000
11
-36.3057241977450
21
7.64960971379011
31
0.000000000000000
  0
LINE
  5
F10436
330
F10437
100
AcDbEntity
8
Geo
100
AcDbLine
10
-36.3057241977450
20
7.64960971379011
30
0.000000000000000
11
-36.3057241977450
21
7.64960971379011
31
0.000000000000000
  0
LINE
  5
F10438
330
F10439
100
AcDbEntity
8
Geo
100
AcDbLine
10
-36.3057241977450
20
7.64960971379011
30
0.000000000000000
11
-36.3057241977450
21
7.64960971379011
31
0.000000000000000
  0
LINE
  5
F1043A
330
F1043B
100
AcDbEntity
8
Geo
100
AcDbLine
10
-36.3057241977450
20
7.64960971379011
30
0.000000000000000
11
-36.3057241977450
21
7.64960971379011
31
0.000000000000000
  0
LINE
  5
F1043C
330
F1043D
100
AcDbEntity
8
Geo
100
AcDbLine
10
-36.3057241977450
20
7.64960971379011
30
0.000000000000000
11
-36.3057241977450
21
7.64960971379011
31
0.000000000000000
  0
LINE
  5
F1043E
330
F1043F
100
AcDbEntity
8
Geo
100
AcDbLine
10
-36.3057241977450
20
7.64960971379011
30
0.000000000000000
11
-36.3057241977450
21
7.64960971379011
31
0.000000000000000
  0
LINE
  5
F10440
330
F10441
100
AcDbEntity
8
Geo
100
AcDbLine
10
-36.3057241977450
20
7.64960971379011
30
0.000000000000000
11
-36.3057241977450
21
7.64960971379011
31
0.000000000000000
  0
LINE
  5
F10442
330
F10443
100
AcDbEntity
8
Geo
100
AcDbLine
10
-36.3057241977450
20
7.64960971379011
30
0.000000000000000
11
-36.3057241977450
21
7.64960971379011
31
0.000000000000000
  0
LINE
  5
F10444
330
F10445
100
AcDbEntity
8
Geo
100
AcDbLine
10
-36.3057241977450
20
7.64960971379011
30
0.000000000000000
11
-36.3057241977450
21
7.64960971379011
31
0.000000000000000
  0
LINE
  5
F10446
330
F10447
100
AcDbEntity
8
Geo
100
AcDbLine
10
-36.3057241977450
20
7.64960971379011
30
0.000000000000000
11
-36.3057241977450
21
7.64960971379011
31
0.000000000000000
  0
LINE
  5
F10448
330
F10449
100
AcDbEntity
8
Geo
100
AcDbLine
10
-36.3057241977450
20
7.64960971379011
30
0.000000000000000
11
-36.3057241977450
21
7.64960971379011
31
0.000000000000000
  0
LINE
  5
F1044A
330
F1044B
100
AcDbEntity
8
Geo
100
AcDbLine
10
-36.3057241977450
20
7.64960971379011
30
0.000000000000000
11
-36.3057241977450
21
7.64960971379011
31
0.000000000000000
  0
LINE
  5
F1044C
330
F1044D
100
AcDbEntity
8
Geo
100
AcDbLine
10
-36.3057241977450
20
7.64960971379011
30
0.000000000000000
11
-36.3057241977450
21
7.64960971379011
31
0.000000000000000
  0
LINE
  5
F1044E
330
F1044F
100
AcDbEntity
8
Geo
100
AcDbLine
10
-36.3057241977450
20
7.64960971379011
30
0.000000000000000
11
-36.3057241977450
21
7.64960971379011
31
0.000000000000000
  0
LINE
  5
F10450
330
F10451
100
AcDbEntity
8
Geo
100
AcDbLine
10
-36.3057241977450
20
7.64960971379011
30
0.000000000000000
11
-36.3057241977450
21
7.64960971379011
31
0.000000000000000
  0
LINE
  5
F10452
330
F10453
100
AcDbEntity
8
Geo
100
AcDbLine
10
-36.3057241977450
20
7.64960971379011
30
0.000000000000000
11
-36.3057241977450
21
7.64960971379011
31
0.000000000000000
  0
LINE
  5
F10454
330
F10455
100
AcDbEntity
8
Geo
100
AcDbLine
10
-36.3057241977450
20
7.64960971379011
30
0.000000000000000
11
-36.3057241977450
21
7.64960971379011
31
0.000000000000000
  0
LINE
  5
F10456
330
F10457
100
AcDbEntity
8
Geo
100
AcDbLine
10
-36.3057241977450
20
7.64960971379011
30
0.000000000000000
11
-36.3057241977450
21
7.64960971379011
31
0.000000000000000
  0
LINE
  5
F10458
330
F10459
100
AcDbEntity
8
Geo
100
AcDbLine
10
-36.3057241977450
20
7.64960971379011
30
0.000000000000000
11
-36.3057241977450
21
7.64960971379011
31
0.000000000000000
  0
LINE
  5
F1045A
330
F1045B
100
AcDbEntity
8
Geo
100
AcDbLine
10
-36.3057241977450
20
7.64960971379011
30
0.000000000000000
11
-36.3057241977450
21
7.64960971379011
31
0.000000000000000
  0
LINE
  5
F1045C
330
F1045D
100
AcDbEntity
8
Geo
100
AcDbLine
10
-36.3057241977450
20
7.64960971379011
30
0.000000000000000
11
-36.3057241977450
21
7.64960971379011
31
0.000000000000000
  0
LINE
  5
F1045E
330
F1045F
100
AcDbEntity
8
Geo
100
AcDbLine
10
-36.3057241977450
20
7.64960971379011
30
0.000000000000000
11
-36.3057241977450
21
7.64960971379011
31
0.000000000000000
  0
LINE
  5
F10460
330
F10461
100
AcDbEntity
8
Geo
100
AcDbLine
10
-36.3057241977450
20
7.64960971379011
30
0.000000000000000
11
-36.3057241977450
21
7.64960971379011
31
0.000000000000000
  0
LINE
  5
F10462
330
F10463
100
AcDbEntity
8
Geo
100
AcDbLine
10
-36.3057241977450
20
7.64960971379011
30
0.000000000000000
11
-36.3057241977450
21
7.64960971379011
31
0.000000000000000
  0
LINE
  5
F10464
330
F10465
100
AcDbEntity
8
Geo
100
AcDbLine
10
-36.3057241977450
20
7.64960971379011
30
0.000000000000000
11
-36.3057241977450
21
7.64960971379011
31
0.000000000000000
  0
LINE
  5
F10466
330
F10467
100
AcDbEntity
8
Geo
100
AcDbLine
10
-36.3057241977450
20
7.64960971379011
30
0.000000000000000
11
-36.3057241977450
21
7.64960971379011
31
0.000000000000000
  0
LINE
  5
F10468
330
F10469
100
AcDbEntity
8
Geo
100
AcDbLine
10
-36.3057241977450
20
7.64960971379011
30
0.000000000000000
11
-36.3057241977450
21
7.64960971379011
31
0.000000000000000
  0
LINE
  5
F1046A
330
F1046B
100
AcDbEntity
8
Geo
100
AcDbLine
10
-36.3057241977450
20
7.64960971379011
30
0.000000000000000
11
-36.3057241977450
21
7.64960971379011
31
0.000000000000000
  0
LINE
  5
F1046C
330
F1046D
100
AcDbEntity
8
Geo
100
AcDbLine
10
-36.3057241977450
20
7.64960971379011
30
0.000000000000000
11
-36.3057241977450
21
7.64960971379011
31
0.000000000000000
  0
LINE
  5
F1046E
330
F1046F
100
AcDbEntity
8
Geo
100
AcDbLine
10
-36.3057241977450
20
7.64960971379011
30
0.000000000000000
11
-36.3057241977450
21
7.64960971379011
31
0.000000000000000
  0
LINE
  5
F10470
330
F10471
100
AcDbEntity
8
Geo
100
AcDbLine
10
-36.3057241977450
20
7.64960971379011
30
0.000000000000000
11
-36.3057241977450
21
7.64960971379011
31
0.000000000000000
  0
LINE
  5
F10472
330
F10473
100
AcDbEntity
8
Geo
100
AcDbLine
10
-36.3057241977450
20
7.64960971379011
30
0.000000000000000
11
-36.3057241977450
21
7.64960971379011
31
0.000000000000000
  0
LINE
  5
F10474
330
F10475
100
AcDbEntity
8
Geo
100
AcDbLine
10
-36.3057241977450
20
7.64960971379011
30
0.000000000000000
11
-36.3057241977450
21
7.64960971379011
31
0.000000000000000
  0
LINE
  5
F10476
330
F10477
100
AcDbEntity
8
Geo
100
AcDbLine
10
-36.3057241977450
20
7.64960971379011
30
0.000000000000000
11
-36.3057241977450
21
7.64960971379011
31
0.000000000000000
  0
LINE
  5
F10478
330
F10479
100
AcDbEntity
8
Geo
100
AcDbLine
10
-36.3057241977450
20
7.64960971379011
30
0.000000000000000
11
-36.3057241977450
21
7.64960971379011
31
0.000000000000000
  0
LINE
  5
F1047A
330
F1047B
100
AcDbEntity
8
Geo
100
AcDbLine
10
-36.3057241977450
20
7.64960971379011
30
0.000000000000000
11
-36.3057241977450
21
7.64960971379011
31
0.000000000000000
  0
LINE
  5
F1047C
330
F1047D
100
AcDbEntity
8
Geo
100
AcDbLine
10
-36.3057241977450
20
7.64960971379011
30
0.000000000000000
11
-36.3057241977450
21
7.64960971379011
31
0.000000000000000
  0
LINE
  5
F1047E
330
F1047F
100
AcDbEntity
8
Geo
100
AcDbLine
10
-36.3057241977450
20
7.64960971379011
30
0.000000000000000
11
-36.3057241977450
21
7.64960971379011
31
0.000000000000000
  0
LINE
  5
F10480
330
F10481
100
AcDbEntity
8
Geo
100
AcDbLine
10
-36.3057241977450
20
7.64960971379011
30
0.000000000000000
11
-36.3057241977450
21
7.64960971379011
31
0.000000000000000
  0
LINE
  5
F10482
330
F10483
100
AcDbEntity
8
Geo
100
AcDbLine
10
-36.3057241977450
20
7.64960971379011
30
0.000000000000000
11
-36.3057241977450
21
7.64960971379011
31
0.000000000000000
  0
LINE
  5
F10484
330
F10485
100
AcDbEntity
8
Geo
100
AcDbLine
10
-36.3057241977450
20
7.64960971379011
30
0.000000000000000
11
-36.3057241977450
21
7.64960971379011
31
0.000000000000000
  0
LINE
  5
F10486
330
F10487
100
AcDbEntity
8
Geo
100
AcDbLine
10
-36.3057241977450
20
7.64960971379011
30
0.000000000000000
11
-36.3057241977450
21
7.64960971379011
31
0.000000000000000
  0
LINE
  5
F10488
330
F10489
100
AcDbEntity
8
Geo
100
AcDbLine
10
-36.3057241977450
20
7.64960971379011
30
0.000000000000000
11
-36.3057241977450
21
7.64960971379011
31
0.000000000000000
  0
LINE
  5
F1048A
330
F1048B
100
AcDbEntity
8
Geo
100
AcDbLine
10
-36.3057241977450
20
7.64960971379011
30
0.000000000000000
11
-36.3057241977450
21
7.64960971379011
31
0.000000000000000
  0
LINE
  5
F1048C
330
F1048D
100
AcDbEntity
8
Geo
100
AcDbLine
10
-36.3057241977450
20
7.64960971379011
30
0.000000000000000
11
-36.3057241977450
21
7.64960971379011
31
0.000000000000000
  0
LINE
  5
F1048E
330
F1048F
100
AcDbEntity
8
Geo
100
AcDbLine
10
-36.3057241977450
20
7.64960971379011
30
0.000000000000000
11
-36.3057241977450
21
7.64960971379011
31
0.000000000000000
  0
LINE
  5
F10490
330
F10491
100
AcDbEntity
8
Geo
100
AcDbLine
10
-36.3057241977450
20
7.64960971379011
30
0.000000000000000
11
-36.3057241977450
21
7.64960971379011
31
0.000000000000000
  0
LINE
  5
F10492
330
F10493
100
AcDbEntity
8
Geo
100
AcDbLine
10
-36.3057241977450
20
7.64960971379011
30
0.000000000000000
11
-36.3057241977450
21
7.64960971379011
31
0.000000000000000
  0
LINE
  5
F10494
330
F10495
100
AcDbEntity
8
Geo
100
AcDbLine
10
-36.3057241977450
20
7.64960971379011
30
0.000000000000000
11
-36.3057241977450
21
7.64960971379011
31
0.000000000000000
  0
LINE
  5
F10496
330
F10497
100
AcDbEntity
8
Geo
100
AcDbLine
10
-36.3057241977450
20
7.64960971379011
30
0.000000000000000
11
-36.3057241977450
21
7.64960971379011
31
0.000000000000000
  0
LINE
  5
F10498
330
F10499
100
AcDbEntity
8
Geo
100
AcDbLine
10
-36.3057241977450
20
7.64960971379011
30
0.000000000000000
11
-36.3057241977450
21
7.64960971379011
31
0.000000000000000
  0
LINE
  5
F1049A
330
F1049B
100
AcDbEntity
8
Geo
100
AcDbLine
10
-36.3057241977450
20
7.64960971379011
30
0.000000000000000
11
-36.3057241977450
21
7.64960971379011
31
0.000000000000000
  0
LINE
  5
F1049C
330
F1049D
100
AcDbEntity
8
Geo
100
AcDbLine
10
-36.3057241977450
20
7.64960971379011
30
0.000000000000000
11
-36.3057241977450
21
7.64960971379011
31
0.000000000000000
  0
LINE
  5
F1049E
330
F1049F
100
AcDbEntity
8
Geo
100
AcDbLine
10
-36.3057241977450
20
7.64960971379011
30
0.000000000000000
11
-36.3057241977450
21
7.64960971379011
31
0.000000000000000
  0
LINE
  5
F104A0
330
F104A1
100
AcDbEntity
8
Geo
100
AcDbLine
10
-36.3057241977450
20
7.64960971379011
30
0.000000000000000
11
-36.3057241977450
21
7.64960971379011
31
0.000000000000000
  0
LINE
  5
F104A2
330
F104A3
100
AcDbEntity
8
Geo
100
AcDbLine
10
-36.3057241977450
20
7.64960971379011
30
0.000000000000000
11
-36.3057241977450
21
7.64960971379011
31
0.000000000000000
  0
LINE
  5
F104A4
330
F104A5
100
AcDbEntity
8
Geo
100
AcDbLine
10
-36.3057241977450
20
7.64960971379011
30
0.000000000000000
11
-36.3057241977450
21
7.64960971379011
31
0.000000000000000
  0
LINE
  5
F104A6
330
F104A7
100
AcDbEntity
8
Geo
100
AcDbLine
10
-36.3057241977450
20
7.64960971379011
30
0.000000000000000
11
-36.3057241977450
21
7.64960971379011
31
0.000000000000000
  0
LINE
  5
F104A8
330
F104A9
100
AcDbEntity
8
Geo
100
AcDbLine
10
-36.3057241977450
20
7.64960971379011
30
0.000000000000000
11
-36.3057241977450
21
7.64960971379011
31
0.000000000000000
  0
LINE
  5
F104AA
330
F104AB
100
AcDbEntity
8
Geo
100
AcDbLine
10
-36.3057241977450
20
7.64960971379011
30
0.000000000000000
11
-36.3057241977450
21
7.64960971379011
31
0.000000000000000
  0
LINE
  5
F104AC
330
F104AD
100
AcDbEntity
8
Geo
100
AcDbLine
10
-36.3057241977450
20
7.64960971379011
30
0.000000000000000
11
-36.3057241977450
21
7.64960971379011
31
0.000000000000000
  0
LINE
  5
F104AE
330
F104AF
100
AcDbEntity
8
Geo
100
AcDbLine
10
-36.3057241977450
20
7.64960971379011
30
0.000000000000000
11
-36.3057241977450
21
7.64960971379011
31
0.000000000000000
  0
LINE
  5
F104B0
330
F104B1
100
AcDbEntity
8
Geo
100
AcDbLine
10
-36.3057241977450
20
7.64960971379011
30
0.000000000000000
11
-36.3057241977450
21
7.64960971379011
31
0.000000000000000
  0
LINE
  5
F104B2
330
F104B3
100
AcDbEntity
8
Geo
100
AcDbLine
10
-36.3057241977450
20
7.64960971379011
30
0.000000000000000
11
-36.3057241977450
21
7.64960971379011
31
0.000000000000000
  0
LINE
  5
F104B4
330
F104B5
100
AcDbEntity
8
Geo
100
AcDbLine
10
-36.3057241977450
20
7.64960971379011
30
0.000000000000000
11
-36.3057241977450
21
7.64960971379011
31
0.000000000000000
  0
LINE
  5
F104B6
330
F104B7
100
AcDbEntity
8
Geo
100
AcDbLine
10
-36.3057241977450
20
7.64960971379011
30
0.000000000000000
11
-36.3057241977450
21
7.64960971379011
31
0.000000000000000
  0
LINE
  5
F104B8
330
F104B9
100
AcDbEntity
8
Geo
100
AcDbLine
10
-36.3057241977450
20
7.64960971379011
30
0.000000000000000
11
-36.3057241977450
21
7.64960971379011
31
0.000000000000000
  0
LINE
  5
F104BA
330
F104BB
100
AcDbEntity
8
Geo
100
AcDbLine
10
-36.3057241977450
20
7.64960971379011
30
0.000000000000000
11
-36.3057241977450
21
7.64960971379011
31
0.000000000000000
  0
LINE
  5
F104BC
330
F104BD
100
AcDbEntity
8
Geo
100
AcDbLine
10
-36.3057241977450
20
7.64960971379011
30
0.000000000000000
11
-36.3057241977450
21
7.64960971379011
31
0.000000000000000
  0
LINE
  5
F104BE
330
F104BF
100
AcDbEntity
8
Geo
100
AcDbLine
10
-36.3057241977450
20
7.64960971379011
30
0.000000000000000
11
-36.3057241977450
21
7.64960971379011
31
0.000000000000000
  0
LINE
  5
F104C0
330
F104C1
100
AcDbEntity
8
Geo
100
AcDbLine
10
-36.3057241977450
20
7.64960971379011
30
0.000000000000000
11
-36.3057241977450
21
7.64960971379011
31
0.000000000000000
  0
LINE
  5
F104C2
330
F104C3
100
AcDbEntity
8
Geo
100
AcDbLine
10
-36.3057241977450
20
7.64960971379011
30
0.000000000000000
11
-36.3057241977450
21
7.64960971379011
31
0.000000000000000
  0
LINE
  5
F104C4
330
F104C5
100
AcDbEntity
8
Geo
100
AcDbLine
10
-36.3057241977450
20
7.64960971379011
30
0.000000000000000
11
-36.3057241977450
21
7.64960971379011
31
0.000000000000000
  0
LINE
  5
F104C6
330
F104C7
100
AcDbEntity
8
Geo
100
AcDbLine
10
-36.3057241977450
20
7.64960971379011
30
0.000000000000000
11
-36.3057241977450
21
7.64960971379011
31
0.000000000000000
  0
LINE
  5
F104C8
330
F104C9
100
AcDbEntity
8
Geo
100
AcDbLine
10
-36.3057241977450
20
7.64960971379011
30
0.000000000000000
11
-36.3057241977450
21
7.64960971379011
31
0.000000000000000
  0
LINE
  5
F104CA
330
F104CB
100
AcDbEntity
8
Geo
100
AcDbLine
10
-36.3057241977450
20
7.64960971379011
30
0.000000000000000
11
-36.3057241977450
21
7.64960971379011
31
0.000000000000000
  0
LINE
  5
F104CC
330
F104CD
100
AcDbEntity
8
Geo
100
AcDbLine
10
-36.3057241977450
20
7.64960971379011
30
0.000000000000000
11
-36.3057241977450
21
7.64960971379011
31
0.000000000000000
  0
LINE
  5
F104CE
330
F104CF
100
AcDbEntity
8
Geo
100
AcDbLine
10
-36.3057241977450
20
7.64960971379011
30
0.000000000000000
11
-36.3057241977450
21
7.64960971379011
31
0.000000000000000
  0
LINE
  5
F104D0
330
F104D1
100
AcDbEntity
8
Geo
100
AcDbLine
10
-36.3057241977450
20
7.64960971379011
30
0.000000000000000
11
-36.3057241977450
21
7.64960971379011
31
0.000000000000000
  0
LINE
  5
F104D2
330
F104D3
100
AcDbEntity
8
Geo
100
AcDbLine
10
-36.3057241977450
20
7.64960971379011
30
0.000000000000000
11
-36.3057241977450
21
7.64960971379011
31
0.000000000000000
  0
LINE
  5
F104D4
330
F104D5
100
AcDbEntity
8
Geo
100
AcDbLine
10
-36.3057241977450
20
7.64960971379011
30
0.000000000000000
11
-36.3057241977450
21
7.64960971379011
31
0.000000000000000
  0
LINE
  5
F104D6
330
F104D7
100
AcDbEntity
8
Geo
100
AcDbLine
10
-36.3057241977450
20
7.64960971379011
30
0.000000000000000
11
-36.3057241977450
21
7.64960971379011
31
0.000000000000000
  0
LINE
  5
F104D8
330
F104D9
100
AcDbEntity
8
Geo
100
AcDbLine
10
-36.3057241977450
20
7.64960971379011
30
0.000000000000000
11
-36.3057241977450
21
7.64960971379011
31
0.000000000000000
  0
LINE
  5
F104DA
330
F104DB
100
AcDbEntity
8
Geo
100
AcDbLine
10
-36.3057241977450
20
7.64960971379011
30
0.000000000000000
11
-36.3057241977450
21
7.64960971379011
31
0.000000000000000
  0
LINE
  5
F104DC
330
F104DD
100
AcDbEntity
8
Geo
100
AcDbLine
10
-36.3057241977450
20
7.64960971379011
30
0.000000000000000
11
-36.3057241977450
21
7.64960971379011
31
0.000000000000000
  0
LINE
  5
F104DE
330
F104DF
100
AcDbEntity
8
Geo
100
AcDbLine
10
-36.3057241977450
20
7.64960971379011
30
0.000000000000000
11
-36.3057241977450
21
7.64960971379011
31
0.000000000000000
  0
LINE
  5
F104E0
330
F104E1
100
AcDbEntity
8
Geo
100
AcDbLine
10
-36.3057241977450
20
7.64960971379011
30
0.000000000000000
11
-36.3057241977450
21
7.64960971379011
31
0.000000000000000
  0
LINE
  5
F104E2
330
F104E3
100
AcDbEntity
8
Geo
100
AcDbLine
10
-36.3057241977450
20
7.64960971379011
30
0.000000000000000
11
-36.3057241977450
21
7.64960971379011
31
0.000000000000000
  0
LINE
  5
F104E4
330
F104E5
100
AcDbEntity
8
Geo
100
AcDbLine
10
-36.3057241977450
20
7.64960971379011
30
0.000000000000000
11
-36.3057241977450
21
7.64960971379011
31
0.000000000000000
  0
LINE
  5
F104E6
330
F104E7
100
AcDbEntity
8
Geo
100
AcDbLine
10
-36.3057241977450
20
7.64960971379011
30
0.000000000000000
11
-36.3057241977450
21
7.64960971379011
31
0.000000000000000
  0
LINE
  5
F104E8
330
F104E9
100
AcDbEntity
8
Geo
100
AcDbLine
10
-36.3057241977450
20
7.64960971379011
30
0.000000000000000
11
-36.3057241977450
21
7.64960971379011
31
0.000000000000000
  0
LINE
  5
F104EA
330
F104EB
100
AcDbEntity
8
Geo
100
AcDbLine
10
-36.3057241977450
20
7.64960971379011
30
0.000000000000000
11
-36.3057241977450
21
7.64960971379011
31
0.000000000000000
  0
LINE
  5
F104EC
330
F104ED
100
AcDbEntity
8
Geo
100
AcDbLine
10
-36.3057241977450
20
7.64960971379011
30
0.000000000000000
11
-36.3057241977450
21
7.64960971379011
31
0.000000000000000
  0
LINE
  5
F104EE
330
F104EF
100
AcDbEntity
8
Geo
100
AcDbLine
10
-36.3057241977450
20
7.64960971379011
30
0.000000000000000
11
-36.3057241977450
21
7.64960971379011
31
0.000000000000000
  0
LINE
  5
F104F0
330
F104F1
100
AcDbEntity
8
Geo
100
AcDbLine
10
-36.3057241977450
20
7.64960971379011
30
0.000000000000000
11
-36.3057241977450
21
7.64960971379011
31
0.000000000000000
  0
LINE
  5
F104F2
330
F104F3
100
AcDbEntity
8
Geo
100
AcDbLine
10
-36.3057241977450
20
7.64960971379011
30
0.000000000000000
11
-36.3057241977450
21
7.64960971379011
31
0.000000000000000
  0
LINE
  5
F104F4
330
F104F5
100
AcDbEntity
8
Geo
100
AcDbLine
10
-36.3057241977450
20
7.64960971379011
30
0.000000000000000
11
-36.3057241977450
21
7.64960971379011
31
0.000000000000000
  0
LINE
  5
F104F6
330
F104F7
100
AcDbEntity
8
Geo
100
AcDbLine
10
-36.3057241977450
20
7.64960971379011
30
0.000000000000000
11
-36.3057241977450
21
7.64960971379011
31
0.000000000000000
  0
LINE
  5
F104F8
330
F104F9
100
AcDbEntity
8
Geo
100
AcDbLine
10
-36.3057241977450
20
7.64960971379011
30
0.000000000000000
11
-36.3057241977450
21
7.64960971379011
31
0.000000000000000
  0
LINE
  5
F104FA
330
F104FB
100
AcDbEntity
8
Geo
100
AcDbLine
10
-36.3057241977450
20
7.64960971379011
30
0.000000000000000
11
-36.3057241977450
21
7.64960971379011
31
0.000000000000000
  0
LINE
  5
F104FC
330
F104FD
100
AcDbEntity
8
Geo
100
AcDbLine
10
-36.3057241977450
20
7.64960971379011
30
0.000000000000000
11
-36.3057241977450
21
7.64960971379011
31
0.000000000000000
  0
LINE
  5
F104FE
330
F104FF
100
AcDbEntity
8
Geo
100
AcDbLine
10
-36.3057241977450
20
7.64960971379011
30
0.000000000000000
11
-36.3057241977450
21
7.64960971379011
31
0.000000000000000
  0
LINE
  5
F10500
330
F10501
100
AcDbEntity
8
Geo
100
AcDbLine
10
-36.3057241977450
20
7.64960971379011
30
0.000000000000000
11
-36.3057241977450
21
7.64960971379011
31
0.000000000000000
  0
LINE
  5
F10502
330
F10503
100
AcDbEntity
8
Geo
100
AcDbLine
10
-36.3057241977450
20
7.64960971379011
30
0.000000000000000
11
-36.3057241977450
21
7.64960971379011
31
0.000000000000000
  0
LINE
  5
F10504
330
F10505
100
AcDbEntity
8
Geo
100
AcDbLine
10
-36.3057241977450
20
7.64960971379011
30
0.000000000000000
11
-36.3057241977450
21
7.64960971379011
31
0.000000000000000
  0
LINE
  5
F10506
330
F10507
100
AcDbEntity
8
Geo
100
AcDbLine
10
-36.3057241977450
20
7.64960971379011
30
0.000000000000000
11
-36.3057241977450
21
7.64960971379011
31
0.000000000000000
  0
LINE
  5
F10508
330
F10509
100
AcDbEntity
8
Geo
100
AcDbLine
10
-36.3057241977450
20
7.64960971379011
30
0.000000000000000
11
-36.3057241977450
21
7.64960971379011
31
0.000000000000000
  0
LINE
  5
F1050A
330
F1050B
100
AcDbEntity
8
Geo
100
AcDbLine
10
-36.3057241977450
20
7.64960971379011
30
0.000000000000000
11
-36.3057241977450
21
7.64960971379011
31
0.000000000000000
  0
LINE
  5
F1050C
330
F1050D
100
AcDbEntity
8
Geo
100
AcDbLine
10
-36.3057241977450
20
7.64960971379011
30
0.000000000000000
11
-36.3057241977450
21
7.64960971379011
31
0.000000000000000
  0
LINE
  5
F1050E
330
F1050F
100
AcDbEntity
8
Geo
100
AcDbLine
10
-36.3057241977450
20
7.64960971379011
30
0.000000000000000
11
-36.3057241977450
21
7.64960971379011
31
0.000000000000000
  0
LINE
  5
F10510
330
F10511
100
AcDbEntity
8
Geo
100
AcDbLine
10
-36.3057241977450
20
7.64960971379011
30
0.000000000000000
11
-36.3057241977450
21
7.64960971379011
31
0.000000000000000
  0
LINE
  5
F10512
330
F10513
100
AcDbEntity
8
Geo
100
AcDbLine
10
-36.3057241977450
20
7.64960971379011
30
0.000000000000000
11
-36.3057241977450
21
7.64960971379011
31
0.000000000000000
  0
LINE
  5
F10514
330
F10515
100
AcDbEntity
8
Geo
100
AcDbLine
10
-36.3057241977450
20
7.64960971379011
30
0.000000000000000
11
-36.3057241977450
21
7.64960971379011
31
0.000000000000000
  0
LINE
  5
F10516
330
F10517
100
AcDbEntity
8
Geo
100
AcDbLine
10
-36.3057241977450
20
7.64960971379011
30
0.000000000000000
11
-36.3057241977450
21
7.64960971379011
31
0.000000000000000
  0
LINE
  5
F10518
330
F10519
100
AcDbEntity
8
Geo
100
AcDbLine
10
-36.3057241977450
20
7.64960971379011
30
0.000000000000000
11
-36.3057241977450
21
7.64960971379011
31
0.000000000000000
  0
LINE
  5
F1051A
330
F1051B
100
AcDbEntity
8
Geo
100
AcDbLine
10
-36.3057241977450
20
7.64960971379011
30
0.000000000000000
11
-36.3057241977450
21
7.64960971379011
31
0.000000000000000
  0
LINE
  5
F1051C
330
F1051D
100
AcDbEntity
8
Geo
100
AcDbLine
10
-36.3057241977450
20
7.64960971379011
30
0.000000000000000
11
-36.3057241977450
21
7.64960971379011
31
0.000000000000000
  0
LINE
  5
F1051E
330
F1051F
100
AcDbEntity
8
Geo
100
AcDbLine
10
-36.3057241977450
20
7.64960971379011
30
0.000000000000000
11
-36.3057241977450
21
7.64960971379011
31
0.000000000000000
  0
LINE
  5
F10520
330
F10521
100
AcDbEntity
8
Geo
100
AcDbLine
10
-36.3057241977450
20
7.64960971379011
30
0.000000000000000
11
-36.3057241977450
21
7.64960971379011
31
0.000000000000000
  0
LINE
  5
F10522
330
F10523
100
AcDbEntity
8
Geo
100
AcDbLine
10
-36.3057241977450
20
7.64960971379011
30
0.000000000000000
11
-36.3057241977450
21
7.64960971379011
31
0.000000000000000
  0
LINE
  5
F10524
330
F10525
100
AcDbEntity
8
Geo
100
AcDbLine
10
-36.3057241977450
20
7.64960971379011
30
0.000000000000000
11
-36.3057241977450
21
7.64960971379011
31
0.000000000000000
  0
LINE
  5
F10526
330
F10527
100
AcDbEntity
8
Geo
100
AcDbLine
10
-36.3057241977450
20
7.64960971379011
30
0.000000000000000
11
-36.3057241977450
21
7.64960971379011
31
0.000000000000000
  0
LINE
  5
F10528
330
F10529
100
AcDbEntity
8
Geo
100
AcDbLine
10
-36.3057241977450
20
7.64960971379011
30
0.000000000000000
11
-36.3057241977450
21
7.64960971379011
31
0.000000000000000
  0
LINE
  5
F1052A
330
F1052B
100
AcDbEntity
8
Geo
100
AcDbLine
10
-36.3057241977450
20
7.64960971379011
30
0.000000000000000
11
-36.3057241977450
21
7.64960971379011
31
0.000000000000000
  0
LINE
  5
F1052C
330
F1052D
100
AcDbEntity
8
Geo
100
AcDbLine
10
-36.3057241977450
20
7.64960971379011
30
0.000000000000000
11
-36.3057241977450
21
7.64960971379011
31
0.000000000000000
  0
LINE
  5
F1052E
330
F1052F
100
AcDbEntity
8
Geo
100
AcDbLine
10
-36.3057241977450
20
7.64960971379011
30
0.000000000000000
11
-36.3057241977450
21
7.64960971379011
31
0.000000000000000
  0
LINE
  5
F10530
330
F10531
100
AcDbEntity
8
Geo
100
AcDbLine
10
-36.3057241977450
20
7.64960971379011
30
0.000000000000000
11
-36.3057241977450
21
7.64960971379011
31
0.000000000000000
  0
LINE
  5
F10532
330
F10533
100
AcDbEntity
8
Geo
100
AcDbLine
10
-36.3057241977450
20
7.64960971379011
30
0.000000000000000
11
-36.3057241977450
21
7.64960971379011
31
0.000000000000000
  0
LINE
  5
F10534
330
F10535
100
AcDbEntity
8
Geo
100
AcDbLine
10
-36.3057241977450
20
7.64960971379011
30
0.000000000000000
11
-36.3057241977450
21
7.64960971379011
31
0.000000000000000
  0
LINE
  5
F10536
330
F10537
100
AcDbEntity
8
Geo
100
AcDbLine
10
-36.3057241977450
20
7.64960971379011
30
0.000000000000000
11
-36.3057241977450
21
7.64960971379011
31
0.000000000000000
  0
LINE
  5
F10538
330
F10539
100
AcDbEntity
8
Geo
100
AcDbLine
10
-36.3057241977450
20
7.64960971379011
30
0.000000000000000
11
-36.3057241977450
21
7.64960971379011
31
0.000000000000000
  0
LINE
  5
F1053A
330
F1053B
100
AcDbEntity
8
Geo
100
AcDbLine
10
-36.3057241977450
20
7.64960971379011
30
0.000000000000000
11
-36.3057241977450
21
7.64960971379011
31
0.000000000000000
  0
LINE
  5
F1053C
330
F1053D
100
AcDbEntity
8
Geo
100
AcDbLine
10
-36.3057241977450
20
7.64960971379011
30
0.000000000000000
11
-36.3057241977450
21
7.64960971379011
31
0.000000000000000
  0
LINE
  5
F1053E
330
F1053F
100
AcDbEntity
8
Geo
100
AcDbLine
10
-36.3057241977450
20
7.64960971379011
30
0.000000000000000
11
-36.3057241977450
21
7.64960971379011
31
0.000000000000000
  0
LINE
  5
F10540
330
F10541
100
AcDbEntity
8
Geo
100
AcDbLine
10
-36.3057241977450
20
7.64960971379011
30
0.000000000000000
11
-36.3057241977450
21
7.64960971379011
31
0.000000000000000
  0
LINE
  5
F10542
330
F10543
100
AcDbEntity
8
Geo
100
AcDbLine
10
-36.3057241977450
20
7.64960971379011
30
0.000000000000000
11
-36.3057241977450
21
7.64960971379011
31
0.000000000000000
  0
LINE
  5
F10544
330
F10545
100
AcDbEntity
8
Geo
100
AcDbLine
10
-36.3057241977450
20
7.64960971379011
30
0.000000000000000
11
-36.3057241977450
21
7.64960971379011
31
0.000000000000000
  0
LINE
  5
F10546
330
F10547
100
AcDbEntity
8
Geo
100
AcDbLine
10
-36.3057241977450
20
7.64960971379011
30
0.000000000000000
11
-36.3057241977450
21
7.64960971379011
31
0.000000000000000
  0
LINE
  5
F10548
330
F10549
100
AcDbEntity
8
Geo
100
AcDbLine
10
-36.3057241977450
20
7.64960971379011
30
0.000000000000000
11
-36.3057241977450
21
7.64960971379011
31
0.000000000000000
  0
LINE
  5
F1054A
330
F1054B
100
AcDbEntity
8
Geo
100
AcDbLine
10
-36.3057241977450
20
7.64960971379011
30
0.000000000000000
11
-36.3057241977450
21
7.64960971379011
31
0.000000000000000
  0
LINE
  5
F1054C
330
F1054D
100
AcDbEntity
8
Geo
100
AcDbLine
10
-36.3057241977450
20
7.64960971379011
30
0.000000000000000
11
-36.3057241977450
21
7.64960971379011
31
0.000000000000000
  0
LINE
  5
F1054E
330
F1054F
100
AcDbEntity
8
Geo
100
AcDbLine
10
-36.3057241977450
20
7.64960971379011
30
0.000000000000000
11
-36.3057241977450
21
7.64960971379011
31
0.000000000000000
  0
LINE
  5
F10550
330
F10551
100
AcDbEntity
8
Geo
100
AcDbLine
10
-36.3057241977450
20
7.64960971379011
30
0.000000000000000
11
-36.3057241977450
21
7.64960971379011
31
0.000000000000000
  0
LINE
  5
F10552
330
F10553
100
AcDbEntity
8
Geo
100
AcDbLine
10
-36.3057241977450
20
7.64960971379011
30
0.000000000000000
11
-36.3057241977450
21
7.64960971379011
31
0.000000000000000
  0
LINE
  5
F10554
330
F10555
100
AcDbEntity
8
Geo
100
AcDbLine
10
-32.2057241977450
20
10.7013572582044
30
0.000000000000000
11
-32.1057241977450
21
10.6637165346849
31
0.000000000000000
  0
LINE
  5
F10556
330
F10557
100
AcDbEntity
8
Geo
100
AcDbLine
10
-32.1057241977450
20
10.6637165346849
30
0.000000000000000
11
-32.0057241977450
21
10.6254478831459
31
0.000000000000000
  0
LINE
  5
F10558
330
F10559
100
AcDbEntity
8
Geo
100
AcDbLine
10
-32.0057241977450
20
10.6254478831459
30
0.000000000000000
11
-31.9057241977450
21
10.5865592760850
31
0.000000000000000
  0
LINE
  5
F1055A
330
F1055B
100
AcDbEntity
8
Geo
100
AcDbLine
10
-31.9057241977450
20
10.5865592760850
30
0.000000000000000
11
-31.8057241977450
21
10.5470588151544
31
0.000000000000000
  0
LINE
  5
F1055C
330
F1055D
100
AcDbEntity
8
Geo
100
AcDbLine
10
-31.8057241977450
20
10.5470588151544
30
0.000000000000000
11
-31.7057241977450
21
10.5069547294741
31
0.000000000000000
  0
LINE
  5
F1055E
330
F1055F
100
AcDbEntity
8
Geo
100
AcDbLine
10
-31.7057241977450
20
10.5069547294741
30
0.000000000000000
11
-31.6057241977450
21
10.4662553739168
31
0.000000000000000
  0
LINE
  5
F10560
330
F10561
100
AcDbEntity
8
Geo
100
AcDbLine
10
-31.6057241977450
20
10.4662553739168
30
0.000000000000000
11
-31.5057241977450
21
10.4249692273678
31
0.000000000000000
  0
LINE
  5
F10562
330
F10563
100
AcDbEntity
8
Geo
100
AcDbLine
10
-31.5057241977450
20
10.4249692273678
30
0.000000000000000
11
-31.4057241977450
21
10.3831048909583
31
0.000000000000000
  0
LINE
  5
F10564
330
F10565
100
AcDbEntity
8
Geo
100
AcDbLine
10
-31.4057241977450
20
10.3831048909583
30
0.000000000000000
11
-31.3057241977450
21
10.3406710862736
31
0.000000000000000
  0
LINE
  5
F10566
330
F10567
100
AcDbEntity
8
Geo
100
AcDbLine
10
-31.3057241977450
20
10.3406710862736
30
0.000000000000000
11
-31.2057241977450
21
10.2976766535361
31
0.000000000000000
  0
LINE
  5
F10568
330
F10569
100
AcDbEntity
8
Geo
100
AcDbLine
10
-31.2057241977450
20
10.2976766535361
30
0.000000000000000
11
-31.1057241977450
21
10.2541305497639
31
0.000000000000000
  0
LINE
  5
F1056A
330
F1056B
100
AcDbEntity
8
Geo
100
AcDbLine
10
-31.1057241977450
20
10.2541305497639
30
0.000000000000000
11
-31.0057241977450
21
10.2100418469045
31
0.000000000000000
  0
LINE
  5
F1056C
330
F1056D
100
AcDbEntity
8
Geo
100
AcDbLine
10
-31.0057241977450
20
10.2100418469045
30
0.000000000000000
11
-30.9057241977450
21
10.1654197299447
31
0.000000000000000
  0
LINE
  5
F1056E
330
F1056F
100
AcDbEntity
8
Geo
100
AcDbLine
10
-30.9057241977450
20
10.1654197299447
30
0.000000000000000
11
-30.8057241977450
21
10.1202734949977
31
0.000000000000000
  0
LINE
  5
F10570
330
F10571
100
AcDbEntity
8
Geo
100
AcDbLine
10
-30.8057241977450
20
10.1202734949977
30
0.000000000000000
11
-30.7057241977450
21
10.0746125473656
31
0.000000000000000
  0
LINE
  5
F10572
330
F10573
100
AcDbEntity
8
Geo
100
AcDbLine
10
-30.7057241977450
20
10.0746125473656
30
0.000000000000000
11
-30.6057241977450
21
10.0284463995807
31
0.000000000000000
  0
LINE
  5
F10574
330
F10575
100
AcDbEntity
8
Geo
100
AcDbLine
10
-30.6057241977450
20
10.0284463995807
30
0.000000000000000
11
-30.5057241977450
21
9.98178466942365
31
0.000000000000000
  0
LINE
  5
F10576
330
F10577
100
AcDbEntity
8
Geo
100
AcDbLine
10
-30.5057241977450
20
9.98178466942365
30
0.000000000000000
11
-30.4057241977450
21
9.93463707791932
31
0.000000000000000
  0
LINE
  5
F10578
330
F10579
100
AcDbEntity
8
Geo
100
AcDbLine
10
-30.4057241977450
20
9.93463707791932
30
0.000000000000000
11
-30.3057241977450
21
9.88701344731212
31
0.000000000000000
  0
LINE
  5
F1057A
330
F1057B
100
AcDbEntity
8
Geo
100
AcDbLine
10
-30.3057241977450
20
9.88701344731212
30
0.000000000000000
11
-30.2057241977450
21
9.83892369901951
31
0.000000000000000
  0
LINE
  5
F1057C
330
F1057D
100
AcDbEntity
8
Geo
100
AcDbLine
10
-30.2057241977450
20
9.83892369901951
30
0.000000000000000
11
-30.1057241977450
21
9.79037785156511
31
0.000000000000000
  0
LINE
  5
F1057E
330
F1057F
100
AcDbEntity
8
Geo
100
AcDbLine
10
-30.1057241977450
20
9.79037785156511
30
0.000000000000000
11
-30.0057241977450
21
9.74138601849156
31
0.000000000000000
  0
LINE
  5
F10580
330
F10581
100
AcDbEntity
8
Geo
100
AcDbLine
10
-30.0057241977450
20
9.74138601849156
30
0.000000000000000
11
-29.9057241977450
21
9.69195840625356
31
0.000000000000000
  0
LINE
  5
F10582
330
F10583
100
AcDbEntity
8
Geo
100
AcDbLine
10
-29.9057241977450
20
9.69195840625356
30
0.000000000000000
11
-29.8057241977450
21
9.64210531209154
31
0.000000000000000
  0
LINE
  5
F10584
330
F10585
100
AcDbEntity
8
Geo
100
AcDbLine
10
-29.8057241977450
20
9.64210531209154
30
0.000000000000000
11
-29.7057241977450
21
9.59183712188648
31
0.000000000000000
  0
LINE
  5
F10586
330
F10587
100
AcDbEntity
8
Geo
100
AcDbLine
10
-29.7057241977450
20
9.59183712188648
30
0.000000000000000
11
-29.6057241977450
21
9.54116430799619
31
0.000000000000000
  0
LINE
  5
F10588
330
F10589
100
AcDbEntity
8
Geo
100
AcDbLine
10
-29.6057241977450
20
9.54116430799619
30
0.000000000000000
11
-29.5057241977450
21
9.49009742707361
31
0.000000000000000
  0
LINE
  5
F1058A
330
F1058B
100
AcDbEntity
8
Geo
100
AcDbLine
10
-29.5057241977450
20
9.49009742707361
30
0.000000000000000
11
-29.4057241977450
21
9.43864711786759
31
0.000000000000000
  0
LINE
  5
F1058C
330
F1058D
100
AcDbEntity
8
Geo
100
AcDbLine
10
-29.4057241977450
20
9.43864711786759
30
0.000000000000000
11
-29.3057241977450
21
9.38682409900643
31
0.000000000000000
  0
LINE
  5
F1058E
330
F1058F
100
AcDbEntity
8
Geo
100
AcDbLine
10
-29.3057241977450
20
9.38682409900643
30
0.000000000000000
11
-29.2057241977450
21
9.33463916676497
31
0.000000000000000
  0
LINE
  5
F10590
330
F10591
100
AcDbEntity
8
Geo
100
AcDbLine
10
-29.2057241977450
20
9.33463916676497
30
0.000000000000000
11
-29.1057241977450
21
9.28210319281535
31
0.000000000000000
  0
LINE
  5
F10592
330
F10593
100
AcDbEntity
8
Geo
100
AcDbLine
10
-29.1057241977450
20
9.28210319281535
30
0.000000000000000
11
-29.0057241977450
21
9.22922712196211
31
0.000000000000000
  0
LINE
  5
F10594
330
F10595
100
AcDbEntity
8
Geo
100
AcDbLine
10
-29.0057241977450
20
9.22922712196211
30
0.000000000000000
11
-28.9057241977450
21
9.17602196986212
31
0.000000000000000
  0
LINE
  5
F10596
330
F10597
100
AcDbEntity
8
Geo
100
AcDbLine
10
-28.9057241977450
20
9.17602196986212
30
0.000000000000000
11
-28.8057241977450
21
9.12249882072961
31
0.000000000000000
  0
LINE
  5
F10598
330
F10599
100
AcDbEntity
8
Geo
100
AcDbLine
10
-28.8057241977450
20
9.12249882072961
30
0.000000000000000
11
-28.7057241977450
21
9.06866882502708
31
0.000000000000000
  0
LINE
  5
F1059A
330
F1059B
100
AcDbEntity
8
Geo
100
AcDbLine
10
-28.7057241977450
20
9.06866882502708
30
0.000000000000000
11
-28.6057241977450
21
9.01454319714227
31
0.000000000000000
  0
LINE
  5
F1059C
330
F1059D
100
AcDbEntity
8
Geo
100
AcDbLine
10
-28.6057241977450
20
9.01454319714227
30
0.000000000000000
11
-28.5057241977450
21
8.96013321305188
31
0.000000000000000
  0
LINE
  5
F1059E
330
F1059F
100
AcDbEntity
8
Geo
100
AcDbLine
10
-28.5057241977450
20
8.96013321305188
30
0.000000000000000
11
-28.4057241977450
21
8.90545020797248
31
0.000000000000000
  0
LINE
  5
F105A0
330
F105A1
100
AcDbEntity
8
Geo
100
AcDbLine
10
-28.4057241977450
20
8.90545020797248
30
0.000000000000000
11
-28.3057241977450
21
8.85050557399900
31
0.000000000000000
  0
LINE
  5
F105A2
330
F105A3
100
AcDbEntity
8
Geo
100
AcDbLine
10
-28.3057241977450
20
8.85050557399900
30
0.000000000000000
11
-28.2057241977450
21
8.79531075773147
31
0.000000000000000
  0
LINE
  5
F105A4
330
F105A5
100
AcDbEntity
8
Geo
100
AcDbLine
10
-28.2057241977450
20
8.79531075773147
30
0.000000000000000
11
-28.1057241977450
21
8.73987725789031
31
0.000000000000000
  0
LINE
  5
F105A6
330
F105A7
100
AcDbEntity
8
Geo
100
AcDbLine
10
-28.1057241977450
20
8.73987725789031
30
0.000000000000000
11
-28.0057241977450
21
8.68421662292082
31
0.000000000000000
  0
LINE
  5
F105A8
330
F105A9
100
AcDbEntity
8
Geo
100
AcDbLine
10
-28.0057241977450
20
8.68421662292082
30
0.000000000000000
11
-27.9057241977450
21
8.62834044858730
31
0.000000000000000
  0
LINE
  5
F105AA
330
F105AB
100
AcDbEntity
8
Geo
100
AcDbLine
10
-27.9057241977450
20
8.62834044858730
30
0.000000000000000
11
-27.8057241977450
21
8.57226037555731
31
0.000000000000000
  0
LINE
  5
F105AC
330
F105AD
100
AcDbEntity
8
Geo
100
AcDbLine
10
-27.8057241977450
20
8.57226037555731
30
0.000000000000000
11
-27.7057241977450
21
8.51598808697656
31
0.000000000000000
  0
LINE
  5
F105AE
330
F105AF
100
AcDbEntity
8
Geo
100
AcDbLine
10
-27.7057241977450
20
8.51598808697656
30
0.000000000000000
11
-27.6057241977450
21
8.45953530603498
31
0.000000000000000
  0
LINE
  5
F105B0
330
F105B1
100
AcDbEntity
8
Geo
100
AcDbLine
10
-27.6057241977450
20
8.45953530603498
30
0.000000000000000
11
-27.5057241977450
21
8.40291379352441
31
0.000000000000000
  0
LINE
  5
F105B2
330
F105B3
100
AcDbEntity
8
Geo
100
AcDbLine
10
-27.5057241977450
20
8.40291379352441
30
0.000000000000000
11
-27.4057241977450
21
8.34613534538850
31
0.000000000000000
  0
LINE
  5
F105B4
330
F105B5
100
AcDbEntity
8
Geo
100
AcDbLine
10
-27.4057241977450
20
8.34613534538850
30
0.000000000000000
11
-27.3057241977450
21
8.28921179026526
31
0.000000000000000
  0
LINE
  5
F105B6
330
F105B7
100
AcDbEntity
8
Geo
100
AcDbLine
10
-27.3057241977450
20
8.28921179026526
30
0.000000000000000
11
-27.2057241977450
21
8.23215498702277
31
0.000000000000000
  0
LINE
  5
F105B8
330
F105B9
100
AcDbEntity
8
Geo
100
AcDbLine
10
-27.2057241977450
20
8.23215498702277
30
0.000000000000000
11
-27.1057241977450
21
8.17497682228869
31
0.000000000000000
  0
LINE
  5
F105BA
330
F105BB
100
AcDbEntity
8
Geo
100
AcDbLine
10
-27.1057241977450
20
8.17497682228869
30
0.000000000000000
11
-27.0057241977450
21
8.11768920797385
31
0.000000000000000
  0
LINE
  5
F105BC
330
F105BD
100
AcDbEntity
8
Geo
100
AcDbLine
10
-27.0057241977450
20
8.11768920797385
30
0.000000000000000
11
-26.9057241977450
21
8.06030407879072
31
0.000000000000000
  0
LINE
  5
F105BE
330
F105BF
100
AcDbEntity
8
Geo
100
AcDbLine
10
-26.9057241977450
20
8.06030407879072
30
0.000000000000000
11
-26.8057241977450
21
8.00283338976697
31
0.000000000000000
  0
LINE
  5
F105C0
330
F105C1
100
AcDbEntity
8
Geo
100
AcDbLine
10
-26.8057241977450
20
8.00283338976697
30
0.000000000000000
11
-26.7057241977450
21
7.94528911375495
31
0.000000000000000
  0
LINE
  5
F105C2
330
F105C3
100
AcDbEntity
8
Geo
100
AcDbLine
10
-26.7057241977450
20
7.94528911375495
30
0.000000000000000
11
-26.6057241977450
21
7.88768323893738
31
0.000000000000000
  0
LINE
  5
F105C4
330
F105C5
100
AcDbEntity
8
Geo
100
AcDbLine
10
-26.6057241977450
20
7.88768323893738
30
0.000000000000000
11
-26.5057241977450
21
7.83002776632982
31
0.000000000000000
  0
LINE
  5
F105C6
330
F105C7
100
AcDbEntity
8
Geo
100
AcDbLine
10
-26.5057241977450
20
7.83002776632982
30
0.000000000000000
11
-26.4057241977450
21
7.77233470728053
31
0.000000000000000
  0
LINE
  5
F105C8
330
F105C9
100
AcDbEntity
8
Geo
100
AcDbLine
10
-26.4057241977450
20
7.77233470728053
30
0.000000000000000
11
-26.3057241977450
21
7.71461608096814
31
0.000000000000000
  0
LINE
  5
F105CA
330
F105CB
100
AcDbEntity
8
Geo
100
AcDbLine
10
-26.3057241977450
20
7.71461608096814
30
0.000000000000000
11
-26.2057241977450
21
7.65688391189771
31
0.000000000000000
  0
LINE
  5
F105CC
330
F105CD
100
AcDbEntity
8
Geo
100
AcDbLine
10
-26.2057241977450
20
7.65688391189771
30
0.000000000000000
11
-26.1057241977450
21
7.59915022739565
31
0.000000000000000
  0
LINE
  5
F105CE
330
F105CF
100
AcDbEntity
8
Geo
100
AcDbLine
10
-26.1057241977450
20
7.59915022739565
30
0.000000000000000
11
-26.0057241977450
21
7.54142705510408
31
0.000000000000000
  0
LINE
  5
F105D0
330
F105D1
100
AcDbEntity
8
Geo
100
AcDbLine
10
-26.0057241977450
20
7.54142705510408
30
0.000000000000000
11
-25.9057241977450
21
7.48372642047512
31
0.000000000000000
  0
LINE
  5
F105D2
330
F105D3
100
AcDbEntity
8
Geo
100
AcDbLine
10
-25.9057241977450
20
7.48372642047512
30
0.000000000000000
11
-25.8057241977450
21
7.42606034426563
31
0.000000000000000
  0
LINE
  5
F105D4
330
F105D5
100
AcDbEntity
8
Geo
100
AcDbLine
10
-25.8057241977450
20
7.42606034426563
30
0.000000000000000
11
-25.7057241977450
21
7.36844084003290
31
0.000000000000000
  0
LINE
  5
F105D6
330
F105D7
100
AcDbEntity
8
Geo
100
AcDbLine
10
-25.7057241977450
20
7.36844084003290
30
0.000000000000000
11
-25.6057241977450
21
7.31087991163192
31
0.000000000000000
  0
LINE
  5
F105D8
330
F105D9
100
AcDbEntity
8
Geo
100
AcDbLine
10
-25.6057241977450
20
7.31087991163192
30
0.000000000000000
11
-25.5057241977450
21
7.25338955071458
31
0.000000000000000
  0
LINE
  5
F105DA
330
F105DB
100
AcDbEntity
8
Geo
100
AcDbLine
10
-25.5057241977450
20
7.25338955071458
30
0.000000000000000
11
-25.4057241977450
21
7.19598173423147
31
0.000000000000000
  0
LINE
  5
F105DC
330
F105DD
100
AcDbEntity
8
Geo
100
AcDbLine
10
-25.4057241977450
20
7.19598173423147
30
0.000000000000000
11
-25.3057241977450
21
7.13866842193672
31
0.000000000000000
  0
LINE
  5
F105DE
330
F105DF
100
AcDbEntity
8
Geo
100
AcDbLine
10
-25.3057241977450
20
7.13866842193672
30
0.000000000000000
11
-25.2057241977450
21
7.08146155389643
31
0.000000000000000
  0
LINE
  5
F105E0
330
F105E1
100
AcDbEntity
8
Geo
100
AcDbLine
10
-25.2057241977450
20
7.08146155389643
30
0.000000000000000
11
-25.1057241977450
21
7.02437304800119
31
0.000000000000000
  0
LINE
  5
F105E2
330
F105E3
100
AcDbEntity
8
Geo
100
AcDbLine
10
-25.1057241977450
20
7.02437304800119
30
0.000000000000000
11
-25.0057241977450
21
6.96741479748327
31
0.000000000000000
  0
LINE
  5
F105E4
330
F105E5
100
AcDbEntity
8
Geo
100
AcDbLine
10
-25.0057241977450
20
6.96741479748327
30
0.000000000000000
11
-24.9057241977450
21
6.91059866843882
31
0.000000000000000
  0
LINE
  5
F105E6
330
F105E7
100
AcDbEntity
8
Geo
100
AcDbLine
10
-24.9057241977450
20
6.91059866843882
30
0.000000000000000
11
-24.8057241977450
21
6.85393649735592
31
0.000000000000000
  0
LINE
  5
F105E8
330
F105E9
100
AcDbEntity
8
Geo
100
AcDbLine
10
-24.8057241977450
20
6.85393649735592
30
0.000000000000000
11
-24.7057241977450
21
6.79744008864859
31
0.000000000000000
  0
LINE
  5
F105EA
330
F105EB
100
AcDbEntity
8
Geo
100
AcDbLine
10
-24.7057241977450
20
6.79744008864859
30
0.000000000000000
11
-24.6057241977450
21
6.74112121219764
31
0.000000000000000
  0
LINE
  5
F105EC
330
F105ED
100
AcDbEntity
8
Geo
100
AcDbLine
10
-24.6057241977450
20
6.74112121219764
30
0.000000000000000
11
-24.5057241977450
21
6.68499160089864
31
0.000000000000000
  0
LINE
  5
F105EE
330
F105EF
100
AcDbEntity
8
Geo
100
AcDbLine
10
-24.5057241977450
20
6.68499160089864
30
0.000000000000000
11
-24.4057241977450
21
6.62906294821759
31
0.000000000000000
  0
LINE
  5
F105F0
330
F105F1
100
AcDbEntity
8
Geo
100
AcDbLine
10
-24.4057241977450
20
6.62906294821759
30
0.000000000000000
11
-24.3057241977450
21
6.57334690575484
31
0.000000000000000
  0
LINE
  5
F105F2
330
F105F3
100
AcDbEntity
8
Geo
100
AcDbLine
10
-24.3057241977450
20
6.57334690575484
30
0.000000000000000
11
-24.2057241977450
21
6.51785508081773
31
0.000000000000000
  0
LINE
  5
F105F4
330
F105F5
100
AcDbEntity
8
Geo
100
AcDbLine
10
-24.2057241977450
20
6.51785508081773
30
0.000000000000000
11
-24.1057241977450
21
6.46259903400241
31
0.000000000000000
  0
LINE
  5
F105F6
330
F105F7
100
AcDbEntity
8
Geo
100
AcDbLine
10
-24.1057241977450
20
6.46259903400241
30
0.000000000000000
11
-24.0057241977450
21
6.40759027678544
31
0.000000000000000
  0
LINE
  5
F105F8
330
F105F9
100
AcDbEntity
8
Geo
100
AcDbLine
10
-24.0057241977450
20
6.40759027678544
30
0.000000000000000
11
-23.9057241977450
21
6.35284026912562
31
0.000000000000000
  0
LINE
  5
F105FA
330
F105FB
100
AcDbEntity
8
Geo
100
AcDbLine
10
-23.9057241977450
20
6.35284026912562
30
0.000000000000000
11
-23.8057241977450
21
6.29836041707653
31
0.000000000000000
  0
LINE
  5
F105FC
330
F105FD
100
AcDbEntity
8
Geo
100
AcDbLine
10
-23.8057241977450
20
6.29836041707653
30
0.000000000000000
11
-23.7057241977450
21
6.24416207041028
31
0.000000000000000
  0
LINE
  5
F105FE
330
F105FF
100
AcDbEntity
8
Geo
100
AcDbLine
10
-23.7057241977450
20
6.24416207041028
30
0.000000000000000
11
-23.6057241977450
21
6.19025652025308
31
0.000000000000000
  0
LINE
  5
F10600
330
F10601
100
AcDbEntity
8
Geo
100
AcDbLine
10
-23.6057241977450
20
6.19025652025308
30
0.000000000000000
11
-23.5057241977450
21
6.13665499673291
31
0.000000000000000
  0
LINE
  5
F10602
330
F10603
100
AcDbEntity
8
Geo
100
AcDbLine
10
-23.5057241977450
20
6.13665499673291
30
0.000000000000000
11
-23.4057241977450
21
6.08336866663996
31
0.000000000000000
  0
LINE
  5
F10604
330
F10605
100
AcDbEntity
8
Geo
100
AcDbLine
10
-23.4057241977450
20
6.08336866663996
30
0.000000000000000
11
-23.3057241977450
21
6.03040863110027
31
0.000000000000000
  0
LINE
  5
F10606
330
F10607
100
AcDbEntity
8
Geo
100
AcDbLine
10
-23.3057241977450
20
6.03040863110027
30
0.000000000000000
11
-23.2057241977450
21
5.97778592326303
31
0.000000000000000
  0
LINE
  5
F10608
330
F10609
100
AcDbEntity
8
Geo
100
AcDbLine
10
-23.2057241977450
20
5.97778592326303
30
0.000000000000000
11
-23.1057241977450
21
5.92551150600204
31
0.000000000000000
  0
LINE
  5
F1060A
330
F1060B
100
AcDbEntity
8
Geo
100
AcDbLine
10
-23.1057241977450
20
5.92551150600204
30
0.000000000000000
11
-23.0057241977450
21
5.87359626963183
31
0.000000000000000
  0
LINE
  5
F1060C
330
F1060D
100
AcDbEntity
8
Geo
100
AcDbLine
10
-23.0057241977450
20
5.87359626963183
30
0.000000000000000
11
-22.9057241977450
21
5.82205102963887
31
0.000000000000000
  0
LINE
  5
F1060E
330
F1060F
100
AcDbEntity
8
Geo
100
AcDbLine
10
-22.9057241977450
20
5.82205102963887
30
0.000000000000000
11
-22.8057241977450
21
5.77088652442839
31
0.000000000000000
  0
LINE
  5
F10610
330
F10611
100
AcDbEntity
8
Geo
100
AcDbLine
10
-22.8057241977450
20
5.77088652442839
30
0.000000000000000
11
-22.7057241977450
21
5.72011341308726
31
0.000000000000000
  0
LINE
  5
F10612
330
F10613
100
AcDbEntity
8
Geo
100
AcDbLine
10
-22.7057241977450
20
5.72011341308726
30
0.000000000000000
11
-22.6057241977450
21
5.66974227316337
31
0.000000000000000
  0
LINE
  5
F10614
330
F10615
100
AcDbEntity
8
Geo
100
AcDbLine
10
-22.6057241977450
20
5.66974227316337
30
0.000000000000000
11
-22.5057241977450
21
5.61978359846201
31
0.000000000000000
  0
LINE
  5
F10616
330
F10617
100
AcDbEntity
8
Geo
100
AcDbLine
10
-22.5057241977450
20
5.61978359846201
30
0.000000000000000
11
-22.4057241977450
21
5.57024779685972
31
0.000000000000000
  0
LINE
  5
F10618
330
F10619
100
AcDbEntity
8
Geo
100
AcDbLine
10
-22.4057241977450
20
5.57024779685972
30
0.000000000000000
11
-22.3057241977450
21
5.52114518813601
31
0.000000000000000
  0
LINE
  5
F1061A
330
F1061B
100
AcDbEntity
8
Geo
100
AcDbLine
10
-22.3057241977450
20
5.52114518813601
30
0.000000000000000
11
-22.2057241977450
21
5.47248600182342
31
0.000000000000000
  0
LINE
  5
F1061C
330
F1061D
100
AcDbEntity
8
Geo
100
AcDbLine
10
-22.2057241977450
20
5.47248600182342
30
0.000000000000000
11
-22.1057241977450
21
5.42428037507644
31
0.000000000000000
  0
LINE
  5
F1061E
330
F1061F
100
AcDbEntity
8
Geo
100
AcDbLine
10
-22.1057241977450
20
5.42428037507644
30
0.000000000000000
11
-22.0057241977450
21
5.37653835055963
31
0.000000000000000
  0
LINE
  5
F10620
330
F10621
100
AcDbEntity
8
Geo
100
AcDbLine
10
-22.0057241977450
20
5.37653835055963
30
0.000000000000000
11
-21.9057241977450
21
5.32926987435541
31
0.000000000000000
  0
LINE
  5
F10622
330
F10623
100
AcDbEntity
8
Geo
100
AcDbLine
10
-21.9057241977450
20
5.32926987435541
30
0.000000000000000
11
-21.8057241977450
21
5.28248479389203
31
0.000000000000000
  0
LINE
  5
F10624
330
F10625
100
AcDbEntity
8
Geo
100
AcDbLine
10
-21.8057241977450
20
5.28248479389203
30
0.000000000000000
11
-21.7057241977450
21
5.23619285589205
31
0.000000000000000
  0
LINE
  5
F10626
330
F10627
100
AcDbEntity
8
Geo
100
AcDbLine
10
-21.7057241977450
20
5.23619285589205
30
0.000000000000000
11
-21.6057241977450
21
5.19040370434177
31
0.000000000000000
  0
LINE
  5
F10628
330
F10629
100
AcDbEntity
8
Geo
100
AcDbLine
10
-21.6057241977450
20
5.19040370434177
30
0.000000000000000
11
-21.5057241977450
21
5.14512687848215
31
0.000000000000000
  0
LINE
  5
F1062A
330
F1062B
100
AcDbEntity
8
Geo
100
AcDbLine
10
-21.5057241977450
20
5.14512687848215
30
0.000000000000000
11
-21.4057241977450
21
5.10037181082150
31
0.000000000000000
  0
LINE
  5
F1062C
330
F1062D
100
AcDbEntity
8
Geo
100
AcDbLine
10
-21.4057241977450
20
5.10037181082150
30
0.000000000000000
11
-21.3057241977450
21
5.05614782517036
31
0.000000000000000
  0
LINE
  5
F1062E
330
F1062F
100
AcDbEntity
8
Geo
100
AcDbLine
10
-21.3057241977450
20
5.05614782517036
30
0.000000000000000
11
-21.2057241977450
21
5.01246413469912
31
0.000000000000000
  0
LINE
  5
F10630
330
F10631
100
AcDbEntity
8
Geo
100
AcDbLine
10
-21.2057241977450
20
5.01246413469912
30
0.000000000000000
11
-21.1057241977450
21
4.96932984001865
31
0.000000000000000
  0
LINE
  5
F10632
330
F10633
100
AcDbEntity
8
Geo
100
AcDbLine
10
-21.1057241977450
20
4.96932984001865
30
0.000000000000000
11
-21.0057241977450
21
4.92675392728431
31
0.000000000000000
  0
LINE
  5
F10634
330
F10635
100
AcDbEntity
8
Geo
100
AcDbLine
10
-21.0057241977450
20
4.92675392728431
30
0.000000000000000
11
-20.9057241977450
21
4.88474526632393
31
0.000000000000000
  0
LINE
  5
F10636
330
F10637
100
AcDbEntity
8
Geo
100
AcDbLine
10
-20.9057241977450
20
4.88474526632393
30
0.000000000000000
11
-20.8057241977450
21
4.84331260878995
31
0.000000000000000
  0
LINE
  5
F10638
330
F10639
100
AcDbEntity
8
Geo
100
AcDbLine
10
-20.8057241977450
20
4.84331260878995
30
0.000000000000000
11
-20.7057241977450
21
4.80246458633616
31
0.000000000000000
  0
LINE
  5
F1063A
330
F1063B
100
AcDbEntity
8
Geo
100
AcDbLine
10
-20.7057241977450
20
4.80246458633616
30
0.000000000000000
11
-20.6057241977450
21
4.76220970881949
31
0.000000000000000
  0
LINE
  5
F1063C
330
F1063D
100
AcDbEntity
8
Geo
100
AcDbLine
10
-20.6057241977450
20
4.76220970881949
30
0.000000000000000
11
-20.5057241977450
21
4.72255636252716
31
0.000000000000000
  0
LINE
  5
F1063E
330
F1063F
100
AcDbEntity
8
Geo
100
AcDbLine
10
-20.5057241977450
20
4.72255636252716
30
0.000000000000000
11
-20.4057241977450
21
4.68351280842956
31
0.000000000000000
  0
LINE
  5
F10640
330
F10641
100
AcDbEntity
8
Geo
100
AcDbLine
10
-20.4057241977450
20
4.68351280842956
30
0.000000000000000
11
-20.3057241977451
21
4.64508718045925
31
0.000000000000000
  0
LINE
  5
F10642
330
F10643
100
AcDbEntity
8
Geo
100
AcDbLine
10
-20.3057241977451
20
4.64508718045925
30
0.000000000000000
11
-20.2057241977450
21
4.60728748381641
31
0.000000000000000
  0
LINE
  5
F10644
330
F10645
100
AcDbEntity
8
Geo
100
AcDbLine
10
-20.2057241977450
20
4.60728748381641
30
0.000000000000000
11
-20.1057241977450
21
4.57012159330112
31
0.000000000000000
  0
LINE
  5
F10646
330
F10647
100
AcDbEntity
8
Geo
100
AcDbLine
10
-20.1057241977450
20
4.57012159330112
30
0.000000000000000
11
-20.0057241977450
21
4.53359725167282
31
0.000000000000000
  0
LINE
  5
F10648
330
F10649
100
AcDbEntity
8
Geo
100
AcDbLine
10
-20.0057241977450
20
4.53359725167282
30
0.000000000000000
11
-19.9057241977450
21
4.49772206803723
31
0.000000000000000
  0
LINE
  5
F1064A
330
F1064B
100
AcDbEntity
8
Geo
100
AcDbLine
10
-19.9057241977450
20
4.49772206803723
30
0.000000000000000
11
-19.8057241977450
21
4.46250351626120
31
0.000000000000000
  0
LINE
  5
F1064C
330
F1064D
100
AcDbEntity
8
Geo
100
AcDbLine
10
-19.8057241977450
20
4.46250351626120
30
0.000000000000000
11
-19.7057241977450
21
4.42794893341563
31
0.000000000000000
  0
LINE
  5
F1064E
330
F1064F
100
AcDbEntity
8
Geo
100
AcDbLine
10
-19.7057241977450
20
4.42794893341563
30
0.000000000000000
11
-19.6057241977450
21
4.39406551824697
31
0.000000000000000
  0
LINE
  5
F10650
330
F10651
100
AcDbEntity
8
Geo
100
AcDbLine
10
-19.6057241977450
20
4.39406551824697
30
0.000000000000000
11
-19.5057241977450
21
4.36086032967748
31
0.000000000000000
  0
LINE
  5
F10652
330
F10653
100
AcDbEntity
8
Geo
100
AcDbLine
10
-19.5057241977450
20
4.36086032967748
30
0.000000000000000
11
-19.4057241977450
21
4.32834028533470
31
0.000000000000000
  0
LINE
  5
F10654
330
F10655
100
AcDbEntity
8
Geo
100
AcDbLine
10
-19.4057241977450
20
4.32834028533470
30
0.000000000000000
11
-19.3057241977450
21
4.29651216011024
31
0.000000000000000
  0
LINE
  5
F10656
330
F10657
100
AcDbEntity
8
Geo
100
AcDbLine
10
-19.3057241977450
20
4.29651216011024
30
0.000000000000000
11
-19.2057241977450
21
4.26538258474840
31
0.000000000000000
  0
LINE
  5
F10658
330
F10659
100
AcDbEntity
8
Geo
100
AcDbLine
10
-19.2057241977450
20
4.26538258474840
30
0.000000000000000
11
-19.1057241977450
21
4.23495804446478
31
0.000000000000000
  0
LINE
  5
F1065A
330
F1065B
100
AcDbEntity
8
Geo
100
AcDbLine
10
-19.1057241977450
20
4.23495804446478
30
0.000000000000000
11
-19.0057241977450
21
4.20524487759525
31
0.000000000000000
  0
LINE
  5
F1065C
330
F1065D
100
AcDbEntity
8
Geo
100
AcDbLine
10
-19.0057241977450
20
4.20524487759525
30
0.000000000000000
11
-18.9057241977450
21
4.17624927427543
31
0.000000000000000
  0
LINE
  5
F1065E
330
F1065F
100
AcDbEntity
8
Geo
100
AcDbLine
10
-18.9057241977450
20
4.17624927427543
30
0.000000000000000
11
-18.8057241977450
21
4.14797727515114
31
0.000000000000000
  0
LINE
  5
F10660
330
F10661
100
AcDbEntity
8
Geo
100
AcDbLine
10
-18.8057241977450
20
4.14797727515114
30
0.000000000000000
11
-18.7057241977450
21
4.12043477011994
31
0.000000000000000
  0
LINE
  5
F10662
330
F10663
100
AcDbEntity
8
Geo
100
AcDbLine
10
-18.7057241977450
20
4.12043477011994
30
0.000000000000000
11
-18.6057241977450
21
4.09362749710410
31
0.000000000000000
  0
LINE
  5
F10664
330
F10665
100
AcDbEntity
8
Geo
100
AcDbLine
10
-18.6057241977450
20
4.09362749710410
30
0.000000000000000
11
-18.5057241977450
21
4.06756104085519
31
0.000000000000000
  0
LINE
  5
F10666
330
F10667
100
AcDbEntity
8
Geo
100
AcDbLine
10
-18.5057241977450
20
4.06756104085519
30
0.000000000000000
11
-18.4057241977450
21
4.04224083179066
31
0.000000000000000
  0
LINE
  5
F10668
330
F10669
100
AcDbEntity
8
Geo
100
AcDbLine
10
-18.4057241977450
20
4.04224083179066
30
0.000000000000000
11
-18.3057241977450
21
4.01767214486249
31
0.000000000000000
  0
LINE
  5
F1066A
330
F1066B
100
AcDbEntity
8
Geo
100
AcDbLine
10
-18.3057241977450
20
4.01767214486249
30
0.000000000000000
11
-18.2057241977450
21
3.99386009845825
31
0.000000000000000
  0
LINE
  5
F1066C
330
F1066D
100
AcDbEntity
8
Geo
100
AcDbLine
10
-18.2057241977450
20
3.99386009845825
30
0.000000000000000
11
-18.1057241977450
21
3.97080965333483
31
0.000000000000000
  0
LINE
  5
F1066E
330
F1066F
100
AcDbEntity
8
Geo
100
AcDbLine
10
-18.1057241977450
20
3.97080965333483
30
0.000000000000000
11
-18.0057241977450
21
3.94852561158491
31
0.000000000000000
  0
LINE
  5
F10670
330
F10671
100
AcDbEntity
8
Geo
100
AcDbLine
10
-18.0057241977450
20
3.94852561158491
30
0.000000000000000
11
-17.9057241977450
21
3.92701261563660
31
0.000000000000000
  0
LINE
  5
F10672
330
F10673
100
AcDbEntity
8
Geo
100
AcDbLine
10
-17.9057241977450
20
3.92701261563660
30
0.000000000000000
11
-17.8057241977450
21
3.90627514728625
31
0.000000000000000
  0
LINE
  5
F10674
330
F10675
100
AcDbEntity
8
Geo
100
AcDbLine
10
-17.8057241977450
20
3.90627514728625
30
0.000000000000000
11
-17.7057241977450
21
3.88631752676475
31
0.000000000000000
  0
LINE
  5
F10676
330
F10677
100
AcDbEntity
8
Geo
100
AcDbLine
10
-17.7057241977450
20
3.88631752676475
30
0.000000000000000
11
-17.6057241977450
21
3.86714391183754
31
0.000000000000000
  0
LINE
  5
F10678
330
F10679
100
AcDbEntity
8
Geo
100
AcDbLine
10
-17.6057241977450
20
3.86714391183754
30
0.000000000000000
11
-17.5057241977450
21
3.84875829693836
31
0.000000000000000
  0
LINE
  5
F1067A
330
F1067B
100
AcDbEntity
8
Geo
100
AcDbLine
10
-17.5057241977450
20
3.84875829693836
30
0.000000000000000
11
-17.4057241977450
21
3.83116451233716
31
0.000000000000000
  0
LINE
  5
F1067C
330
F1067D
100
AcDbEntity
8
Geo
100
AcDbLine
10
-17.4057241977450
20
3.83116451233716
30
0.000000000000000
11
-17.3057241977450
21
3.81436622334211
31
0.000000000000000
  0
LINE
  5
F1067E
330
F1067F
100
AcDbEntity
8
Geo
100
AcDbLine
10
-17.3057241977450
20
3.81436622334211
30
0.000000000000000
11
-17.2057241977450
21
3.79836692953597
31
0.000000000000000
  0
LINE
  5
F10680
330
F10681
100
AcDbEntity
8
Geo
100
AcDbLine
10
-17.2057241977450
20
3.79836692953597
30
0.000000000000000
11
-17.1057241977450
21
3.78316996404710
31
0.000000000000000
  0
LINE
  5
F10682
330
F10683
100
AcDbEntity
8
Geo
100
AcDbLine
10
-17.1057241977450
20
3.78316996404710
30
0.000000000000000
11
-17.0057241977450
21
3.76877849285500
31
0.000000000000000
  0
LINE
  5
F10684
330
F10685
100
AcDbEntity
8
Geo
100
AcDbLine
10
-17.0057241977450
20
3.76877849285500
30
0.000000000000000
11
-16.9057241977450
21
3.75519551413079
31
0.000000000000000
  0
LINE
  5
F10686
330
F10687
100
AcDbEntity
8
Geo
100
AcDbLine
10
-16.9057241977450
20
3.75519551413079
30
0.000000000000000
11
-16.8057241977450
21
3.74242385761258
31
0.000000000000000
  0
LINE
  5
F10688
330
F10689
100
AcDbEntity
8
Geo
100
AcDbLine
10
-16.8057241977450
20
3.74242385761258
30
0.000000000000000
11
-16.7057241977450
21
3.73046618401594
31
0.000000000000000
  0
LINE
  5
F1068A
330
F1068B
100
AcDbEntity
8
Geo
100
AcDbLine
10
-16.7057241977450
20
3.73046618401594
30
0.000000000000000
11
-16.6057241977450
21
3.71932498447962
31
0.000000000000000
  0
LINE
  5
F1068C
330
F1068D
100
AcDbEntity
8
Geo
100
AcDbLine
10
-16.6057241977450
20
3.71932498447962
30
0.000000000000000
11
-16.5057241977450
21
3.70900258004657
31
0.000000000000000
  0
LINE
  5
F1068E
330
F1068F
100
AcDbEntity
8
Geo
100
AcDbLine
10
-16.5057241977450
20
3.70900258004657
30
0.000000000000000
11
-16.4057241977450
21
3.69950112118037
31
0.000000000000000
  0
LINE
  5
F10690
330
F10691
100
AcDbEntity
8
Geo
100
AcDbLine
10
-36.3057241977450
20
7.64960971379011
30
0.000000000000000
11
-36.3057241977450
21
7.64960971379011
31
0.000000000000000
  0
LINE
  5
F10692
330
F10693
100
AcDbEntity
8
Geo
100
AcDbLine
10
-36.3057241977450
20
7.64960971379011
30
0.000000000000000
11
-36.3057241977450
21
7.64960971379011
31
0.000000000000000
  0
LINE
  5
F10694
330
F10695
100
AcDbEntity
8
Geo
100
AcDbLine
10
-36.3057241977450
20
7.64960971379011
30
0.000000000000000
11
-36.3057241977450
21
7.64960971379011
31
0.000000000000000
  0
LINE
  5
F10696
330
F10697
100
AcDbEntity
8
Geo
100
AcDbLine
10
-36.3057241977450
20
7.64960971379011
30
0.000000000000000
11
-36.3057241977450
21
7.64960971379011
31
0.000000000000000
  0
LINE
  5
F10698
330
F10699
100
AcDbEntity
8
Geo
100
AcDbLine
10
-36.3057241977450
20
7.64960971379011
30
0.000000000000000
11
-36.3057241977450
21
7.64960971379011
31
0.000000000000000
  0
LINE
  5
F1069A
330
F1069B
100
AcDbEntity
8
Geo
100
AcDbLine
10
-36.3057241977450
20
7.64960971379011
30
0.000000000000000
11
-36.3057241977450
21
7.64960971379011
31
0.000000000000000
  0
LINE
  5
F1069C
330
F1069D
100
AcDbEntity
8
Geo
100
AcDbLine
10
-36.3057241977450
20
7.64960971379011
30
0.000000000000000
11
-36.3057241977450
21
7.64960971379011
31
0.000000000000000
  0
LINE
  5
F1069E
330
F1069F
100
AcDbEntity
8
Geo
100
AcDbLine
10
-36.3057241977450
20
7.64960971379011
30
0.000000000000000
11
-36.3057241977450
21
7.64960971379011
31
0.000000000000000
  0
LINE
  5
F106A0
330
F106A1
100
AcDbEntity
8
Geo
100
AcDbLine
10
-36.3057241977450
20
7.64960971379011
30
0.000000000000000
11
-36.3057241977450
21
7.64960971379011
31
0.000000000000000
  0
LINE
  5
F106A2
330
F106A3
100
AcDbEntity
8
Geo
100
AcDbLine
10
-36.3057241977450
20
7.64960971379011
30
0.000000000000000
11
-36.3057241977450
21
7.64960971379011
31
0.000000000000000
  0
LINE
  5
F106A4
330
F106A5
100
AcDbEntity
8
Geo
100
AcDbLine
10
-36.3057241977450
20
7.64960971379011
30
0.000000000000000
11
-36.3057241977450
21
7.64960971379011
31
0.000000000000000
  0
LINE
  5
F106A6
330
F106A7
100
AcDbEntity
8
Geo
100
AcDbLine
10
-36.3057241977450
20
7.64960971379011
30
0.000000000000000
11
-36.3057241977450
21
7.64960971379011
31
0.000000000000000
  0
LINE
  5
F106A8
330
F106A9
100
AcDbEntity
8
Geo
100
AcDbLine
10
-36.3057241977450
20
7.64960971379011
30
0.000000000000000
11
-36.3057241977450
21
7.64960971379011
31
0.000000000000000
  0
LINE
  5
F106AA
330
F106AB
100
AcDbEntity
8
Geo
100
AcDbLine
10
-36.3057241977450
20
7.64960971379011
30
0.000000000000000
11
-36.3057241977450
21
7.64960971379011
31
0.000000000000000
  0
LINE
  5
F106AC
330
F106AD
100
AcDbEntity
8
Geo
100
AcDbLine
10
-36.3057241977450
20
7.64960971379011
30
0.000000000000000
11
-36.3057241977450
21
7.64960971379011
31
0.000000000000000
  0
LINE
  5
F106AE
330
F106AF
100
AcDbEntity
8
Geo
100
AcDbLine
10
-36.3057241977450
20
7.64960971379011
30
0.000000000000000
11
-36.3057241977450
21
7.64960971379011
31
0.000000000000000
  0
LINE
  5
F106B0
330
F106B1
100
AcDbEntity
8
Geo
100
AcDbLine
10
-36.3057241977450
20
7.64960971379011
30
0.000000000000000
11
-36.3057241977450
21
7.64960971379011
31
0.000000000000000
  0
LINE
  5
F106B2
330
F106B3
100
AcDbEntity
8
Geo
100
AcDbLine
10
-36.3057241977450
20
7.64960971379011
30
0.000000000000000
11
-36.3057241977450
21
7.64960971379011
31
0.000000000000000
  0
LINE
  5
F106B4
330
F106B5
100
AcDbEntity
8
Geo
100
AcDbLine
10
-36.3057241977450
20
7.64960971379011
30
0.000000000000000
11
-36.3057241977450
21
7.64960971379011
31
0.000000000000000
  0
LINE
  5
F106B6
330
F106B7
100
AcDbEntity
8
Geo
100
AcDbLine
10
-36.3057241977450
20
7.64960971379011
30
0.000000000000000
11
-36.3057241977450
21
7.64960971379011
31
0.000000000000000
  0
LINE
  5
F106B8
330
F106B9
100
AcDbEntity
8
Geo
100
AcDbLine
10
-36.3057241977450
20
7.64960971379011
30
0.000000000000000
11
-36.3057241977450
21
7.64960971379011
31
0.000000000000000
  0
LINE
  5
F106BA
330
F106BB
100
AcDbEntity
8
Geo
100
AcDbLine
10
-36.3057241977450
20
7.64960971379011
30
0.000000000000000
11
-36.3057241977450
21
7.64960971379011
31
0.000000000000000
  0
LINE
  5
F106BC
330
F106BD
100
AcDbEntity
8
Geo
100
AcDbLine
10
-36.3057241977450
20
7.64960971379011
30
0.000000000000000
11
-36.3057241977450
21
7.64960971379011
31
0.000000000000000
  0
LINE
  5
F106BE
330
F106BF
100
AcDbEntity
8
Geo
100
AcDbLine
10
-36.3057241977450
20
7.64960971379011
30
0.000000000000000
11
-36.3057241977450
21
7.64960971379011
31
0.000000000000000
  0
LINE
  5
F106C0
330
F106C1
100
AcDbEntity
8
Geo
100
AcDbLine
10
-36.3057241977450
20
7.64960971379011
30
0.000000000000000
11
-36.3057241977450
21
7.64960971379011
31
0.000000000000000
  0
LINE
  5
F106C2
330
F106C3
100
AcDbEntity
8
Geo
100
AcDbLine
10
-36.3057241977450
20
7.64960971379011
30
0.000000000000000
11
-36.3057241977450
21
7.64960971379011
31
0.000000000000000
  0
LINE
  5
F106C4
330
F106C5
100
AcDbEntity
8
Geo
100
AcDbLine
10
-36.3057241977450
20
7.64960971379011
30
0.000000000000000
11
-36.3057241977450
21
7.64960971379011
31
0.000000000000000
  0
LINE
  5
F106C6
330
F106C7
100
AcDbEntity
8
Geo
100
AcDbLine
10
-36.3057241977450
20
7.64960971379011
30
0.000000000000000
11
-36.3057241977450
21
7.64960971379011
31
0.000000000000000
  0
LINE
  5
F106C8
330
F106C9
100
AcDbEntity
8
Geo
100
AcDbLine
10
-36.3057241977450
20
7.64960971379011
30
0.000000000000000
11
-36.3057241977450
21
7.64960971379011
31
0.000000000000000
  0
LINE
  5
F106CA
330
F106CB
100
AcDbEntity
8
Geo
100
AcDbLine
10
-36.3057241977450
20
7.64960971379011
30
0.000000000000000
11
-36.3057241977450
21
7.64960971379011
31
0.000000000000000
  0
LINE
  5
F106CC
330
F106CD
100
AcDbEntity
8
Geo
100
AcDbLine
10
-36.3057241977450
20
7.64960971379011
30
0.000000000000000
11
-36.3057241977450
21
7.64960971379011
31
0.000000000000000
  0
LINE
  5
F106CE
330
F106CF
100
AcDbEntity
8
Geo
100
AcDbLine
10
-36.3057241977450
20
7.64960971379011
30
0.000000000000000
11
-36.3057241977450
21
7.64960971379011
31
0.000000000000000
  0
LINE
  5
F106D0
330
F106D1
100
AcDbEntity
8
Geo
100
AcDbLine
10
-36.3057241977450
20
7.64960971379011
30
0.000000000000000
11
-36.3057241977450
21
7.64960971379011
31
0.000000000000000
  0
LINE
  5
F106D2
330
F106D3
100
AcDbEntity
8
Geo
100
AcDbLine
10
-36.3057241977450
20
7.64960971379011
30
0.000000000000000
11
-36.3057241977450
21
7.64960971379011
31
0.000000000000000
  0
LINE
  5
F106D4
330
F106D5
100
AcDbEntity
8
Geo
100
AcDbLine
10
-36.3057241977450
20
7.64960971379011
30
0.000000000000000
11
-36.3057241977450
21
7.64960971379011
31
0.000000000000000
  0
LINE
  5
F106D6
330
F106D7
100
AcDbEntity
8
Geo
100
AcDbLine
10
-36.3057241977450
20
7.64960971379011
30
0.000000000000000
11
-36.3057241977450
21
7.64960971379011
31
0.000000000000000
  0
LINE
  5
F106D8
330
F106D9
100
AcDbEntity
8
Geo
100
AcDbLine
10
-36.3057241977450
20
7.64960971379011
30
0.000000000000000
11
-36.3057241977450
21
7.64960971379011
31
0.000000000000000
  0
LINE
  5
F106DA
330
F106DB
100
AcDbEntity
8
Geo
100
AcDbLine
10
-36.3057241977450
20
7.64960971379011
30
0.000000000000000
11
-36.3057241977450
21
7.64960971379011
31
0.000000000000000
  0
LINE
  5
F106DC
330
F106DD
100
AcDbEntity
8
Geo
100
AcDbLine
10
-36.3057241977450
20
7.64960971379011
30
0.000000000000000
11
-36.3057241977450
21
7.64960971379011
31
0.000000000000000
  0
LINE
  5
F106DE
330
F106DF
100
AcDbEntity
8
Geo
100
AcDbLine
10
-36.3057241977450
20
7.64960971379011
30
0.000000000000000
11
-36.3057241977450
21
7.64960971379011
31
0.000000000000000
  0
LINE
  5
F106E0
330
F106E1
100
AcDbEntity
8
Geo
100
AcDbLine
10
-36.3057241977450
20
7.64960971379011
30
0.000000000000000
11
-36.3057241977450
21
7.64960971379011
31
0.000000000000000
  0
LINE
  5
F106E2
330
F106E3
100
AcDbEntity
8
Geo
100
AcDbLine
10
-36.3057241977450
20
7.64960971379011
30
0.000000000000000
11
-36.3057241977450
21
7.64960971379011
31
0.000000000000000
  0
LINE
  5
F106E4
330
F106E5
100
AcDbEntity
8
Geo
100
AcDbLine
10
-36.3057241977450
20
7.64960971379011
30
0.000000000000000
11
-36.3057241977450
21
7.64960971379011
31
0.000000000000000
  0
LINE
  5
F106E6
330
F106E7
100
AcDbEntity
8
Geo
100
AcDbLine
10
-36.3057241977450
20
7.64960971379011
30
0.000000000000000
11
-36.3057241977450
21
7.64960971379011
31
0.000000000000000
  0
LINE
  5
F106E8
330
F106E9
100
AcDbEntity
8
Geo
100
AcDbLine
10
-36.3057241977450
20
7.64960971379011
30
0.000000000000000
11
-36.3057241977450
21
7.64960971379011
31
0.000000000000000
  0
LINE
  5
F106EA
330
F106EB
100
AcDbEntity
8
Geo
100
AcDbLine
10
-36.3057241977450
20
7.64960971379011
30
0.000000000000000
11
-36.3057241977450
21
7.64960971379011
31
0.000000000000000
  0
LINE
  5
F106EC
330
F106ED
100
AcDbEntity
8
Geo
100
AcDbLine
10
-36.3057241977450
20
7.64960971379011
30
0.000000000000000
11
-36.3057241977450
21
7.64960971379011
31
0.000000000000000
  0
LINE
  5
F106EE
330
F106EF
100
AcDbEntity
8
Geo
100
AcDbLine
10
-36.3057241977450
20
7.64960971379011
30
0.000000000000000
11
-36.3057241977450
21
7.64960971379011
31
0.000000000000000
  0
LINE
  5
F106F0
330
F106F1
100
AcDbEntity
8
Geo
100
AcDbLine
10
-36.3057241977450
20
7.64960971379011
30
0.000000000000000
11
-36.3057241977450
21
7.64960971379011
31
0.000000000000000
  0
LINE
  5
F106F2
330
F106F3
100
AcDbEntity
8
Geo
100
AcDbLine
10
-36.3057241977450
20
7.64960971379011
30
0.000000000000000
11
-36.3057241977450
21
7.64960971379011
31
0.000000000000000
  0
LINE
  5
F106F4
330
F106F5
100
AcDbEntity
8
Geo
100
AcDbLine
10
-36.3057241977450
20
7.64960971379011
30
0.000000000000000
11
-36.3057241977450
21
7.64960971379011
31
0.000000000000000
  0
LINE
  5
F106F6
330
F106F7
100
AcDbEntity
8
Geo
100
AcDbLine
10
-36.3057241977450
20
7.64960971379011
30
0.000000000000000
11
-36.3057241977450
21
7.64960971379011
31
0.000000000000000
  0
LINE
  5
F106F8
330
F106F9
100
AcDbEntity
8
Geo
100
AcDbLine
10
-36.3057241977450
20
7.64960971379011
30
0.000000000000000
11
-36.3057241977450
21
7.64960971379011
31
0.000000000000000
  0
LINE
  5
F106FA
330
F106FB
100
AcDbEntity
8
Geo
100
AcDbLine
10
-36.3057241977450
20
7.64960971379011
30
0.000000000000000
11
-36.3057241977450
21
7.64960971379011
31
0.000000000000000
  0
LINE
  5
F106FC
330
F106FD
100
AcDbEntity
8
Geo
100
AcDbLine
10
-36.3057241977450
20
7.64960971379011
30
0.000000000000000
11
-36.3057241977450
21
7.64960971379011
31
0.000000000000000
  0
LINE
  5
F106FE
330
F106FF
100
AcDbEntity
8
Geo
100
AcDbLine
10
-36.3057241977450
20
7.64960971379011
30
0.000000000000000
11
-36.3057241977450
21
7.64960971379011
31
0.000000000000000
  0
LINE
  5
F10700
330
F10701
100
AcDbEntity
8
Geo
100
AcDbLine
10
-36.3057241977450
20
7.64960971379011
30
0.000000000000000
11
-36.3057241977450
21
7.64960971379011
31
0.000000000000000
  0
LINE
  5
F10702
330
F10703
100
AcDbEntity
8
Geo
100
AcDbLine
10
-36.3057241977450
20
7.64960971379011
30
0.000000000000000
11
-36.3057241977450
21
7.64960971379011
31
0.000000000000000
  0
LINE
  5
F10704
330
F10705
100
AcDbEntity
8
Geo
100
AcDbLine
10
-36.3057241977450
20
7.64960971379011
30
0.000000000000000
11
-36.3057241977450
21
7.64960971379011
31
0.000000000000000
  0
LINE
  5
F10706
330
F10707
100
AcDbEntity
8
Geo
100
AcDbLine
10
-36.3057241977450
20
7.64960971379011
30
0.000000000000000
11
-36.3057241977450
21
7.64960971379011
31
0.000000000000000
  0
LINE
  5
F10708
330
F10709
100
AcDbEntity
8
Geo
100
AcDbLine
10
-36.3057241977450
20
7.64960971379011
30
0.000000000000000
11
-36.3057241977450
21
7.64960971379011
31
0.000000000000000
  0
LINE
  5
F1070A
330
F1070B
100
AcDbEntity
8
Geo
100
AcDbLine
10
-36.3057241977450
20
7.64960971379011
30
0.000000000000000
11
-36.3057241977450
21
7.64960971379011
31
0.000000000000000
  0
LINE
  5
F1070C
330
F1070D
100
AcDbEntity
8
Geo
100
AcDbLine
10
-36.3057241977450
20
7.64960971379011
30
0.000000000000000
11
-36.3057241977450
21
7.64960971379011
31
0.000000000000000
  0
LINE
  5
F1070E
330
F1070F
100
AcDbEntity
8
Geo
100
AcDbLine
10
-36.3057241977450
20
7.64960971379011
30
0.000000000000000
11
-36.3057241977450
21
7.64960971379011
31
0.000000000000000
  0
LINE
  5
F10710
330
F10711
100
AcDbEntity
8
Geo
100
AcDbLine
10
-36.3057241977450
20
7.64960971379011
30
0.000000000000000
11
-36.3057241977450
21
7.64960971379011
31
0.000000000000000
  0
LINE
  5
F10712
330
F10713
100
AcDbEntity
8
Geo
100
AcDbLine
10
-36.3057241977450
20
7.64960971379011
30
0.000000000000000
11
-36.3057241977450
21
7.64960971379011
31
0.000000000000000
  0
LINE
  5
F10714
330
F10715
100
AcDbEntity
8
Geo
100
AcDbLine
10
-36.3057241977450
20
7.64960971379011
30
0.000000000000000
11
-36.3057241977450
21
7.64960971379011
31
0.000000000000000
  0
LINE
  5
F10716
330
F10717
100
AcDbEntity
8
Geo
100
AcDbLine
10
-36.3057241977450
20
7.64960971379011
30
0.000000000000000
11
-36.3057241977450
21
7.64960971379011
31
0.000000000000000
  0
LINE
  5
F10718
330
F10719
100
AcDbEntity
8
Geo
100
AcDbLine
10
-36.3057241977450
20
7.64960971379011
30
0.000000000000000
11
-36.3057241977450
21
7.64960971379011
31
0.000000000000000
  0
LINE
  5
F1071A
330
F1071B
100
AcDbEntity
8
Geo
100
AcDbLine
10
-36.3057241977450
20
7.64960971379011
30
0.000000000000000
11
-36.3057241977450
21
7.64960971379011
31
0.000000000000000
  0
LINE
  5
F1071C
330
F1071D
100
AcDbEntity
8
Geo
100
AcDbLine
10
-36.3057241977450
20
7.64960971379011
30
0.000000000000000
11
-36.3057241977450
21
7.64960971379011
31
0.000000000000000
  0
LINE
  5
F1071E
330
F1071F
100
AcDbEntity
8
Geo
100
AcDbLine
10
-36.3057241977450
20
7.64960971379011
30
0.000000000000000
11
-36.3057241977450
21
7.64960971379011
31
0.000000000000000
  0
LINE
  5
F10720
330
F10721
100
AcDbEntity
8
Geo
100
AcDbLine
10
-36.3057241977450
20
7.64960971379011
30
0.000000000000000
11
-36.3057241977450
21
7.64960971379011
31
0.000000000000000
  0
LINE
  5
F10722
330
F10723
100
AcDbEntity
8
Geo
100
AcDbLine
10
-36.3057241977450
20
7.64960971379011
30
0.000000000000000
11
-36.3057241977450
21
7.64960971379011
31
0.000000000000000
  0
LINE
  5
F10724
330
F10725
100
AcDbEntity
8
Geo
100
AcDbLine
10
-36.3057241977450
20
7.64960971379011
30
0.000000000000000
11
-36.3057241977450
21
7.64960971379011
31
0.000000000000000
  0
LINE
  5
F10726
330
F10727
100
AcDbEntity
8
Geo
100
AcDbLine
10
-36.3057241977450
20
7.64960971379011
30
0.000000000000000
11
-36.3057241977450
21
7.64960971379011
31
0.000000000000000
  0
LINE
  5
F10728
330
F10729
100
AcDbEntity
8
Geo
100
AcDbLine
10
-36.3057241977450
20
7.64960971379011
30
0.000000000000000
11
-36.3057241977450
21
7.64960971379011
31
0.000000000000000
  0
LINE
  5
F1072A
330
F1072B
100
AcDbEntity
8
Geo
100
AcDbLine
10
-36.3057241977450
20
7.64960971379011
30
0.000000000000000
11
-36.3057241977450
21
7.64960971379011
31
0.000000000000000
  0
LINE
  5
F1072C
330
F1072D
100
AcDbEntity
8
Geo
100
AcDbLine
10
-36.3057241977450
20
7.64960971379011
30
0.000000000000000
11
-36.3057241977450
21
7.64960971379011
31
0.000000000000000
  0
LINE
  5
F1072E
330
F1072F
100
AcDbEntity
8
Geo
100
AcDbLine
10
-36.3057241977450
20
7.64960971379011
30
0.000000000000000
11
-36.3057241977450
21
7.64960971379011
31
0.000000000000000
  0
LINE
  5
F10730
330
F10731
100
AcDbEntity
8
Geo
100
AcDbLine
10
-36.3057241977450
20
7.64960971379011
30
0.000000000000000
11
-36.3057241977450
21
7.64960971379011
31
0.000000000000000
  0
LINE
  5
F10732
330
F10733
100
AcDbEntity
8
Geo
100
AcDbLine
10
-36.3057241977450
20
7.64960971379011
30
0.000000000000000
11
-36.3057241977450
21
7.64960971379011
31
0.000000000000000
  0
LINE
  5
F10734
330
F10735
100
AcDbEntity
8
Geo
100
AcDbLine
10
-36.3057241977450
20
7.64960971379011
30
0.000000000000000
11
-36.3057241977450
21
7.64960971379011
31
0.000000000000000
  0
LINE
  5
F10736
330
F10737
100
AcDbEntity
8
Geo
100
AcDbLine
10
-36.3057241977450
20
7.64960971379011
30
0.000000000000000
11
-36.3057241977450
21
7.64960971379011
31
0.000000000000000
  0
LINE
  5
F10738
330
F10739
100
AcDbEntity
8
Geo
100
AcDbLine
10
-36.3057241977450
20
7.64960971379011
30
0.000000000000000
11
-36.3057241977450
21
7.64960971379011
31
0.000000000000000
  0
LINE
  5
F1073A
330
F1073B
100
AcDbEntity
8
Geo
100
AcDbLine
10
-36.3057241977450
20
7.64960971379011
30
0.000000000000000
11
-36.3057241977450
21
7.64960971379011
31
0.000000000000000
  0
LINE
  5
F1073C
330
F1073D
100
AcDbEntity
8
Geo
100
AcDbLine
10
-36.3057241977450
20
7.64960971379011
30
0.000000000000000
11
-36.3057241977450
21
7.64960971379011
31
0.000000000000000
  0
LINE
  5
F1073E
330
F1073F
100
AcDbEntity
8
Geo
100
AcDbLine
10
-36.3057241977450
20
7.64960971379011
30
0.000000000000000
11
-36.3057241977450
21
7.64960971379011
31
0.000000000000000
  0
LINE
  5
F10740
330
F10741
100
AcDbEntity
8
Geo
100
AcDbLine
10
-36.3057241977450
20
7.64960971379011
30
0.000000000000000
11
-36.3057241977450
21
7.64960971379011
31
0.000000000000000
  0
LINE
  5
F10742
330
F10743
100
AcDbEntity
8
Geo
100
AcDbLine
10
-36.3057241977450
20
7.64960971379011
30
0.000000000000000
11
-36.3057241977450
21
7.64960971379011
31
0.000000000000000
  0
LINE
  5
F10744
330
F10745
100
AcDbEntity
8
Geo
100
AcDbLine
10
-36.3057241977450
20
7.64960971379011
30
0.000000000000000
11
-36.3057241977450
21
7.64960971379011
31
0.000000000000000
  0
LINE
  5
F10746
330
F10747
100
AcDbEntity
8
Geo
100
AcDbLine
10
-36.3057241977450
20
7.64960971379011
30
0.000000000000000
11
-36.3057241977450
21
7.64960971379011
31
0.000000000000000
  0
LINE
  5
F10748
330
F10749
100
AcDbEntity
8
Geo
100
AcDbLine
10
-36.3057241977450
20
7.64960971379011
30
0.000000000000000
11
-36.3057241977450
21
7.64960971379011
31
0.000000000000000
  0
LINE
  5
F1074A
330
F1074B
100
AcDbEntity
8
Geo
100
AcDbLine
10
-36.3057241977450
20
7.64960971379011
30
0.000000000000000
11
-36.3057241977450
21
7.64960971379011
31
0.000000000000000
  0
LINE
  5
F1074C
330
F1074D
100
AcDbEntity
8
Geo
100
AcDbLine
10
-36.3057241977450
20
7.64960971379011
30
0.000000000000000
11
-36.3057241977450
21
7.64960971379011
31
0.000000000000000
  0
LINE
  5
F1074E
330
F1074F
100
AcDbEntity
8
Geo
100
AcDbLine
10
-36.3057241977450
20
7.64960971379011
30
0.000000000000000
11
-36.3057241977450
21
7.64960971379011
31
0.000000000000000
  0
LINE
  5
F10750
330
F10751
100
AcDbEntity
8
Geo
100
AcDbLine
10
-36.3057241977450
20
7.64960971379011
30
0.000000000000000
11
-36.3057241977450
21
7.64960971379011
31
0.000000000000000
  0
LINE
  5
F10752
330
F10753
100
AcDbEntity
8
Geo
100
AcDbLine
10
-36.3057241977450
20
7.64960971379011
30
0.000000000000000
11
-36.3057241977450
21
7.64960971379011
31
0.000000000000000
  0
LINE
  5
F10754
330
F10755
100
AcDbEntity
8
Geo
100
AcDbLine
10
-36.3057241977450
20
7.64960971379011
30
0.000000000000000
11
-36.3057241977450
21
7.64960971379011
31
0.000000000000000
  0
LINE
  5
F10756
330
F10757
100
AcDbEntity
8
Geo
100
AcDbLine
10
-36.3057241977450
20
7.64960971379011
30
0.000000000000000
11
-36.3057241977450
21
7.64960971379011
31
0.000000000000000
  0
LINE
  5
F10758
330
F10759
100
AcDbEntity
8
Geo
100
AcDbLine
10
-36.3057241977450
20
7.64960971379011
30
0.000000000000000
11
-36.3057241977450
21
7.64960971379011
31
0.000000000000000
  0
LINE
  5
F1075A
330
F1075B
100
AcDbEntity
8
Geo
100
AcDbLine
10
-36.3057241977450
20
7.64960971379011
30
0.000000000000000
11
-36.3057241977450
21
7.64960971379011
31
0.000000000000000
  0
LINE
  5
F1075C
330
F1075D
100
AcDbEntity
8
Geo
100
AcDbLine
10
-36.3057241977450
20
7.64960971379011
30
0.000000000000000
11
-36.3057241977450
21
7.64960971379011
31
0.000000000000000
  0
LINE
  5
F1075E
330
F1075F
100
AcDbEntity
8
Geo
100
AcDbLine
10
-36.3057241977450
20
7.64960971379011
30
0.000000000000000
11
-36.3057241977450
21
7.64960971379011
31
0.000000000000000
  0
LINE
  5
F10760
330
F10761
100
AcDbEntity
8
Geo
100
AcDbLine
10
-36.3057241977450
20
7.64960971379011
30
0.000000000000000
11
-36.3057241977450
21
7.64960971379011
31
0.000000000000000
  0
LINE
  5
F10762
330
F10763
100
AcDbEntity
8
Geo
100
AcDbLine
10
-36.3057241977450
20
7.64960971379011
30
0.000000000000000
11
-36.3057241977450
21
7.64960971379011
31
0.000000000000000
  0
LINE
  5
F10764
330
F10765
100
AcDbEntity
8
Geo
100
AcDbLine
10
-36.3057241977450
20
7.64960971379011
30
0.000000000000000
11
-36.3057241977450
21
7.64960971379011
31
0.000000000000000
  0
LINE
  5
F10766
330
F10767
100
AcDbEntity
8
Geo
100
AcDbLine
10
-36.3057241977450
20
7.64960971379011
30
0.000000000000000
11
-36.3057241977450
21
7.64960971379011
31
0.000000000000000
  0
LINE
  5
F10768
330
F10769
100
AcDbEntity
8
Geo
100
AcDbLine
10
-36.3057241977450
20
7.64960971379011
30
0.000000000000000
11
-36.3057241977450
21
7.64960971379011
31
0.000000000000000
  0
LINE
  5
F1076A
330
F1076B
100
AcDbEntity
8
Geo
100
AcDbLine
10
-36.3057241977450
20
7.64960971379011
30
0.000000000000000
11
-36.3057241977450
21
7.64960971379011
31
0.000000000000000
  0
LINE
  5
F1076C
330
F1076D
100
AcDbEntity
8
Geo
100
AcDbLine
10
-36.3057241977450
20
7.64960971379011
30
0.000000000000000
11
-36.3057241977450
21
7.64960971379011
31
0.000000000000000
  0
LINE
  5
F1076E
330
F1076F
100
AcDbEntity
8
Geo
100
AcDbLine
10
-36.3057241977450
20
7.64960971379011
30
0.000000000000000
11
-36.3057241977450
21
7.64960971379011
31
0.000000000000000
  0
LINE
  5
F10770
330
F10771
100
AcDbEntity
8
Geo
100
AcDbLine
10
-36.3057241977450
20
7.64960971379011
30
0.000000000000000
11
-36.3057241977450
21
7.64960971379011
31
0.000000000000000
  0
LINE
  5
F10772
330
F10773
100
AcDbEntity
8
Geo
100
AcDbLine
10
-36.3057241977450
20
7.64960971379011
30
0.000000000000000
11
-36.3057241977450
21
7.64960971379011
31
0.000000000000000
  0
LINE
  5
F10774
330
F10775
100
AcDbEntity
8
Geo
100
AcDbLine
10
-36.3057241977450
20
7.64960971379011
30
0.000000000000000
11
-36.3057241977450
21
7.64960971379011
31
0.000000000000000
  0
LINE
  5
F10776
330
F10777
100
AcDbEntity
8
Geo
100
AcDbLine
10
-36.3057241977450
20
7.64960971379011
30
0.000000000000000
11
-36.3057241977450
21
7.64960971379011
31
0.000000000000000
  0
LINE
  5
F10778
330
F10779
100
AcDbEntity
8
Geo
100
AcDbLine
10
-36.3057241977450
20
7.64960971379011
30
0.000000000000000
11
-36.3057241977450
21
7.64960971379011
31
0.000000000000000
  0
LINE
  5
F1077A
330
F1077B
100
AcDbEntity
8
Geo
100
AcDbLine
10
-36.3057241977450
20
7.64960971379011
30
0.000000000000000
11
-36.3057241977450
21
7.64960971379011
31
0.000000000000000
  0
LINE
  5
F1077C
330
F1077D
100
AcDbEntity
8
Geo
100
AcDbLine
10
-36.3057241977450
20
7.64960971379011
30
0.000000000000000
11
-36.3057241977450
21
7.64960971379011
31
0.000000000000000
  0
LINE
  5
F1077E
330
F1077F
100
AcDbEntity
8
Geo
100
AcDbLine
10
-36.3057241977450
20
7.64960971379011
30
0.000000000000000
11
-36.3057241977450
21
7.64960971379011
31
0.000000000000000
  0
LINE
  5
F10780
330
F10781
100
AcDbEntity
8
Geo
100
AcDbLine
10
-36.3057241977450
20
7.64960971379011
30
0.000000000000000
11
-36.3057241977450
21
7.64960971379011
31
0.000000000000000
  0
LINE
  5
F10782
330
F10783
100
AcDbEntity
8
Geo
100
AcDbLine
10
-36.3057241977450
20
7.64960971379011
30
0.000000000000000
11
-36.3057241977450
21
7.64960971379011
31
0.000000000000000
  0
LINE
  5
F10784
330
F10785
100
AcDbEntity
8
Geo
100
AcDbLine
10
-36.3057241977450
20
7.64960971379011
30
0.000000000000000
11
-36.3057241977450
21
7.64960971379011
31
0.000000000000000
  0
LINE
  5
F10786
330
F10787
100
AcDbEntity
8
Geo
100
AcDbLine
10
-36.3057241977450
20
7.64960971379011
30
0.000000000000000
11
-36.3057241977450
21
7.64960971379011
31
0.000000000000000
  0
LINE
  5
F10788
330
F10789
100
AcDbEntity
8
Geo
100
AcDbLine
10
-36.3057241977450
20
7.64960971379011
30
0.000000000000000
11
-36.3057241977450
21
7.64960971379011
31
0.000000000000000
  0
LINE
  5
F1078A
330
F1078B
100
AcDbEntity
8
Geo
100
AcDbLine
10
-36.3057241977450
20
7.64960971379011
30
0.000000000000000
11
-36.3057241977450
21
7.64960971379011
31
0.000000000000000
  0
LINE
  5
F1078C
330
F1078D
100
AcDbEntity
8
Geo
100
AcDbLine
10
-36.3057241977450
20
7.64960971379011
30
0.000000000000000
11
-36.3057241977450
21
7.64960971379011
31
0.000000000000000
  0
LINE
  5
F1078E
330
F1078F
100
AcDbEntity
8
Geo
100
AcDbLine
10
-36.3057241977450
20
7.64960971379011
30
0.000000000000000
11
-36.3057241977450
21
7.64960971379011
31
0.000000000000000
  0
LINE
  5
F10790
330
F10791
100
AcDbEntity
8
Geo
100
AcDbLine
10
-36.3057241977450
20
7.64960971379011
30
0.000000000000000
11
-36.3057241977450
21
7.64960971379011
31
0.000000000000000
  0
LINE
  5
F10792
330
F10793
100
AcDbEntity
8
Geo
100
AcDbLine
10
-36.3057241977450
20
7.64960971379011
30
0.000000000000000
11
-36.3057241977450
21
7.64960971379011
31
0.000000000000000
  0
LINE
  5
F10794
330
F10795
100
AcDbEntity
8
Geo
100
AcDbLine
10
-36.3057241977450
20
7.64960971379011
30
0.000000000000000
11
-36.3057241977450
21
7.64960971379011
31
0.000000000000000
  0
LINE
  5
F10796
330
F10797
100
AcDbEntity
8
Geo
100
AcDbLine
10
-36.3057241977450
20
7.64960971379011
30
0.000000000000000
11
-36.3057241977450
21
7.64960971379011
31
0.000000000000000
  0
LINE
  5
F10798
330
F10799
100
AcDbEntity
8
Geo
100
AcDbLine
10
-36.3057241977450
20
7.64960971379011
30
0.000000000000000
11
-36.3057241977450
21
7.64960971379011
31
0.000000000000000
  0
LINE
  5
F1079A
330
F1079B
100
AcDbEntity
8
Geo
100
AcDbLine
10
-36.3057241977450
20
7.64960971379011
30
0.000000000000000
11
-36.3057241977450
21
7.64960971379011
31
0.000000000000000
  0
LINE
  5
F1079C
330
F1079D
100
AcDbEntity
8
Geo
100
AcDbLine
10
-36.3057241977450
20
7.64960971379011
30
0.000000000000000
11
-36.3057241977450
21
7.64960971379011
31
0.000000000000000
  0
LINE
  5
F1079E
330
F1079F
100
AcDbEntity
8
Geo
100
AcDbLine
10
-36.3057241977450
20
7.64960971379011
30
0.000000000000000
11
-36.3057241977450
21
7.64960971379011
31
0.000000000000000
  0
LINE
  5
F107A0
330
F107A1
100
AcDbEntity
8
Geo
100
AcDbLine
10
-36.3057241977450
20
7.64960971379011
30
0.000000000000000
11
-36.3057241977450
21
7.64960971379011
31
0.000000000000000
  0
LINE
  5
F107A2
330
F107A3
100
AcDbEntity
8
Geo
100
AcDbLine
10
-36.3057241977450
20
7.64960971379011
30
0.000000000000000
11
-36.3057241977450
21
7.64960971379011
31
0.000000000000000
  0
LINE
  5
F107A4
330
F107A5
100
AcDbEntity
8
Geo
100
AcDbLine
10
-36.3057241977450
20
7.64960971379011
30
0.000000000000000
11
-36.3057241977450
21
7.64960971379011
31
0.000000000000000
  0
LINE
  5
F107A6
330
F107A7
100
AcDbEntity
8
Geo
100
AcDbLine
10
-36.3057241977450
20
7.64960971379011
30
0.000000000000000
11
-36.3057241977450
21
7.64960971379011
31
0.000000000000000
  0
LINE
  5
F107A8
330
F107A9
100
AcDbEntity
8
Geo
100
AcDbLine
10
-36.3057241977450
20
7.64960971379011
30
0.000000000000000
11
-36.3057241977450
21
7.64960971379011
31
0.000000000000000
  0
LINE
  5
F107AA
330
F107AB
100
AcDbEntity
8
Geo
100
AcDbLine
10
-36.3057241977450
20
7.64960971379011
30
0.000000000000000
11
-36.3057241977450
21
7.64960971379011
31
0.000000000000000
  0
LINE
  5
F107AC
330
F107AD
100
AcDbEntity
8
Geo
100
AcDbLine
10
-36.3057241977450
20
7.64960971379011
30
0.000000000000000
11
-36.3057241977450
21
7.64960971379011
31
0.000000000000000
  0
LINE
  5
F107AE
330
F107AF
100
AcDbEntity
8
Geo
100
AcDbLine
10
-36.3057241977450
20
7.64960971379011
30
0.000000000000000
11
-36.3057241977450
21
7.64960971379011
31
0.000000000000000
  0
LINE
  5
F107B0
330
F107B1
100
AcDbEntity
8
Geo
100
AcDbLine
10
-36.3057241977450
20
7.64960971379011
30
0.000000000000000
11
-36.3057241977450
21
7.64960971379011
31
0.000000000000000
  0
LINE
  5
F107B2
330
F107B3
100
AcDbEntity
8
Geo
100
AcDbLine
10
-36.3057241977450
20
7.64960971379011
30
0.000000000000000
11
-36.3057241977450
21
7.64960971379011
31
0.000000000000000
  0
LINE
  5
F107B4
330
F107B5
100
AcDbEntity
8
Geo
100
AcDbLine
10
-36.3057241977450
20
7.64960971379011
30
0.000000000000000
11
-36.3057241977450
21
7.64960971379011
31
0.000000000000000
  0
LINE
  5
F107B6
330
F107B7
100
AcDbEntity
8
Geo
100
AcDbLine
10
-36.3057241977450
20
7.64960971379011
30
0.000000000000000
11
-36.3057241977450
21
7.64960971379011
31
0.000000000000000
  0
LINE
  5
F107B8
330
F107B9
100
AcDbEntity
8
Geo
100
AcDbLine
10
-36.3057241977450
20
7.64960971379011
30
0.000000000000000
11
-36.3057241977450
21
7.64960971379011
31
0.000000000000000
  0
LINE
  5
F107BA
330
F107BB
100
AcDbEntity
8
Geo
100
AcDbLine
10
-36.3057241977450
20
7.64960971379011
30
0.000000000000000
11
-36.3057241977450
21
7.64960971379011
31
0.000000000000000
  0
LINE
  5
F107BC
330
F107BD
100
AcDbEntity
8
Geo
100
AcDbLine
10
-36.3057241977450
20
7.64960971379011
30
0.000000000000000
11
-36.3057241977450
21
7.64960971379011
31
0.000000000000000
  0
LINE
  5
F107BE
330
F107BF
100
AcDbEntity
8
Geo
100
AcDbLine
10
-36.3057241977450
20
7.64960971379011
30
0.000000000000000
11
-36.3057241977450
21
7.64960971379011
31
0.000000000000000
  0
LINE
  5
F107C0
330
F107C1
100
AcDbEntity
8
Geo
100
AcDbLine
10
-36.3057241977450
20
7.64960971379011
30
0.000000000000000
11
-36.3057241977450
21
7.64960971379011
31
0.000000000000000
  0
LINE
  5
F107C2
330
F107C3
100
AcDbEntity
8
Geo
100
AcDbLine
10
-36.3057241977450
20
7.64960971379011
30
0.000000000000000
11
-36.3057241977450
21
7.64960971379011
31
0.000000000000000
  0
LINE
  5
F107C4
330
F107C5
100
AcDbEntity
8
Geo
100
AcDbLine
10
-36.3057241977450
20
7.64960971379011
30
0.000000000000000
11
-36.3057241977450
21
7.64960971379011
31
0.000000000000000
  0
LINE
  5
F107C6
330
F107C7
100
AcDbEntity
8
Geo
100
AcDbLine
10
-36.3057241977450
20
7.64960971379011
30
0.000000000000000
11
-36.3057241977450
21
7.64960971379011
31
0.000000000000000
  0
LINE
  5
F107C8
330
F107C9
100
AcDbEntity
8
Geo
100
AcDbLine
10
-36.3057241977450
20
7.64960971379011
30
0.000000000000000
11
-36.3057241977450
21
7.64960971379011
31
0.000000000000000
  0
LINE
  5
F107CA
330
F107CB
100
AcDbEntity
8
Geo
100
AcDbLine
10
-36.3057241977450
20
7.64960971379011
30
0.000000000000000
11
-36.3057241977450
21
7.64960971379011
31
0.000000000000000
  0
LINE
  5
F107CC
330
F107CD
100
AcDbEntity
8
Geo
100
AcDbLine
10
32.6942758022550
20
11.1496097137901
30
0.000000000000000
11
32.6942758022550
21
7.64960971379011
31
0.000000000000000
  0
LINE
  5
F107CE
330
F107CF
100
AcDbEntity
8
Geo
100
AcDbLine
10
-36.3057241977450
20
7.64960971379011
30
0.000000000000000
11
-32.3057241977450
21
3.64960971379011
31
0.000000000000000
  0
LINE
  5
F107D0
330
F107D1
100
AcDbEntity
8
Geo
100
AcDbLine
10
-32.3057241977450
20
3.64960971379011
30
0.000000000000000
11
-11.3057241977450
21
3.64960971379011
31
0.000000000000000
  0
LINE
  5
F107D2
330
F107D3
100
AcDbEntity
8
Geo
100
AcDbLine
10
-11.3057241977450
20
3.64960971379011
30
0.000000000000000
11
32.1942758022550
21
3.64960971379011
31
0.000000000000000
  0
LINE
  5
F107D4
330
F107D5
100
AcDbEntity
8
Geo
100
AcDbLine
10
32.1942758022550
20
3.64960971379011
30
0.000000000000000
11
32.6942758022550
21
4.14960971379011
31
0.000000000000000
  0
LINE
  5
F107D6
330
F107D7
100
AcDbEntity
8
Geo
100
AcDbLine
10
-32.3057241977450
20
11.6496097137901
30
0.000000000000000
11
-32.3057241977450
21
3.64960971379011
31
0.000000000000000
  0
LINE
  5
F107D8
330
F107D9
100
AcDbEntity
8
Geo
100
AcDbLine
10
-11.3057241977450
20
11.6496097137901
30
0.000000000000000
11
-11.3057241977450
21
3.64960971379011
31
0.000000000000000
  0
LINE
  5
F107DA
330
F107DB
100
AcDbEntity
8
Geo
100
AcDbLine
10
-11.3057241977450
20
11.6496097137901
30
0.000000000000000
11
-11.3057241977450
21
3.64960971379011
31
0.000000000000000
  0
LINE
  5
F107DC
330
F107DD
100
AcDbEntity
8
Geo
100
AcDbLine
10
32.1942758022550
20
11.6496097137901
30
0.000000000000000
11
32.1942758022550
21
3.64960971379011
31
0.000000000000000
  0
LINE
  5
F107DE
330
F107DF
100
AcDbEntity
8
Geo
100
AcDbLine
10
32.6942758022550
20
11.1496097137901
30
0.000000000000000
11
32.6942758022550
21
4.14960971379011
31
0.000000000000000
  0
LINE
  5
F107E0
330
F107E1
100
AcDbEntity
8
Geo
 6
Dashdot
100
AcDbLine
10
-36.3057241977450
20
7.64960971379011
30
0.000000000000000
11
32.6942758022550
21
7.64960971379011
31
0.000000000000000
  0
LWPOLYLINE
  5
F107E2
330
F107E3
100
AcDbEntity
8
Rahmen
100
AcDbPolyline
90
   4
70
   1
43
   0.0
 10
-134.596704249783
 20
99.9002601908066
 10
143.339115351258
 20
99.9002601908066
 10
143.339115351258
 20
-100.082393755421
 10
-134.596704249783
 20
-100.082393755421
  0
TEXT
  5
F107E4
330
F107E5
 100
AcDbEntity
8
Text
100
AcDbText
10
-133.503902862099
20
-99.5823937554206
30
0.000000000000000
40
1.00000000000000
1
ISBESketcher - ©ISBE GmbH      lizensiert für: Schmid Werkzeuge
100
AcDbText
  0
LWPOLYLINE
  5
F107E6
330
F107E7
100
AcDbEntity
8
Rahmen
100
AcDbPolyline
90
   4
70
   1
43
   0.0
 10
103.451864700781
 20
-97.1682567215958
 10
143.339115351258
 20
-97.1682567215958
 10
143.339115351258
 20
-100.082393755421
 10
103.451864700781
 20
-100.082393755421
  0
TEXT
  5
F107E8
330
F107E9
 100
AcDbEntity
8
Text
100
AcDbText
10
104.500000000000
20
-99.4570685169124
30
0.000000000000000
40
1.50000000000000
1
Ers. durch:
100
AcDbText
  0
TEXT
  5
F107EA
330
F107EB
 100
AcDbEntity
8
Text
100
AcDbText
10
0.000000000000000
20
0.500000000000000
30
0.000000000000000
40
1.50000000000000
1

100
AcDbText
  0
LWPOLYLINE
  5
F107EC
330
F107ED
100
AcDbEntity
8
Rahmen
100
AcDbPolyline
90
   4
70
   1
43
   0.0
 10
63.3824804856895
 20
-97.1682567215958
 10
103.451864700781
 20
-97.1682567215958
 10
103.451864700781
 20
-100.082393755421
 10
63.3824804856895
 20
-100.082393755421
  0
TEXT
  5
F107EE
330
F107EF
 100
AcDbEntity
8
Text
100
AcDbText
10
64.5000000000000
20
-99.4570685169124
30
0.000000000000000
40
1.50000000000000
1
Ers. für:
100
AcDbText
  0
TEXT
  5
F107F0
330
F107F1
 100
AcDbEntity
8
Text
100
AcDbText
10
0.000000000000000
20
0.500000000000000
30
0.000000000000000
40
1.50000000000000
1

100
AcDbText
  0
LWPOLYLINE
  5
F107F2
330
F107F3
100
AcDbEntity
8
Rahmen
100
AcDbPolyline
90
   4
70
   1
43
   0.0
 10
130.043365134432
 20
-94.0719861231570
 10
143.339115351258
 20
-94.0719861231570
 10
143.339115351258
 20
-97.1682567215958
 10
130.043365134432
 20
-97.1682567215958
  0
TEXT
  5
F107F4
330
F107F5
 100
AcDbEntity
8
Text
100
AcDbText
10
131.166666666667
20
-96.4570685169124
30
0.000000000000000
40
1.50000000000000
1
Blätter
100
AcDbText
  0
TEXT
  5
F107F6
330
F107F7
 100
AcDbEntity
8
Text
100
AcDbText
10
0.000000000000000
20
0.500000000000000
30
0.000000000000000
40
1.50000000000000
1

100
AcDbText
  0
LWPOLYLINE
  5
F107F8
330
F107F9
100
AcDbEntity
8
Rahmen
100
AcDbPolyline
90
   4
70
   1
43
   0.0
 10
130.043365134432
 20
-91.1578490893322
 10
143.339115351258
 20
-91.1578490893322
 10
143.339115351258
 20
-94.0719861231570
 10
130.043365134432
 20
-94.0719861231570
  0
TEXT
  5
F107FA
330
F107FB
 100
AcDbEntity
8
Text
100
AcDbText
10
131.166666666667
20
-93.4570685169124
30
0.000000000000000
40
1.50000000000000
1
Blatt
100
AcDbText
  0
TEXT
  5
F107FC
330
F107FD
 100
AcDbEntity
8
Text
100
AcDbText
10
0.000000000000000
20
0.500000000000000
30
0.000000000000000
40
1.50000000000000
1

100
AcDbText
  0
LWPOLYLINE
  5
F107FE
330
F107FF
100
AcDbEntity
8
Rahmen
100
AcDbPolyline
90
   4
70
   1
43
   0.0
 10
63.3824804856895
 20
-91.1578490893322
 10
130.043365134432
 20
-91.1578490893322
 10
130.043365134432
 20
-97.1682567215958
 10
63.3824804856895
 20
-97.1682567215958
  0
TEXT
  5
F10800
330
F10801
 100
AcDbEntity
8
Text
100
AcDbText
10
64.5000000000000
20
-93.4570685169124
30
0.000000000000000
40
1.50000000000000
1
Datum:
100
AcDbText
  0
TEXT
  5
F10802
330
F10803
 100
AcDbEntity
8
Text
100
AcDbText
10
90.9139924833767
20
-96.4570685169124
30
0.000000000000000
40
1.50000000000000
1
30.09.2021
100
AcDbText
  0
LWPOLYLINE
  5
F10804
330
F10805
100
AcDbEntity
8
Rahmen
100
AcDbPolyline
90
   4
70
   1
43
   0.0
 10
63.3824804856895
 20
-85.1474414570685
 10
143.339115351258
 20
-85.1474414570685
 10
143.339115351258
 20
-91.1578490893322
 10
63.3824804856895
 20
-91.1578490893322
  0
TEXT
  5
F10806
330
F10807
 100
AcDbEntity
8
Text
100
AcDbText
10
0.000000000000000
20
0.500000000000000
30
0.000000000000000
40
1.50000000000000
1

100
AcDbText
  0
TEXT
  5
F10808
330
F10809
 100
AcDbEntity
8
Text
100
AcDbText
10
76.0888985255854
20
-89.6254697889564
30
0.000000000000000
40
2.50000000000000
1
VHM-NC-Anbohrer 0411-8-b
100
AcDbText
  0
LWPOLYLINE
  5
F1080A
330
F1080B
100
AcDbEntity
8
Rahmen
100
AcDbPolyline
90
   4
70
   1
43
   0.0
 10
103.451864700781
 20
-79.1370338248049
 10
143.339115351258
 20
-79.1370338248049
 10
143.339115351258
 20
-85.1474414570685
 10
103.451864700781
 20
-85.1474414570685
  0
TEXT
  5
F1080C
330
F1080D
 100
AcDbEntity
8
Text
100
AcDbText
10
104.500000000000
20
-81.4570685169124
30
0.000000000000000
40
1.50000000000000
1
Zu bearb. Material:
100
AcDbText
  0
TEXT
  5
F1080E
330
F1080F
 100
AcDbEntity
8
Text
100
AcDbText
10
0.000000000000000
20
0.500000000000000
30
0.000000000000000
40
1.50000000000000
1

100
AcDbText
  0
LWPOLYLINE
  5
F10810
330
F10811
100
AcDbEntity
8
Rahmen
100
AcDbPolyline
90
   4
70
   1
43
   0.0
 10
63.3824804856895
 20
-79.1370338248049
 10
103.451864700781
 20
-79.1370338248049
 10
103.451864700781
 20
-85.1474414570685
 10
63.3824804856895
 20
-85.1474414570685
  0
TEXT
  5
F10812
330
F10813
 100
AcDbEntity
8
Text
100
AcDbText
10
64.5000000000000
20
-81.4570685169124
30
0.000000000000000
40
1.50000000000000
1
Werkstoff:
100
AcDbText
  0
TEXT
  5
F10814
330
F10815
 100
AcDbEntity
8
Text
100
AcDbText
10
80.7679965307892
20
-84.4570685169124
30
0.000000000000000
40
1.50000000000000
1
VHM
100
AcDbText
  0
LWPOLYLINE
  5
F10816
330
F10817
100
AcDbEntity
8
Rahmen
100
AcDbPolyline
90
   4
70
   1
43
   0.0
 10
103.451864700781
 20
-76.0407632263660
 10
143.339115351258
 20
-76.0407632263660
 10
143.339115351258
 20
-79.1370338248049
 10
103.451864700781
 20
-79.1370338248049
  0
TEXT
  5
F10818
330
F10819
 100
AcDbEntity
8
Text
100
AcDbText
10
0.000000000000000
20
0.500000000000000
30
0.000000000000000
40
1.50000000000000
1

100
AcDbText
  0
TEXT
  5
F1081A
330
F1081B
 100
AcDbEntity
8
Text
100
AcDbText
10
0.000000000000000
20
0.500000000000000
30
0.000000000000000
40
1.50000000000000
1

100
AcDbText
  0
LWPOLYLINE
  5
F1081C
330
F1081D
100
AcDbEntity
8
Rahmen
100
AcDbPolyline
90
   4
70
   1
43
   0.0
 10
63.3824804856895
 20
-76.0407632263660
 10
103.451864700781
 20
-76.0407632263660
 10
103.451864700781
 20
-79.1370338248049
 10
63.3824804856895
 20
-79.1370338248049
  0
TEXT
  5
F1081E
330
F1081F
 100
AcDbEntity
8
Text
100
AcDbText
10
64.5000000000000
20
-78.4570685169124
30
0.000000000000000
40
1.50000000000000
1
Maßstab:
100
AcDbText
  0
TEXT
  5
F10820
330
F10821
 100
AcDbEntity
8
Text
100
AcDbText
10
89.0411968777103
20
-78.4570685169124
30
0.000000000000000
40
1.50000000000000
1
1 : 1
100
AcDbText
0
VIEWPORT
5
294
102
{ACAD_XDICTIONARY
360
58A
102
}
330
25D
100
AcDbEntity
67
1
8
0
60
1
100
AcDbViewport
10
0.0
20
0.0
30
0.0
40
10.0
41
10.0
68
-1
69
1
12
0.0
22
0.0
13
0.0
23
0.0
14
1.0
24
1.0
15
0.0
25
0.0
16
0.0
26
0.0
36
1.0
17
0.0
27
0.0
37
0.0
42
0.0
43
0.0
44
0.0
45
10.0
50
0.0
51
0.0000000000007958
72
100
90
32800
1

281
0
71
0
74
0
110
0.0
120
0.0
130
0.0
111
1.0
121
0.0
131
0.0
112
0.0
122
1.0
132
0.0
79
0
146
0.0
1001
VD_INVISIBLE_NOT_FOR_READ
1000
VD_INVISIBLE_NOT_FOR_READ
0
VIEWPORT
5
295
102
{ACAD_XDICTIONARY
360
58C
102
}
330
25D
100
AcDbEntity
67
1
8
0
60
1
100
AcDbViewport
10
0.0
20
0.0
30
0.0
40
10.0
41
10.0
68
0
69
2
12
0.0
22
0.0
13
0.0
23
0.0
14
1.0
24
1.0
15
0.0
25
0.0
16
0.0
26
0.0
36
1.0
17
0.0
27
0.0
37
0.0
42
0.0
43
0.0
44
0.0
45
10.0
50
0.0
51
0.0000000000007958
72
100
90
163872
1

281
0
71
0
74
0
110
0.0
120
0.0
130
0.0
111
1.0
121
0.0
131
0.0
112
0.0
122
1.0
132
0.0
79
0
146
0.0
1001
VD_INVISIBLE_NOT_FOR_READ
1000
VD_INVISIBLE_NOT_FOR_READ
0
ENDSEC
0
SECTION
2
OBJECTS
0
DICTIONARY
5
13
330
0
100
AcDbDictionary
281
1
3
ACAD_COLOR
350
FA7
3
ACAD_GROUP
350
14
3
ACAD_LAYOUT
350
FCF
3
ACAD_MATERIAL
350
F7A
3
ACAD_MLEADERSTYLE
350
FCD
3
ACAD_MLINESTYLE
350
16
3
ACAD_PLOTSETTINGS
350
17
3
ACAD_PLOTSTYLENAME
350
18
3
ACAD_SCALELIST
350
FAB
3
ACAD_TABLESTYLE
350
FA8
3
ACAD_VISUALSTYLE
350
F93
3
ACDB_RECOMPOSE_DATA
350
107E
3
AcDbVariableDictionary
350
FF0
3
DWGPROPS
350
107F
0
DICTIONARY
5
F1000F
330
F1000E
100
AcDbDictionary
280
1
281
1
3
ACAD_MTEXT_2008_RT
360
F10010
0
DICTIONARY
5
F10014
330
F10013
100
AcDbDictionary
280
1
281
1
3
ACAD_MTEXT_2008_RT
360
F10015
0
DICTIONARY
5
F10005
330
F10004
100
AcDbDictionary
280
1
281
1
3
ACAD_MTEXT_2008_RT
360
F10006
0
DICTIONARY
5
F1000A
330
F10009
100
AcDbDictionary
280
1
281
1
3
ACAD_MTEXT_2008_RT
360
F1000B
0
DICTIONARY
5
FA7
102
{ACAD_REACTORS
330
13
102
}
330
13
100
AcDbDictionary
281
1
0
DICTIONARY
5
14
330
13
100
AcDbDictionary
281
1
0
DICTIONARY
5
FCF
102
{ACAD_REACTORS
330
13
102
}
330
13
100
AcDbDictionary
281
1
3
Layout1
350
FD1
3
Model
350
FD0
0
DICTIONARY
5
F7A
102
{ACAD_REACTORS
330
13
102
}
330
13
100
AcDbDictionary
281
1
3
ByBlock
350
F83
3
ByLayer
350
F7B
3
Global
350
F8B
0
DICTIONARY
5
FCD
102
{ACAD_REACTORS
330
13
102
}
330
13
100
AcDbDictionary
281
1
3
Standard
350
FCE
0
DICTIONARY
5
16
330
13
100
AcDbDictionary
281
1
3
Standard
350
FAA
0
DICTIONARY
5
17
102
{ACAD_REACTORS
330
13
102
}
330
13
100
AcDbDictionary
281
1
0
ACDBDICTIONARYWDFLT
5
18
102
{ACAD_REACTORS
330
13
102
}
330
13
100
AcDbDictionary
281
1
3
Normal
350
19
100
AcDbDictionaryWithDefault
340
19
0
DICTIONARY
5
FAB
102
{ACAD_REACTORS
330
13
102
}
330
13
100
AcDbDictionary
281
1
3
A0
350
FAC
3
A1
350
FAD
3
A2
350
FAE
3
A3
350
FAF
3
A4
350
FB0
3
A5
350
FB1
3
A6
350
FB2
3
A7
350
FB3
3
A8
350
FB4
3
A9
350
FB5
3
B0
350
FB6
3
B1
350
FB7
3
B2
350
FB8
3
B3
350
FB9
3
B4
350
FBA
3
B5
350
FBB
3
B6
350
FBC
3
B7
350
FBD
3
B8
350
FBE
3
B9
350
FBF
3
C0
350
FC0
3
C1
350
FC1
3
C2
350
FC2
3
C3
350
FC3
3
C4
350
FC4
3
C5
350
FC5
3
C6
350
FC6
3
C7
350
FC7
3
C8
350
FC8
3
C9
350
FC9
3
D0
350
FCA
3
D1
350
FCB
3
D2
350
FCC
0
DICTIONARY
5
FA8
102
{ACAD_REACTORS
330
13
102
}
330
13
100
AcDbDictionary
281
1
3
Standard
350
FA9
0
DICTIONARY
5
F93
102
{ACAD_REACTORS
330
13
102
}
330
13
100
AcDbDictionary
281
1
3
2dWireframe
350
F99
3
3D Hidden
350
F9B
3
3dWireframe
350
F9A
3
Basic
350
F98
3
Brighten
350
F9F
3
ColorChange
350
FA3
3
Conceptual
350
F9C
3
Dim
350
F9E
3
EdgeColorOff
350
FA6
3
Facepattern
350
FA2
3
Flat
350
F94
3
FlatWithEdges
350
F95
3
Gouraud
350
F96
3
GouraudWithEdges
350
F97
3
JitterOff
350
FA4
3
Linepattern
350
FA1
3
OverhangOff
350
FA5
3
Realistic
350
F9D
3
Thicken
350
FA0
0
XRECORD
5
107E
102
{ACAD_REACTORS
330
13
102
}
330
13
100
AcDbXrecord
280
1
90
1
330
FA9
330
F1000E
330
F10013
330
F10004
330
F10009
0
DICTIONARY
5
FF0
102
{ACAD_REACTORS
330
13
102
}
330
13
100
AcDbDictionary
281
1
3
CANNOSCALE
350
FF3
3
CMLEADERSTYLE
350
FF2
3
CTABLESTYLE
350
FF1
3
DIMASSOC
350
FF6
3
INDEXCTL
350
FF5
3
SORTENTS
350
FF4
3
XCLIPFRAME
350
1078
0
XRECORD
5
107F
102
{ACAD_REACTORS
330
13
102
}
330
13
100
AcDbXrecord
280
1
1
DWGPROPS COOKIE
2

3

4

6

7

8

9

300
=
301
=
302
=
303
=
304
=
305
=
306
=
307
=
308
=
309
=
40
0.0
41
0.0
42
0.0
1

90
0
0
XRECORD
5
F10010
102
{ACAD_REACTORS
330
F1000F
102
}
330
F1000F
100
AcDbXrecord
280
1
40
48458.0
1
25
0
XRECORD
5
F10015
102
{ACAD_REACTORS
330
F10014
102
}
330
F10014
100
AcDbXrecord
280
1
40
48458.0
1
69
0
XRECORD
5
F10006
102
{ACAD_REACTORS
330
F10005
102
}
330
F10005
100
AcDbXrecord
280
1
40
48458.0
1
Ø8
0
LAYOUT
5
FD1
102
{ACAD_XDICTIONARY
360
10A9
102
}
102
{ACAD_REACTORS
330
FCF
102
}
330
FCF
100
AcDbPlotSettings
1

2
Microsoft XPS Document Writer
4

6

40
0.0
41
0.0
42
0.0
43
0.0
44
0.0
45
0.0
46
0.0
47
0.0
48
0.0
49
0.0
140
0.0
141
0.0
142
1.0
143
1.0
70
688
72
0
73
0
74
5
7

75
16
147
1.0
148
0.0
149
0.0
100
AcDbLayout
1
Layout1
70
1
71
1
10
0.0
20
0.0
11
12.0
21
9.0
12
0.0
22
0.0
32
0.0
14
1.000000000000000E+20
24
1.000000000000000E+20
34
1.000000000000000E+20
15
-1.000000000000000E+20
25
-1.000000000000000E+20
35
-1.000000000000000E+20
146
0.0
13
0.0
23
0.0
33
0.0
16
1.0
26
0.0
36
0.0
17
0.0
27
1.0
37
0.0
76
0
330
25D
0
LAYOUT
5
FD0
102
{ACAD_XDICTIONARY
360
10A7
102
}
102
{ACAD_REACTORS
330
FCF
102
}
330
FCF
100
AcDbPlotSettings
1

2
Microsoft XPS Document Writer
4

6

40
0.0
41
0.0
42
0.0
43
0.0
44
0.0
45
0.0
46
0.0
47
0.0
48
0.0
49
0.0
140
0.0
141
0.0
142
1.0
143
1.0
70
1712
72
0
73
0
74
0
7

75
0
147
1.0
148
0.0
149
0.0
100
AcDbLayout
1
Model
70
1
71
0
10
0.0
20
0.0
11
12.0
21
9.0
12
0.0
22
0.0
32
0.0
14
0.0
24
0.0
34
0.0
15
0.0
25
0.0
35
0.0
146
0.0
13
0.0
23
0.0
33
0.0
16
1.0
26
0.0
36
0.0
17
0.0
27
1.0
37
0.0
76
0
330
261
331
26B
0
MATERIAL
5
F83
102
{ACAD_XDICTIONARY
360
F84
102
}
102
{ACAD_REACTORS
330
F7A
102
}
330
F7A
100
AcDbMaterial
1
ByBlock
72
0
43
0.0208333333333333
43
0.0
43
0.0
43
0.0
43
0.0
43
0.0208333333333333
43
0.0
43
0.0
43
0.0
43
0.0
43
1.0
43
0.0
43
0.0
43
0.0
43
0.0
43
1.0
77
0
47
0.0208333333333333
47
0.0
47
0.0
47
0.0
47
0.0
47
0.0208333333333333
47
0.0
47
0.0
47
0.0
47
0.0
47
1.0
47
0.0
47
0.0
47
0.0
47
0.0
47
1.0
171
0
49
0.0208333333333333
49
0.0
49
0.0
49
0.0
49
0.0
49
0.0208333333333333
49
0.0
49
0.0
49
0.0
49
0.0
49
1.0
49
0.0
49
0.0
49
0.0
49
0.0
49
1.0
175
0
142
0.0208333333333333
142
0.0
142
0.0
142
0.0
142
0.0
142
0.0208333333333333
142
0.0
142
0.0
142
0.0
142
0.0
142
1.0
142
0.0
142
0.0
142
0.0
142
0.0
142
1.0
179
0
144
0.0208333333333333
144
0.0
144
0.0
144
0.0
144
0.0
144
0.0208333333333333
144
0.0
144
0.0
144
0.0
144
0.0
144
1.0
144
0.0
144
0.0
144
0.0
144
0.0
144
1.0
147
0.0208333333333333
147
0.0
147
0.0
147
0.0
147
0.0
147
0.0208333333333333
147
0.0
147
0.0
147
0.0
147
0.0
147
1.0
147
0.0
147
0.0
147
0.0
147
0.0
147
1.0
0
MATERIAL
5
F7B
102
{ACAD_XDICTIONARY
360
F7C
102
}
102
{ACAD_REACTORS
330
F7A
102
}
330
F7A
100
AcDbMaterial
1
ByLayer
72
0
43
0.0208333333333333
43
0.0
43
0.0
43
0.0
43
0.0
43
0.0208333333333333
43
0.0
43
0.0
43
0.0
43
0.0
43
1.0
43
0.0
43
0.0
43
0.0
43
0.0
43
1.0
77
0
47
0.0208333333333333
47
0.0
47
0.0
47
0.0
47
0.0
47
0.0208333333333333
47
0.0
47
0.0
47
0.0
47
0.0
47
1.0
47
0.0
47
0.0
47
0.0
47
0.0
47
1.0
171
0
49
0.0208333333333333
49
0.0
49
0.0
49
0.0
49
0.0
49
0.0208333333333333
49
0.0
49
0.0
49
0.0
49
0.0
49
1.0
49
0.0
49
0.0
49
0.0
49
0.0
49
1.0
175
0
142
0.0208333333333333
142
0.0
142
0.0
142
0.0
142
0.0
142
0.0208333333333333
142
0.0
142
0.0
142
0.0
142
0.0
142
1.0
142
0.0
142
0.0
142
0.0
142
0.0
142
1.0
179
0
144
0.0208333333333333
144
0.0
144
0.0
144
0.0
144
0.0
144
0.0208333333333333
144
0.0
144
0.0
144
0.0
144
0.0
144
1.0
144
0.0
144
0.0
144
0.0
144
0.0
144
1.0
147
0.0208333333333333
147
0.0
147
0.0
147
0.0
147
0.0
147
0.0208333333333333
147
0.0
147
0.0
147
0.0
147
0.0
147
1.0
147
0.0
147
0.0
147
0.0
147
0.0
147
1.0
0
MATERIAL
5
F8B
102
{ACAD_XDICTIONARY
360
F8C
102
}
102
{ACAD_REACTORS
330
F7A
102
}
330
F7A
100
AcDbMaterial
1
Global
72
0
43
0.0208333333333333
43
0.0
43
0.0
43
0.0
43
0.0
43
0.0208333333333333
43
0.0
43
0.0
43
0.0
43
0.0
43
1.0
43
0.0
43
0.0
43
0.0
43
0.0
43
1.0
77
0
47
0.0208333333333333
47
0.0
47
0.0
47
0.0
47
0.0
47
0.0208333333333333
47
0.0
47
0.0
47
0.0
47
0.0
47
1.0
47
0.0
47
0.0
47
0.0
47
0.0
47
1.0
171
0
49
0.0208333333333333
49
0.0
49
0.0
49
0.0
49
0.0
49
0.0208333333333333
49
0.0
49
0.0
49
0.0
49
0.0
49
1.0
49
0.0
49
0.0
49
0.0
49
0.0
49
1.0
175
0
142
0.0208333333333333
142
0.0
142
0.0
142
0.0
142
0.0
142
0.0208333333333333
142
0.0
142
0.0
142
0.0
142
0.0
142
1.0
142
0.0
142
0.0
142
0.0
142
0.0
142
1.0
179
0
144
0.0208333333333333
144
0.0
144
0.0
144
0.0
144
0.0
144
0.0208333333333333
144
0.0
144
0.0
144
0.0
144
0.0
144
1.0
144
0.0
144
0.0
144
0.0
144
0.0
144
1.0
147
0.0208333333333333
147
0.0
147
0.0
147
0.0
147
0.0
147
0.0208333333333333
147
0.0
147
0.0
147
0.0
147
0.0
147
1.0
147
0.0
147
0.0
147
0.0
147
0.0
147
1.0
0
MLEADERSTYLE
5
FCE
102
{ACAD_REACTORS
330
FCD
102
}
330
FCD
100
AcDbMLeaderStyle
170
2
171
1
172
0
90
2
40
0.0
41
0.0
173
1
91
-1056964608
340
256
92
-2
290
1
42
0.09
291
1
43
0.36
3
Standard
44
0.18
300

342
253
174
1
178
6
175
1
176
0
93
-1056964608
45
0.18
292
0
297
0
46
0.18
94
-1056964608
47
1.0
49
1.0
140
1.0
293
1
141
0.0
294
1
177
0
142
1.0
295
0
296
0
143
0.125
1001
ACAD_MLEADERVER
1070
2
0
MLINESTYLE
5
FAA
102
{ACAD_REACTORS
330
16
102
}
330
16
100
AcDbMlineStyle
2
STANDARD
70
0
3

62
256
51
90.0
52
90.0
71
2
49
0.5
62
256
6
BYLAYER
49
-0.5
62
256
6
BYLAYER
0
ACDBPLACEHOLDER
5
19
102
{ACAD_REACTORS
330
18
102
}
330
18
0
SCALE
5
FAC
102
{ACAD_REACTORS
330
FAB
102
}
330
FAB
100
AcDbScale
70
0
300
1:1
140
1.0
141
1.0
290
1
0
SCALE
5
FAD
102
{ACAD_REACTORS
330
FAB
102
}
330
FAB
100
AcDbScale
70
0
300
1:2
140
1.0
141
2.0
290
0
0
SCALE
5
FAE
102
{ACAD_REACTORS
330
FAB
102
}
330
FAB
100
AcDbScale
70
0
300
1:4
140
1.0
141
4.0
290
0
0
SCALE
5
FAF
102
{ACAD_REACTORS
330
FAB
102
}
330
FAB
100
AcDbScale
70
0
300
1:5
140
1.0
141
5.0
290
0
0
SCALE
5
FB0
102
{ACAD_REACTORS
330
FAB
102
}
330
FAB
100
AcDbScale
70
0
300
1:8
140
1.0
141
8.0
290
0
0
SCALE
5
FB1
102
{ACAD_REACTORS
330
FAB
102
}
330
FAB
100
AcDbScale
70
0
300
1:10
140
1.0
141
10.0
290
0
0
SCALE
5
FB2
102
{ACAD_REACTORS
330
FAB
102
}
330
FAB
100
AcDbScale
70
0
300
1:16
140
1.0
141
16.0
290
0
0
SCALE
5
FB3
102
{ACAD_REACTORS
330
FAB
102
}
330
FAB
100
AcDbScale
70
0
300
1:20
140
1.0
141
20.0
290
0
0
SCALE
5
FB4
102
{ACAD_REACTORS
330
FAB
102
}
330
FAB
100
AcDbScale
70
0
300
1:30
140
1.0
141
30.0
290
0
0
SCALE
5
FB5
102
{ACAD_REACTORS
330
FAB
102
}
330
FAB
100
AcDbScale
70
0
300
1:40
140
1.0
141
40.0
290
0
0
SCALE
5
FB6
102
{ACAD_REACTORS
330
FAB
102
}
330
FAB
100
AcDbScale
70
0
300
1:50
140
1.0
141
50.0
290
0
0
SCALE
5
FB7
102
{ACAD_REACTORS
330
FAB
102
}
330
FAB
100
AcDbScale
70
0
300
1:100
140
1.0
141
100.0
290
0
0
SCALE
5
FB8
102
{ACAD_REACTORS
330
FAB
102
}
330
FAB
100
AcDbScale
70
0
300
2:1
140
2.0
141
1.0
290
0
0
SCALE
5
FB9
102
{ACAD_REACTORS
330
FAB
102
}
330
FAB
100
AcDbScale
70
0
300
4:1
140
4.0
141
1.0
290
0
0
SCALE
5
FBA
102
{ACAD_REACTORS
330
FAB
102
}
330
FAB
100
AcDbScale
70
0
300
8:1
140
8.0
141
1.0
290
0
0
SCALE
5
FBB
102
{ACAD_REACTORS
330
FAB
102
}
330
FAB
100
AcDbScale
70
0
300
10:1
140
10.0
141
1.0
290
0
0
SCALE
5
FBC
102
{ACAD_REACTORS
330
FAB
102
}
330
FAB
100
AcDbScale
70
0
300
100:1
140
100.0
141
1.0
290
0
0
SCALE
5
FBD
102
{ACAD_REACTORS
330
FAB
102
}
330
FAB
100
AcDbScale
70
0
300
1/128" = 1'-0"
140
0.0078125
141
12.0
290
0
0
SCALE
5
FBE
102
{ACAD_REACTORS
330
FAB
102
}
330
FAB
100
AcDbScale
70
0
300
1/64" = 1'-0"
140
0.015625
141
12.0
290
0
0
SCALE
5
FBF
102
{ACAD_REACTORS
330
FAB
102
}
330
FAB
100
AcDbScale
70
0
300
1/32" = 1'-0"
140
0.03125
141
12.0
290
0
0
SCALE
5
FC0
102
{ACAD_REACTORS
330
FAB
102
}
330
FAB
100
AcDbScale
70
0
300
1/16" = 1'-0"
140
0.0625
141
12.0
290
0
0
SCALE
5
FC1
102
{ACAD_REACTORS
330
FAB
102
}
330
FAB
100
AcDbScale
70
0
300
3/32" = 1'-0"
140
0.09375
141
12.0
290
0
0
SCALE
5
FC2
102
{ACAD_REACTORS
330
FAB
102
}
330
FAB
100
AcDbScale
70
0
300
1/8" = 1'-0"
140
0.125
141
12.0
290
0
0
SCALE
5
FC3
102
{ACAD_REACTORS
330
FAB
102
}
330
FAB
100
AcDbScale
70
0
300
3/16" = 1'-0"
140
0.1875
141
12.0
290
0
0
SCALE
5
FC4
102
{ACAD_REACTORS
330
FAB
102
}
330
FAB
100
AcDbScale
70
0
300
1/4" = 1'-0"
140
0.25
141
12.0
290
0
0
SCALE
5
FC5
102
{ACAD_REACTORS
330
FAB
102
}
330
FAB
100
AcDbScale
70
0
300
3/8" = 1'-0"
140
0.375
141
12.0
290
0
0
SCALE
5
FC6
102
{ACAD_REACTORS
330
FAB
102
}
330
FAB
100
AcDbScale
70
0
300
1/2" = 1'-0"
140
0.5
141
12.0
290
0
0
SCALE
5
FC7
102
{ACAD_REACTORS
330
FAB
102
}
330
FAB
100
AcDbScale
70
0
300
3/4" = 1'-0"
140
0.75
141
12.0
290
0
0
SCALE
5
FC8
102
{ACAD_REACTORS
330
FAB
102
}
330
FAB
100
AcDbScale
70
0
300
1" = 1'-0"
140
1.0
141
12.0
290
0
0
SCALE
5
FC9
102
{ACAD_REACTORS
330
FAB
102
}
330
FAB
100
AcDbScale
70
0
300
1-1/2" = 1'-0"
140
1.5
141
12.0
290
0
0
SCALE
5
FCA
102
{ACAD_REACTORS
330
FAB
102
}
330
FAB
100
AcDbScale
70
0
300
3" = 1'-0"
140
3.0
141
12.0
290
0
0
SCALE
5
FCB
102
{ACAD_REACTORS
330
FAB
102
}
330
FAB
100
AcDbScale
70
0
300
6" = 1'-0"
140
6.0
141
12.0
290
0
0
SCALE
5
FCC
102
{ACAD_REACTORS
330
FAB
102
}
330
FAB
100
AcDbScale
70
0
300
1'-0" = 1'-0"
140
12.0
141
12.0
290
0
0
TABLESTYLE
5
FA9
102
{ACAD_XDICTIONARY
360
FF8
102
}
102
{ACAD_REACTORS
330
FA8
102
}
330
FA8
100
AcDbTableStyle
3
Standard
70
0
71
0
40
0.06
41
0.06
280
0
281
0
7
Standard
140
0.18
170
2
62
0
63
7
283
0
274
-2
284
1
64
0
275
-2
285
1
65
0
276
-2
286
1
66
0
277
-2
287
1
67
0
278
-2
288
1
68
0
279
-2
289
1
69
0
7
Standard
140
0.25
170
5
62
0
63
7
283
0
274
-2
284
1
64
0
275
-2
285
1
65
0
276
-2
286
1
66
0
277
-2
287
1
67
0
278
-2
288
1
68
0
279
-2
289
1
69
0
7
Standard
140
0.18
170
5
62
0
63
7
283
0
274
-2
284
1
64
0
275
-2
285
1
65
0
276
-2
286
1
66
0
277
-2
287
1
67
0
278
-2
288
1
68
0
279
-2
289
1
69
0
0
VISUALSTYLE
5
F99
102
{ACAD_XDICTIONARY
360
108A
102
}
102
{ACAD_REACTORS
330
F93
102
}
330
F93
100
AcDbVisualStyle
2

70
4
71
0
72
2
73
0
90
0
40
-0.6
41
-30.0
62
5
63
7
74
1
91
4
64
7
65
257
75
1
175
1
42
1.0
92
0
66
257
43
1.0
76
1
77
6
78
2
67
7
79
5
170
0
171
0
290
0
174
0
93
1
44
0.0
173
0
291
0
45
0.0
1001
ACAD
1000
AcDbSavedByObjectVersion
1070
0
0
VISUALSTYLE
5
F9B
102
{ACAD_XDICTIONARY
360
108E
102
}
102
{ACAD_REACTORS
330
F93
102
}
330
F93
100
AcDbVisualStyle
2

70
6
71
1
72
2
73
2
90
0
40
-0.6
41
-30.0
62
5
63
7
74
2
91
2
64
7
65
257
75
2
175
1
42
179.0
92
0
66
257
43
1.0
76
1
77
6
78
2
67
7
79
3
170
0
171
0
290
0
174
0
93
1
44
0.0
173
0
291
0
45
0.0
1001
ACAD
1000
AcDbSavedByObjectVersion
1070
0
0
VISUALSTYLE
5
F9A
102
{ACAD_XDICTIONARY
360
108C
102
}
102
{ACAD_REACTORS
330
F93
102
}
330
F93
100
AcDbVisualStyle
2

70
5
71
0
72
2
73
0
90
0
40
-0.6
41
-30.0
62
5
63
7
74
1
91
4
64
7
65
257
75
1
175
1
42
1.0
92
0
66
257
43
1.0
76
1
77
6
78
2
67
7
79
5
170
0
171
0
290
0
174
0
93
1
44
0.0
173
0
291
0
45
0.0
1001
ACAD
1000
AcDbSavedByObjectVersion
1070
0
0
VISUALSTYLE
5
F98
102
{ACAD_XDICTIONARY
360
1088
102
}
102
{ACAD_REACTORS
330
F93
102
}
330
F93
100
AcDbVisualStyle
2

70
7
71
1
72
0
73
1
90
0
40
-0.6
41
-30.0
62
5
63
7
74
0
91
4
64
7
65
257
75
1
175
1
42
1.0
92
8
66
7
43
1.0
76
1
77
6
78
2
67
7
79
5
170
0
171
0
290
0
174
0
93
1
44
0.0
173
0
291
1
45
0.0
1001
ACAD
1000
AcDbSavedByObjectVersion
1070
0
0
VISUALSTYLE
5
F9F
102
{ACAD_XDICTIONARY
360
1096
102
}
102
{ACAD_REACTORS
330
F93
102
}
330
F93
100
AcDbVisualStyle
2

70
12
71
2
72
2
73
0
90
0
40
-0.6
41
-30.0
62
5
63
7
74
1
91
4
64
7
65
257
75
1
175
1
42
1.0
92
8
66
7
43
1.0
76
1
77
6
78
2
67
7
79
5
170
0
171
0
290
0
174
0
93
1
44
50.0
173
0
291
1
45
0.0
1001
ACAD
1000
AcDbSavedByObjectVersion
1070
0
0
VISUALSTYLE
5
FA3
102
{ACAD_XDICTIONARY
360
109E
102
}
102
{ACAD_REACTORS
330
F93
102
}
330
F93
100
AcDbVisualStyle
2

70
16
71
2
72
2
73
3
90
0
40
-0.6
41
-30.0
62
5
63
8
74
1
91
4
64
7
65
257
75
1
175
1
42
1.0
92
8
66
8
43
1.0
76
1
77
6
78
2
67
7
79
5
170
0
171
0
290
0
174
0
93
1
44
0.0
173
0
291
1
45
0.0
1001
ACAD
1000
AcDbSavedByObjectVersion
1070
0
0
VISUALSTYLE
5
F9C
102
{ACAD_XDICTIONARY
360
1090
102
}
102
{ACAD_REACTORS
330
F93
102
}
330
F93
100
AcDbVisualStyle
2

70
9
71
3
72
2
73
0
90
0
40
-0.6
41
-30.0
62
5
63
7
74
2
91
2
64
7
65
257
75
1
175
1
42
179.0
92
8
66
7
43
1.0
76
1
77
6
78
2
67
7
79
3
170
0
171
0
290
0
174
0
93
1
44
0.0
173
0
291
0
45
0.0
1001
ACAD
1000
AcDbSavedByObjectVersion
1070
0
0
VISUALSTYLE
5
F9E
102
{ACAD_XDICTIONARY
360
1094
102
}
102
{ACAD_REACTORS
330
F93
102
}
330
F93
100
AcDbVisualStyle
2

70
11
71
2
72
2
73
0
90
0
40
-0.6
41
-30.0
62
5
63
7
74
1
91
4
64
7
65
257
75
1
175
1
42
1.0
92
8
66
7
43
1.0
76
1
77
6
78
2
67
7
79
5
170
0
171
0
290
0
174
0
93
1
44
-50.0
173
0
291
1
45
0.0
1001
ACAD
1000
AcDbSavedByObjectVersion
1070
0
0
VISUALSTYLE
5
FA6
102
{ACAD_XDICTIONARY
360
10A4
102
}
102
{ACAD_REACTORS
330
F93
102
}
330
F93
100
AcDbVisualStyle
2

70
22
71
2
72
2
73
0
90
0
40
-0.6
41
-30.0
62
5
63
7
74
1
91
4
64
7
65
257
75
1
175
1
42
1.0
92
8
66
7
43
1.0
76
1
77
6
78
2
67
7
79
5
170
0
171
0
290
0
174
0
93
1
44
0.0
173
0
291
1
45
0.0
1001
ACAD
1000
AcDbSavedByObjectVersion
1070
0
0
VISUALSTYLE
5
FA2
102
{ACAD_XDICTIONARY
360
109C
102
}
102
{ACAD_REACTORS
330
F93
102
}
330
F93
100
AcDbVisualStyle
2

70
15
71
2
72
2
73
0
90
0
40
-0.6
41
-30.0
62
5
63
7
74
1
91
4
64
7
65
257
75
1
175
1
42
1.0
92
8
66
7
43
1.0
76
1
77
6
78
2
67
7
79
5
170
0
171
0
290
0
174
0
93
1
44
0.0
173
0
291
1
45
0.0
1001
ACAD
1000
AcDbSavedByObjectVersion
1070
0
0
VISUALSTYLE
5
F94
102
{ACAD_XDICTIONARY
360
1080
102
}
102
{ACAD_REACTORS
330
F93
102
}
330
F93
100
AcDbVisualStyle
2

70
0
71
2
72
1
73
1
90
2
40
-0.6
41
30.0
62
5
63
7
74
0
91
4
64
7
65
257
75
1
175
1
42
1.0
92
8
66
7
43
1.0
76
1
77
6
78
2
67
7
79
5
170
0
171
0
290
0
174
0
93
13
44
0.0
173
0
291
1
45
0.0
1001
ACAD
1000
AcDbSavedByObjectVersion
1070
0
0
VISUALSTYLE
5
F95
102
{ACAD_XDICTIONARY
360
1082
102
}
102
{ACAD_REACTORS
330
F93
102
}
330
F93
100
AcDbVisualStyle
2

70
1
71
2
72
1
73
1
90
2
40
-0.6
41
30.0
62
5
63
7
74
1
91
4
64
7
65
257
75
1
175
1
42
1.0
92
0
66
257
43
1.0
76
1
77
6
78
2
67
7
79
5
170
0
171
0
290
0
174
0
93
13
44
0.0
173
0
291
1
45
0.0
1001
ACAD
1000
AcDbSavedByObjectVersion
1070
0
0
VISUALSTYLE
5
F96
102
{ACAD_XDICTIONARY
360
1084
102
}
102
{ACAD_REACTORS
330
F93
102
}
330
F93
100
AcDbVisualStyle
2

70
2
71
2
72
2
73
1
90
2
40
-0.6
41
30.0
62
5
63
7
74
0
91
4
64
7
65
257
75
1
175
1
42
1.0
92
0
66
7
43
1.0
76
1
77
6
78
2
67
7
79
5
170
0
171
0
290
0
174
0
93
13
44
0.0
173
0
291
1
45
0.0
1001
ACAD
1000
AcDbSavedByObjectVersion
1070
0
0
VISUALSTYLE
5
F97
102
{ACAD_XDICTIONARY
360
1086
102
}
102
{ACAD_REACTORS
330
F93
102
}
330
F93
100
AcDbVisualStyle
2

70
3
71
2
72
2
73
1
90
2
40
-0.6
41
30.0
62
5
63
7
74
1
91
4
64
7
65
257
75
1
175
1
42
1.0
92
0
66
257
43
1.0
76
1
77
6
78
2
67
7
79
5
170
0
171
0
290
0
174
0
93
13
44
0.0
173
0
291
1
45
0.0
1001
ACAD
1000
AcDbSavedByObjectVersion
1070
0
0
VISUALSTYLE
5
FA4
102
{ACAD_XDICTIONARY
360
10A0
102
}
102
{ACAD_REACTORS
330
F93
102
}
330
F93
100
AcDbVisualStyle
2

70
20
71
2
72
2
73
0
90
0
40
-0.6
41
-30.0
62
5
63
7
74
1
91
4
64
7
65
257
75
1
175
1
42
1.0
92
10
66
7
43
1.0
76
1
77
6
78
2
67
7
79
5
170
0
171
0
290
0
174
0
93
1
44
0.0
173
0
291
1
45
0.0
1001
ACAD
1000
AcDbSavedByObjectVersion
1070
0
0
VISUALSTYLE
5
FA1
102
{ACAD_XDICTIONARY
360
109A
102
}
102
{ACAD_REACTORS
330
F93
102
}
330
F93
100
AcDbVisualStyle
2

70
14
71
2
72
2
73
0
90
0
40
-0.6
41
-30.0
62
5
63
7
74
1
91
4
64
7
65
257
75
7
175
7
42
1.0
92
8
66
7
43
1.0
76
1
77
6
78
2
67
7
79
5
170
0
171
0
290
0
174
0
93
1
44
0.0
173
0
291
1
45
0.0
1001
ACAD
1000
AcDbSavedByObjectVersion
1070
0
0
VISUALSTYLE
5
FA5
102
{ACAD_XDICTIONARY
360
10A2
102
}
102
{ACAD_REACTORS
330
F93
102
}
330
F93
100
AcDbVisualStyle
2

70
21
71
2
72
2
73
0
90
0
40
-0.6
41
-30.0
62
5
63
7
74
1
91
4
64
7
65
257
75
1
175
1
42
1.0
92
9
66
7
43
1.0
76
1
77
6
78
2
67
7
79
5
170
0
171
0
290
0
174
0
93
1
44
0.0
173
0
291
1
45
0.0
1001
ACAD
1000
AcDbSavedByObjectVersion
1070
0
0
VISUALSTYLE
5
F9D
102
{ACAD_XDICTIONARY
360
1092
102
}
102
{ACAD_REACTORS
330
F93
102
}
330
F93
100
AcDbVisualStyle
2

70
8
71
2
72
2
73
0
90
0
40
-0.6
41
-30.0
62
5
63
7
74
1
91
0
64
7
65
257
75
1
175
1
42
1.0
92
8
66
8
43
1.0
76
1
77
6
78
2
67
7
79
5
170
0
171
0
290
0
174
0
93
13
44
0.0
173
0
291
0
45
0.0
1001
ACAD
1000
AcDbSavedByObjectVersion
1070
0
0
VISUALSTYLE
5
FA0
102
{ACAD_XDICTIONARY
360
1098
102
}
102
{ACAD_REACTORS
330
F93
102
}
330
F93
100
AcDbVisualStyle
2

70
13
71
2
72
2
73
0
90
0
40
-0.6
41
-30.0
62
5
63
7
74
1
91
4
64
7
65
257
75
1
175
1
42
1.0
92
12
66
7
43
1.0
76
1
77
6
78
2
67
7
79
5
170
0
171
0
290
0
174
0
93
1
44
0.0
173
0
291
1
45
0.0
1001
ACAD
1000
AcDbSavedByObjectVersion
1070
0
0
DICTIONARYVAR
5
FF3
102
{ACAD_REACTORS
330
FF0
102
}
330
FF0
100
DictionaryVariables
280
0
1
1:1
0
DICTIONARYVAR
5
FF2
102
{ACAD_REACTORS
330
FF0
102
}
330
FF0
100
DictionaryVariables
280
0
1
STANDARD
0
DICTIONARYVAR
5
FF1
102
{ACAD_REACTORS
330
FF0
102
}
330
FF0
100
DictionaryVariables
280
0
1
STANDARD
0
DICTIONARYVAR
5
FF6
102
{ACAD_REACTORS
330
FF0
102
}
330
FF0
100
DictionaryVariables
280
0
1
1
0
DICTIONARYVAR
5
FF5
102
{ACAD_REACTORS
330
FF0
102
}
330
FF0
100
DictionaryVariables
280
0
1
0
0
DICTIONARYVAR
5
FF4
102
{ACAD_REACTORS
330
FF0
102
}
330
FF0
100
DictionaryVariables
280
0
1
127
0
DICTIONARYVAR
5
1078
102
{ACAD_REACTORS
330
FF0
102
}
330
FF0
100
DictionaryVariables
280
0
1
2
0
DICTIONARY
5
10A9
330
FD1
100
AcDbDictionary
280
1
281
1
3
ACAD_XREC_ROUNDTRIP
360
10AA
0
DICTIONARY
5
10A7
330
FD0
100
AcDbDictionary
280
1
281
1
3
ACAD_XREC_ROUNDTRIP
360
10A8
0
DICTIONARY
5
F84
330
F83
100
AcDbDictionary
280
1
281
1
3
ACAD_XREC_ROUNDTRIP
360
FFF
3
BUMPTILE
360
F86
3
DIFFUSETILE
360
F85
3
OPACITYTILE
360
F89
3
REFLECTIONTILE
360
F88
3
REFRACTIONTILE
360
F8A
3
SPECULARTILE
360
F87
0
DICTIONARY
5
F7C
330
F7B
100
AcDbDictionary
280
1
281
1
3
ACAD_XREC_ROUNDTRIP
360
FFE
3
BUMPTILE
360
F7E
3
DIFFUSETILE
360
F7D
3
OPACITYTILE
360
F81
3
REFLECTIONTILE
360
F80
3
REFRACTIONTILE
360
F82
3
SPECULARTILE
360
F7F
0
DICTIONARY
5
F8C
330
F8B
100
AcDbDictionary
280
1
281
1
3
ACAD_XREC_ROUNDTRIP
360
1000
3
BUMPTILE
360
F8E
3
DIFFUSETILE
360
F8D
3
OPACITYTILE
360
F91
3
REFLECTIONTILE
360
F90
3
REFRACTIONTILE
360
F92
3
SPECULARTILE
360
F8F
0
DICTIONARY
5
FF8
330
FA9
100
AcDbDictionary
280
1
281
1
3
ACAD_ROUNDTRIP_2008_TABLESTYLE_CELLSTYLEMAP
360
1079
3
ACAD_XREC_ROUNDTRIP
360
10A6
0
DICTIONARY
5
108A
330
F99
100
AcDbDictionary
280
1
281
1
3
ACAD_XREC_ROUNDTRIP
360
108B
0
DICTIONARY
5
108E
330
F9B
100
AcDbDictionary
280
1
281
1
3
ACAD_XREC_ROUNDTRIP
360
108F
0
DICTIONARY
5
108C
330
F9A
100
AcDbDictionary
280
1
281
1
3
ACAD_XREC_ROUNDTRIP
360
108D
0
DICTIONARY
5
1088
330
F98
100
AcDbDictionary
280
1
281
1
3
ACAD_XREC_ROUNDTRIP
360
1089
0
DICTIONARY
5
1096
330
F9F
100
AcDbDictionary
280
1
281
1
3
ACAD_XREC_ROUNDTRIP
360
1097
0
DICTIONARY
5
109E
330
FA3
100
AcDbDictionary
280
1
281
1
3
ACAD_XREC_ROUNDTRIP
360
109F
0
DICTIONARY
5
1090
330
F9C
100
AcDbDictionary
280
1
281
1
3
ACAD_XREC_ROUNDTRIP
360
1091
0
DICTIONARY
5
1094
330
F9E
100
AcDbDictionary
280
1
281
1
3
ACAD_XREC_ROUNDTRIP
360
1095
0
DICTIONARY
5
10A4
330
FA6
100
AcDbDictionary
280
1
281
1
3
ACAD_XREC_ROUNDTRIP
360
10A5
0
DICTIONARY
5
109C
330
FA2
100
AcDbDictionary
280
1
281
1
3
ACAD_XREC_ROUNDTRIP
360
109D
0
DICTIONARY
5
1080
330
F94
100
AcDbDictionary
280
1
281
1
3
ACAD_XREC_ROUNDTRIP
360
1081
0
DICTIONARY
5
1082
330
F95
100
AcDbDictionary
280
1
281
1
3
ACAD_XREC_ROUNDTRIP
360
1083
0
DICTIONARY
5
1084
330
F96
100
AcDbDictionary
280
1
281
1
3
ACAD_XREC_ROUNDTRIP
360
1085
0
DICTIONARY
5
1086
330
F97
100
AcDbDictionary
280
1
281
1
3
ACAD_XREC_ROUNDTRIP
360
1087
0
DICTIONARY
5
10A0
330
FA4
100
AcDbDictionary
280
1
281
1
3
ACAD_XREC_ROUNDTRIP
360
10A1
0
DICTIONARY
5
109A
330
FA1
100
AcDbDictionary
280
1
281
1
3
ACAD_XREC_ROUNDTRIP
360
109B
0
DICTIONARY
5
10A2
330
FA5
100
AcDbDictionary
280
1
281
1
3
ACAD_XREC_ROUNDTRIP
360
10A3
0
DICTIONARY
5
1092
330
F9D
100
AcDbDictionary
280
1
281
1
3
ACAD_XREC_ROUNDTRIP
360
1093
0
DICTIONARY
5
1098
330
FA0
100
AcDbDictionary
280
1
281
1
3
ACAD_XREC_ROUNDTRIP
360
1099
0
XRECORD
5
10AA
102
{ACAD_REACTORS
330
10A9
102
}
330
10A9
100
AcDbXrecord
280
1
102
SHADEPLOT
70
0
102
SHADEPLOTRESLEVEL
70
2
102
SHADEPLOTCUSTOMDPI
70
300
0
XRECORD
5
10A8
102
{ACAD_REACTORS
330
10A7
102
}
330
10A7
100
AcDbXrecord
280
1
102
SHADEPLOT
70
0
102
SHADEPLOTRESLEVEL
70
2
102
SHADEPLOTCUSTOMDPI
70
300
0
XRECORD
5
FFF
102
{ACAD_REACTORS
330
F84
102
}
330
F84
100
AcDbXrecord
280
1
102
MATERIAL
148
0.0
149
0.0
149
0.0
93
0
94
127
282
0
72
0
77
0
171
0
175
0
179
0
273
0
0
XRECORD
5
F86
102
{ACAD_REACTORS
330
F84
102
}
330
F84
100
AcDbXrecord
280
1
270
1
271
1
0
XRECORD
5
F85
102
{ACAD_REACTORS
330
F84
102
}
330
F84
100
AcDbXrecord
280
1
270
1
271
1
0
XRECORD
5
F89
102
{ACAD_REACTORS
330
F84
102
}
330
F84
100
AcDbXrecord
280
1
270
1
271
1
0
XRECORD
5
F88
102
{ACAD_REACTORS
330
F84
102
}
330
F84
100
AcDbXrecord
280
1
270
1
271
1
0
XRECORD
5
F8A
102
{ACAD_REACTORS
330
F84
102
}
330
F84
100
AcDbXrecord
280
1
270
1
271
1
0
XRECORD
5
F87
102
{ACAD_REACTORS
330
F84
102
}
330
F84
100
AcDbXrecord
280
1
270
1
271
1
0
XRECORD
5
FFE
102
{ACAD_REACTORS
330
F7C
102
}
330
F7C
100
AcDbXrecord
280
1
102
MATERIAL
148
0.0
149
0.0
149
0.0
93
0
94
127
282
0
72
0
77
0
171
0
175
0
179
0
273
0
0
XRECORD
5
F7E
102
{ACAD_REACTORS
330
F7C
102
}
330
F7C
100
AcDbXrecord
280
1
270
1
271
1
0
XRECORD
5
F7D
102
{ACAD_REACTORS
330
F7C
102
}
330
F7C
100
AcDbXrecord
280
1
270
1
271
1
0
XRECORD
5
F81
102
{ACAD_REACTORS
330
F7C
102
}
330
F7C
100
AcDbXrecord
280
1
270
1
271
1
0
XRECORD
5
F80
102
{ACAD_REACTORS
330
F7C
102
}
330
F7C
100
AcDbXrecord
280
1
270
1
271
1
0
XRECORD
5
F82
102
{ACAD_REACTORS
330
F7C
102
}
330
F7C
100
AcDbXrecord
280
1
270
1
271
1
0
XRECORD
5
F7F
102
{ACAD_REACTORS
330
F7C
102
}
330
F7C
100
AcDbXrecord
280
1
270
1
271
1
0
XRECORD
5
1000
102
{ACAD_REACTORS
330
F8C
102
}
330
F8C
100
AcDbXrecord
280
1
102
MATERIAL
148
0.0
149
0.0
149
0.0
93
0
94
127
282
0
72
0
77
0
171
0
175
0
179
0
273
0
0
XRECORD
5
F8E
102
{ACAD_REACTORS
330
F8C
102
}
330
F8C
100
AcDbXrecord
280
1
270
1
271
1
0
XRECORD
5
F8D
102
{ACAD_REACTORS
330
F8C
102
}
330
F8C
100
AcDbXrecord
280
1
270
1
271
1
0
XRECORD
5
F91
102
{ACAD_REACTORS
330
F8C
102
}
330
F8C
100
AcDbXrecord
280
1
270
1
271
1
0
XRECORD
5
F90
102
{ACAD_REACTORS
330
F8C
102
}
330
F8C
100
AcDbXrecord
280
1
270
1
271
1
0
XRECORD
5
F92
102
{ACAD_REACTORS
330
F8C
102
}
330
F8C
100
AcDbXrecord
280
1
270
1
271
1
0
XRECORD
5
F8F
102
{ACAD_REACTORS
330
F8C
102
}
330
F8C
100
AcDbXrecord
280
1
270
1
271
1
0
CELLSTYLEMAP
5
1079
102
{ACAD_REACTORS
330
FF8
102
}
330
FF8
100
AcDbCellStyleMap
90
3
300
CELLSTYLE
1
TABLEFORMAT_BEGIN
90
5
170
1
91
0
92
32768
62
257
93
1
300
CONTENTFORMAT
1
CONTENTFORMAT_BEGIN
90
0
91
0
92
512
93
0
300

40
0.0
140
1.0
94
5
62
0
340
253
144
0.25
309
CONTENTFORMAT_END
171
1
301
MARGIN
1
CELLMARGIN_BEGIN
40
0.06
40
0.06
40
0.06
40
0.06
40
0.18
40
0.18
309
CELLMARGIN_END
94
6
95
1
302
GRIDFORMAT
1
GRIDFORMAT_BEGIN
90
0
91
1
62
0
92
-2
340
0
93
0
40
0.045
309
GRIDFORMAT_END
95
2
302
GRIDFORMAT
1
GRIDFORMAT_BEGIN
90
0
91
1
62
0
92
-2
340
0
93
0
40
0.045
309
GRIDFORMAT_END
95
4
302
GRIDFORMAT
1
GRIDFORMAT_BEGIN
90
0
91
1
62
0
92
-2
340
0
93
0
40
0.045
309
GRIDFORMAT_END
95
8
302
GRIDFORMAT
1
GRIDFORMAT_BEGIN
90
0
91
1
62
0
92
-2
340
0
93
0
40
0.045
309
GRIDFORMAT_END
95
16
302
GRIDFORMAT
1
GRIDFORMAT_BEGIN
90
0
91
1
62
0
92
-2
340
0
93
0
40
0.045
309
GRIDFORMAT_END
95
32
302
GRIDFORMAT
1
GRIDFORMAT_BEGIN
90
0
91
1
62
0
92
-2
340
0
93
0
40
0.045
309
GRIDFORMAT_END
309
TABLEFORMAT_END
1
CELLSTYLE_BEGIN
90
1
91
1
300
_TITLE
309
CELLSTYLE_END
300
CELLSTYLE
1
TABLEFORMAT_BEGIN
90
5
170
1
91
0
92
0
62
257
93
1
300
CONTENTFORMAT
1
CONTENTFORMAT_BEGIN
90
0
91
0
92
512
93
0
300

40
0.0
140
1.0
94
5
62
0
340
253
144
0.18
309
CONTENTFORMAT_END
171
1
301
MARGIN
1
CELLMARGIN_BEGIN
40
0.06
40
0.06
40
0.06
40
0.06
40
0.18
40
0.18
309
CELLMARGIN_END
94
6
95
1
302
GRIDFORMAT
1
GRIDFORMAT_BEGIN
90
0
91
1
62
0
92
-2
340
0
93
0
40
0.045
309
GRIDFORMAT_END
95
2
302
GRIDFORMAT
1
GRIDFORMAT_BEGIN
90
0
91
1
62
0
92
-2
340
0
93
0
40
0.045
309
GRIDFORMAT_END
95
4
302
GRIDFORMAT
1
GRIDFORMAT_BEGIN
90
0
91
1
62
0
92
-2
340
0
93
0
40
0.045
309
GRIDFORMAT_END
95
8
302
GRIDFORMAT
1
GRIDFORMAT_BEGIN
90
0
91
1
62
0
92
-2
340
0
93
0
40
0.045
309
GRIDFORMAT_END
95
16
302
GRIDFORMAT
1
GRIDFORMAT_BEGIN
90
0
91
1
62
0
92
-2
340
0
93
0
40
0.045
309
GRIDFORMAT_END
95
32
302
GRIDFORMAT
1
GRIDFORMAT_BEGIN
90
0
91
1
62
0
92
-2
340
0
93
0
40
0.045
309
GRIDFORMAT_END
309
TABLEFORMAT_END
1
CELLSTYLE_BEGIN
90
2
91
1
300
_HEADER
309
CELLSTYLE_END
300
CELLSTYLE
1
TABLEFORMAT_BEGIN
90
5
170
1
91
0
92
0
62
257
93
1
300
CONTENTFORMAT
1
CONTENTFORMAT_BEGIN
90
0
91
0
92
512
93
0
300

40
0.0
140
1.0
94
2
62
0
340
253
144
0.18
309
CONTENTFORMAT_END
171
1
301
MARGIN
1
CELLMARGIN_BEGIN
40
0.06
40
0.06
40
0.06
40
0.06
40
0.18
40
0.18
309
CELLMARGIN_END
94
6
95
1
302
GRIDFORMAT
1
GRIDFORMAT_BEGIN
90
0
91
1
62
0
92
-2
340
0
93
0
40
0.045
309
GRIDFORMAT_END
95
2
302
GRIDFORMAT
1
GRIDFORMAT_BEGIN
90
0
91
1
62
0
92
-2
340
0
93
0
40
0.045
309
GRIDFORMAT_END
95
4
302
GRIDFORMAT
1
GRIDFORMAT_BEGIN
90
0
91
1
62
0
92
-2
340
0
93
0
40
0.045
309
GRIDFORMAT_END
95
8
302
GRIDFORMAT
1
GRIDFORMAT_BEGIN
90
0
91
1
62
0
92
-2
340
0
93
0
40
0.045
309
GRIDFORMAT_END
95
16
302
GRIDFORMAT
1
GRIDFORMAT_BEGIN
90
0
91
1
62
0
92
-2
340
0
93
0
40
0.045
309
GRIDFORMAT_END
95
32
302
GRIDFORMAT
1
GRIDFORMAT_BEGIN
90
0
91
1
62
0
92
-2
340
0
93
0
40
0.045
309
GRIDFORMAT_END
309
TABLEFORMAT_END
1
CELLSTYLE_BEGIN
90
3
91
2
300
_DATA
309
CELLSTYLE_END
0
XRECORD
5
10A6
102
{ACAD_REACTORS
330
FF8
102
}
330
FF8
100
AcDbXrecord
280
1
102
ACAD_ROUNDTRIP_PRE2007_TABLESTYLE
90
512
91
0
1

92
512
93
0
2

94
512
95
0
3

0
XRECORD
5
108B
102
{ACAD_REACTORS
330
108A
102
}
330
108A
100
AcDbXrecord
280
1
102
RTVSPropertyOp0
70
1
102
RTVSPropertyOp1
70
1
102
RTVSPropertyOp2
70
1
102
RTVSPropertyOp3
70
1
102
RTVSPropertyOp4
70
1
102
RTVSPropertyOp5
70
1
102
RTVSPropertyOp6
70
1
102
RTVSPropertyOp7
70
1
102
RTVSPropertyOp8
70
1
102
RTVSPropertyOp9
70
1
102
RTVSPropertyOp10
70
1
102
RTVSPropertyOp11
70
1
102
RTVSPropertyOp12
70
1
102
RTVSPropertyOp13
70
1
102
RTVSPropertyOp14
70
1
102
RTVSPropertyOp15
70
1
102
RTVSPropertyOp16
70
1
102
RTVSPropertyOp17
70
1
102
RTVSPropertyOp18
70
1
102
RTVSPropertyOp19
70
1
102
RTVSPropertyOp20
70
1
102
RTVSPropertyOp21
70
1
102
RTVSPropertyOp22
70
1
102
RTVSPropertyOp23
70
1
102
RTVSPropertyOp24
70
1
102
RTVSPropertyOp25
70
1
102
RTVSPropertyOp26
70
1
102
RTVSPropertyOp27
70
1
0
XRECORD
5
108F
102
{ACAD_REACTORS
330
108E
102
}
330
108E
100
AcDbXrecord
280
1
102
RTVSPropertyOp0
70
1
102
RTVSPropertyOp1
70
1
102
RTVSPropertyOp2
70
1
102
RTVSPropertyOp3
70
1
102
RTVSPropertyOp4
70
1
102
RTVSPropertyOp5
70
1
102
RTVSPropertyOp6
70
1
102
RTVSPropertyOp7
70
1
102
RTVSPropertyOp8
70
1
102
RTVSPropertyOp9
70
1
102
RTVSPropertyOp10
70
1
102
RTVSPropertyOp11
70
1
102
RTVSPropertyOp12
70
1
102
RTVSPropertyOp13
70
1
102
RTVSPropertyOp14
70
1
102
RTVSPropertyOp15
70
1
102
RTVSPropertyOp16
70
1
102
RTVSPropertyOp17
70
1
102
RTVSPropertyOp18
70
1
102
RTVSPropertyOp19
70
1
102
RTVSPropertyOp20
70
1
102
RTVSPropertyOp21
70
1
102
RTVSPropertyOp22
70
1
102
RTVSPropertyOp23
70
1
102
RTVSPropertyOp24
70
1
102
RTVSPropertyOp25
70
1
102
RTVSPropertyOp26
70
1
102
RTVSPropertyOp27
70
1
0
XRECORD
5
108D
102
{ACAD_REACTORS
330
108C
102
}
330
108C
100
AcDbXrecord
280
1
102
RTVSPropertyOp0
70
1
102
RTVSPropertyOp1
70
1
102
RTVSPropertyOp2
70
1
102
RTVSPropertyOp3
70
1
102
RTVSPropertyOp4
70
1
102
RTVSPropertyOp5
70
1
102
RTVSPropertyOp6
70
1
102
RTVSPropertyOp7
70
1
102
RTVSPropertyOp8
70
1
102
RTVSPropertyOp9
70
1
102
RTVSPropertyOp10
70
1
102
RTVSPropertyOp11
70
1
102
RTVSPropertyOp12
70
1
102
RTVSPropertyOp13
70
1
102
RTVSPropertyOp14
70
1
102
RTVSPropertyOp15
70
1
102
RTVSPropertyOp16
70
1
102
RTVSPropertyOp17
70
1
102
RTVSPropertyOp18
70
1
102
RTVSPropertyOp19
70
1
102
RTVSPropertyOp20
70
1
102
RTVSPropertyOp21
70
1
102
RTVSPropertyOp22
70
1
102
RTVSPropertyOp23
70
1
102
RTVSPropertyOp24
70
1
102
RTVSPropertyOp25
70
1
102
RTVSPropertyOp26
70
1
102
RTVSPropertyOp27
70
1
0
XRECORD
5
1089
102
{ACAD_REACTORS
330
1088
102
}
330
1088
100
AcDbXrecord
280
1
102
RTVSPropertyOp0
70
1
102
RTVSPropertyOp1
70
1
102
RTVSPropertyOp2
70
1
102
RTVSPropertyOp3
70
1
102
RTVSPropertyOp4
70
1
102
RTVSPropertyOp5
70
1
102
RTVSPropertyOp6
70
1
102
RTVSPropertyOp7
70
1
102
RTVSPropertyOp8
70
1
102
RTVSPropertyOp9
70
1
102
RTVSPropertyOp10
70
1
102
RTVSPropertyOp11
70
1
102
RTVSPropertyOp12
70
1
102
RTVSPropertyOp13
70
1
102
RTVSPropertyOp14
70
1
102
RTVSPropertyOp15
70
1
102
RTVSPropertyOp16
70
1
102
RTVSPropertyOp17
70
1
102
RTVSPropertyOp18
70
1
102
RTVSPropertyOp19
70
1
102
RTVSPropertyOp20
70
1
102
RTVSPropertyOp21
70
1
102
RTVSPropertyOp22
70
1
102
RTVSPropertyOp23
70
1
102
RTVSPropertyOp24
70
1
102
RTVSPropertyOp25
70
1
102
RTVSPropertyOp26
70
1
102
RTVSPropertyOp27
70
1
0
XRECORD
5
1097
102
{ACAD_REACTORS
330
1096
102
}
330
1096
100
AcDbXrecord
280
1
102
RTVSPropertyOp0
70
1
102
RTVSPropertyOp1
70
1
102
RTVSPropertyOp2
70
1
102
RTVSPropertyOp3
70
1
102
RTVSPropertyOp4
70
1
102
RTVSPropertyOp5
70
1
102
RTVSPropertyOp6
70
1
102
RTVSPropertyOp7
70
1
102
RTVSPropertyOp8
70
1
102
RTVSPropertyOp9
70
1
102
RTVSPropertyOp10
70
1
102
RTVSPropertyOp11
70
1
102
RTVSPropertyOp12
70
1
102
RTVSPropertyOp13
70
1
102
RTVSPropertyOp14
70
1
102
RTVSPropertyOp15
70
1
102
RTVSPropertyOp16
70
1
102
RTVSPropertyOp17
70
1
102
RTVSPropertyOp18
70
1
102
RTVSPropertyOp19
70
1
102
RTVSPropertyOp20
70
1
102
RTVSPropertyOp21
70
1
102
RTVSPropertyOp22
70
1
102
RTVSPropertyOp23
70
1
102
RTVSPropertyOp24
70
1
102
RTVSPropertyOp25
70
1
102
RTVSPropertyOp26
70
1
102
RTVSPropertyOp27
70
1
0
XRECORD
5
109F
102
{ACAD_REACTORS
330
109E
102
}
330
109E
100
AcDbXrecord
280
1
102
RTVSPropertyOp0
70
1
102
RTVSPropertyOp1
70
1
102
RTVSPropertyOp2
70
1
102
RTVSPropertyOp3
70
1
102
RTVSPropertyOp4
70
1
102
RTVSPropertyOp5
70
1
102
RTVSPropertyOp6
70
1
102
RTVSPropertyOp7
70
1
102
RTVSPropertyOp8
70
1
102
RTVSPropertyOp9
70
1
102
RTVSPropertyOp10
70
1
102
RTVSPropertyOp11
70
1
102
RTVSPropertyOp12
70
1
102
RTVSPropertyOp13
70
1
102
RTVSPropertyOp14
70
1
102
RTVSPropertyOp15
70
1
102
RTVSPropertyOp16
70
1
102
RTVSPropertyOp17
70
1
102
RTVSPropertyOp18
70
1
102
RTVSPropertyOp19
70
1
102
RTVSPropertyOp20
70
1
102
RTVSPropertyOp21
70
1
102
RTVSPropertyOp22
70
1
102
RTVSPropertyOp23
70
1
102
RTVSPropertyOp24
70
1
102
RTVSPropertyOp25
70
1
102
RTVSPropertyOp26
70
1
102
RTVSPropertyOp27
70
1
0
XRECORD
5
1091
102
{ACAD_REACTORS
330
1090
102
}
330
1090
100
AcDbXrecord
280
1
102
RTVSPropertyOp0
70
1
102
RTVSPropertyOp1
70
1
102
RTVSPropertyOp2
70
1
102
RTVSPropertyOp3
70
1
102
RTVSPropertyOp4
70
1
102
RTVSPropertyOp5
70
1
102
RTVSPropertyOp6
70
1
102
RTVSPropertyOp7
70
1
102
RTVSPropertyOp8
70
1
102
RTVSPropertyOp9
70
1
102
RTVSPropertyOp10
70
1
102
RTVSPropertyOp11
70
1
102
RTVSPropertyOp12
70
1
102
RTVSPropertyOp13
70
1
102
RTVSPropertyOp14
70
1
102
RTVSPropertyOp15
70
1
102
RTVSPropertyOp16
70
1
102
RTVSPropertyOp17
70
1
102
RTVSPropertyOp18
70
1
102
RTVSPropertyOp19
70
1
102
RTVSPropertyOp20
70
1
102
RTVSPropertyOp21
70
1
102
RTVSPropertyOp22
70
1
102
RTVSPropertyOp23
70
1
102
RTVSPropertyOp24
70
1
102
RTVSPropertyOp25
70
1
102
RTVSPropertyOp26
70
1
102
RTVSPropertyOp27
70
1
0
XRECORD
5
1095
102
{ACAD_REACTORS
330
1094
102
}
330
1094
100
AcDbXrecord
280
1
102
RTVSPropertyOp0
70
1
102
RTVSPropertyOp1
70
1
102
RTVSPropertyOp2
70
1
102
RTVSPropertyOp3
70
1
102
RTVSPropertyOp4
70
1
102
RTVSPropertyOp5
70
1
102
RTVSPropertyOp6
70
1
102
RTVSPropertyOp7
70
1
102
RTVSPropertyOp8
70
1
102
RTVSPropertyOp9
70
1
102
RTVSPropertyOp10
70
1
102
RTVSPropertyOp11
70
1
102
RTVSPropertyOp12
70
1
102
RTVSPropertyOp13
70
1
102
RTVSPropertyOp14
70
1
102
RTVSPropertyOp15
70
1
102
RTVSPropertyOp16
70
1
102
RTVSPropertyOp17
70
1
102
RTVSPropertyOp18
70
1
102
RTVSPropertyOp19
70
1
102
RTVSPropertyOp20
70
1
102
RTVSPropertyOp21
70
1
102
RTVSPropertyOp22
70
1
102
RTVSPropertyOp23
70
1
102
RTVSPropertyOp24
70
1
102
RTVSPropertyOp25
70
1
102
RTVSPropertyOp26
70
1
102
RTVSPropertyOp27
70
1
0
XRECORD
5
10A5
102
{ACAD_REACTORS
330
10A4
102
}
330
10A4
100
AcDbXrecord
280
1
102
RTVSPropertyOp0
70
0
102
RTVSPropertyOp1
70
0
102
RTVSPropertyOp2
70
0
102
RTVSPropertyOp3
70
0
102
RTVSPropertyOp4
70
0
102
RTVSPropertyOp5
70
0
102
RTVSPropertyOp6
70
0
102
RTVSPropertyOp7
70
0
102
RTVSPropertyOp8
70
0
102
RTVSPropertyOp9
70
0
102
RTVSPropertyOp10
70
0
102
RTVSPropertyOp11
70
0
102
RTVSPropertyOp12
70
0
102
RTVSPropertyOp13
70
0
102
RTVSPropertyOp14
70
2
102
RTVSPropertyOp15
70
0
102
RTVSPropertyOp16
70
0
102
RTVSPropertyOp17
70
0
102
RTVSPropertyOp18
70
0
102
RTVSPropertyOp19
70
0
102
RTVSPropertyOp20
70
0
102
RTVSPropertyOp21
70
0
102
RTVSPropertyOp22
70
0
102
RTVSPropertyOp23
70
0
102
RTVSPropertyOp24
70
0
102
RTVSPropertyOp25
70
0
102
RTVSPropertyOp26
70
0
102
RTVSPropertyOp27
70
0
0
XRECORD
5
109D
102
{ACAD_REACTORS
330
109C
102
}
330
109C
100
AcDbXrecord
280
1
102
RTVSPropertyOp0
70
1
102
RTVSPropertyOp1
70
1
102
RTVSPropertyOp2
70
1
102
RTVSPropertyOp3
70
1
102
RTVSPropertyOp4
70
1
102
RTVSPropertyOp5
70
1
102
RTVSPropertyOp6
70
1
102
RTVSPropertyOp7
70
1
102
RTVSPropertyOp8
70
1
102
RTVSPropertyOp9
70
1
102
RTVSPropertyOp10
70
1
102
RTVSPropertyOp11
70
1
102
RTVSPropertyOp12
70
1
102
RTVSPropertyOp13
70
1
102
RTVSPropertyOp14
70
1
102
RTVSPropertyOp15
70
1
102
RTVSPropertyOp16
70
1
102
RTVSPropertyOp17
70
1
102
RTVSPropertyOp18
70
1
102
RTVSPropertyOp19
70
1
102
RTVSPropertyOp20
70
1
102
RTVSPropertyOp21
70
1
102
RTVSPropertyOp22
70
1
102
RTVSPropertyOp23
70
1
102
RTVSPropertyOp24
70
1
102
RTVSPropertyOp25
70
1
102
RTVSPropertyOp26
70
1
102
RTVSPropertyOp27
70
1
0
XRECORD
5
1081
102
{ACAD_REACTORS
330
1080
102
}
330
1080
100
AcDbXrecord
280
1
102
RTVSPropertyOp0
70
1
102
RTVSPropertyOp1
70
1
102
RTVSPropertyOp2
70
1
102
RTVSPropertyOp3
70
1
102
RTVSPropertyOp4
70
1
102
RTVSPropertyOp5
70
1
102
RTVSPropertyOp6
70
1
102
RTVSPropertyOp7
70
1
102
RTVSPropertyOp8
70
1
102
RTVSPropertyOp9
70
1
102
RTVSPropertyOp10
70
1
102
RTVSPropertyOp11
70
1
102
RTVSPropertyOp12
70
1
102
RTVSPropertyOp13
70
1
102
RTVSPropertyOp14
70
1
102
RTVSPropertyOp15
70
1
102
RTVSPropertyOp16
70
1
102
RTVSPropertyOp17
70
1
102
RTVSPropertyOp18
70
1
102
RTVSPropertyOp19
70
1
102
RTVSPropertyOp20
70
1
102
RTVSPropertyOp21
70
1
102
RTVSPropertyOp22
70
1
102
RTVSPropertyOp23
70
1
102
RTVSPropertyOp24
70
1
102
RTVSPropertyOp25
70
1
102
RTVSPropertyOp26
70
1
102
RTVSPropertyOp27
70
1
0
XRECORD
5
1083
102
{ACAD_REACTORS
330
1082
102
}
330
1082
100
AcDbXrecord
280
1
102
RTVSPropertyOp0
70
1
102
RTVSPropertyOp1
70
1
102
RTVSPropertyOp2
70
1
102
RTVSPropertyOp3
70
1
102
RTVSPropertyOp4
70
1
102
RTVSPropertyOp5
70
1
102
RTVSPropertyOp6
70
1
102
RTVSPropertyOp7
70
1
102
RTVSPropertyOp8
70
1
102
RTVSPropertyOp9
70
1
102
RTVSPropertyOp10
70
1
102
RTVSPropertyOp11
70
1
102
RTVSPropertyOp12
70
1
102
RTVSPropertyOp13
70
1
102
RTVSPropertyOp14
70
1
102
RTVSPropertyOp15
70
1
102
RTVSPropertyOp16
70
1
102
RTVSPropertyOp17
70
1
102
RTVSPropertyOp18
70
1
102
RTVSPropertyOp19
70
1
102
RTVSPropertyOp20
70
1
102
RTVSPropertyOp21
70
1
102
RTVSPropertyOp22
70
1
102
RTVSPropertyOp23
70
1
102
RTVSPropertyOp24
70
1
102
RTVSPropertyOp25
70
1
102
RTVSPropertyOp26
70
1
102
RTVSPropertyOp27
70
1
0
XRECORD
5
1085
102
{ACAD_REACTORS
330
1084
102
}
330
1084
100
AcDbXrecord
280
1
102
RTVSPropertyOp0
70
1
102
RTVSPropertyOp1
70
1
102
RTVSPropertyOp2
70
1
102
RTVSPropertyOp3
70
1
102
RTVSPropertyOp4
70
1
102
RTVSPropertyOp5
70
1
102
RTVSPropertyOp6
70
1
102
RTVSPropertyOp7
70
1
102
RTVSPropertyOp8
70
1
102
RTVSPropertyOp9
70
1
102
RTVSPropertyOp10
70
1
102
RTVSPropertyOp11
70
1
102
RTVSPropertyOp12
70
1
102
RTVSPropertyOp13
70
1
102
RTVSPropertyOp14
70
1
102
RTVSPropertyOp15
70
1
102
RTVSPropertyOp16
70
1
102
RTVSPropertyOp17
70
1
102
RTVSPropertyOp18
70
1
102
RTVSPropertyOp19
70
1
102
RTVSPropertyOp20
70
1
102
RTVSPropertyOp21
70
1
102
RTVSPropertyOp22
70
1
102
RTVSPropertyOp23
70
1
102
RTVSPropertyOp24
70
1
102
RTVSPropertyOp25
70
1
102
RTVSPropertyOp26
70
1
102
RTVSPropertyOp27
70
1
0
XRECORD
5
1087
102
{ACAD_REACTORS
330
1086
102
}
330
1086
100
AcDbXrecord
280
1
102
RTVSPropertyOp0
70
1
102
RTVSPropertyOp1
70
1
102
RTVSPropertyOp2
70
1
102
RTVSPropertyOp3
70
1
102
RTVSPropertyOp4
70
1
102
RTVSPropertyOp5
70
1
102
RTVSPropertyOp6
70
1
102
RTVSPropertyOp7
70
1
102
RTVSPropertyOp8
70
1
102
RTVSPropertyOp9
70
1
102
RTVSPropertyOp10
70
1
102
RTVSPropertyOp11
70
1
102
RTVSPropertyOp12
70
1
102
RTVSPropertyOp13
70
1
102
RTVSPropertyOp14
70
1
102
RTVSPropertyOp15
70
1
102
RTVSPropertyOp16
70
1
102
RTVSPropertyOp17
70
1
102
RTVSPropertyOp18
70
1
102
RTVSPropertyOp19
70
1
102
RTVSPropertyOp20
70
1
102
RTVSPropertyOp21
70
1
102
RTVSPropertyOp22
70
1
102
RTVSPropertyOp23
70
1
102
RTVSPropertyOp24
70
1
102
RTVSPropertyOp25
70
1
102
RTVSPropertyOp26
70
1
102
RTVSPropertyOp27
70
1
0
XRECORD
5
10A1
102
{ACAD_REACTORS
330
10A0
102
}
330
10A0
100
AcDbXrecord
280
1
102
RTVSPropertyOp0
70
0
102
RTVSPropertyOp1
70
0
102
RTVSPropertyOp2
70
0
102
RTVSPropertyOp3
70
0
102
RTVSPropertyOp4
70
0
102
RTVSPropertyOp5
70
0
102
RTVSPropertyOp6
70
0
102
RTVSPropertyOp7
70
0
102
RTVSPropertyOp8
70
0
102
RTVSPropertyOp9
70
0
102
RTVSPropertyOp10
70
0
102
RTVSPropertyOp11
70
0
102
RTVSPropertyOp12
70
0
102
RTVSPropertyOp13
70
0
102
RTVSPropertyOp14
70
2
102
RTVSPropertyOp15
70
0
102
RTVSPropertyOp16
70
0
102
RTVSPropertyOp17
70
0
102
RTVSPropertyOp18
70
0
102
RTVSPropertyOp19
70
0
102
RTVSPropertyOp20
70
0
102
RTVSPropertyOp21
70
0
102
RTVSPropertyOp22
70
0
102
RTVSPropertyOp23
70
0
102
RTVSPropertyOp24
70
0
102
RTVSPropertyOp25
70
0
102
RTVSPropertyOp26
70
0
102
RTVSPropertyOp27
70
0
0
XRECORD
5
109B
102
{ACAD_REACTORS
330
109A
102
}
330
109A
100
AcDbXrecord
280
1
102
RTVSPropertyOp0
70
1
102
RTVSPropertyOp1
70
1
102
RTVSPropertyOp2
70
1
102
RTVSPropertyOp3
70
1
102
RTVSPropertyOp4
70
1
102
RTVSPropertyOp5
70
1
102
RTVSPropertyOp6
70
1
102
RTVSPropertyOp7
70
1
102
RTVSPropertyOp8
70
1
102
RTVSPropertyOp9
70
1
102
RTVSPropertyOp10
70
1
102
RTVSPropertyOp11
70
1
102
RTVSPropertyOp12
70
1
102
RTVSPropertyOp13
70
1
102
RTVSPropertyOp14
70
1
102
RTVSPropertyOp15
70
1
102
RTVSPropertyOp16
70
1
102
RTVSPropertyOp17
70
1
102
RTVSPropertyOp18
70
1
102
RTVSPropertyOp19
70
1
102
RTVSPropertyOp20
70
1
102
RTVSPropertyOp21
70
1
102
RTVSPropertyOp22
70
1
102
RTVSPropertyOp23
70
1
102
RTVSPropertyOp24
70
1
102
RTVSPropertyOp25
70
1
102
RTVSPropertyOp26
70
1
102
RTVSPropertyOp27
70
1
0
XRECORD
5
10A3
102
{ACAD_REACTORS
330
10A2
102
}
330
10A2
100
AcDbXrecord
280
1
102
RTVSPropertyOp0
70
0
102
RTVSPropertyOp1
70
0
102
RTVSPropertyOp2
70
0
102
RTVSPropertyOp3
70
0
102
RTVSPropertyOp4
70
0
102
RTVSPropertyOp5
70
0
102
RTVSPropertyOp6
70
0
102
RTVSPropertyOp7
70
0
102
RTVSPropertyOp8
70
0
102
RTVSPropertyOp9
70
0
102
RTVSPropertyOp10
70
0
102
RTVSPropertyOp11
70
0
102
RTVSPropertyOp12
70
0
102
RTVSPropertyOp13
70
0
102
RTVSPropertyOp14
70
2
102
RTVSPropertyOp15
70
0
102
RTVSPropertyOp16
70
0
102
RTVSPropertyOp17
70
0
102
RTVSPropertyOp18
70
0
102
RTVSPropertyOp19
70
0
102
RTVSPropertyOp20
70
0
102
RTVSPropertyOp21
70
0
102
RTVSPropertyOp22
70
0
102
RTVSPropertyOp23
70
0
102
RTVSPropertyOp24
70
0
102
RTVSPropertyOp25
70
0
102
RTVSPropertyOp26
70
0
102
RTVSPropertyOp27
70
0
0
XRECORD
5
1093
102
{ACAD_REACTORS
330
1092
102
}
330
1092
100
AcDbXrecord
280
1
102
RTVSPropertyOp0
70
1
102
RTVSPropertyOp1
70
1
102
RTVSPropertyOp2
70
1
102
RTVSPropertyOp3
70
1
102
RTVSPropertyOp4
70
1
102
RTVSPropertyOp5
70
1
102
RTVSPropertyOp6
70
1
102
RTVSPropertyOp7
70
1
102
RTVSPropertyOp8
70
1
102
RTVSPropertyOp9
70
1
102
RTVSPropertyOp10
70
1
102
RTVSPropertyOp11
70
1
102
RTVSPropertyOp12
70
1
102
RTVSPropertyOp13
70
1
102
RTVSPropertyOp14
70
1
102
RTVSPropertyOp15
70
1
102
RTVSPropertyOp16
70
1
102
RTVSPropertyOp17
70
1
102
RTVSPropertyOp18
70
1
102
RTVSPropertyOp19
70
1
102
RTVSPropertyOp20
70
1
102
RTVSPropertyOp21
70
1
102
RTVSPropertyOp22
70
1
102
RTVSPropertyOp23
70
1
102
RTVSPropertyOp24
70
1
102
RTVSPropertyOp25
70
1
102
RTVSPropertyOp26
70
1
102
RTVSPropertyOp27
70
1
0
XRECORD
5
1099
102
{ACAD_REACTORS
330
1098
102
}
330
1098
100
AcDbXrecord
280
1
102
RTVSPropertyOp0
70
1
102
RTVSPropertyOp1
70
1
102
RTVSPropertyOp2
70
1
102
RTVSPropertyOp3
70
1
102
RTVSPropertyOp4
70
1
102
RTVSPropertyOp5
70
1
102
RTVSPropertyOp6
70
1
102
RTVSPropertyOp7
70
1
102
RTVSPropertyOp8
70
1
102
RTVSPropertyOp9
70
1
102
RTVSPropertyOp10
70
1
102
RTVSPropertyOp11
70
1
102
RTVSPropertyOp12
70
1
102
RTVSPropertyOp13
70
1
102
RTVSPropertyOp14
70
1
102
RTVSPropertyOp15
70
1
102
RTVSPropertyOp16
70
1
102
RTVSPropertyOp17
70
1
102
RTVSPropertyOp18
70
1
102
RTVSPropertyOp19
70
1
102
RTVSPropertyOp20
70
1
102
RTVSPropertyOp21
70
1
102
RTVSPropertyOp22
70
1
102
RTVSPropertyOp23
70
1
102
RTVSPropertyOp24
70
1
102
RTVSPropertyOp25
70
1
102
RTVSPropertyOp26
70
1
102
RTVSPropertyOp27
70
1
0
ENDSEC
0
EOF
